osu file format v14

[General]
AudioFilename: audio.ogg
AudioLeadIn: 0
PreviewTime: 85288
Countdown: 0
SampleSet: Soft
StackLeniency: 0.3
Mode: 0
LetterboxInBreaks: 0
WidescreenStoryboard: 1

[Editor]
Bookmarks: 14445,37577,60710,78059,86734,106975
DistanceSpacing: 0.5
BeatDivisor: 8
GridSize: 4
TimelineZoom: 1.5

[Metadata]
Title:Yumemidori
TitleUnicode:夢見鳥
Artist:Higuchi Madoka (CV: Tsuchiya Rio)
ArtistUnicode:樋口円香 (CV: 土屋李央)
Creator:KennethBBG
Version:Hard
Source:アイドルマスター シャイニーカラーズ Song for Prism
Tags:video game the idolm@ster shiny colors COLORFUL FE@THERS -Stella- idolmaster imas im@s japanese j-pop pop jpop female vocal Masaki Iehara Jam9 Tomohiro Akiura 秋浦智裕 家原正樹
BeatmapID:4439637
BeatmapSetID:2114341

[Difficulty]
HPDrainRate:5
CircleSize:4
OverallDifficulty:6
ApproachRate:7
SliderMultiplier:1.5
SliderTickRate:1

[Events]
//Background and Video events
0,0,"BG.jpg",0,0
Video,80,"vid2.avi"
//Break Periods
//Storyboard Layer 0 (Background)
//Storyboard Layer 1 (Fail)
//Storyboard Layer 2 (Pass)
//Storyboard Layer 3 (Foreground)
//Storyboard Layer 4 (Overlay)
//Storyboard Sound Samples

[TimingPoints]
2879,722.89156626506,4,2,1,46,1,0
14445,-90.9090909090909,4,2,1,40,0,0
36854,-90.9090909090909,4,2,1,50,0,0
37577,-74.0740740740741,4,2,1,50,0,0
60710,-83.3333333333333,4,2,1,40,0,0
71553,-76.9230769230769,4,2,1,40,0,0
72276,-71.4285714285714,4,2,1,50,0,0
75891,-64.5161290322581,4,2,1,50,0,0
76252,-64.5161290322581,4,2,1,55,0,0
78059,-64.5161290322581,4,2,1,65,0,0
78782,-60.6060606060606,4,2,1,65,0,0
80951,-55.5555555555556,4,2,1,65,0,0
85288,-55.5555555555556,4,2,1,45,0,0
85830,-100,4,2,1,45,0,0
86734,-52.6315789473684,4,2,1,70,0,1
87457,-52.6315789473684,4,2,1,70,0,1
92156,-66.6666666666667,4,2,1,70,0,1
92517,-58.8235294117647,4,2,1,70,0,1
94324,-58.8235294117647,4,2,1,70,0,1
94686,-58.8235294117647,4,2,1,70,0,1
96132,-58.8235294117647,4,2,1,70,0,1
97035,-52.6315789473684,4,2,1,70,0,1
98662,-52.6315789473684,4,2,1,70,0,1
106975,-52.6315789473684,4,2,1,70,0,0
109866,-52.6315789473684,4,2,1,50,0,0

[Colours]
Combo1 : 196,115,131
Combo2 : 120,86,163
Combo3 : 194,158,180
Combo4 : 177,149,213

[HitObjects]
512,349,14445,6,0,B|427:337|467:279|375:267,1,165.000005035401,2|0,0:2|0:0,0:0:0:0:
304,384,15529,1,2,0:2:0:0:
304,384,15710,1,2,0:2:0:0:
229,352,15891,2,0,B|176:293|176:293|213:210,1,165.000005035401,2|0,0:2|0:0,0:0:0:0:
382,178,16975,5,2,0:2:0:0:
382,178,17156,1,2,0:2:0:0:
287,146,17336,2,0,P|296:185|308:243,1,82.5000025177003,2|2,0:2|0:2,0:0:0:0:
474,195,18059,2,0,P|465:154|456:114,1,82.5000025177003,2|2,0:2|0:2,0:0:0:0:
403,45,18601,2,0,P|362:53|322:62,1,82.5000025177003,2|0,0:2|0:0,0:0:0:0:
248,30,19144,1,0,0:0:0:0:
84,25,19505,2,0,P|76:67|67:107,1,82.5000025177003,8|0,0:1|0:0,0:0:0:0:
0,166,20047,5,2,0:2:0:0:
59,225,20228,2,0,P|103:227|146:251,1,82.5000025177003,2|2,0:2|0:2,0:0:0:0:
208,303,20770,2,0,B|214:255|219:170,1,123.75000377655,2|0,0:2|0:0,0:0:0:0:
297,200,21493,1,2,0:2:0:0:
346,263,21674,2,0,B|378:308|425:295,1,82.5000025177003,2|2,0:2|0:2,0:0:0:0:
498,142,22397,2,0,B|466:97|419:110,1,82.5000025177003,2|2,0:2|0:2,0:0:0:0:
264,0,23119,6,0,L|275:87,1,82.5000025177003,2|2,0:2|0:2,0:0:0:0:
325,148,23662,1,2,0:2:0:0:
325,148,23842,2,0,B|236:153|272:204|176:210,1,165.000005035401
79,99,24927,1,0,0:0:0:0:
8,191,25288,1,8,0:1:0:0:
36,320,25650,1,2,0:2:0:0:
172,292,26011,6,0,B|194:328|194:328|183:369,2,82.5000025177003,2|0|0,0:2|0:0|0:0,0:0:0:0:
329,353,27095,2,0,P|367:362|409:370,1,82.5000025177003,2|2,0:2|0:2,0:0:0:0:
473,323,27638,1,0,0:0:0:0:
473,323,27818,2,0,P|488:285|467:242,1,82.5000025177003
380,150,28541,5,2,0:2:0:0:
380,150,28722,1,2,0:2:0:0:
332,74,28903,2,0,P|316:36|337:-6,1,82.5000025177003,2|2,0:2|0:2,0:0:0:0:
509,47,29625,2,0,P|475:57|423:77,1,82.5000025177003,2|2,0:2|0:2,0:0:0:0:
457,156,30168,1,2,0:2:0:0:
419,228,30348,1,2,0:2:0:0:
419,228,30529,2,0,P|359:233|314:193,1,123.75000377655,0|8,0:0|0:1,0:0:0:0:
249,12,31613,5,2,0:2:0:0:
323,30,31794,2,0,P|330:70|346:121,1,82.5000025177003,2|2,0:2|0:2,0:0:0:0:
314,193,32336,1,2,0:2:0:0:
314,193,32517,2,0,P|274:204|233:211,1,82.5000025177003,0|2,0:0|0:2,0:0:0:0:
104,93,33240,2,0,P|143:81|184:74,1,82.5000025177003,2|2,0:2|0:2,0:0:0:0:
259,124,33782,1,2,0:2:0:0:
259,124,33963,1,0,0:0:0:0:
151,255,34324,5,2,0:2:0:0:
151,255,34505,1,2,0:2:0:0:
116,172,34686,2,0,B|70:158|70:158|30:173,1,82.5000025177003,2|2,0:2|0:2,0:0:0:0:
37,303,35409,2,0,B|82:316|82:316|122:301,1,82.5000025177003,2|2,0:2|0:2,0:0:0:0:
193,297,35951,1,2,0:2:0:0:
261,357,36132,2,0,P|284:318|277:276,1,82.5000025177003,0|4,0:1|0:1,0:0:0:0:
123,151,36854,5,8,0:2:0:0:
191,196,37035,1,0,1:2:0:0:
255,147,37216,1,0,3:2:0:0:
384,25,37577,6,0,B|469:37|429:95|509:103,1,151.875000579357,2|0,3:2|0:0,0:0:0:0:
508,184,38300,1,8,0:2:0:0:
473,308,38661,1,2,0:2:0:0:
473,308,38842,1,2,0:2:0:0:
407,365,39023,2,0,B|348:312|348:312|272:346,1,151.875000579357,2|0,3:2|0:0,0:0:0:0:
209,384,39746,1,8,0:2:0:0:
49,285,40107,5,2,0:2:0:0:
49,285,40288,1,2,0:2:0:0:
144,317,40468,2,0,P|135:278|121:208,1,101.250000386238,2|2,3:2|0:2,0:0:0:0:
0,104,41192,2,0,P|37:137|86:146,1,101.250000386238,10|2,0:2|0:2,0:0:0:0:
166,90,41734,1,2,0:2:0:0:
166,90,41915,2,0,P|174:131|180:161,1,50.6250001931191,0|8,3:2|0:2,0:0:0:0:
262,146,42276,2,0,P|254:105|244:48,1,75.9375002896786,4|0,3:1|0:0,0:0:0:0:
244,53,42637,2,0,P|285:21|334:36,1,101.250000386238,8|0,0:2|0:0,0:0:0:0:
388,94,43179,5,2,0:2:0:0:
417,174,43360,2,0,P|475:168|518:144,1,101.250000386238,2|2,3:2|0:2,0:0:0:0:
512,252,43902,1,2,0:2:0:0:
512,252,44083,2,0,P|454:258|411:282,1,101.250000386238,8|0,0:2|0:0,0:0:0:0:
371,354,44625,1,2,0:2:0:0:
298,298,44806,2,0,P|331:259|316:208,1,101.250000386238,2|2,3:2|0:2,0:0:0:0:
152,187,45529,2,0,P|119:226|134:277,1,101.250000386238,10|2,0:2|0:2,0:0:0:0:
205,383,46251,6,0,L|223:272,1,101.250000386238,2|2,3:2|0:2,0:0:0:0:
234,192,46794,1,2,0:2:0:0:
234,192,46974,2,0,B|142:181|192:142|89:133,1,151.875000579357,8|0,0:2|0:0,0:0:0:0:
92,49,47698,2,0,P|126:43|162:29,1,50.6250001931191,0|8,3:2|0:2,0:0:0:0:
225,47,48059,1,4,3:1:0:0:
406,75,48421,2,0,P|405:45|388:19,1,50.6250001931191,8|0,0:2|0:0,0:0:0:0:
321,78,48782,2,0,P|315:112|309:162,1,75.9375002896786,2|0,0:2|0:2,0:0:0:0:
299,173,49143,6,0,P|343:151|401:172,2,101.250000386238,2|0|8,3:2|0:0|0:2,0:0:0:0:
227,331,50228,2,0,L|160:338,1,50.6250001931191,2|0,0:2|0:0,0:0:0:0:
98,299,50589,2,0,P|100:221|168:189,1,151.875000579357,2|0,3:2|0:0,0:0:0:0:
245,207,51312,1,8,0:2:0:0:
178,42,51673,5,2,0:2:0:0:
178,42,51854,1,2,0:2:0:0:
114,96,52035,2,0,P|63:115|21:94,1,101.250000386238,2|2,3:2|0:2,0:0:0:0:
78,233,52757,2,0,P|112:243|188:271,1,101.250000386238,10|2,0:2|0:2,0:0:0:0:
236,320,53300,1,2,0:2:0:0:
306,263,53481,2,0,L|358:277,1,50.6250001931191,2|8,3:2|0:2,0:0:0:0:
417,337,53842,2,0,P|441:281|427:229,1,101.250000386238,4|8,3:1|0:2,0:0:0:0:
432,1,54745,5,2,0:2:0:0:
511,68,54926,2,0,P|471:75|396:92,1,101.250000386238,2|2,3:2|0:2,0:0:0:0:
377,174,55468,1,2,0:2:0:0:
377,174,55649,2,0,P|337:163|303:153,1,75.9375002896786,8|0,0:2|0:0,0:0:0:0:
292,150,56011,1,2,0:2:0:0:
137,12,56372,2,0,P|176:0|206:1,1,50.6250001931191,2|0,3:2|0:0,0:0:0:0:
207,86,56734,2,0,P|168:98|138:97,1,50.6250001931191,2|0,0:2|0:0,0:0:0:0:
76,83,57095,2,0,L|91:182,1,101.250000386238,10|2,0:2|0:2,0:0:0:0:
44,265,57637,1,2,0:2:0:0:
58,349,57818,6,0,B|110:337|110:337|196:384,1,151.875000579357,0|0,3:2|0:0,0:0:0:0:
289,336,58541,2,0,P|317:255|307:236,1,101.250000386238,8|0,0:2|0:0,0:0:0:0:
238,208,59083,1,0,3:2:0:0:
238,208,59174,1,0,3:2:0:0:
238,208,59264,1,0,3:2:0:0:
314,157,59445,2,0,P|346:154|384:149,1,50.6250001931191,8|4,0:2|3:1,0:0:0:0:
512,258,59987,5,10,0:2:0:0:
512,258,60168,1,0,1:2:0:0:
459,331,60349,1,2,1:2:0:0:
295,376,60711,6,0,B|252:269|141:295|141:295|120:342|76:355,1,269.999991760254,2|2,0:2|0:2,0:0:0:0:
195,157,62157,2,0,B|210:116|231:76|231:76|205:46|193:27,1,134.999995880127,2|0,0:2|0:0,0:0:0:0:
122,33,62879,1,10,0:1:0:0:
52,164,63602,6,0,B|157:181|97:228|219:253,1,179.999994506836,2|0,0:2|0:0,0:0:0:0:
464,115,65048,2,0,P|482:69|377:8,1,179.999994506836,0|2,0:0|0:2,0:0:0:0:
293,100,66132,1,2,0:2:0:0:
401,144,66494,6,0,P|410:198|417:247,1,89.9999972534181,2|2,0:2|0:2,0:0:0:0:
490,261,67036,2,0,P|435:269|370:321,1,134.999995880127,2|2,0:2|0:2,0:0:0:0:
134,262,67940,1,2,0:2:0:0:
247,344,68301,1,2,0:2:0:0:
312,224,68663,2,0,P|296:143|293:123,1,89.9999972534181,10|2,0:1|0:2,0:0:0:0:
132,0,69385,6,0,P|150:111|164:187,1,179.999994506836,2|0,0:2|0:0,0:0:0:0:
96,312,70470,1,0,0:0:0:0:
247,344,70831,1,0,0:0:0:0:
262,208,71192,6,0,L|251:153,2,29.9999990844727,4|0|0,0:1|0:0|0:0,0:0:0:0:
283,241,71554,6,0,P|310:237|348:230,1,48.7499977684022,6|0,0:1|0:0,0:0:0:0:
388,304,71915,2,0,P|415:308|453:315,1,48.7499977684022,2|0,0:2|0:0,0:0:0:0:
493,248,72276,6,0,P|511:200|481:152,1,104.999996795654,2|2,3:2|0:2,0:0:0:0:
409,136,72818,1,2,0:2:0:0:
409,136,72999,2,0,P|354:151|337:158,1,52.4999983978272,8|0,0:2|0:0,0:0:0:0:
270,173,73360,2,0,P|278:108|290:102,1,78.7499975967408,2|0,0:2|0:0,0:0:0:0:
299,95,73722,2,0,P|322:47|296:-13,2,104.999996795654,10|2|10,0:2|3:2|0:2,0:0:0:0:
102,55,74806,6,0,L|28:64,1,52.4999983978272,2|2,3:2|0:2,0:0:0:0:
31,150,75168,2,0,P|83:142|138:134,1,104.999996795654,2|2,3:2|0:2,0:0:0:0:
183,67,75710,2,0,P|186:34|170:-4,2,52.4999983978272,2|8|0,0:2|0:2|0:0,0:0:0:0:
220,138,76252,2,0,L|237:218,1,58.1250004434586,2|0,0:2|0:0,0:0:0:0:
290,259,76613,2,0,P|229:234|179:269,1,116.250000886917,2|0,3:2|3:2,0:0:0:0:
88,384,77336,1,8,0:2:0:0:
5,263,77698,2,0,L|13:192,1,58.1250004434586,2|2,0:2|0:2,0:0:0:0:
23,124,78059,6,0,P|77:134|140:139,1,116.250000886917,6|2,3:2|0:2,0:0:0:0:
188,72,78601,1,2,0:2:0:0:
188,72,78782,2,0,B|212:112|265:111|265:111|288:81,1,123.750001180172,8|0,0:2|0:0,0:0:0:0:
353,26,79324,1,10,0:2:0:0:
439,35,79505,2,0,P|449:72|424:107,1,61.875000590086,2|8,0:2|0:2,0:0:0:0:
439,172,79866,2,0,P|428:209|462:256,1,92.812500885129,6|0,3:1|0:0,0:0:0:0:
477,265,80228,2,0,L|347:290,1,123.750001180172,10|2,0:2|0:2,0:0:0:0:
164,319,80951,6,0,B|188:310|216:296|216:296|221:256|229:217,1,134.999995880127,2|2,3:2|0:2,0:0:0:0:
292,156,81493,1,2,0:2:0:0:
230,101,81674,2,0,P|171:137|90:122,1,134.999995880127,8|0,0:2|0:0,0:0:0:0:
26,93,82216,1,8,0:2:0:0:
26,93,82397,2,0,L|37:172,1,67.4999979400635,0|8,0:0|0:2,0:0:0:0:
2,245,82758,2,0,P|44:254|89:272,1,67.4999979400635,0|0,3:1|0:0,0:0:0:0:
100,341,83119,2,0,P|166:332|233:319,1,134.999995880127,8|0,0:2|3:2,0:0:0:0:
296,267,83662,5,0,3:2:0:0:
296,267,83752,1,0,3:2:0:0:
296,267,83842,1,4,3:2:0:0:
369,345,85830,5,8,0:2:0:0:
369,345,85921,1,8,0:2:0:0:
369,345,86011,1,8,0:2:0:0:
299,302,86192,1,8,0:2:0:0:
232,343,86372,1,2,3:2:0:0:
130,242,86734,6,1,B|79:255|79:255|-1:196,2,142.49999619484,6|0|8,3:2|3:2|0:2,0:0:0:0:
265,221,87818,1,2,0:2:0:0:
199,176,87999,1,10,0:2:0:0:
232,101,88180,2,0,P|221:57|210:17,1,71.2499980974198,2|8,0:2|0:2,0:0:0:0:
303,49,88541,2,0,P|314:93|346:205,1,142.49999619484,0|8,3:2|0:2,0:0:0:0:
506,319,89264,6,0,P|442:329|418:320,1,71.2499980974198,2|0,0:2|0:0,0:0:0:0:
364,279,89625,2,0,P|320:290|280:301,1,71.2499980974198,0|0,3:2|0:0,0:0:0:0:
287,384,89986,2,0,P|218:364|149:346,1,142.49999619484,2|8,3:2|0:2,0:0:0:0:
48,231,90710,2,0,P|34:164|77:109,1,142.49999619484
76,109,91252,1,8,0:2:0:0:
129,189,91433,2,0,P|171:205|223:215,1,71.2499980974198,0|0,3:2|0:0,0:0:0:0:
262,150,91794,1,8,0:2:0:0:
418,279,92156,6,0,P|373:271|348:229,1,84.3750032186509,2|0,0:2|0:2,0:0:0:0:
342,224,92517,2,0,B|357:156|396:186|412:107,1,127.50000243187,2|2,3:2|3:2,0:0:0:0:
486,90,93059,1,2,0:2:0:0:
418,33,93240,2,0,P|364:17|308:56,1,127.50000243187,8|2,0:2|0:2,0:0:0:0:
308,54,93782,1,8,0:2:0:0:
248,129,93963,2,0,P|216:134|185:140,1,63.7500012159348,2|8,0:2|0:2,0:0:0:0:
118,203,94324,2,0,P|124:234|131:271,1,63.7500012159348,2|0,3:2|0:0,0:0:0:0:
210,304,94686,2,0,B|235:311|267:321|267:321|289:357|266:386,1,127.50000243187,10|2,0:2|0:2,0:0:0:0:
268,384,95228,1,2,0:2:0:0:
363,335,95409,6,0,P|388:303|395:272,1,63.7500012159348,2|0,3:2|0:0,0:0:0:0:
327,234,95770,2,0,P|301:265|295:297,1,63.7500012159348,2|2,3:2|0:2,0:0:0:0:
210,304,96132,2,0,L|57:266,1,127.50000243187,8|0,0:2|0:0,0:0:0:0:
86,273,96674,1,8,0:2:0:0:
24,172,96854,2,1,B|63:183|104:194|104:194|121:172|138:161,1,127.50000243187,2|0,0:2|3:2,0:0:0:0:
188,36,97577,1,8,0:2:0:0:
188,36,97758,1,8,0:2:0:0:
216,122,97939,1,2,1:2:0:0:
216,122,98119,1,2,0:2:0:0:
310,132,98300,6,1,B|332:124|359:137|370:160|370:160|380:182|405:195|434:186,2,142.49999619484,6|0|8,3:2|3:2|0:2,0:0:0:0:
251,191,99204,1,2,0:2:0:0:
288,259,99385,1,2,0:2:0:0:
369,263,99565,1,10,0:2:0:0:
314,339,99746,2,0,P|270:348|227:365,1,71.2499980974198,2|8,0:2|0:2,0:0:0:0:
186,280,100107,2,0,P|142:270|99:253,1,71.2499980974198,0|0,3:2|0:0,0:0:0:0:
62,327,100469,2,0,P|79:262|99:188,1,142.49999619484,10|2,0:2|0:2,0:0:0:0:
72,110,101011,1,2,0:2:0:0:
140,44,101192,6,0,P|173:15|231:40,1,106.87499714613,0|0,3:2|0:0,0:0:0:0:
240,48,101553,2,0,P|280:78|327:57,1,106.87499714613,0|0,3:2|0:0,0:0:0:0:
353,41,101915,2,0,P|325:119|301:196,1,142.49999619484,8|0,0:2|0:0,0:0:0:0:
371,245,102458,1,8,0:2:0:0:
371,245,102638,2,0,P|422:267|443:283,1,71.2499980974198,0|8,0:0|0:2,0:0:0:0:
372,341,103000,2,0,P|308:356|232:387,1,142.49999619484,0|8,3:2|0:2,0:0:0:0:
71,357,103722,1,2,0:2:0:0:
71,357,103903,1,2,0:2:0:0:
75,276,104083,6,0,B|163:269|123:230|211:215,1,142.49999619484,2|2,3:2|3:2,0:0:0:0:
343,174,104806,2,0,P|358:132|346:104,1,71.2499980974198,10|0,0:2|0:0,0:0:0:0:
297,36,105168,1,2,0:2:0:0:
385,23,105348,2,0,P|470:31|513:98,1,142.49999619484,10|8,0:2|0:2,0:0:0:0:
495,159,105891,2,0,P|465:165|417:181,1,71.2499980974198,2|0,3:2|0:0,0:0:0:0:
413,264,106252,2,0,P|378:256|344:245,1,71.2499980974198,10|8,0:2|0:2,0:0:0:0:
277,191,106613,1,2,1:2:0:0:
204,224,106794,5,2,0:2:0:0:
204,224,106885,1,2,0:2:0:0:
204,224,106975,1,2,3:2:0:0:
256,192,107065,12,0,109866,0:0:0:0:
