osu file format v14

[General]
AudioFilename: audio.mp3
AudioLeadIn: 0
PreviewTime: 90494
Countdown: 1
SampleSet: Normal
StackLeniency: 0.7
Mode: 0
LetterboxInBreaks: 0
WidescreenStoryboard: 0

[Editor]
DistanceSpacing: 0.7
BeatDivisor: 4
GridSize: 4
TimelineZoom: 1

[Metadata]
Title:Something for You
TitleUnicode:Something for You
Artist:Highway Saints
ArtistUnicode:Highway Saints
Creator:AFlyingRhino
Version:Ascension
Source:
Tags:
BeatmapID:916876
BeatmapSetID:424420

[Difficulty]
HPDrainRate:5
CircleSize:5
OverallDifficulty:7
ApproachRate:9.3
SliderMultiplier:3
SliderTickRate:1

[Events]
//Background and Video events
0,0,"Cute-Dark-Angel-Anime-011.jpg",0,0
//Break Periods
2,67512,77719
2,149115,159143
//Storyboard Layer 0 (Background)
//Storyboard Layer 1 (Fail)
//Storyboard Layer 2 (Pass)
//Storyboard Layer 3 (Foreground)
//Storyboard Sound Samples

[TimingPoints]
353.063739941616,357.142857142857,4,1,0,100,1,0
2495,-133.333333333333,4,1,0,100,0,0
3388,-133.333333333333,4,1,0,100,0,0
5352,-200,4,1,0,100,0,0
14637,-100,4,1,0,100,0,0
19637,-200,4,1,0,100,0,0
21066,-133.333333333333,4,1,0,100,0,0
23565,-100,4,1,0,100,0,0
25351,-133.333333333333,4,1,0,100,0,0
44995,-133.333333333333,4,1,0,100,0,1
56064,-100,4,1,0,100,0,0
57313,-200,4,1,0,100,0,0
59635,-133.333333333333,4,1,0,100,0,0
60260,-200,4,1,0,100,0,0
65706,-100,4,1,0,100,0,0
66063,-133.333333333333,4,1,0,100,0,0
78919,-133.333333333333,4,1,0,100,0,0
85348,-200,4,1,0,100,0,0
86419,-100,4,1,0,100,0,0
88921,-200,4,1,0,100,0,0
90531,-200,4,1,0,100,0,1
92668,-133.333333333333,4,1,0,100,0,1
103025,-200,4,1,0,100,0,0
105346,-100,4,1,0,100,0,0
105882,-200,4,1,0,100,0,0
114631,-200,4,1,0,100,0,1
119631,-133.333333333333,4,1,0,100,0,1
122310,-200,4,1,0,100,0,1
130353,-133.333333333333,4,1,0,100,0,1
137487,-200,4,1,0,100,0,0
160522,-100,4,1,0,100,0,0
166771,-133.333333333333,4,1,0,100,0,0
171781,-133.333333333333,4,1,0,100,0,1
194627,-200,4,1,0,100,0,0

[HitObjects]
340,112,353,5,0,0:0:0:0:
272,208,531,1,0,0:0:0:0:
272,208,710,1,0,0:0:0:0:
184,112,888,1,0,0:0:0:0:
120,204,1067,1,0,0:0:0:0:
120,204,1245,1,0,0:0:0:0:
136,304,1424,2,0,B|216:288|216:288|280:316,1,150
368,292,1781,2,0,B|400:216|400:216|372:152,1,150
260,240,2138,1,0,0:0:0:0:
164,140,2317,1,0,0:0:0:0:
96,184,2495,2,0,B|96:92|96:92|164:52|164:52|228:92|228:92|228:204,1,337.500012874604
296,292,3210,5,0,0:0:0:0:
204,268,3388,2,0,L|84:236,2,112.500004291535
272,184,3924,5,0,0:0:0:0:
188,160,4102,2,0,L|68:128,2,112.500004291535
248,84,4638,5,0,0:0:0:0:
168,60,4816,2,0,L|48:28,2,112.500004291535
384,80,5352,2,0,B|416:136|416:136|384:216|384:216|428:280,1,225
84,64,6067,5,0,0:0:0:0:
128,192,6245,1,0,0:0:0:0:
128,192,6334,1,0,0:0:0:0:
128,192,6424,1,0,0:0:0:0:
84,64,6602,5,0,0:0:0:0:
240,72,6781,1,0,0:0:0:0:
240,72,6870,1,0,0:0:0:0:
240,72,6959,1,0,0:0:0:0:
88,68,7138,5,0,0:0:0:0:
60,136,7316,1,0,0:0:0:0:
76,156,7406,1,0,0:0:0:0:
92,176,7495,1,0,0:0:0:0:
108,196,7584,1,0,0:0:0:0:
124,220,7674,1,0,0:0:0:0:
140,240,7763,1,0,0:0:0:0:
156,260,7852,1,0,0:0:0:0:
256,284,8031,1,0,0:0:0:0:
336,240,8209,2,0,B|348:96|272:68|272:68|232:68,1,225
172,224,8923,5,0,0:0:0:0:
96,136,9102,1,0,0:0:0:0:
96,116,9191,1,0,0:0:0:0:
96,96,9281,1,0,0:0:0:0:
172,224,9459,5,0,0:0:0:0:
220,136,9638,1,0,0:0:0:0:
220,116,9727,1,0,0:0:0:0:
220,96,9816,1,0,0:0:0:0:
284,236,9995,5,0,0:0:0:0:
328,152,10173,1,0,0:0:0:0:
328,132,10263,1,0,0:0:0:0:
328,112,10352,1,0,0:0:0:0:
284,236,10531,5,0,0:0:0:0:
112,68,10709,1,0,0:0:0:0:
100,84,10798,1,0,0:0:0:0:
92,100,10888,1,0,0:0:0:0:
88,116,10977,1,0,0:0:0:0:
80,140,11066,2,0,B|64:204|64:204|88:248|88:248|184:288|184:288|216:288|216:288,1,225
376,72,11780,5,0,0:0:0:0:
276,156,11959,1,0,0:0:0:0:
252,184,12048,1,0,0:0:0:0:
228,212,12138,1,0,0:0:0:0:
136,248,12316,5,0,0:0:0:0:
80,176,12495,1,0,0:0:0:0:
76,140,12584,1,0,0:0:0:0:
72,104,12673,1,0,0:0:0:0:
168,68,12852,5,0,0:0:0:0:
308,72,13030,1,0,0:0:0:0:
332,104,13120,1,0,0:0:0:0:
352,136,13209,1,0,0:0:0:0:
360,172,13298,1,0,0:0:0:0:
368,208,13388,1,0,0:0:0:0:
356,244,13477,1,0,0:0:0:0:
332,272,13566,1,0,0:0:0:0:
232,168,13745,1,0,0:0:0:0:
36,112,13923,2,0,B|44:60|44:60|76:92|76:92|104:40|104:40|152:48|200:24,1,225
300,100,14637,5,0,0:0:0:0:
196,92,14816,2,0,B|116:112|80:180,1,150
104,268,15173,1,0,0:0:0:0:
220,296,15352,2,0,P|296:264|320:188,1,150
300,100,15709,5,0,0:0:0:0:
200,96,15887,2,0,P|128:128|80:184,1,150
104,264,16244,1,0,0:0:0:0:
224,300,16423,2,0,P|304:264|324:208,1,150
284,56,16780,5,0,0:0:0:0:
184,52,16959,1,0,0:0:0:0:
108,76,17137,1,0,0:0:0:0:
56,156,17316,1,0,0:0:0:0:
80,236,17494,2,0,B|124:172|124:172|212:156,1,150
224,40,17852,2,0,B|172:96|172:96|192:168,1,150
180,288,18209,2,0,B|224:224|224:224|312:208,1,150
327,84,18566,2,0,B|275:140|275:140|295:212,1,150
284,328,18923,2,0,B|328:264|328:264|416:248,1,150
432,125,19280,2,0,B|380:181|380:181|400:253,1,150
384,256,19637,2,0,B|364:216|364:216|340:240|340:244|340:188|340:188|300:208|300:208|300:176|300:176|272:152|200:104,1,300
88,64,20530,5,0,0:0:0:0:
180,132,20708,1,0,0:0:0:0:
296,68,20887,1,0,0:0:0:0:
416,64,21066,2,0,L|416:188,1,112.500004291535
392,284,21423,5,0,0:0:0:0:
272,288,21601,1,0,0:0:0:0:
152,272,21780,2,0,L|88:172,1,112.500004291535
120,80,22137,1,0,0:0:0:0:
120,80,22226,1,0,0:0:0:0:
120,80,22316,1,0,0:0:0:0:
232,48,22494,6,0,P|348:60|352:60,1,112.500004291535
440,128,22851,1,0,0:0:0:0:
412,176,22941,1,0,0:0:0:0:
372,216,23030,1,0,0:0:0:0:
324,240,23119,1,0,0:0:0:0:
276,268,23208,2,0,P|216:296|168:288,1,112.500004291535
120,232,23567,2,0,B|100:152|100:152|140:72,1,150
180,44,23924,2,0,B|260:24|260:24|340:64,1,150
368,96,24281,2,0,B|388:175|388:175|348:256,1,150
308,280,24638,2,0,B|228:300|228:300|148:260,1,150
128,320,24995,2,0,B|68:368|68:368|20:300,1,150
76,188,25351,6,0,L|24:224,1,56.2500021457673
76,188,25530,2,0,L|36:128,1,56.2500021457673
76,188,25708,2,0,L|124:136,1,56.2500021457673
80,192,25887,2,0,L|112:248,1,56.2500021457673
256,268,26065,5,0,0:0:0:0:
152,296,26244,1,0,0:0:0:0:
172,224,26422,2,0,B|208:168|208:168|172:128,1,112.500004291535
124,72,26780,1,0,0:0:0:0:
248,80,26958,1,0,0:0:0:0:
248,80,27047,1,0,0:0:0:0:
248,80,27137,1,0,0:0:0:0:
376,160,27315,5,0,0:0:0:0:
304,256,27494,2,0,L|196:284,1,112.500004291535
172,192,27851,2,0,L|284:156,1,112.500004291535
312,80,28208,5,0,0:0:0:0:
176,92,28387,1,0,0:0:0:0:
176,92,28476,1,0,0:0:0:0:
176,92,28565,1,0,0:0:0:0:
192,224,28744,1,0,0:0:0:0:
336,232,28922,2,0,L|436:168,1,112.500004291535
388,84,29279,5,0,0:0:0:0:
96,68,29458,2,0,L|96:188,1,112.500004291535
388,84,29815,1,0,0:0:0:0:
388,268,29994,2,0,L|388:144,1,112.500004291535
92,96,30351,1,0,0:0:0:0:
96,224,30529,1,0,0:0:0:0:
92,96,30708,6,0,L|220:96,1,112.500004291535
288,96,31065,6,0,L|408:96,1,112.500004291535
376,236,31422,1,0,0:0:0:0:
356,256,31511,1,0,0:0:0:0:
332,268,31601,1,0,0:0:0:0:
304,276,31690,1,0,0:0:0:0:
276,276,31779,1,0,0:0:0:0:
168,248,31958,5,0,0:0:0:0:
104,160,32136,1,0,0:0:0:0:
168,64,32315,2,0,B|228:120|280:44,1,112.500004291535
360,124,32672,5,0,0:0:0:0:
260,176,32851,1,0,0:0:0:0:
168,204,33029,1,0,0:0:0:0:
144,72,33208,1,0,0:0:0:0:
148,76,33297,1,0,0:0:0:0:
148,76,33386,1,0,0:0:0:0:
104,192,33565,5,0,0:0:0:0:
184,264,33743,1,0,0:0:0:0:
184,264,33833,1,0,0:0:0:0:
184,264,33922,1,0,0:0:0:0:
352,264,34101,5,0,0:0:0:0:
392,224,34190,1,0,0:0:0:0:
408,172,34279,1,0,0:0:0:0:
404,116,34368,1,0,0:0:0:0:
368,72,34458,1,0,0:0:0:0:
320,44,34547,1,0,0:0:0:0:
264,44,34636,1,0,0:0:0:0:
116,68,34815,5,0,0:0:0:0:
96,220,34993,1,0,0:0:0:0:
276,260,35172,1,0,0:0:0:0:
276,260,35261,1,0,0:0:0:0:
276,260,35350,1,0,0:0:0:0:
388,184,35529,5,0,0:0:0:0:
304,72,35708,5,0,0:0:0:0:
256,52,35797,1,0,0:0:0:0:
200,48,35886,1,0,0:0:0:0:
144,52,35975,1,0,0:0:0:0:
96,84,36065,1,0,0:0:0:0:
172,280,36243,5,0,0:0:0:0:
200,208,36422,1,0,0:0:0:0:
252,260,36600,1,0,0:0:0:0:
216,136,36779,1,0,0:0:0:0:
328,232,36958,1,0,0:0:0:0:
248,68,37136,1,0,0:0:0:0:
392,196,37315,1,0,0:0:0:0:
412,136,37493,5,0,0:0:0:0:
412,136,37582,1,0,0:0:0:0:
412,136,37672,1,0,0:0:0:0:
120,96,37850,5,0,0:0:0:0:
252,80,38029,1,0,0:0:0:0:
252,80,38118,1,0,0:0:0:0:
252,80,38207,1,0,0:0:0:0:
88,196,38386,5,0,0:0:0:0:
208,200,38565,1,0,0:0:0:0:
252,168,38654,1,0,0:0:0:0:
296,136,38743,1,0,0:0:0:0:
332,104,38832,1,0,0:0:0:0:
380,92,38922,1,0,0:0:0:0:
424,120,39011,1,0,0:0:0:0:
432,168,39100,1,0,0:0:0:0:
432,216,39190,1,0,0:0:0:0:
408,256,39279,1,0,0:0:0:0:
368,284,39368,1,0,0:0:0:0:
320,300,39457,1,0,0:0:0:0:
280,300,39547,1,0,0:0:0:0:
236,296,39636,6,0,L|128:240,1,112.500004291535
120,108,39993,2,0,L|224:168,1,112.500004291535
356,92,40350,5,0,0:0:0:0:
168,60,40529,1,0,0:0:0:0:
112,192,40707,1,0,0:0:0:0:
112,192,40797,1,0,0:0:0:0:
112,192,40886,1,0,0:0:0:0:
216,248,41064,5,0,0:0:0:0:
304,188,41243,1,0,0:0:0:0:
304,188,41332,1,0,0:0:0:0:
304,188,41422,1,0,0:0:0:0:
352,100,41600,1,0,0:0:0:0:
352,100,41689,5,0,0:0:0:0:
352,100,41779,1,0,0:0:0:0:
192,60,41957,5,0,0:0:0:0:
152,100,42047,1,0,0:0:0:0:
120,144,42136,1,0,0:0:0:0:
116,200,42225,1,0,0:0:0:0:
140,252,42314,1,0,0:0:0:0:
192,280,42404,1,0,0:0:0:0:
244,292,42493,1,0,0:0:0:0:
352,252,42671,5,0,0:0:0:0:
392,160,42850,1,0,0:0:0:0:
312,68,43029,1,0,0:0:0:0:
184,52,43207,2,0,P|128:88|112:136,1,112.500004291535
192,184,43564,2,0,P|248:160|280:200,1,112.500004291535
212,280,43921,5,0,0:0:0:0:
352,184,44100,2,0,P|356:236|312:280,1,112.500004291535
280,120,44457,1,0,0:0:0:0:
272,40,44636,2,0,B|332:32|384:60|380:60,1,112.500004291535
128,48,44993,5,0,0:0:0:0:
100,148,45171,1,0,0:0:0:0:
128,256,45350,5,0,0:0:0:0:
164,212,45439,1,0,0:0:0:0:
200,168,45528,1,0,0:0:0:0:
240,128,45618,1,0,0:0:0:0:
280,88,45707,1,0,0:0:0:0:
328,60,45796,1,0,0:0:0:0:
384,60,45886,1,0,0:0:0:0:
424,96,45975,1,0,0:0:0:0:
448,148,46064,1,0,0:0:0:0:
400,224,46243,6,0,P|292:284|288:288,1,112.500004291535
192,276,46600,2,0,L|80:216,1,112.500004291535
112,88,46957,2,0,P|224:128|228:128,1,112.500004291535
292,44,47314,2,0,L|336:148,1,112.500004291535
112,196,47671,5,0,0:0:0:0:
196,256,47850,1,0,0:0:0:0:
300,264,48028,1,0,0:0:0:0:
384,208,48207,5,0,0:0:0:0:
352,164,48296,1,0,0:0:0:0:
312,124,48385,1,0,0:0:0:0:
268,88,48475,1,0,0:0:0:0:
216,68,48564,1,0,0:0:0:0:
160,56,48653,1,0,0:0:0:0:
120,96,48743,1,0,0:0:0:0:
96,148,48832,1,0,0:0:0:0:
96,208,48921,2,0,B|224:296|336:260,1,225.000008583069
388,152,49635,2,0,B|304:60|176:68,1,225.000008583069
104,220,50350,1,0,0:0:0:0:
164,128,50528,1,0,0:0:0:0:
252,288,50707,1,0,0:0:0:0:
300,224,50885,1,0,0:0:0:0:
360,84,51064,1,0,0:0:0:0:
360,84,51153,1,0,0:0:0:0:
360,84,51242,1,0,0:0:0:0:
412,200,51421,5,0,0:0:0:0:
348,300,51600,1,0,0:0:0:0:
348,300,51689,1,0,0:0:0:0:
348,300,51778,1,0,0:0:0:0:
296,176,51957,1,0,0:0:0:0:
232,92,52135,2,0,B|184:48|184:48|100:128|80:176,1,225.000008583069
108,264,52671,1,0,0:0:0:0:
204,292,52849,1,0,0:0:0:0:
316,280,53028,2,0,P|368:244|376:188,1,112.500004291535
368,104,53385,2,0,P|312:48|264:52,1,112.500004291535
184,52,53742,2,0,P|112:68|88:104,1,112.500004291535
88,208,54099,2,0,P|132:256|188:252,1,112.500004291535
300,260,54456,5,0,0:0:0:0:
396,208,54635,1,0,0:0:0:0:
396,208,54814,1,0,0:0:0:0:
360,100,54992,1,0,0:0:0:0:
360,100,55081,1,0,0:0:0:0:
360,100,55171,1,0,0:0:0:0:
228,60,55349,1,0,0:0:0:0:
152,120,55528,1,0,0:0:0:0:
152,120,55617,1,0,0:0:0:0:
152,120,55706,1,0,0:0:0:0:
208,244,55885,1,0,0:0:0:0:
328,308,56064,2,0,B|408:156|280:32,1,300
160,52,56778,5,0,0:0:0:0:
72,144,56956,1,0,0:0:0:0:
116,240,57135,1,0,0:0:0:0:
192,312,57313,2,0,B|344:312|412:192|412:192|248:196|248:196|152:132|152:132|280:84|280:84,1,675
160,96,59635,5,0,0:0:0:0:
144,184,59813,1,0,0:0:0:0:
184,272,59992,1,0,0:0:0:0:
272,304,60170,1,0,0:0:0:0:
352,272,60349,2,0,B|336:184|336:184|232:164|232:164|224:96,1,262.5
220,32,61063,2,0,B|280:32|280:32|296:112|296:112|380:128|380:128|400:160,1,262.5
408,224,61777,2,0,B|412:304|412:304|296:324|296:324|204:232,1,300
176,116,63206,5,0,0:0:0:0:
196,204,63385,2,0,L|204:280,2,75
336,288,64099,1,0,0:0:0:0:
316,164,64277,2,0,L|304:88,2,75
232,60,64813,5,0,0:0:0:0:
144,84,64992,1,0,0:0:0:0:
148,156,65170,1,0,0:0:0:0:
197,212,65349,2,0,L|289:288,1,112.5
284,284,65706,2,0,B|360:248|360:248|376:172|376:172|344:112,1,225
336,116,66063,2,0,B|196:116|196:116|108:200|108:200|152:272|152:272|80:264|80:264|128:344|128:344|232:356|232:356|316:360|316:360|276:264|276:264,1,787.500030040742
124,80,78919,6,0,B|120:152|132:196|136:192,1,112.500004291535
184,236,79276,2,0,P|252:264|328:252,1,112.500004291535
368,212,79634,5,0,0:0:0:0:
372,160,79723,1,0,0:0:0:0:
364,108,79812,1,0,0:0:0:0:
332,64,79901,1,0,0:0:0:0:
280,44,79991,1,0,0:0:0:0:
228,48,80080,1,0,0:0:0:0:
176,52,80169,1,0,0:0:0:0:
128,76,80259,1,0,0:0:0:0:
108,124,80348,1,0,0:0:0:0:
160,240,80526,5,0,0:0:0:0:
224,144,80705,1,0,0:0:0:0:
284,68,80883,1,0,0:0:0:0:
352,160,81062,1,0,0:0:0:0:
352,160,81151,5,0,0:0:0:0:
352,160,81241,1,0,0:0:0:0:
304,260,81419,5,0,0:0:0:0:
200,172,81598,1,0,0:0:0:0:
200,172,81687,1,0,0:0:0:0:
200,172,81776,1,0,0:0:0:0:
88,80,81955,5,0,0:0:0:0:
308,100,82133,1,0,0:0:0:0:
308,100,82223,1,0,0:0:0:0:
308,100,82312,1,0,0:0:0:0:
376,216,82491,1,0,0:0:0:0:
376,216,82580,1,0,0:0:0:0:
376,216,82669,1,0,0:0:0:0:
272,292,82848,1,0,0:0:0:0:
272,292,82937,1,0,0:0:0:0:
272,292,83026,1,0,0:0:0:0:
148,244,83205,5,0,0:0:0:0:
100,152,83383,2,0,B|112:92|160:68|164:64,1,112.500004291535
260,64,83740,1,0,0:0:0:0:
360,120,83919,1,0,0:0:0:0:
360,120,84008,1,0,0:0:0:0:
360,120,84098,1,0,0:0:0:0:
332,220,84276,5,0,0:0:0:0:
240,268,84455,1,0,0:0:0:0:
116,252,84633,2,0,P|88:180|96:136,1,112.500004291535
192,192,84990,2,0,P|184:128|208:80,1,112.500004291535
284,200,85348,6,0,P|260:232|260:236,1,37.5
320,204,85526,2,0,P|304:228|300:244,1,37.5
360,212,85705,2,0,P|340:244|340:252,1,37.5
400,228,85883,2,0,P|376:256|376:260,1,37.5
424,136,86062,5,0,0:0:0:0:
324,88,86240,1,0,0:0:0:0:
236,64,86419,2,0,P|156:64|88:100,1,150
72,192,86776,1,0,0:0:0:0:
128,272,86955,1,0,0:0:0:0:
224,292,87133,2,0,P|304:272|340:216,1,150
380,80,87490,5,0,0:0:0:0:
480,152,87669,1,0,0:0:0:0:
452,92,87847,2,0,L|344:204,1,150
116,64,88204,5,0,0:0:0:0:
28,132,88383,1,0,0:0:0:0:
48,64,88562,2,0,P|148:188|152:192,1,150
68,260,88919,2,0,B|168:264|168:264|212:168|212:168|152:80|152:80|248:16|248:16|356:80|356:80|288:168|288:168|336:260|336:260|468:260,1,900
124,68,90526,5,0,0:0:0:0:
100,144,90704,1,0,0:0:0:0:
144,200,90883,1,0,0:0:0:0:
264,276,91061,1,0,0:0:0:0:
264,276,91151,1,0,0:0:0:0:
264,276,91240,1,0,0:0:0:0:
192,148,91419,5,0,0:0:0:0:
300,112,91597,1,0,0:0:0:0:
300,112,91686,1,0,0:0:0:0:
300,112,91776,1,0,0:0:0:0:
408,108,91954,5,0,0:0:0:0:
392,152,92044,1,0,0:0:0:0:
376,196,92133,1,0,0:0:0:0:
348,232,92222,1,0,0:0:0:0:
308,256,92311,1,0,0:0:0:0:
264,268,92401,1,0,0:0:0:0:
220,272,92490,1,0,0:0:0:0:
132,212,92668,6,0,B|100:164|104:100,1,112.500004291535
200,48,93026,2,0,P|268:52|300:88,1,112.500004291535
388,128,93383,1,0,0:0:0:0:
380,220,93561,1,0,0:0:0:0:
308,280,93740,1,0,0:0:0:0:
136,256,93918,5,0,0:0:0:0:
116,204,94008,1,0,0:0:0:0:
112,148,94097,1,0,0:0:0:0:
136,96,94186,1,0,0:0:0:0:
188,72,94276,1,0,0:0:0:0:
244,64,94365,1,0,0:0:0:0:
300,56,94454,1,0,0:0:0:0:
356,60,94543,1,0,0:0:0:0:
400,96,94633,1,0,0:0:0:0:
384,224,94811,5,0,0:0:0:0:
280,280,94990,1,0,0:0:0:0:
152,264,95168,1,0,0:0:0:0:
96,184,95347,2,0,P|76:132|104:88,1,112.500004291535
192,88,95704,2,0,P|240:120|208:168,1,112.500004291535
380,104,96061,5,0,0:0:0:0:
380,104,96240,1,0,0:0:0:0:
244,144,96418,1,0,0:0:0:0:
244,144,96597,1,0,0:0:0:0:
360,224,96775,5,0,0:0:0:0:
360,224,96865,1,0,0:0:0:0:
360,224,96954,1,0,0:0:0:0:
224,272,97133,1,0,0:0:0:0:
108,180,97311,1,0,0:0:0:0:
108,180,97400,1,0,0:0:0:0:
108,180,97490,2,0,B|88:120|104:72|192:56,1,168.750006437302
244,64,97847,2,0,B|312:84|360:136|368:192|368:188,1,168.750006437302
348,244,98204,2,0,B|260:280|200:276|132:232,1,225.000008583069
120,120,98740,5,0,0:0:0:0:
208,88,98918,1,0,0:0:0:0:
296,80,99097,1,0,0:0:0:0:
392,100,99275,2,0,P|432:176|412:204,1,112.500004291535
356,256,99632,5,0,0:0:0:0:
252,264,99811,1,0,0:0:0:0:
160,224,99989,1,0,0:0:0:0:
128,136,100168,1,0,0:0:0:0:
192,68,100347,1,0,0:0:0:0:
248,56,100436,1,0,0:0:0:0:
300,76,100525,1,0,0:0:0:0:
336,120,100614,1,0,0:0:0:0:
360,172,100704,2,0,P|364:232|312:272,1,112.500004291535
168,204,101061,2,0,L|240:296,2,112.500004291535
104,112,101597,1,0,0:0:0:0:
188,44,101775,5,0,0:0:0:0:
244,44,101864,1,0,0:0:0:0:
300,60,101954,1,0,0:0:0:0:
344,96,102043,1,0,0:0:0:0:
384,136,102132,1,0,0:0:0:0:
412,184,102222,1,0,0:0:0:0:
408,240,102311,1,0,0:0:0:0:
388,292,102400,1,0,0:0:0:0:
336,316,102489,1,0,0:0:0:0:
204,308,102668,5,0,0:0:0:0:
128,240,102846,1,0,0:0:0:0:
80,180,103031,2,0,B|120:32|120:32|220:92|220:92|236:44|236:44|248:60|248:60|260:44|260:44|272:92|272:92|316:72|376:32|376:32|428:180|428:180,1,675
364,80,105346,5,0,0:0:0:0:
408,152,105525,1,0,0:0:0:0:
376,228,105703,1,0,0:0:0:0:
304,256,105882,2,0,B|140:256|140:256|92:208|92:208|88:136|88:136|112:104|112:104,1,337.5
168,68,106775,2,0,B|196:132|196:132|348:132|348:132|396:132|396:132,1,262.5
440,196,107489,2,0,B|128:196,1,300
160,76,108918,5,0,0:0:0:0:
156,164,109096,1,0,0:0:0:0:
156,308,109275,2,0,L|156:228,1,75
248,176,109632,1,0,0:0:0:0:
340,228,109810,1,0,0:0:0:0:
400,152,109989,1,0,0:0:0:0:
316,104,110167,2,0,P|256:68|220:76,1,75
176,64,110525,6,0,P|120:80|96:108,1,75
104,216,110882,1,0,0:0:0:0:
168,292,111060,2,0,B|232:292|260:280|272:252,1,112.5
300,180,111417,2,0,B|320:140|336:104|352:72,1,112.5
220,40,111775,1,0,0:0:0:0:
220,40,111953,1,0,0:0:0:0:
136,204,112132,5,0,0:0:0:0:
136,204,112310,1,0,0:0:0:0:
320,120,112667,1,0,0:0:0:0:
228,256,112846,1,0,0:0:0:0:
136,200,113024,2,0,B|148:160|148:160|124:132|124:132,1,75
148,40,114631,6,0,B|116:80|116:80|148:140|148:140|236:116|284:144|312:232|312:232|424:232|424:232|432:160,1,487.5
416,140,115881,1,0,0:0:0:0:
384,104,115971,1,0,0:0:0:0:
336,92,116060,2,0,P|264:72|140:356,1,450
320,304,117488,5,0,0:0:0:0:
364,212,117667,1,0,0:0:0:0:
364,212,117756,1,0,0:0:0:0:
364,212,117846,1,0,0:0:0:0:
296,108,118024,5,0,0:0:0:0:
188,80,118203,1,0,0:0:0:0:
188,80,118292,1,0,0:0:0:0:
188,80,118381,1,0,0:0:0:0:
104,128,118560,1,0,0:0:0:0:
108,224,118738,5,0,0:0:0:0:
136,264,118828,1,0,0:0:0:0:
180,284,118917,1,0,0:0:0:0:
228,276,119006,1,0,0:0:0:0:
276,272,119095,1,0,0:0:0:0:
320,252,119185,1,0,0:0:0:0:
360,224,119274,1,0,0:0:0:0:
384,132,119453,5,0,0:0:0:0:
304,64,119631,2,0,P|244:52|172:56,1,112.500004291535
88,104,119988,2,0,P|60:164|76:208,1,112.500004291535
140,276,120345,5,0,0:0:0:0:
280,288,120524,1,0,0:0:0:0:
280,288,120613,1,0,0:0:0:0:
280,288,120703,1,0,0:0:0:0:
356,192,120881,1,0,0:0:0:0:
356,192,120970,1,0,0:0:0:0:
356,192,121060,1,0,0:0:0:0:
320,84,121238,5,0,0:0:0:0:
320,84,121328,1,0,0:0:0:0:
320,84,121417,1,0,0:0:0:0:
184,68,121595,1,0,0:0:0:0:
96,108,121774,2,0,L|80:224,1,112.500004291535
152,272,122131,1,0,0:0:0:0:
248,296,122310,2,0,B|312:248|312:248|240:136|240:136|220:120,1,225
220,72,123202,5,0,0:0:0:0:
112,128,123381,1,0,0:0:0:0:
112,128,123470,1,0,0:0:0:0:
112,128,123560,1,0,0:0:0:0:
112,240,123738,1,0,0:0:0:0:
112,240,123827,1,0,0:0:0:0:
112,240,123917,1,0,0:0:0:0:
220,288,124095,5,0,0:0:0:0:
256,300,124192,1,0,0:0:0:0:
288,304,124281,1,0,0:0:0:0:
316,284,124370,1,0,0:0:0:0:
348,272,124460,1,0,0:0:0:0:
380,280,124549,1,0,0:0:0:0:
416,228,124638,5,0,0:0:0:0:
416,196,124728,1,0,0:0:0:0:
416,164,124817,1,0,0:0:0:0:
416,132,124906,1,0,0:0:0:0:
352,156,124995,5,0,0:0:0:0:
352,192,125085,1,0,0:0:0:0:
352,224,125174,1,0,0:0:0:0:
352,252,125263,1,0,0:0:0:0:
352,352,125353,2,0,L|352:304,1,37.5
432,352,125531,2,0,L|432:308,1,37.5
396,256,125710,1,0,0:0:0:0:
396,228,125799,1,0,0:0:0:0:
400,200,125888,1,0,0:0:0:0:
400,172,125978,1,0,0:0:0:0:
404,144,126059,2,0,P|408:96|376:72,1,75
348,36,126416,2,0,P|324:72|352:108,1,75
340,164,126774,2,0,P|296:152|280:120,1,75
264,44,127131,2,0,P|236:72|224:116,1,75
184,300,127488,5,0,0:0:0:0:
276,288,127666,1,0,0:0:0:0:
360,228,127845,1,0,0:0:0:0:
368,128,128024,2,0,B|320:144|304:116|264:100|212:112,1,150
96,104,128559,5,0,0:0:0:0:
68,212,128738,1,0,0:0:0:0:
144,284,128916,2,0,L|240:296,1,75
320,272,129273,2,0,P|340:232|320:200,1,75
300,112,129631,1,0,0:0:0:0:
216,72,129809,1,0,0:0:0:0:
152,48,129988,2,0,B|104:72|108:120,1,75
120,188,130353,5,0,0:0:0:0:
160,180,130442,1,0,0:0:0:0:
196,192,130531,1,0,0:0:0:0:
232,204,130620,1,0,0:0:0:0:
272,196,130710,1,0,0:0:0:0:
312,188,130799,1,0,0:0:0:0:
384,196,130888,5,0,0:0:0:0:
404,228,130978,1,0,0:0:0:0:
404,264,131067,1,0,0:0:0:0:
392,300,131156,1,0,0:0:0:0:
324,304,131245,5,0,0:0:0:0:
284,300,131335,1,0,0:0:0:0:
244,308,131424,1,0,0:0:0:0:
208,292,131513,1,0,0:0:0:0:
180,356,131603,5,0,0:0:0:0:
220,360,131692,1,0,0:0:0:0:
260,356,131781,1,0,0:0:0:0:
300,364,131870,1,0,0:0:0:0:
360,340,131960,2,0,L|360:268,1,56.2500021457673
296,196,132138,2,0,L|296:256,1,56.2500021457673
232,316,132317,2,0,L|232:252,1,56.2500021457673
160,280,132495,5,0,0:0:0:0:
148,240,132585,1,0,0:0:0:0:
140,200,132674,1,0,0:0:0:0:
160,164,132763,1,0,0:0:0:0:
188,136,132853,1,0,0:0:0:0:
184,96,132942,1,0,0:0:0:0:
232,48,133031,5,0,0:0:0:0:
272,44,133120,1,0,0:0:0:0:
312,52,133210,1,0,0:0:0:0:
348,64,133299,1,0,0:0:0:0:
392,128,133388,5,0,0:0:0:0:
352,132,133478,1,0,0:0:0:0:
312,132,133567,1,0,0:0:0:0:
272,124,133656,1,0,0:0:0:0:
220,132,133745,2,0,L|220:200,1,56.2500021457673
156,180,133924,2,0,L|156:244,1,56.2500021457673
216,296,134103,2,0,L|216:236,1,56.2500021457673
220,132,134281,5,0,0:0:0:0:
216,92,134370,1,0,0:0:0:0:
196,56,134460,1,0,0:0:0:0:
156,52,134549,1,0,0:0:0:0:
132,80,134638,1,0,0:0:0:0:
136,192,134817,5,0,0:0:0:0:
164,244,134906,1,0,0:0:0:0:
200,280,134995,1,0,0:0:0:0:
400,188,135174,1,0,0:0:0:0:
120,52,135353,5,0,0:0:0:0:
108,84,135442,1,0,0:0:0:0:
112,124,135531,1,0,0:0:0:0:
96,156,135620,1,0,0:0:0:0:
104,196,135710,1,0,0:0:0:0:
88,228,135799,1,0,0:0:0:0:
152,252,135888,5,0,0:0:0:0:
188,268,135978,1,0,0:0:0:0:
224,256,136067,1,0,0:0:0:0:
260,264,136156,1,0,0:0:0:0:
320,248,136245,5,0,0:0:0:0:
316,208,136335,1,0,0:0:0:0:
312,168,136424,1,0,0:0:0:0:
312,128,136513,1,0,0:0:0:0:
256,80,136603,5,0,0:0:0:0:
252,120,136692,1,0,0:0:0:0:
256,160,136781,1,0,0:0:0:0:
248,200,136870,1,0,0:0:0:0:
160,196,136960,2,0,L|88:196,1,56.2500021457673
84,260,137138,2,0,L|24:260,1,56.2500021457673
40,328,137317,2,0,L|-52:328,1,56.2500021457673
180,272,137495,6,0,B|256:316|256:316|360:276|360:276|360:128|332:124|456:120,1,412.5
432,116,138559,2,0,B|386:57|386:57|327:86|327:86|191:82,1,262.5
208,80,139273,2,0,B|132:56|132:56|88:116|88:116|164:192|164:192,1,262.5
168,196,139987,2,0,B|216:228|272:240|296:240|320:236|336:248,1,150
404,204,140701,1,0,0:0:0:0:
296,64,141058,1,0,0:0:0:0:
192,60,141416,6,0,P|128:60|92:84,1,75
88,164,141773,2,0,P|96:204|132:232,1,75
248,268,142130,2,0,P|300:252|312:220,1,75
332,124,142487,1,0,0:0:0:0:
264,80,142666,1,0,0:0:0:0:
176,84,142844,1,0,0:0:0:0:
100,144,143023,1,0,0:0:0:0:
256,192,143201,12,0,148915,0:0:0:0:
144,100,160343,5,0,0:0:0:0:
152,176,160522,2,0,P|220:244|268:236,1,150
320,136,160879,1,0,0:0:0:0:
276,60,161057,1,0,0:0:0:0:
196,56,161236,1,0,0:0:0:0:
408,64,161414,6,0,P|416:148|376:220,1,150
288,236,161772,2,0,P|196:252|128:224,1,150
144,160,162129,2,0,P|228:180|288:164,1,150
288,88,162486,2,0,P|216:112|148:80,1,150
440,220,162843,1,0,0:0:0:0:
480,160,163021,5,0,0:0:0:0:
428,112,163200,2,0,P|376:176|308:196,1,150
248,104,163557,5,0,0:0:0:0:
248,172,163736,2,0,L|248:332,1,150
104,224,164093,1,0,0:0:0:0:
32,180,164271,1,0,0:0:0:0:
56,96,164450,2,0,P|108:160|180:176,1,150
244,176,164807,5,0,0:0:0:0:
200,236,164986,1,0,0:0:0:0:
196,316,165164,1,0,0:0:0:0:
296,312,165343,2,0,P|360:268|352:192,1,150
320,68,165700,2,0,L|200:160,1,150
388,136,166057,5,0,0:0:0:0:
348,228,166236,1,0,0:0:0:0:
232,264,166414,1,0,0:0:0:0:
140,208,166593,1,0,0:0:0:0:
140,108,166771,2,0,B|192:72|192:72|228:112|228:112|280:84|280:80|280:80|324:124,1,225.000008583069
368,144,167307,2,0,B|392:208|392:208|340:208|340:208|344:264|344:264|284:272|248:296,1,225.000008583069
180,268,167843,2,0,P|128:232|112:184,1,112.500004291535
100,96,168200,6,0,P|144:52|200:48,1,112.500004291535
296,56,168557,6,0,L|212:144,1,112.500004291535
396,108,168914,1,0,0:0:0:0:
392,112,169093,1,0,0:0:0:0:
332,200,169271,2,0,L|248:288,2,112.500004291535
100,100,169807,5,0,0:0:0:0:
136,172,169985,2,0,L|192:284,2,112.500004291535
136,88,171771,5,0,0:0:0:0:
136,212,171949,1,0,0:0:0:0:
252,260,172128,1,0,0:0:0:0:
252,132,172307,1,0,0:0:0:0:
252,132,172396,1,0,0:0:0:0:
252,132,172485,1,0,0:0:0:0:
368,244,172664,5,0,0:0:0:0:
168,208,172842,1,0,0:0:0:0:
168,208,172932,1,0,0:0:0:0:
168,208,173021,1,0,0:0:0:0:
392,132,173199,5,0,0:0:0:0:
172,56,173378,1,0,0:0:0:0:
172,56,173467,1,0,0:0:0:0:
172,56,173557,1,0,0:0:0:0:
112,160,173735,1,0,0:0:0:0:
136,256,173914,6,0,P|188:308|240:312,1,112.500004291535
336,284,174271,2,0,P|384:256|392:192,1,112.500004291535
320,96,174628,1,0,0:0:0:0:
156,92,174806,1,0,0:0:0:0:
156,92,174896,1,0,0:0:0:0:
156,92,174985,1,0,0:0:0:0:
100,200,175164,5,0,0:0:0:0:
172,272,175342,1,0,0:0:0:0:
172,272,175431,1,0,0:0:0:0:
172,272,175521,1,0,0:0:0:0:
365,280,175699,1,0,0:0:0:0:
396,204,175878,5,0,0:0:0:0:
388,148,175967,1,0,0:0:0:0:
352,104,176056,1,0,0:0:0:0:
304,72,176146,1,0,0:0:0:0:
252,52,176235,1,0,0:0:0:0:
196,56,176324,1,0,0:0:0:0:
148,88,176414,1,0,0:0:0:0:
108,200,176592,5,0,0:0:0:0:
192,280,176771,1,0,0:0:0:0:
360,280,176949,1,0,0:0:0:0:
396,136,177128,2,0,B|344:100|344:100|272:100,1,112.500004291535
156,104,177485,2,0,B|128:160|104:208|104:208|344:256|344:256|376:292,1,393.750015020371
424,320,178199,2,0,B|448:264|448:264|416:216|416:216|360:192|360:192|296:180|296:180|256:172|256:172|200:160|200:160|220:108|220:112,1,393.750015020371
96,188,178913,5,0,0:0:0:0:
176,248,179092,1,0,0:0:0:0:
300,284,179270,1,0,0:0:0:0:
236,132,179449,1,0,0:0:0:0:
236,132,179538,1,0,0:0:0:0:
236,132,179628,1,0,0:0:0:0:
388,248,179806,5,0,0:0:0:0:
304,88,179985,1,0,0:0:0:0:
304,88,180074,1,0,0:0:0:0:
304,88,180163,1,0,0:0:0:0:
332,228,180342,2,0,P|304:288|248:300,1,112.500004291535
176,300,180699,2,0,P|112:268|116:236,1,112.500004291535
120,148,181056,6,0,L|180:48,1,112.500004291535
384,152,181413,2,0,B|320:52|324:56,1,112.500004291535
380,280,181770,1,0,0:0:0:0:
280,308,181949,1,0,0:0:0:0:
152,280,182127,5,0,0:0:0:0:
124,232,182217,1,0,0:0:0:0:
108,180,182306,1,0,0:0:0:0:
112,124,182395,1,0,0:0:0:0:
136,72,182485,1,0,0:0:0:0:
188,52,182574,1,0,0:0:0:0:
244,56,182663,1,0,0:0:0:0:
296,76,182752,1,0,0:0:0:0:
340,112,182842,1,0,0:0:0:0:
364,164,182931,1,0,0:0:0:0:
384,216,183020,1,0,0:0:0:0:
364,268,183110,1,0,0:0:0:0:
312,288,183199,6,0,B|248:312|188:308|136:292|100:248,1,225.000008583069
116,152,183913,2,0,B|164:104|220:92|288:92|348:136,1,225.000008583069
364,168,184627,2,0,B|400:216|388:280|332:336|272:344,1,225.000008583069
120,96,185342,5,0,0:0:0:0:
120,176,185520,1,0,0:0:0:0:
184,240,185699,1,0,0:0:0:0:
284,248,185877,2,0,L|372:176,1,112.500004291535
352,88,186234,2,0,L|236:56,1,112.500004291535
148,60,186591,5,0,0:0:0:0:
64,128,186770,1,0,0:0:0:0:
76,224,186949,1,0,0:0:0:0:
192,272,187127,1,0,0:0:0:0:
308,264,187306,6,0,P|364:224|360:184,1,112.500004291535
348,92,187663,1,0,0:0:0:0:
256,80,187841,1,0,0:0:0:0:
136,84,188020,1,0,0:0:0:0:
136,84,188109,1,0,0:0:0:0:
136,84,188199,1,0,0:0:0:0:
128,212,188377,5,0,0:0:0:0:
128,212,188466,1,0,0:0:0:0:
128,212,188556,1,0,0:0:0:0:
236,280,188734,1,0,0:0:0:0:
332,268,188913,2,0,B|396:160|396:160|396:48,1,225.000008583069
104,44,189627,2,0,B|104:160|104:160|160:256,1,225.000008583069
232,336,190163,1,0,0:0:0:0:
272,260,190341,5,0,0:0:0:0:
352,232,190520,1,0,0:0:0:0:
352,232,190609,1,0,0:0:0:0:
352,232,190698,1,0,0:0:0:0:
132,160,190877,1,0,0:0:0:0:
192,60,191055,1,0,0:0:0:0:
320,72,191234,1,0,0:0:0:0:
408,112,191413,6,0,P|436:168|408:216,1,112.500004291535
308,176,191770,1,0,0:0:0:0:
308,176,191859,1,0,0:0:0:0:
308,176,191948,1,0,0:0:0:0:
440,264,192127,5,0,0:0:0:0:
396,144,192305,1,0,0:0:0:0:
396,144,192395,1,0,0:0:0:0:
396,144,192484,1,0,0:0:0:0:
272,68,192663,2,0,P|192:68|152:96,1,112.500004291535
92,144,193020,2,0,P|72:204|112:244,1,112.500004291535
160,300,193377,2,0,P|240:316|268:296,1,112.500004291535
356,244,193734,5,0,0:0:0:0:
352,144,193912,1,0,0:0:0:0:
320,96,194002,1,0,0:0:0:0:
272,68,194091,1,0,0:0:0:0:
216,56,194180,1,0,0:0:0:0:
160,60,194270,1,0,0:0:0:0:
116,96,194359,1,0,0:0:0:0:
88,144,194448,1,0,0:0:0:0:
72,196,194537,1,0,0:0:0:0:
88,248,194627,2,0,B|160:272|236:284|236:284|356:196|356:196|360:100|272:48|272:48|152:56,1,600
188,80,196769,5,0,0:0:0:0:
100,120,196948,1,0,0:0:0:0:
88,224,197127,1,0,0:0:0:0:
176,292,197305,1,0,0:0:0:0:
264,300,197484,2,0,B|344:280|344:280|392:228|392:228|388:152|388:144|388:144|380:112,1,262.5
312,60,198198,2,0,B|232:60|232:60|160:96|160:96|108:192,1,262.5
128,256,198912,2,0,B|216:256|216:256|280:284|280:284,1,150
400,208,199448,1,0,0:0:0:0:
332,108,199638,2,0,L|308:148,3,37.5
276,200,199995,2,0,L|332:200,4,37.5
316,256,200519,5,0,0:0:0:0:
240,260,200698,1,0,0:0:0:0:
168,256,200876,2,0,P|120:248|100:220,1,75
132,136,201233,1,0,0:0:0:0:
200,80,201412,1,0,0:0:0:0:
280,44,201591,2,0,P|320:72|336:116,1,75
328,172,201948,6,0,L|324:248,1,75
192,272,202305,1,0,0:0:0:0:
112,216,202483,2,0,P|84:164|92:124,1,75
128,76,202841,2,0,B|176:48|232:56|228:56,2,75
108,168,203376,1,0,0:0:0:0:
152,264,203555,5,0,0:0:0:0:
264,272,203733,1,0,0:0:0:0:
356,264,203912,2,0,P|384:220|380:176,1,75
344,104,204269,1,0,0:0:0:0:
256,72,204448,2,0,P|212:64|164:84,1,75
76,88,204805,1,0,0:0:0:0:
116,200,204983,1,0,0:0:0:0:
236,276,205162,1,0,0:0:0:0:
356,272,205340,6,0,P|384:208|352:156,1,112.5
332,116,205697,2,0,B|280:84|200:108,1,112.5
200,168,206055,2,0,B|296:172|296:172|324:240,1,150
52,200,206590,1,0,0:0:0:0:
68,104,206769,1,0,0:0:0:0:
156,72,206947,1,0,0:0:0:0:
252,84,207126,6,0,L|332:104,2,75
160,80,207662,2,0,P|108:92|88:120,1,75
84,196,208019,2,0,P|88:240|124:264,1,75
260,276,208376,1,0,0:0:0:0:
260,276,208554,1,0,0:0:0:0:
260,276,208733,1,0,0:0:0:0:
76,84,208912,5,0,0:0:0:0:
136,160,209090,2,0,L|192:228,2,75
368,92,209804,5,0,0:0:0:0:
328,156,209983,2,0,L|280:232,1,75
256,192,210340,12,0,211233,0:0:0:0:
