osu file format v14

[General]
AudioFilename: audio.mp3
AudioLeadIn: 0
PreviewTime: 52543
Countdown: 0
SampleSet: None
StackLeniency: 0.4
Mode: 0
LetterboxInBreaks: 0
WidescreenStoryboard: 0

[Editor]
Bookmarks: 11164,21164,21509,21681,21854,22198,24957,25474,25992,26509,27026,27716,30474,30992,32198,32543,32716,32888,33233,35992,36509,37026,37543,38061,38578,38750,41509,43233,43750,43923,44095,44267,44957,45130,45647,49785,52543,53923,54612,55302,60819,66336,71854,76681,77371,82888,88405,93923,98405,98923,99440,102198,104957,107716,110474,113233,115992,118750,120819,121509
DistanceSpacing: 0.8
BeatDivisor: 4
GridSize: 16
TimelineZoom: 1.8

[Metadata]
Title:Beside You
TitleUnicode:Beside You
Artist:High Ground
ArtistUnicode:High Ground
Creator:Starz15
Version:Escapism
Source:
Tags:dnb liquicity 2016
BeatmapID:1795564
BeatmapSetID:859255

[Difficulty]
HPDrainRate:4
CircleSize:4
OverallDifficulty:9.2
ApproachRate:9.4
SliderMultiplier:1.4
SliderTickRate:1

[Events]
//Background and Video events
0,0,"adjacenttoyou.jpg",0,0
//Break Periods
2,22398,24417
2,27916,29934
2,33433,35452
2,38950,40969
//Storyboard Layer 0 (Background)
//Storyboard Layer 1 (Fail)
//Storyboard Layer 2 (Pass)
//Storyboard Layer 3 (Foreground)
//Storyboard Sound Samples

[TimingPoints]
130,344.827586206897,4,2,1,35,1,0
11164,-100,4,1,1,40,0,0
19440,-100,4,1,1,50,0,0
21164,-100,4,3,1,60,0,0
24957,-100,4,3,1,55,0,0
32198,-100,4,3,1,60,0,0
33319,-100,4,3,1,55,0,0
43233,-100,4,3,1,60,0,0
44181,-100,4,1,1,50,0,0
49785,-86.9565217391304,4,1,1,50,0,0
52543,-86.9565217391304,4,3,1,70,0,0
55302,-76.9230769230769,4,3,1,75,0,1
77371,-71.4285714285714,4,3,1,75,0,1
96681,-83.3333333333333,4,3,1,75,0,0
98923,-76.9230769230769,4,3,1,75,0,0
99440,-71.4285714285714,4,3,1,75,0,1
121509,-76.9230769230769,4,3,1,75,0,0

[Colours]
Combo1 : 224,104,52
Combo2 : 28,249,121
Combo3 : 97,22,250
Combo4 : 242,24,57
Combo5 : 255,192,0

[HitObjects]
386,300,130,6,0,L|399:207,1,70,4|0,0:0|0:0,0:0:0:0:
403,203,388,1,0,0:0:0:0:
403,203,474,1,0,0:0:0:0:
303,102,647,1,0,0:0:0:0:
286,95,733,1,0,0:0:0:0:
269,92,819,1,0,0:0:0:0:
251,93,905,1,0,0:0:0:0:
234,97,991,1,0,0:0:0:0:
218,104,1078,1,0,0:0:0:0:
204,113,1164,1,0,0:0:0:0:
91,242,1336,2,0,L|94:286,2,35
111,121,1681,6,0,L|108:86,2,35
191,266,2026,1,0,0:0:0:0:
211,276,2112,1,0,0:0:0:0:
232,286,2198,1,0,0:0:0:0:
253,297,2284,1,0,0:0:0:0:
274,288,2370,1,0,0:0:0:0:
295,277,2457,1,0,0:0:0:0:
316,267,2543,1,0,0:0:0:0:
414,106,2716,2,0,L|363:111,2,35
433,223,3061,6,0,L|484:228,2,35
297,114,3405,1,0,0:0:0:0:
297,90,3491,1,0,0:0:0:0:
304,68,3577,1,0,0:0:0:0:
318,49,3663,1,0,0:0:0:0:
336,36,3749,1,0,0:0:0:0:
358,28,3836,1,0,0:0:0:0:
382,28,3922,1,0,0:0:0:0:
236,207,4095,2,0,L|244:256,2,35
171,96,4440,6,0,L|163:47,2,35
322,266,4785,1,0,0:0:0:0:
313,287,4871,1,0,0:0:0:0:
298,305,4957,1,0,0:0:0:0:
279,318,5043,1,0,0:0:0:0:
256,324,5129,1,0,0:0:0:0:
233,324,5216,1,0,0:0:0:0:
211,317,5302,1,0,0:0:0:0:
142,193,5474,2,0,L|108:199,2,35
254,128,5819,6,0,L|289:123,2,35
133,337,6164,1,0,0:0:0:0:
128,314,6250,1,0,0:0:0:0:
124,291,6336,1,0,0:0:0:0:
120,268,6422,1,0,0:0:0:0:
116,245,6508,1,0,0:0:0:0:
112,222,6595,1,0,0:0:0:0:
108,199,6681,1,0,0:0:0:0:
86,88,6854,2,0,L|77:34,2,35
23,257,7198,6,0,L|32:311,2,35
150,132,7543,1,0,0:0:0:0:
172,126,7629,1,0,0:0:0:0:
195,128,7715,1,0,0:0:0:0:
217,136,7801,1,0,0:0:0:0:
239,145,7888,1,0,0:0:0:0:
262,147,7974,1,0,0:0:0:0:
285,144,8060,1,0,0:0:0:0:
359,77,8233,2,0,L|359:13,2,35
429,158,8578,6,0,L|429:222,2,35
479,281,8923,1,0,0:0:0:0:
456,273,9009,1,0,0:0:0:0:
434,266,9095,1,0,0:0:0:0:
412,268,9181,1,0,0:0:0:0:
389,274,9267,1,0,0:0:0:0:
367,280,9354,1,0,0:0:0:0:
344,286,9440,1,0,0:0:0:0:
264,344,9612,2,0,L|264:408,2,35
208,256,9957,6,0,L|208:192,2,35
88,328,10302,1,0,0:0:0:0:
92,305,10388,1,0,0:0:0:0:
97,282,10474,1,0,0:0:0:0:
102,259,10560,1,0,0:0:0:0:
107,236,10646,1,0,0:0:0:0:
112,213,10733,1,0,0:0:0:0:
116,191,10819,1,0,0:0:0:0:
140,91,10992,1,0,0:0:0:0:
140,91,11078,1,0,0:0:0:0:
140,91,11164,6,0,P|171:100|228:92,1,70
236,94,11423,1,0,0:0:0:0:
236,94,11509,1,0,0:0:0:0:
336,61,11681,1,0,0:0:0:0:
355,73,11767,1,0,0:0:0:0:
371,90,11853,1,0,0:0:0:0:
381,111,11939,1,0,0:0:0:0:
386,134,12025,1,0,0:0:0:0:
385,157,12112,1,0,0:0:0:0:
377,179,12198,1,0,0:0:0:0:
267,218,12371,1,0,0:0:0:0:
272,196,12457,1,0,0:0:0:0:
276,173,12543,1,0,0:0:0:0:
337,287,12716,6,0,L|328:336,2,35
213,291,13061,1,0,0:0:0:0:
191,285,13147,1,0,0:0:0:0:
168,287,13233,1,0,0:0:0:0:
146,295,13319,1,0,0:0:0:0:
124,304,13406,1,0,0:0:0:0:
101,306,13492,1,0,0:0:0:0:
78,303,13578,1,0,0:0:0:0:
93,157,13750,1,0,0:0:0:0:
97,180,13836,1,0,0:0:0:0:
102,202,13922,1,0,0:0:0:0:
140,74,14095,6,0,L|133:40,2,35
226,147,14440,1,0,0:0:0:0:
247,155,14526,1,0,0:0:0:0:
270,158,14612,1,0,0:0:0:0:
293,153,14698,1,0,0:0:0:0:
315,145,14784,1,0,0:0:0:0:
338,144,14871,1,0,0:0:0:0:
361,148,14957,1,0,0:0:0:0:
351,312,15130,1,0,0:0:0:0:
317,320,15216,1,0,0:0:0:0:
282,317,15302,1,0,0:0:0:0:
393,236,15474,6,0,L|458:232,2,35
261,236,15819,1,0,0:0:0:0:
240,244,15905,1,0,0:0:0:0:
221,259,15992,1,0,0:0:0:0:
208,278,16078,1,0,0:0:0:0:
200,300,16164,1,0,0:0:0:0:
199,323,16250,1,0,0:0:0:0:
204,346,16336,1,0,0:0:0:0:
77,234,16509,1,0,0:0:0:0:
97,243,16595,1,0,0:0:0:0:
110,263,16681,1,0,0:0:0:0:
179,142,16854,6,0,L|164:187,2,35
390,79,17198,1,0,0:0:0:0:
367,75,17284,1,0,0:0:0:0:
344,76,17371,1,0,0:0:0:0:
322,84,17457,1,0,0:0:0:0:
299,89,17543,1,0,0:0:0:0:
276,86,17629,1,0,0:0:0:0:
255,78,17715,1,0,0:0:0:0:
256,215,17888,1,0,0:0:0:0:
273,199,17974,1,0,0:0:0:0:
280,178,18060,1,0,0:0:0:0:
359,286,18233,6,0,L|347:230,2,35
174,222,18578,1,0,0:0:0:0:
178,244,18664,1,0,0:0:0:0:
190,265,18750,1,0,0:0:0:0:
206,281,18836,1,0,0:0:0:0:
227,292,18922,1,0,0:0:0:0:
249,297,19009,1,0,0:0:0:0:
273,295,19095,1,0,0:0:0:0:
196,145,19267,1,0,0:0:0:0:
174,138,19353,1,0,0:0:0:0:
152,142,19439,1,0,0:0:0:0:
80,232,19612,6,0,L|80:280,2,35
6,58,19957,1,0,0:0:0:0:
28,65,20043,1,0,0:0:0:0:
50,72,20129,1,0,0:0:0:0:
73,70,20215,1,0,0:0:0:0:
96,66,20301,1,0,0:0:0:0:
119,63,20388,1,0,0:0:0:0:
142,59,20474,1,0,0:0:0:0:
240,109,20647,1,0,0:0:0:0:
245,131,20733,1,0,0:0:0:0:
250,154,20819,1,0,0:0:0:0:
374,36,20992,5,0,0:0:0:0:
369,58,21078,1,0,0:0:0:0:
364,81,21164,2,0,P|359:193|361:206,1,105,4|0,0:0|0:0,0:0:0:0:
361,213,21509,1,0,0:0:0:0:
471,98,21681,1,0,0:0:0:0:
241,342,21854,1,0,0:0:0:0:
144,20,22198,5,4,0:0:0:0:
435,254,24957,6,0,B|399:234|345:254|384:254|325:275|272:236,1,140
218,104,25474,2,0,P|288:115|328:197,1,140
239,312,25992,2,0,P|213:245|264:170,1,140
111,43,26509,6,0,P|136:109|88:183,1,140
41,105,27026,2,0,B|119:89|119:89|157:115|157:115|251:96,1,210
333,77,27716,1,0,0:0:0:0:
127,309,30474,6,0,L|103:157,1,140
192,24,30992,2,0,L|216:176,1,140
342,292,31509,2,0,L|318:140,1,140
303,49,32026,1,0,0:0:0:0:
254,231,32198,6,0,P|204:244|140:194,1,105,4|0,0:0|0:0,0:0:0:0:
139,200,32543,1,0,0:0:0:0:
192,24,32716,1,0,0:0:0:0:
237,339,32888,1,0,0:0:0:0:
488,143,33233,5,4,0:0:0:0:
210,263,35992,6,0,P|256:303|348:282,1,140
215,179,36509,2,0,P|157:198|129:289,1,140
39,94,37026,2,0,P|96:113|124:204,1,140
314,88,37543,6,0,B|278:68|224:88|263:88|204:109|151:70,1,140
294,171,38061,2,0,P|385:133|378:36,1,210
300,7,38750,1,0,0:0:0:0:
375,173,41509,6,0,P|414:101|443:25,1,140
293,256,42026,2,0,P|335:325|387:388,1,140
256,144,42543,2,0,B|176:128|192:176|96:144,1,140,0|0,0:1|0:1,0:0:0:0:
48,112,43061,5,0,0:0:0:0:
291,67,43233,2,0,P|337:116|329:184,1,140,4|0,0:0|0:0,0:0:0:0:
205,322,43750,1,0,0:0:0:0:
218,226,43923,1,0,0:0:0:0:
281,381,44095,1,0,0:0:0:0:
231,129,44267,6,0,P|193:125|152:150,1,70,4|0,0:0|0:0,0:0:0:0:
142,167,44526,1,0,0:0:0:0:
142,167,44612,1,0,0:0:0:0:
65,109,44785,1,0,0:0:0:0:
65,109,44871,1,0,0:0:0:0:
65,109,44957,1,2,0:0:0:0:
115,358,45130,6,0,L|115:286,1,70,2|0,0:0|0:0,0:0:0:0:
218,226,45474,1,0,0:0:0:0:
218,226,45561,1,0,0:0:0:0:
218,226,45647,2,0,P|280:255|360:201,1,140
299,92,46164,1,0,0:0:0:0:
281,172,46336,1,0,0:0:0:0:
431,319,46509,2,0,L|422:156,1,140
222,119,47026,6,0,L|129:129,1,70
125,129,47285,1,0,0:0:0:0:
125,129,47371,1,0,0:0:0:0:
239,40,47543,1,0,0:0:0:0:
239,40,47630,1,0,0:0:0:0:
239,40,47716,1,2,0:0:0:0:
259,225,47888,2,0,L|352:235,1,70,2|0,0:0|0:0,0:0:0:0:
478,149,48233,1,0,0:0:0:0:
478,149,48319,1,0,0:0:0:0:
478,149,48405,6,0,B|426:143|426:143|396:156|396:156|325:149,1,140
276,89,48923,2,0,L|207:81,1,70
192,164,49267,2,0,L|123:156,1,70
38,151,49785,6,0,P|59:203|66:254,1,80.5000015354157
162,353,50130,2,0,P|141:301|134:250,1,80.5000015354157
180,50,50474,2,0,P|185:105|178:156,1,80.5000015354157
245,324,50819,2,0,P|239:268|246:217,1,80.5000015354157
409,44,51164,6,0,L|328:43,1,80.5000015354157
262,161,51509,2,0,L|342:156,1,80.5000015354157
436,269,51854,2,0,L|355:268,1,80.5000015354157
287,384,52198,1,0,0:0:0:0:
287,384,52543,5,0,0:0:0:0:
403,134,52716,1,0,0:0:0:0:
452,337,52888,5,0,0:0:0:0:
195,319,53061,1,0,0:0:0:0:
304,67,53233,5,0,0:0:0:0:
374,348,53405,1,0,0:0:0:0:
106,169,53578,5,0,0:0:0:0:
461,66,53750,1,0,0:0:0:0:
182,354,53923,5,0,0:0:0:0:
170,315,54009,1,0,0:0:0:0:
166,275,54095,1,0,0:0:0:0:
171,235,54181,1,0,0:0:0:0:
187,198,54267,1,0,0:0:0:0:
196,159,54354,1,0,0:0:0:0:
188,119,54440,1,0,0:0:0:0:
161,90,54526,1,0,0:0:0:0:
123,80,54612,5,0,0:0:0:0:
141,132,54698,1,0,0:0:0:0:
174,176,54784,1,0,0:0:0:0:
218,209,54870,1,0,0:0:0:0:
271,226,54956,1,0,0:0:0:0:
326,227,55043,1,0,0:0:0:0:
379,211,55129,1,0,0:0:0:0:
424,180,55215,1,0,0:0:0:0:
458,137,55302,6,0,P|408:113|338:133,1,90.9999958343508,4|0,0:0|0:0,0:0:0:0:
286,148,55647,1,0,0:0:0:0:
373,301,55819,2,0,L|379:193,1,90.9999958343508
373,114,56164,1,0,0:0:0:0:
286,260,56336,2,0,P|218:230|200:198,1,90.9999958343508
119,117,56681,6,0,P|127:190|108:222,1,90.9999958343508
78,333,57026,2,0,P|137:289|174:289,1,90.9999958343508
235,384,57371,1,0,0:0:0:0:
209,218,57543,1,0,0:0:0:0:
376,253,57716,2,0,L|271:260,1,90.9999958343508
384,124,58061,6,0,L|489:117,1,90.9999958343508
309,179,58405,2,0,P|292:120|312:69,1,90.9999958343508
368,34,58750,1,0,0:0:0:0:
376,253,58923,1,0,0:0:0:0:
223,147,59095,2,0,L|118:154,1,90.9999958343508
47,294,59440,6,0,P|80:269|145:273,1,90.9999958343508
274,295,59785,2,0,P|236:278|207:220,1,90.9999958343508
293,209,60130,1,0,0:0:0:0:
111,353,60302,1,0,0:0:0:0:
132,153,60474,2,0,L|143:14,1,136.499993751526
166,44,60819,6,0,B|212:66|268:46|244:34|297:20|343:41,1,181.999991668702,4|0,0:0|0:0,0:0:0:0:
405,196,61336,2,0,P|356:172|328:122,1,90.9999958343508
427,99,61681,1,0,0:0:0:0:
494,249,61854,2,0,L|510:150,1,90.9999958343508
294,294,62198,6,0,L|278:393,1,90.9999958343508
175,116,62543,2,0,L|190:206,1,90.9999958343508
207,294,62888,1,0,0:0:0:0:
83,216,63061,1,0,0:0:0:0:
235,35,63233,2,0,P|271:86|263:148,1,90.9999958343508
464,61,63578,6,0,P|420:69|378:55,1,90.9999958343508
327,247,63923,2,0,P|341:205|375:175,1,90.9999958343508
424,259,64267,1,0,0:0:0:0:
273,112,64440,1,0,0:0:0:0:
222,317,64612,2,0,L|207:207,1,90.9999958343508
2,144,64957,6,0,P|55:124|114:143,1,90.9999958343508
113,273,65302,2,0,P|69:237|56:176,1,90.9999958343508
169,112,65647,1,0,0:0:0:0:
139,193,65819,1,0,0:0:0:0:
317,15,65992,2,0,P|248:-6|192:43,1,136.499993751526
265,71,66336,6,0,B|306:128|306:128|287:267,1,181.999991668702,4|0,0:0|0:0,0:0:0:0:
273,338,66854,1,0,0:0:0:0:
379,299,67026,1,0,0:0:0:0:
194,278,67198,1,0,0:0:0:0:
389,211,67371,2,0,P|453:249|436:368,1,181.999991668702,2|0,0:0|0:0,0:0:0:0:
379,299,67888,5,0,0:0:0:0:
308,247,68061,2,0,P|299:202|316:160,1,90.9999958343508
470,83,68405,2,0,P|435:112|391:118,1,90.9999958343508
402,37,68750,1,0,0:0:0:0:
389,211,68923,1,0,0:0:0:0:
246,24,69096,6,0,P|288:39|316:74,1,90.9999958343508
150,159,69440,2,0,L|170:50,1,90.9999958343508
240,105,69785,1,0,0:0:0:0:
133,248,69957,1,0,0:0:0:0:
81,99,70130,2,0,L|64:188,1,90.9999958343508
235,307,70474,6,0,L|218:217,1,90.9999958343508
388,98,70819,2,0,L|371:187,1,90.9999958343508
354,276,71164,1,0,0:0:0:0:
201,127,71336,1,0,0:0:0:0:
430,255,71509,2,0,P|406:341|348:358,1,136.499993751526
332,353,71854,6,0,B|264:347|264:347|225:371|225:371|114:362,1,181.999991668702,4|0,0:0|0:0,0:0:0:0:
75,322,72371,1,0,0:0:0:0:
210,194,72543,1,0,0:0:0:0:
32,142,72716,1,0,0:0:0:0:
197,278,72888,2,0,P|262:259|283:217,1,90.9999958343508
223,110,73233,5,0,0:0:0:0:
130,224,73405,1,0,0:0:0:0:
353,211,73578,2,0,P|304:164|257:167,1,90.9999958343508
144,139,73923,1,0,0:0:0:0:
182,364,74095,1,0,0:0:0:0:
223,110,74267,2,0,L|235:19,1,90.9999958343508
341,293,74612,6,0,L|329:384,1,90.9999958343508
393,223,74957,2,0,P|354:201|310:207,1,90.9999958343508
229,270,75302,1,0,0:0:0:0:
446,312,75474,1,0,0:0:0:0:
372,103,75647,2,0,L|384:12,1,90.9999958343508
217,179,75992,6,0,L|229:270,1,90.9999958343508
57,384,76336,5,0,0:0:0:0:
61,347,76422,1,0,0:0:0:0:
66,311,76508,1,0,0:0:0:0:
71,275,76594,1,0,0:0:0:0:
76,239,76680,1,0,0:0:0:0:
80,203,76767,1,0,0:0:0:0:
85,166,76854,6,0,L|140:156,1,45.4999979171754
248,77,77026,2,0,L|204:70,1,45.4999979171754
284,183,77198,2,0,L|339:173,1,45.4999979171754
457,90,77371,6,0,P|390:78|343:208,1,195.999994018555,4|0,0:0|0:0,0:0:0:0:
384,237,77888,1,0,0:0:0:0:
410,158,78061,1,0,0:0:0:0:
440,300,78233,1,0,0:0:0:0:
301,253,78405,2,0,P|248:244|199:276,1,97.9999970092774
143,102,78750,6,0,P|161:151|214:177,1,97.9999970092774
92,315,79095,2,0,P|125:273|122:215,1,97.9999970092774
48,248,79440,1,0,0:0:0:0:
264,324,79612,1,0,0:0:0:0:
222,99,79785,2,0,L|203:2,1,97.9999970092774
392,288,80130,6,0,L|373:384,1,97.9999970092774
362,208,80474,2,0,P|432:211|469:248,1,97.9999970092774
474,309,80819,1,0,0:0:0:0:
421,130,80992,1,0,0:0:0:0:
306,272,81164,2,0,P|279:233|277:185,1,97.9999970092774
384,33,81509,6,0,P|363:77|322:103,1,97.9999970092774
139,85,81854,2,0,P|187:81|229:104,1,97.9999970092774
362,208,82198,1,0,0:0:0:0:
300,17,82371,1,0,0:0:0:0:
167,165,82543,2,0,L|151:333,1,146.999995513916
149,350,82888,6,0,B|198:322|258:341|224:355|292:374|354:334,1,195.999994018555,4|0,0:0|0:0,0:0:0:0:
362,208,83405,1,0,0:0:0:0:
421,378,83578,1,0,0:0:0:0:
296,264,83750,1,0,0:0:0:0:
431,163,83923,2,0,P|443:210|429:256,1,97.9999970092774
357,125,84267,6,0,P|390:90|438:80,1,97.9999970092774
247,59,84612,2,0,P|260:105|245:151,1,97.9999970092774
97,150,84957,1,0,0:0:0:0:
178,105,85129,1,0,0:0:0:0:
172,291,85302,2,0,L|176:193,1,97.9999970092774
12,97,85647,6,0,L|16:195,1,97.9999970092774
292,361,85992,2,0,L|296:263,1,97.9999970092774
299,165,86336,1,0,0:0:0:0:
377,316,86509,1,0,0:0:0:0:
236,112,86681,2,0,P|217:160|229:210,1,97.9999970092774
314,83,87026,6,0,P|281:42|232:27,1,97.9999970092774
210,286,87371,2,0,P|261:278|298:243,1,97.9999970092774
146,231,87716,1,0,0:0:0:0:
135,323,87888,1,0,0:0:0:0:
60,180,88061,2,0,P|111:137|199:147,1,146.999995513916
220,161,88405,6,0,B|273:201|273:201|424:178,1,195.999994018555,4|0,0:0|0:0,0:0:0:0:
497,166,88923,1,0,0:0:0:0:
367,272,89095,1,0,0:0:0:0:
340,106,89267,1,0,0:0:0:0:
462,255,89440,2,0,P|454:316|421:352,1,97.9999970092774
276,32,89785,6,0,P|332:8|380:19,1,97.9999970092774
308,198,90130,2,0,P|259:160|244:113,1,97.9999970092774
177,53,90474,1,0,0:0:0:0:
340,106,90647,1,0,0:0:0:0:
141,286,90819,2,0,L|213:220,1,97.9999970092774
372,326,91164,6,0,L|279:296,1,97.9999970092774
291,105,91509,2,0,L|311:200,1,97.9999970092774
205,349,91854,1,0,0:0:0:0:
204,128,92026,1,0,0:0:0:0:
380,253,92198,2,0,P|397:204|383:151,1,97.9999970092774
123,162,92543,6,0,P|156:201|209:216,1,97.9999970092774
95,354,92888,2,0,P|111:308|100:261,1,97.9999970092774
22,188,93233,1,0,0:0:0:0:
196,321,93405,1,0,0:0:0:0:
225,104,93578,2,0,B|266:72|266:72|391:96,1,146.999995513916
397,101,93923,6,0,P|453:172|413:304,1,195.999994018555,4|0,0:0|0:0,0:0:0:0:
251,289,94440,1,0,0:0:0:0:
343,207,94612,1,0,0:0:0:0:
367,328,94785,1,0,0:0:0:0:
227,168,94957,2,0,P|166:155|115:189,1,97.9999970092774
10,222,95302,6,0,P|45:189|55:142,1,97.9999970092774
72,7,95647,2,0,P|82:55|118:87,1,97.9999970092774
152,249,95992,1,0,0:0:0:0:
154,13,96164,1,0,0:0:0:0:
70,245,96336,2,0,P|80:292|116:324,1,97.9999970092774
308,240,96681,5,0,0:0:0:0:
152,249,96854,1,0,0:0:0:0:
238,379,97026,1,0,0:0:0:0:
238,379,97198,2,0,L|246:285,1,83.9999974365235
115,115,97543,2,0,L|192:168,1,83.9999974365235
252,211,97888,1,0,0:0:0:0:
315,145,98061,6,0,P|336:180|343:222,1,83.9999974365235
444,345,98405,1,0,0:0:0:0:
427,306,98491,1,0,0:0:0:0:
424,265,98577,1,0,0:0:0:0:
438,225,98663,1,0,0:0:0:0:
452,186,98749,1,0,0:0:0:0:
449,144,98836,1,0,0:0:0:0:
431,107,98923,6,0,L|361:100,1,45.4999979171754
262,163,99095,2,0,L|307:167,1,45.4999979171754
191,92,99267,2,0,L|146:88,1,45.4999979171754
80,253,99440,6,0,P|112:195|88:127,1,97.9999970092774,4|0,0:0|0:0,0:0:0:0:
307,167,99785,2,0,P|240:168|193:223,1,97.9999970092774
275,248,100130,1,2,0:0:0:0:
191,92,100302,1,2,0:0:0:0:
243,329,100474,2,0,P|291:333|333:310,1,97.9999970092774
398,68,100819,6,0,L|387:182,1,97.9999970092774
159,348,101164,2,0,L|168:250,1,97.9999970092774
177,152,101509,1,0,0:0:0:0:
77,290,101681,1,0,0:0:0:0:
118,99,101854,2,0,P|183:72|245:107,1,146.999995513916
264,141,102198,6,0,B|313:113|373:132|339:146|407:165|469:125,1,195.999994018555,4|0,0:0|0:0,0:0:0:0:
398,68,102716,5,0,0:0:0:0:
372,306,102888,1,2,0:0:0:0:
310,209,103061,1,2,0:0:0:0:
159,298,103233,2,0,L|256:311,1,97.9999970092774
76,309,103578,6,0,P|84:261|117:226,1,97.9999970092774
96,73,103923,2,0,P|133:103|147:149,1,97.9999970092774
65,149,104267,1,0,0:0:0:0:
205,59,104440,1,0,0:0:0:0:
198,212,104612,2,0,P|233:287|323:283,1,146.999995513916
329,303,104957,6,0,B|372:244|372:244|360:109,1,195.999994018555,4|0,0:0|0:0,0:0:0:0:
349,22,105474,1,0,0:0:0:0:
280,214,105647,1,2,0:0:0:0:
441,62,105819,1,2,0:0:0:0:
269,81,105992,2,0,L|171:82,1,97.9999970092774
63,241,106336,6,0,P|113:258|166:243,1,97.9999970092774
171,82,106681,2,0,P|131:117|117:170,1,97.9999970092774
195,340,107026,1,0,0:0:0:0:
215,171,107198,1,0,0:0:0:0:
293,347,107371,2,0,B|320:293|320:293|312:182,1,146.999995513916
309,167,107716,6,0,P|333:107|456:103,1,195.999994018555,4|0,0:0|0:0,0:0:0:0:
459,314,108233,1,0,0:0:0:0:
395,166,108405,1,2,0:0:0:0:
331,369,108578,1,2,0:0:0:0:
235,150,108750,2,0,P|185:124|140:134,1,97.9999970092774
147,301,109095,6,0,L|175:207,1,97.9999970092774
78,60,109440,2,0,L|145:130,1,97.9999970092774
247,237,109785,1,0,0:0:0:0:
3,149,109957,1,0,0:0:0:0:
110,377,110130,2,0,B|164:395|207:361|207:361|231:379|289:364,1,146.999995513916
287,364,110474,6,0,P|294:289|431:264,1,195.999994018555,4|0,0:0|0:0,0:0:0:0:
461,309,110992,1,0,0:0:0:0:
240,206,111164,1,2,0:0:0:0:
505,129,111336,1,2,0:0:0:0:
373,335,111509,2,0,P|373:275|399:243,1,97.9999970092774
281,79,111854,6,0,L|329:181,1,97.9999970092774
184,286,112198,2,0,L|248:193,1,97.9999970092774
364,26,112543,1,0,0:0:0:0:
412,267,112716,1,0,0:0:0:0:
153,100,112888,2,0,P|87:121|80:218,1,146.999995513916
69,229,113233,6,0,B|121:267|121:267|260:249,1,195.999994018555,4|0,0:0|0:0,0:0:0:0:
394,226,113750,1,0,0:0:0:0:
301,114,113923,1,2,0:0:0:0:
343,362,114095,1,2,0:0:0:0:
158,137,114267,2,0,P|159:83|200:32,1,97.9999970092774
398,114,114612,6,0,L|280:113,1,97.9999970092774
153,250,114957,2,0,L|250:249,1,97.9999970092774
421,314,115302,1,0,0:0:0:0:
300,113,115474,1,0,0:0:0:0:
193,322,115647,2,0,P|126:328|73:237,1,146.999995513916
153,250,115992,6,0,B|125:201|144:141|158:175|177:107|137:45,1,195.999994018555,4|0,0:0|0:0,0:0:0:0:
63,11,116509,1,0,0:0:0:0:
227,109,116681,1,2,0:0:0:0:
61,203,116854,1,2,0:0:0:0:
228,13,117026,2,0,P|271:24|314:69,1,97.9999970092774
320,257,117371,6,0,P|308:214|325:154,1,97.9999970092774
485,55,117716,2,0,P|453:86|393:101,1,97.9999970092774
227,109,118061,1,0,0:0:0:0:
403,7,118233,1,0,0:0:0:0:
404,211,118405,2,0,B|404:268|404:268|397:331|313:351,1,146.999995513916
313,342,118750,6,0,B|240:336|240:336|202:360|202:360|95:351,1,195.999994018555,4|0,0:0|0:0,0:0:0:0:
26,359,119267,1,0,0:0:0:0:
60,101,119440,1,2,0:0:0:0:
169,266,119612,1,2,0:0:0:0:
16,189,119785,2,0,P|68:192|144:189,1,97.9999970092774
301,51,120130,6,0,P|249:48|173:51,1,97.9999970092774
318,224,120474,2,8,P|346:180|382:113,1,97.9999970092774,0|0,0:0|0:0,0:0:0:0:
206,164,120819,1,0,0:0:0:0:
206,182,120905,1,0,0:0:0:0:
206,200,120991,1,0,0:0:0:0:
206,219,121077,1,0,0:0:0:0:
206,240,121164,6,0,L|204:311,1,48.9999985046387
316,272,121336,2,0,L|317:223,1,48.9999985046387
322,73,121509,1,4,0:0:0:0:
