osu file format v14

[General]
AudioFilename: audio.mp3
AudioLeadIn: 0
PreviewTime: 158582
Countdown: 1
SampleSet: None
StackLeniency: 0.7
Mode: 0
LetterboxInBreaks: 0
WidescreenStoryboard: 0

[Editor]
Bookmarks: 58362,102755,124952,147149,158247,202640
DistanceSpacing: 0.7
BeatDivisor: 4
GridSize: 8
TimelineZoom: 1.5

[Metadata]
Title:Introduction / Remind Me
TitleUnicode:Introduction / Remind Me
Artist:High Contrast
ArtistUnicode:High Contrast
Creator:ItashaS13
Version:One Step Ahead
Source:
Tags:drum & bass night gallery
BeatmapID:1986742
BeatmapSetID:951302

[Difficulty]
HPDrainRate:7
CircleSize:4.2
OverallDifficulty:9.4
ApproachRate:9.8
SliderMultiplier:1.62
SliderTickRate:1

[Events]
//Background and Video events
0,0,"gta_sa_2019_03_29_16_02_55_204.png",0,0
//Break Periods
//Storyboard Layer 0 (Background)
//Storyboard Layer 1 (Fail)
//Storyboard Layer 2 (Pass)
//Storyboard Layer 3 (Foreground)
//Storyboard Sound Samples

[TimingPoints]
85,346.820809248555,4,2,1,60,1,0
10316,-250,4,2,1,60,0,0
36154,-166.666666666667,4,2,1,60,0,0
58350,-200,4,2,1,60,0,0
74304,-142.857142857143,4,2,1,60,0,0
74998,-111.111111111111,4,2,1,60,0,0
76385,-142.857142857143,4,2,1,60,0,0
80547,-83.3333333333333,4,2,1,60,0,0
97194,-71.4285714285714,4,2,1,65,0,0
102743,-90.9090909090909,4,2,1,60,0,0
119391,-76.9230769230769,4,2,1,60,0,0
123553,-200,4,2,1,60,0,0
124940,-90.9090909090909,4,2,1,60,0,0
141587,-76.9230769230769,4,2,1,60,0,0
149911,-500,4,2,1,60,0,0
155460,-250,4,2,1,60,0,0
158235,-166.666666666667,4,2,1,60,0,0
181125,-500,4,2,1,60,0,0
191530,-250,4,2,1,60,0,0
202628,-83.3333333333333,4,2,1,60,0,0
219275,-71.4285714285714,4,2,1,60,0,0
224824,-90.9090909090909,4,2,1,60,0,0
241472,-76.9230769230769,4,2,1,60,0,0
247021,-83.3333333333333,4,2,1,60,0,0
267830,-200,4,2,1,60,0,0

[HitObjects]
76,199,10316,5,0,0:0:0:0:
86,222,10663,1,0,0:0:0:0:
105,205,11009,2,0,P|143:174|258:177,1,162
250,141,12050,2,0,L|251:182,1,32.4
251,257,12397,1,0,0:0:0:0:
418,47,13090,6,0,P|444:40|480:52,2,64.8
393,77,14131,2,0,L|396:176,1,97.2
512,320,15171,6,0,B|443:350|446:271|377:293,1,145.8
381,382,16038,2,0,P|395:349|367:283,1,97.2
315,228,16905,6,0,P|301:195|329:129,1,97.2
391,89,17599,2,0,L|460:86,1,64.8
35,48,18639,5,0,0:0:0:0:
69,66,18986,1,0,0:0:0:0:
36,86,19333,1,0,0:0:0:0:
123,0,19680,2,0,B|160:33|152:64|161:91|124:129|124:129|87:160|93:215,1,226.8
261,211,21067,2,0,P|213:215|170:194,2,97.2
433,0,22454,6,0,L|448:106,1,97.2
456,177,23148,2,0,P|429:176|412:169,1,32.4
446,96,23495,1,0,0:0:0:0:
188,384,24189,5,0,0:0:0:0:
155,362,24535,1,0,0:0:0:0:
214,290,24882,1,0,0:0:0:0:
115,199,25229,2,0,P|104:170|133:79,1,129.6
196,76,26269,2,0,L|118:80,1,64.8
0,86,27310,5,0,0:0:0:0:
196,76,27657,1,0,0:0:0:0:
99,356,28004,2,0,B|49:268|130:291|91:191,1,162
13,229,29044,2,0,P|51:236|97:194,1,97.2
172,279,29738,6,0,L|211:290,1,32.4
213,250,30085,2,0,L|252:239,1,32.4
246,279,30431,2,0,L|285:290,1,32.4
412,313,30778,6,0,P|429:279|415:215,1,97.2
350,178,31645,2,0,P|375:151|408:138,1,64.8
476,113,32165,2,0,L|376:91,1,97.2
92,177,33032,6,0,P|113:187|157:181,1,64.8
128,109,33553,1,0,0:0:0:0:
77,330,36154,6,0,L|146:346,1,48.5999985168458
203,302,36501,1,0,0:0:0:0:
142,239,36674,1,0,0:0:0:0:
29,319,36848,2,0,L|98:335,1,48.5999985168458
142,239,37194,1,0,0:0:0:0:
81,176,37368,1,0,0:0:0:0:
251,148,37541,6,0,L|258:217,1,48.5999985168458
203,302,37888,1,0,0:0:0:0:
142,239,38061,1,0,0:0:0:0:
279,109,38235,2,0,L|292:218,1,97.1999970336915
306,382,38755,1,0,0:0:0:0:
368,254,38928,6,0,L|356:157,1,97.1999970336915
344,45,39449,1,0,0:0:0:0:
405,160,39622,2,0,L|351:157,1,48.5999985168458
255,78,39969,1,0,0:0:0:0:
344,45,40142,1,0,0:0:0:0:
453,162,40316,6,0,L|399:159,1,48.5999985168458
344,45,40663,1,0,0:0:0:0:
433,12,40836,1,0,0:0:0:0:
496,174,41009,2,0,L|491:290,1,97.1999970336915
399,384,41530,1,0,0:0:0:0:
407,263,41703,6,0,L|411:165,1,97.1999970336915
418,53,42223,1,0,0:0:0:0:
317,103,42397,2,0,L|254:103,1,48.5999985168458
182,47,42743,1,0,0:0:0:0:
144,143,42917,1,0,0:0:0:0:
279,199,43090,6,0,L|216:199,1,48.5999985168458
144,143,43436,1,0,0:0:0:0:
106,239,43610,1,0,0:0:0:0:
70,13,43784,2,0,L|174:5,1,97.1999970336915
321,41,44304,1,0,0:0:0:0:
240,135,44478,6,0,L|136:143,1,97.1999970336915
0,150,44998,1,0,0:0:0:0:
74,244,45171,2,0,L|72:309,2,48.5999985168458
143,142,45691,1,0,0:0:0:0:
71,57,45865,6,0,L|73:-8,2,48.5999985168458
0,150,46385,1,0,0:0:0:0:
151,315,46558,2,0,P|171:293|243:284,1,97.1999970336915
324,349,47079,1,0,0:0:0:0:
296,194,47252,6,0,P|343:191|379:160,1,97.1999970336915
399,55,47772,1,0,0:0:0:0:
474,168,47946,1,0,0:0:0:0:
381,261,48119,1,0,0:0:0:0:
297,146,48293,1,0,0:0:0:0:
382,232,48466,1,0,0:0:0:0:
503,172,48639,5,0,0:0:0:0:
273,143,48813,1,0,0:0:0:0:
399,55,48986,2,0,L|396:112,1,48.5999985168458
454,257,49333,2,0,P|429:296|361:299,1,97.1999970336915
263,249,49853,1,0,0:0:0:0:
86,335,50027,6,0,P|131:349|176:332,1,97.1999970336915
256,213,50547,1,0,0:0:0:0:
373,292,50720,1,0,0:0:0:0:
287,384,50894,1,0,0:0:0:0:
164,315,51067,1,0,0:0:0:0:
285,357,51241,1,0,0:0:0:0:
397,270,51414,5,0,0:0:0:0:
189,295,51587,1,0,0:0:0:0:
280,153,51761,2,0,L|281:212,1,48.5999985168458
67,81,52108,2,0,P|114:91|158:71,1,97.1999970336915
259,0,52628,1,0,0:0:0:0:
158,212,52801,6,0,L|149:362,1,145.799995550537
64,304,53495,2,0,L|12:272,2,48.5999985168458
149,357,54015,1,0,0:0:0:0:
228,297,54189,6,0,L|274:263,2,48.5999985168458
149,384,54709,1,0,0:0:0:0:
58,155,54882,2,0,L|166:164,1,97.1999970336915
292,174,55402,1,0,0:0:0:0:
512,265,55576,6,0,L|415:256,1,97.1999970336915
320,176,56096,1,0,0:0:0:0:
328,305,56269,2,0,P|309:326|239:343,1,97.1999970336915
292,174,56790,1,0,0:0:0:0:
203,331,56963,6,0,P|162:306|144:261,1,97.1999970336915
320,176,57483,1,0,0:0:0:0:
216,129,57657,2,0,P|205:157|217:224,1,97.1999970336915
344,178,58177,1,0,0:0:0:0:
447,20,58350,6,0,L|490:47,1,40.5
386,91,58697,2,0,L|421:132,1,40.5
266,117,59044,2,0,L|261:165,1,40.5
192,67,59391,2,0,L|153:102,1,40.5
22,161,59738,6,0,L|70:166,1,40.5
47,264,60085,2,0,L|95:269,1,40.5
147,197,60431,2,0,L|195:202,1,40.5
172,300,60778,2,0,L|220:305,1,40.5
334,257,61125,6,0,P|338:290|329:314,1,40.5
255,365,61472,1,0,0:0:0:0:
172,300,61645,1,0,0:0:0:0:
296,200,61819,2,0,P|318:219|326:233,1,40.5
188,107,62165,1,0,0:0:0:0:
253,24,62338,1,0,0:0:0:0:
353,148,62512,6,0,P|334:170|320:178,1,40.5
453,92,62859,1,0,0:0:0:0:
492,189,63032,1,0,0:0:0:0:
353,225,63206,2,0,P|343:197|355:143,1,81
453,92,63726,1,0,0:0:0:0:
276,0,63900,6,0,L|181:14,1,81
84,34,64420,1,0,0:0:0:0:
16,140,64593,2,0,P|4:170|3:197,1,40.5
114,202,64940,2,0,P|115:231|123:254,1,40.5
155,371,65287,6,0,P|143:341|142:314,1,40.5
253,309,65634,2,0,P|254:280|262:257,1,40.5
114,202,65980,2,0,P|127:172|164:140,1,81
287,142,66501,1,0,0:0:0:0:
454,280,66674,6,0,L|371:259,1,81
286,174,67194,1,0,0:0:0:0:
394,175,67368,2,0,L|446:186,2,40.5
325,72,67888,1,0,0:0:0:0:
461,75,68062,6,0,L|513:86,2,40.5
325,72,68582,1,0,0:0:0:0:
512,193,68755,2,0,L|507:288,1,81
432,344,69275,1,0,0:0:0:0:
225,208,69449,6,0,P|217:258|197:282,1,81
109,317,69969,2,0,L|102:274,1,40.5
10,282,70316,2,0,L|3:239,1,40.5
141,196,70663,1,0,0:0:0:0:
0,149,70836,6,0,P|13:103|79:51,1,121.5
141,196,71530,2,0,B|141:238|141:238|155:260|155:260|155:325,1,121.5
251,190,72223,6,0,P|278:188|319:231,1,81
322,330,72743,1,0,0:0:0:0:
407,260,72917,2,0,L|453:263,1,40.5
254,254,73264,1,0,0:0:0:0:
322,330,73437,1,0,0:0:0:0:
338,157,73611,6,0,L|384:160,1,40.5
451,98,73957,1,0,0:0:0:0:
451,217,74131,1,0,0:0:0:0:
146,105,74304,2,0,P|125:76|83:55,1,56.6999982696534
86,191,74651,2,0,P|54:199|20:223,1,56.6999982696534
229,350,74998,6,0,B|302:365|363:267|283:192|218:215|218:215|285:225|308:154,1,364.499988876343
301,92,76038,2,0,P|309:134|301:172,1,72.8999977752686
162,119,76385,6,0,L|220:131,1,56.6999982696534
184,0,76732,1,0,0:0:0:0:
64,29,76905,1,0,0:0:0:0:
160,203,77079,2,0,L|218:215,1,56.6999982696534
64,29,77426,1,0,0:0:0:0:
14,141,77599,1,0,0:0:0:0:
282,107,77772,6,0,L|340:119,1,56.6999982696534
449,87,78119,1,0,0:0:0:0:
413,202,78293,1,0,0:0:0:0:
208,154,78466,2,0,L|150:142,1,56.6999982696534
282,107,78813,1,0,0:0:0:0:
413,202,78986,1,0,0:0:0:0:
299,359,79160,5,0,0:0:0:0:
288,349,79246,1,0,0:0:0:0:
282,337,79333,1,0,0:0:0:0:
280,323,79420,1,0,0:0:0:0:
283,309,79506,1,0,0:0:0:0:
291,297,79593,1,0,0:0:0:0:
302,289,79680,1,0,0:0:0:0:
316,286,79766,1,0,0:0:0:0:
330,288,79853,5,0,0:0:0:0:
344,287,79939,1,0,0:0:0:0:
357,282,80026,1,0,0:0:0:0:
369,275,80113,1,0,0:0:0:0:
380,266,80199,1,0,0:0:0:0:
387,254,80286,1,0,0:0:0:0:
392,241,80373,1,0,0:0:0:0:
394,227,80459,1,0,0:0:0:0:
393,213,80547,6,0,P|392:153|416:104,1,97.1999970336915
425,98,80807,1,0,0:0:0:0:
451,86,80894,1,0,0:0:0:0:
372,243,81067,1,0,0:0:0:0:
357,262,81153,1,0,0:0:0:0:
337,276,81240,1,0,0:0:0:0:
314,284,81327,1,0,0:0:0:0:
290,286,81413,1,0,0:0:0:0:
374,384,81587,1,0,0:0:0:0:
462,257,81761,1,0,0:0:0:0:
462,257,81848,1,0,0:0:0:0:
462,257,81934,6,0,B|482:206|482:206|451:183|450:125,1,145.799995550537
451,86,82281,1,0,0:0:0:0:
321,70,82454,2,0,L|263:64,1,48.5999985168458
370,217,82628,2,0,L|308:209,1,48.5999985168458
449,124,82801,1,0,0:0:0:0:
256,151,82975,2,0,L|150:137,1,97.1999970336915
128,135,83235,1,0,0:0:0:0:
102,120,83321,5,0,0:0:0:0:
263,30,83495,1,0,0:0:0:0:
263,30,83582,1,0,0:0:0:0:
263,30,83668,1,0,0:0:0:0:
252,182,83842,1,0,0:0:0:0:
242,204,83928,1,0,0:0:0:0:
228,223,84015,1,0,0:0:0:0:
209,239,84102,1,0,0:0:0:0:
188,250,84188,1,0,0:0:0:0:
268,152,84362,2,0,P|310:117|366:109,1,97.1999970336915
379,106,84622,1,0,0:0:0:0:
406,117,84709,5,0,0:0:0:0:
512,0,84882,1,0,0:0:0:0:
459,213,85056,1,0,0:0:0:0:
351,84,85229,1,0,0:0:0:0:
331,98,85315,1,0,0:0:0:0:
308,106,85402,1,0,0:0:0:0:
284,108,85489,1,0,0:0:0:0:
261,103,85575,1,0,0:0:0:0:
132,23,85749,2,0,L|129:131,1,97.1999970336915
19,325,86096,6,0,P|57:295|124:294,1,97.1999970336915
132,297,86356,1,0,0:0:0:0:
153,316,86443,1,0,0:0:0:0:
212,217,86616,1,0,0:0:0:0:
233,227,86702,1,0,0:0:0:0:
257,231,86789,1,0,0:0:0:0:
281,227,86876,1,0,0:0:0:0:
303,216,86962,1,0,0:0:0:0:
359,316,87137,2,0,P|396:275|441:264,1,97.1999970336915
462,263,87397,1,0,0:0:0:0:
489,272,87483,6,0,L|505:155,1,97.1999970336915
500,146,87743,1,0,0:0:0:0:
474,159,87830,2,0,P|427:189|375:186,1,97.1999970336915
359,175,88090,1,0,0:0:0:0:
359,150,88176,1,0,0:0:0:0:
353,127,88263,1,0,0:0:0:0:
341,106,88350,1,0,0:0:0:0:
283,261,88524,2,0,P|235:288|179:286,1,97.1999970336915
164,285,88784,1,0,0:0:0:0:
136,274,88871,6,0,L|121:167,1,97.1999970336915
97,162,89131,1,0,0:0:0:0:
70,150,89217,1,0,0:0:0:0:
0,48,89391,1,0,0:0:0:0:
23,42,89477,1,0,0:0:0:0:
47,37,89564,1,0,0:0:0:0:
71,32,89651,1,0,0:0:0:0:
94,26,89737,1,0,0:0:0:0:
194,144,89911,2,0,L|147:243,1,97.1999970336915
129,250,90171,1,0,0:0:0:0:
129,279,90258,5,0,0:0:0:0:
125,107,90431,1,0,0:0:0:0:
125,107,90518,1,0,0:0:0:0:
125,107,90605,1,0,0:0:0:0:
11,241,90778,1,0,0:0:0:0:
24,260,90864,1,0,0:0:0:0:
43,276,90951,1,0,0:0:0:0:
66,285,91038,1,0,0:0:0:0:
90,287,91124,1,0,0:0:0:0:
228,211,91298,1,0,0:0:0:0:
123,80,91472,1,0,0:0:0:0:
123,80,91558,1,0,0:0:0:0:
123,80,91645,6,0,P|178:60|227:71,1,97.1999970336915
236,246,91992,1,0,0:0:0:0:
290,106,92165,1,0,0:0:0:0:
309,119,92251,1,0,0:0:0:0:
333,126,92338,1,0,0:0:0:0:
357,125,92425,1,0,0:0:0:0:
379,116,92511,1,0,0:0:0:0:
484,22,92686,2,0,L|472:132,1,97.1999970336915
471,147,92946,1,0,0:0:0:0:
468,175,93032,5,0,0:0:0:0:
344,51,93206,1,0,0:0:0:0:
237,178,93379,2,0,L|214:78,1,97.1999970336915
194,62,93639,1,0,0:0:0:0:
174,75,93725,1,0,0:0:0:0:
150,82,93812,1,0,0:0:0:0:
126,81,93899,1,0,0:0:0:0:
344,51,94073,2,0,L|350:164,1,97.1999970336915
354,176,94333,1,0,0:0:0:0:
356,205,94420,5,0,0:0:0:0:
504,251,94593,1,0,0:0:0:0:
214,270,94767,1,0,0:0:0:0:
445,181,94940,2,0,L|476:133,1,48.5999985168458
264,200,95113,2,0,L|209:153,1,48.5999985168458
349,148,95287,1,0,0:0:0:0:
311,344,95460,2,0,P|374:354|424:327,1,97.1999970336915
429,328,95720,1,0,0:0:0:0:
453,311,95807,6,0,P|428:260|384:239,1,97.1999970336915
349,148,96154,2,0,L|344:51,1,97.1999970336915
360,27,96414,1,0,0:0:0:0:
382,35,96500,1,0,0:0:0:0:
401,51,96587,1,0,0:0:0:0:
414,71,96674,1,0,0:0:0:0:
320,186,96848,2,0,L|224:176,1,97.1999970336915
57,43,97194,5,0,0:0:0:0:
92,244,97368,1,0,0:0:0:0:
192,113,97541,1,0,0:0:0:0:
0,132,97715,2,0,L|28:194,1,56.6999982696534
154,188,97888,2,0,L|182:250,1,56.6999982696534
107,352,98061,1,0,0:0:0:0:
107,165,98235,2,0,L|161:283,1,113.399996539307
186,300,98495,1,0,0:0:0:0:
231,302,98582,6,0,P|280:287|321:223,1,113.399996539307
323,47,98928,1,0,0:0:0:0:
213,144,99102,1,0,0:0:0:0:
189,159,99188,1,0,0:0:0:0:
162,167,99275,1,0,0:0:0:0:
133,169,99362,1,0,0:0:0:0:
106,164,99448,1,0,0:0:0:0:
342,64,99622,2,0,P|372:117|368:180,1,113.399996539307
358,205,99882,1,0,0:0:0:0:
322,230,99969,5,0,0:0:0:0:
512,85,100142,1,0,0:0:0:0:
436,336,100316,1,0,0:0:0:0:
430,146,100489,1,0,0:0:0:0:
422,118,100575,1,0,0:0:0:0:
406,95,100662,1,0,0:0:0:0:
384,78,100749,1,0,0:0:0:0:
357,68,100835,1,0,0:0:0:0:
415,246,101009,2,0,P|359:282|342:343,1,113.399996539307
310,355,101269,1,0,0:0:0:0:
264,379,101356,6,0,L|140:350,1,113.399996539307
0,313,101703,1,0,0:0:0:0:
223,76,101876,1,0,0:0:0:0:
251,72,101962,1,0,0:0:0:0:
278,80,102049,5,0,0:0:0:0:
247,127,102136,1,0,0:0:0:0:
241,183,102223,1,0,0:0:0:0:
260,235,102310,1,0,0:0:0:0:
302,273,102396,1,0,0:0:0:0:
246,270,102483,1,0,0:0:0:0:
195,293,102570,2,0,P|168:309|147:344,1,56.6999982696534
141,109,102743,6,0,P|199:80|244:74,1,89.1000027191163
359,168,103090,1,0,0:0:0:0:
359,329,103264,1,0,0:0:0:0:
259,108,103437,1,0,0:0:0:0:
208,349,103611,1,0,0:0:0:0:
141,109,103784,1,0,0:0:0:0:
72,255,103957,6,0,P|100:303|142:325,1,89.1000027191163
70,134,104304,2,0,P|64:190|85:232,1,89.1000027191163
147,66,104651,1,0,0:0:0:0:
175,286,104824,1,0,0:0:0:0:
175,286,104911,1,0,0:0:0:0:
175,286,104998,1,0,0:0:0:0:
76,220,105171,2,0,P|110:183|152:171,1,89.1000027191163
184,182,105431,1,0,0:0:0:0:
219,201,105518,6,0,P|266:220|307:213,1,89.1000027191163
331,201,105778,1,0,0:0:0:0:
354,180,105865,1,0,0:0:0:0:
437,52,106038,1,0,0:0:0:0:
376,308,106212,1,0,0:0:0:0:
512,206,106385,1,0,0:0:0:0:
262,136,106558,1,0,0:0:0:0:
458,112,106732,6,0,P|472:165|458:210,1,89.1000027191163
373,25,107079,2,0,P|416:60|431:105,1,89.1000027191163
276,0,107426,1,0,0:0:0:0:
374,163,107599,1,0,0:0:0:0:
374,163,107686,1,0,0:0:0:0:
374,163,107772,1,0,0:0:0:0:
207,123,107946,2,0,P|159:104|133:67,1,89.1000027191163
247,323,108293,6,0,P|292:339|349:334,1,89.1000027191163
374,163,108639,1,0,0:0:0:0:
363,331,108813,1,0,0:0:0:0:
103,319,108986,5,0,0:0:0:0:
253,221,109160,1,0,0:0:0:0:
406,323,109333,1,0,0:0:0:0:
214,318,109506,6,0,P|170:282|155:237,1,89.1000027191163
332,338,109853,2,0,P|276:334|237:307,1,89.1000027191163
406,323,110200,1,0,0:0:0:0:
443,156,110374,1,0,0:0:0:0:
443,156,110460,1,0,0:0:0:0:
443,156,110547,1,0,0:0:0:0:
335,227,110720,2,0,P|287:231|236:206,1,89.1000027191163
222,200,110980,1,0,0:0:0:0:
200,177,111067,5,0,0:0:0:0:
190,0,111241,1,0,0:0:0:0:
190,0,111327,1,0,0:0:0:0:
190,0,111414,1,0,0:0:0:0:
45,166,111587,1,0,0:0:0:0:
41,21,111761,5,0,0:0:0:0:
200,177,111934,1,0,0:0:0:0:
337,0,112108,1,0,0:0:0:0:
221,206,112281,6,0,P|274:220|319:206,1,89.1000027191163
134,121,112628,2,0,P|169:164|214:179,1,89.1000027191163
112,31,112975,1,0,0:0:0:0:
28,252,113148,1,0,0:0:0:0:
28,252,113235,1,0,0:0:0:0:
28,252,113321,1,0,0:0:0:0:
221,206,113495,2,0,P|274:220|319:206,1,89.1000027191163
333,196,113755,1,0,0:0:0:0:
357,176,113842,6,0,L|357:285,1,89.1000027191163
358,296,114102,1,0,0:0:0:0:
367,319,114189,1,0,0:0:0:0:
482,234,114362,5,0,0:0:0:0:
355,77,114535,1,0,0:0:0:0:
362,359,114709,1,0,0:0:0:0:
229,235,114882,1,0,0:0:0:0:
340,200,115056,6,0,P|312:152|270:130,1,89.1000027191163
340,321,115403,2,0,P|345:265|324:223,1,89.1000027191163
263,384,115749,1,0,0:0:0:0:
476,264,115923,1,0,0:0:0:0:
476,264,116009,1,0,0:0:0:0:
476,264,116096,1,0,0:0:0:0:
263,281,116269,2,0,L|151:276,1,89.1000027191163
143,287,116530,1,0,0:0:0:0:
114,298,116616,5,0,0:0:0:0:
340,337,116790,1,0,0:0:0:0:
340,337,116876,1,0,0:0:0:0:
340,337,116963,2,0,P|357:279|342:231,1,89.1000027191163
197,99,117310,1,0,0:0:0:0:
114,298,117483,1,0,0:0:0:0:
352,251,117657,1,0,0:0:0:0:
202,212,117830,6,0,P|256:199|289:165,1,89.1000027191163
85,177,118177,2,0,P|136:198|183:190,1,89.1000027191163
49,83,118524,1,0,0:0:0:0:
201,0,118697,5,0,0:0:0:0:
201,0,118784,1,0,0:0:0:0:
201,0,118871,1,0,0:0:0:0:
172,291,119044,1,0,0:0:0:0:
314,103,119217,1,0,0:0:0:0:
314,103,119304,1,0,0:0:0:0:
314,103,119391,2,0,P|362:72|420:66,1,105.299995179749
444,73,119651,1,0,0:0:0:0:
479,84,119738,6,0,L|476:210,1,105.299995179749
296,360,120085,1,0,0:0:0:0:
221,144,120258,1,0,0:0:0:0:
478,215,120431,1,0,0:0:0:0:
236,265,120605,6,0,P|177:265|128:235,1,105.299995179749
358,149,120952,2,0,P|343:206|299:246,1,105.299995179749
206,106,121298,1,0,0:0:0:0:
319,342,121472,1,0,0:0:0:0:
319,342,121558,1,0,0:0:0:0:
319,342,121645,1,0,0:0:0:0:
112,260,121819,1,0,0:0:0:0:
393,140,121992,1,0,0:0:0:0:
175,9,122165,6,0,P|182:71|218:115,1,105.299995179749
425,117,122512,1,0,0:0:0:0:
212,243,122686,1,0,0:0:0:0:
189,256,122772,1,0,0:0:0:0:
164,264,122859,1,0,0:0:0:0:
138,265,122946,1,0,0:0:0:0:
112,260,123032,1,0,0:0:0:0:
383,325,123206,2,0,P|376:263|340:219,1,105.299995179749
512,42,123553,6,0,L|458:33,1,40.5
245,352,123900,1,0,0:0:0:0:
484,117,124073,2,0,L|430:108,1,40.5
272,361,124420,1,0,0:0:0:0:
465,215,124593,2,0,P|461:247|443:274,1,60.75
512,200,124940,6,0,P|464:204|428:184,1,89.1000027191163
474,0,125287,1,0,0:0:0:0:
380,118,125460,1,0,0:0:0:0:
362,132,125547,1,0,0:0:0:0:
347,142,125633,2,0,L|283:143,1,44.5500013595581
408,220,125807,2,0,L|344:221,1,44.5500013595581
512,300,125980,2,0,L|404:301,1,89.1000027191163
256,352,126327,6,0,P|237:309|260:210,1,133.650004078674
267,195,126674,1,0,0:0:0:0:
166,352,126848,1,0,0:0:0:0:
156,337,126934,1,0,0:0:0:0:
149,320,127021,2,0,P|144:292|148:274,1,44.5500013595581
239,197,127194,1,0,0:0:0:0:
85,365,127368,2,0,P|66:322|89:223,1,133.650004078674
96,208,127715,6,0,P|126:251|161:273,1,89.1000027191163
354,294,128061,1,0,0:0:0:0:
163,162,128235,1,0,0:0:0:0:
172,177,128321,1,0,0:0:0:0:
184,190,128408,2,0,P|213:206|235:210,1,44.5500013595581
357,257,128582,1,0,0:0:0:0:
206,67,128755,2,0,P|227:117|279:149,1,89.1000027191163
96,0,129102,6,0,P|49:49|19:129,1,133.650004078674
14,141,129449,1,0,0:0:0:0:
155,54,129622,1,0,0:0:0:0:
148,70,129709,1,0,0:0:0:0:
146,87,129795,2,0,P|146:117|155:146,1,44.5500013595581
169,268,129969,1,0,0:0:0:0:
276,123,130142,2,0,P|320:148|366:149,1,89.1000027191163
431,384,130489,6,0,P|443:330|425:246,1,133.650004078674
413,229,130836,1,0,0:0:0:0:
301,329,131009,1,0,0:0:0:0:
284,336,131096,1,0,0:0:0:0:
266,337,131183,2,0,L|205:333,1,44.5500013595581
187,260,131356,2,0,L|126:256,1,44.5500013595581
102,172,131530,2,0,L|-6:164,1,89.1000027191163
158,23,131876,6,0,P|163:80|128:152,1,133.650004078674
102,172,132223,1,0,0:0:0:0:
249,33,132397,1,0,0:0:0:0:
257,48,132483,1,0,0:0:0:0:
267,62,132570,2,0,P|286:80|311:86,1,44.5500013595581
445,97,132743,1,0,0:0:0:0:
192,108,132917,2,0,P|227:147|267:164,1,89.1000027191163
483,309,133264,6,0,P|432:284|386:283,1,89.1000027191163
216,301,133611,1,0,0:0:0:0:
426,203,133784,1,0,0:0:0:0:
408,200,133871,1,0,0:0:0:0:
390,203,133957,2,0,P|361:212|341:231,1,44.5500013595581
288,384,134131,1,0,0:0:0:0:
247,203,134304,2,0,L|218:96,1,89.1000027191163
129,362,134651,6,0,L|138:224,1,133.650004078674
140,199,134998,1,0,0:0:0:0:
0,298,135171,1,0,0:0:0:0:
8,282,135258,1,0,0:0:0:0:
12,264,135345,2,0,L|17:211,1,44.5500013595581
149,112,135518,1,0,0:0:0:0:
260,319,135691,1,0,0:0:0:0:
153,70,135865,1,0,0:0:0:0:
153,70,135952,1,0,0:0:0:0:
153,70,136038,6,0,P|202:88|289:62,1,133.650004078674
306,51,136385,1,0,0:0:0:0:
100,168,136558,1,0,0:0:0:0:
109,183,136645,1,0,0:0:0:0:
118,198,136732,2,0,P|146:212|167:216,1,44.5500013595581
368,152,136905,1,0,0:0:0:0:
256,303,137079,2,0,P|305:321|356:314,1,89.1000027191163
111,357,137426,6,0,P|133:295|123:212,1,133.650004078674
118,198,137772,1,0,0:0:0:0:
218,363,137946,1,0,0:0:0:0:
233,372,138032,1,0,0:0:0:0:
250,376,138119,2,0,P|282:384|311:383,1,44.5500013595581
452,338,138293,1,0,0:0:0:0:
256,303,138466,2,0,P|268:255|263:201,1,89.1000027191163
281,0,138813,6,0,P|286:47|274:92,1,89.1000027191163
127,148,139160,1,0,0:0:0:0:
308,103,139333,1,0,0:0:0:0:
325,100,139420,1,0,0:0:0:0:
342,97,139506,2,0,L|391:107,1,44.5500013595581
386,213,139680,2,0,L|435:223,1,44.5500013595581
273,295,139853,2,0,L|366:314,1,89.1000027191163
487,77,140200,6,0,P|502:124|481:210,1,133.650004078674
464,229,140547,1,0,0:0:0:0:
392,26,140720,1,0,0:0:0:0:
397,43,140807,1,0,0:0:0:0:
397,60,140894,2,0,P|397:89|386:113,1,44.5500013595581
308,238,141067,1,0,0:0:0:0:
311,29,141241,2,0,P|283:77|244:97,1,89.1000027191163
2,266,141587,6,0,B|60:271|60:271|102:252|102:252|188:259,1,157.949992769623
188,260,141934,1,0,0:0:0:0:
49,143,142108,1,0,0:0:0:0:
88,145,142194,1,0,0:0:0:0:
125,132,142281,1,0,0:0:0:0:
155,107,142368,1,0,0:0:0:0:
174,73,142454,1,0,0:0:0:0:
146,344,142628,2,0,B|204:349|204:349|246:330|246:330|332:337,1,157.949992769623
334,338,142975,6,0,P|333:273|350:232,1,105.299995179749
428,65,143321,1,0,0:0:0:0:
482,336,143495,1,0,0:0:0:0:
447,354,143581,1,0,0:0:0:0:
408,361,143668,1,0,0:0:0:0:
369,356,143755,1,0,0:0:0:0:
334,338,143841,1,0,0:0:0:0:
394,74,144015,2,0,P|337:115|248:119,1,157.949992769623
216,107,144362,6,0,B|200:176|200:176|169:199|169:199|155:264,1,157.949992769623
150,279,144709,1,0,0:0:0:0:
96,21,144882,1,0,0:0:0:0:
114,55,144968,1,0,0:0:0:0:
142,83,145055,1,0,0:0:0:0:
177,101,145142,1,0,0:0:0:0:
216,107,145229,2,0,L|292:104,1,52.6499975898744
512,37,145402,2,0,B|455:22|455:22|401:42,1,105.299995179749
323,337,145749,5,0,0:0:0:0:
229,135,145923,1,0,0:0:0:0:
512,206,146096,1,0,0:0:0:0:
239,253,146269,1,0,0:0:0:0:
188,267,146355,1,0,0:0:0:0:
136,261,146442,1,0,0:0:0:0:
91,235,146529,1,0,0:0:0:0:
60,194,146616,2,0,P|51:169|49:136,1,52.6499975898744
319,201,146790,2,0,P|298:229|266:245,1,52.6499975898744
213,0,146963,1,0,0:0:0:0:
213,0,147050,1,0,0:0:0:0:
213,0,147137,5,0,0:0:0:0:
86,81,149911,6,0,P|66:98|106:142,1,97.2
100,143,151298,6,0,P|80:160|120:204,1,97.2
114,205,152686,6,0,P|94:222|134:266,1,97.2
128,267,154073,6,0,P|108:284|148:328,1,97.2
273,346,155460,6,0,P|289:321|266:223,1,129.6
207,176,156501,1,0,0:0:0:0:
187,364,156848,5,0,0:0:0:0:
24,297,157021,5,0,0:0:0:0:
63,313,157194,1,0,0:0:0:0:
364,188,157368,5,0,0:0:0:0:
293,223,157541,1,0,0:0:0:0:
7,118,157715,5,0,0:0:0:0:
110,174,157888,1,0,0:0:0:0:
355,28,158061,5,0,0:0:0:0:
468,75,158235,2,0,L|490:187,1,97.1999970336915
512,272,158755,1,0,0:0:0:0:
401,120,158928,2,0,P|372:106|351:104,1,48.5999985168458
426,209,159275,2,0,P|401:223|388:243,1,48.5999985168458
512,364,159622,6,0,L|405:350,1,97.1999970336915
306,384,160142,1,0,0:0:0:0:
389,239,160316,2,0,P|356:212|300:204,1,97.1999970336915
316,299,160836,1,0,0:0:0:0:
377,110,161009,6,0,L|387:219,1,97.1999970336915
472,276,161530,1,0,0:0:0:0:
281,218,161703,2,0,P|251:236|233:306,1,97.1999970336915
309,384,162223,1,0,0:0:0:0:
104,288,162397,6,0,L|154:291,1,48.5999985168458
48,194,162743,2,0,L|98:197,1,48.5999985168458
98,15,163090,6,0,P|88:41|56:63,1,48.5999985168458
169,72,163437,2,0,P|177:101|172:126,1,48.5999985168458
256,31,163784,6,0,P|279:62|285:181,1,145.799995550537
338,165,164478,2,0,L|269:166,1,48.5999985168458
251,84,164824,1,0,0:0:0:0:
340,45,164998,1,0,0:0:0:0:
156,39,165171,6,0,L|148:140,1,97.1999970336915
140,240,165691,1,0,0:0:0:0:
100,127,165865,2,0,L|162:138,1,48.5999985168458
0,213,166212,2,0,L|62:224,1,48.5999985168458
172,327,166558,6,0,P|169:284|133:235,1,97.1999970336915
16,304,167079,2,0,L|78:315,2,48.5999985168458
0,213,167599,1,0,0:0:0:0:
63,139,167772,1,0,0:0:0:0:
21,50,167946,5,0,0:0:0:0:
48,28,168119,1,0,0:0:0:0:
237,128,168293,5,0,0:0:0:0:
195,60,168466,1,0,0:0:0:0:
0,256,168639,6,0,P|47:240|111:253,1,97.1999970336915
172,183,169160,1,0,0:0:0:0:
206,308,169333,6,0,P|214:339|266:287,1,145.799995550537
219,191,170027,2,0,P|190:183|160:183,1,48.5999985168458
319,158,170374,2,0,L|310:258,1,97.1999970336915
352,142,171067,6,0,L|423:131,1,48.5999985168458
512,0,171414,2,0,L|513:98,1,97.1999970336915
512,212,171934,1,0,0:0:0:0:
433,67,172108,6,0,P|402:39|330:34,1,97.1999970336915
352,142,172628,1,0,0:0:0:0:
267,0,172801,2,0,L|265:60,1,48.5999985168458
178,74,173148,2,0,L|176:134,1,48.5999985168458
352,142,173495,6,0,L|243:144,1,97.1999970336915
88,143,174015,1,0,0:0:0:0:
178,74,174189,2,0,L|166:136,1,48.5999985168458
254,176,174535,2,0,L|242:238,1,48.5999985168458
76,353,174882,6,0,P|110:371|100:302,1,145.799995550537
1,248,175576,2,0,P|-1:215|14:187,1,48.5999985168458
149,201,175923,1,0,0:0:0:0:
93,276,176096,1,0,0:0:0:0:
24,71,176269,6,0,P|53:93|132:93,1,97.1999970336915
166,0,176790,1,0,0:0:0:0:
207,82,176963,2,0,P|210:110|204:135,1,48.5999985168458
282,19,177310,2,0,P|285:47|279:72,1,48.5999985168458
165,209,177657,6,0,L|274:214,1,97.1999970336915
359,219,178177,1,0,0:0:0:0:
382,71,178350,2,0,L|373:133,1,48.5999985168458
360,308,178697,1,0,0:0:0:0:
377,331,178871,1,0,0:0:0:0:
163,263,179044,5,0,0:0:0:0:
110,334,179217,1,0,0:0:0:0:
373,163,179391,5,0,0:0:0:0:
475,230,179564,1,0,0:0:0:0:
186,101,179738,5,0,0:0:0:0:
119,169,179911,1,0,0:0:0:0:
259,24,180085,2,0,P|276:52|273:76,1,48.5999985168458
255,362,180431,5,0,0:0:0:0:
56,309,181125,6,0,L|52:276,1,32.4
78,322,181819,2,0,L|74:289,1,32.4
100,49,182512,6,0,L|96:82,1,32.4
140,276,183206,6,0,L|144:243,1,32.4
118,289,183900,2,0,L|122:256,1,32.4
96,302,184593,2,0,L|100:269,1,32.4
318,337,185287,6,0,L|353:342,1,32.4
383,58,185980,6,0,L|347:63,1,32.4
398,88,186674,2,0,L|362:93,1,32.4
413,118,187368,2,0,L|377:123,1,32.4
140,0,188061,6,0,L|144:34,1,32.4
362,242,188755,6,0,L|358:208,1,32.4
387,251,189449,2,0,L|383:217,1,32.4
412,260,190142,2,0,L|408:226,1,32.4
472,0,190836,6,0,L|476:34,1,32.4
376,296,191530,6,0,P|355:304|304:296,1,64.8
273,226,192050,1,0,0:0:0:0:
207,278,192223,2,0,P|186:286|135:278,1,64.8
100,209,192743,1,0,0:0:0:0:
150,141,192917,6,0,P|171:133|222:141,1,64.8
100,209,193437,1,0,0:0:0:0:
118,0,193611,2,0,L|112:75,1,64.8
100,209,194131,1,0,0:0:0:0:
150,141,194305,6,0,P|171:133|222:141,1,64.8
214,52,194824,1,0,0:0:0:0:
275,141,194998,2,0,P|247:132|211:137,1,64.8
208,220,195518,1,0,0:0:0:0:
311,233,195691,6,0,P|323:263|349:279,1,64.8
432,299,196212,1,0,0:0:0:0:
471,224,196385,2,0,L|478:156,1,64.8
436,89,196905,1,0,0:0:0:0:
192,346,197079,6,0,L|116:342,1,64.8
70,284,197599,1,0,0:0:0:0:
57,204,197772,2,0,L|13:191,1,32.4
78,132,198119,2,0,L|34:119,1,32.4
216,28,198466,6,0,L|172:41,1,32.4
237,100,198813,2,0,L|193:113,1,32.4
191,318,199160,2,0,L|235:305,1,32.4
170,246,199507,2,0,L|214:233,1,32.4
269,280,199853,5,0,0:0:0:0:
334,231,200027,1,0,0:0:0:0:
339,150,200200,1,0,0:0:0:0:
281,92,200374,1,0,0:0:0:0:
356,64,200547,1,0,0:0:0:0:
433,87,200720,1,0,0:0:0:0:
479,153,200894,1,0,0:0:0:0:
507,77,201067,1,0,0:0:0:0:
429,307,201241,5,0,0:0:0:0:
423,312,201327,1,0,0:0:0:0:
417,317,201414,1,0,0:0:0:0:
410,321,201501,1,0,0:0:0:0:
402,324,201587,1,0,0:0:0:0:
394,326,201674,1,0,0:0:0:0:
386,326,201761,1,0,0:0:0:0:
378,324,201847,1,0,0:0:0:0:
370,322,201934,5,0,0:0:0:0:
366,302,202020,1,0,0:0:0:0:
359,283,202107,1,0,0:0:0:0:
348,266,202194,1,0,0:0:0:0:
334,251,202280,1,0,0:0:0:0:
318,239,202367,1,0,0:0:0:0:
300,230,202454,1,0,0:0:0:0:
280,225,202540,1,0,0:0:0:0:
260,223,202628,6,0,P|229:181|228:132,1,97.1999970336915
236,109,202888,1,0,0:0:0:0:
259,91,202975,1,0,0:0:0:0:
115,22,203148,1,0,0:0:0:0:
120,45,203234,1,0,0:0:0:0:
121,69,203321,1,0,0:0:0:0:
117,93,203408,1,0,0:0:0:0:
108,116,203494,1,0,0:0:0:0:
49,231,203668,2,0,L|1:240,1,48.5999985168458
131,357,203842,2,0,L|179:366,1,48.5999985168458
196,228,204015,6,0,L|244:219,1,48.5999985168458
32,340,204189,1,0,0:0:0:0:
297,325,204362,1,0,0:0:0:0:
191,143,204535,1,0,0:0:0:0:
186,119,204621,1,0,0:0:0:0:
187,94,204708,1,0,0:0:0:0:
192,71,204795,1,0,0:0:0:0:
203,49,204881,1,0,0:0:0:0:
0,57,205056,2,0,P|39:100|56:146,1,97.1999970336915
55,164,205316,1,0,0:0:0:0:
43,195,205402,6,0,L|151:195,1,97.1999970336915
169,212,205663,1,0,0:0:0:0:
180,243,205749,2,0,P|218:286|265:298,1,97.1999970336915
288,291,206009,1,0,0:0:0:0:
300,270,206095,1,0,0:0:0:0:
319,254,206182,1,0,0:0:0:0:
341,246,206269,1,0,0:0:0:0:
87,350,206443,6,0,L|104:216,1,97.1999970336915
73,230,206703,1,0,0:0:0:0:
42,214,206790,6,0,L|48:160,1,48.5999985168458
145,96,206963,2,0,L|151:42,1,48.5999985168458
208,214,207137,2,0,L|214:160,1,48.5999985168458
38,67,207310,1,0,0:0:0:0:
116,304,207483,1,0,0:0:0:0:
116,304,207570,1,0,0:0:0:0:
116,304,207657,1,0,0:0:0:0:
153,58,207830,1,0,0:0:0:0:
216,232,208004,1,0,0:0:0:0:
242,252,208090,1,0,0:0:0:0:
275,255,208177,6,0,P|330:245|363:209,1,97.1999970336915
419,44,208524,1,0,0:0:0:0:
452,220,208697,1,0,0:0:0:0:
429,211,208783,1,0,0:0:0:0:
405,208,208870,1,0,0:0:0:0:
381,209,208957,1,0,0:0:0:0:
357,216,209043,1,0,0:0:0:0:
391,41,209217,2,0,L|280:20,1,97.1999970336915
261,28,209478,1,0,0:0:0:0:
246,58,209564,6,0,L|237:167,1,97.1999970336915
218,182,209824,1,0,0:0:0:0:
188,199,209911,2,0,L|120:200,1,48.5999985168458
126,107,210085,2,0,L|58:108,1,48.5999985168458
12,255,210258,1,0,0:0:0:0:
12,255,210345,1,0,0:0:0:0:
12,255,210431,1,0,0:0:0:0:
43,37,210605,2,0,L|150:34,1,97.1999970336915
172,44,210865,1,0,0:0:0:0:
201,61,210952,6,0,P|219:115|184:164,1,97.1999970336915
183,177,211212,1,0,0:0:0:0:
153,201,211298,2,0,L|232:271,1,97.1999970336915
264,270,211558,1,0,0:0:0:0:
287,274,211644,1,0,0:0:0:0:
308,286,211731,1,0,0:0:0:0:
323,305,211818,1,0,0:0:0:0:
103,384,211992,2,0,P|129:329|177:303,1,97.1999970336915
160,270,212252,1,0,0:0:0:0:
121,261,212339,6,0,L|46:249,1,48.5999985168458
54,149,212512,2,0,L|-21:137,1,48.5999985168458
167,71,212686,2,0,L|92:59,1,48.5999985168458
241,183,212859,1,0,0:0:0:0:
37,239,213032,1,0,0:0:0:0:
37,239,213119,1,0,0:0:0:0:
37,239,213206,1,0,0:0:0:0:
257,93,213379,2,0,P|306:114|333:171,1,97.1999970336915
332,188,213639,1,0,0:0:0:0:
371,188,213726,6,0,L|377:304,1,97.1999970336915
254,358,214073,1,0,0:0:0:0:
252,152,214246,1,0,0:0:0:0:
264,131,214332,1,0,0:0:0:0:
281,114,214419,1,0,0:0:0:0:
303,103,214506,1,0,0:0:0:0:
327,100,214592,1,0,0:0:0:0:
460,210,214767,2,0,L|466:326,1,97.1999970336915
442,338,215027,1,0,0:0:0:0:
406,352,215113,6,0,L|338:343,1,48.5999985168458
309,266,215287,2,0,L|241:257,1,48.5999985168458
375,159,215460,2,0,L|307:150,1,48.5999985168458
488,247,215634,1,0,0:0:0:0:
180,254,215807,1,0,0:0:0:0:
180,254,215894,1,0,0:0:0:0:
180,254,215980,1,0,0:0:0:0:
338,35,216154,2,0,P|365:80|373:132,1,97.1999970336915
375,159,216414,1,0,0:0:0:0:
413,167,216501,6,0,L|474:180,1,48.5999985168458
512,61,216674,2,0,L|465:51,1,48.5999985168458
421,303,216848,1,0,0:0:0:0:
272,114,217021,1,0,0:0:0:0:
248,110,217107,1,0,0:0:0:0:
224,106,217194,1,0,0:0:0:0:
200,102,217281,1,0,0:0:0:0:
176,98,217367,1,0,0:0:0:0:
60,200,217541,1,0,0:0:0:0:
97,0,217715,1,0,0:0:0:0:
97,0,217801,1,0,0:0:0:0:
97,0,217888,6,0,L|208:23,1,97.1999970336915
237,212,218235,1,0,0:0:0:0:
380,51,218408,2,0,L|385:111,1,48.5999985168458
467,17,218582,2,0,L|483:188,1,145.799995550537
465,194,218928,6,0,P|410:175|362:257,1,145.799995550537
354,266,219275,6,0,B|263:200|230:325|117:244,1,226.799993078613
412,347,219795,1,0,0:0:0:0:
432,328,219881,1,0,0:0:0:0:
446,303,219968,1,0,0:0:0:0:
452,275,220055,1,0,0:0:0:0:
449,247,220141,1,0,0:0:0:0:
266,109,220316,2,0,P|205:145|194:185,1,113.399996539307
74,23,220663,6,0,L|85:154,1,113.399996539307
69,179,220923,1,0,0:0:0:0:
34,208,221009,2,0,L|73:261,1,56.6999982696534
163,372,221183,1,0,0:0:0:0:
183,161,221356,1,0,0:0:0:0:
183,161,221443,1,0,0:0:0:0:
183,161,221530,2,0,L|176:227,1,56.6999982696534
23,344,221703,1,0,0:0:0:0:
265,306,221876,1,0,0:0:0:0:
309,316,221963,1,0,0:0:0:0:
357,299,222050,6,0,B|441:255|390:136|390:136|351:205,1,226.799993078613
225,310,222570,1,0,0:0:0:0:
201,325,222656,1,0,0:0:0:0:
174,334,222743,1,0,0:0:0:0:
146,334,222830,1,0,0:0:0:0:
119,326,222916,1,0,0:0:0:0:
66,81,223090,2,0,P|101:132|105:204,1,113.399996539307
78,223,223350,1,0,0:0:0:0:
39,256,223437,6,0,L|33:323,1,56.6999982696534
183,97,223611,6,0,L|177:164,1,56.6999982696534
119,326,223784,6,0,L|113:393,1,56.6999982696534
263,167,223958,6,0,L|257:234,1,56.6999982696534
439,353,224131,1,0,0:0:0:0:
439,353,224217,1,0,0:0:0:0:
439,353,224304,1,0,0:0:0:0:
256,32,224478,1,0,0:0:0:0:
258,344,224651,1,0,0:0:0:0:
258,344,224738,1,0,0:0:0:0:
258,344,224824,6,0,P|192:366|152:264,1,178.200005438233
348,327,225345,1,0,0:0:0:0:
348,327,225431,1,0,0:0:0:0:
348,327,225518,2,0,L|365:259,1,44.5500013595581
265,211,225691,2,0,L|282:143,1,44.5500013595581
450,218,225865,2,0,L|475:110,1,89.1000027191163
503,109,226125,1,0,0:0:0:0:
463,104,226212,6,0,L|367:83,1,89.1000027191163
200,52,226558,1,0,0:0:0:0:
373,111,226732,1,0,0:0:0:0:
373,133,226818,1,0,0:0:0:0:
368,154,226905,1,0,0:0:0:0:
358,174,226992,1,0,0:0:0:0:
344,192,227078,1,0,0:0:0:0:
176,69,227252,6,0,L|74:93,1,89.1000027191163
51,76,227512,1,0,0:0:0:0:
60,115,227599,6,0,L|85:216,1,89.1000027191163
0,321,227946,1,0,0:0:0:0:
146,152,228119,1,0,0:0:0:0:
114,349,228293,2,0,L|219:366,1,89.1000027191163
255,285,228639,2,0,L|360:302,1,89.1000027191163
433,32,228986,6,0,P|454:95|429:155,1,133.650004078674
398,180,229333,1,0,0:0:0:0:
325,77,229506,1,0,0:0:0:0:
303,72,229592,1,0,0:0:0:0:
281,68,229679,1,0,0:0:0:0:
259,64,229766,1,0,0:0:0:0:
237,60,229852,1,0,0:0:0:0:
395,210,230027,2,0,L|383:309,1,89.1000027191163
364,333,230287,1,0,0:0:0:0:
330,355,230374,6,0,P|268:368|197:328,1,133.650004078674
184,305,230720,1,0,0:0:0:0:
346,140,230894,1,0,0:0:0:0:
350,161,230980,1,0,0:0:0:0:
360,181,231067,1,0,0:0:0:0:
375,197,231154,1,0,0:0:0:0:
394,209,231240,1,0,0:0:0:0:
512,370,231414,2,0,L|407:347,1,89.1000027191163
409,313,231674,1,0,0:0:0:0:
381,342,231761,6,0,L|277:368,1,89.1000027191163
163,357,232108,2,0,L|154:243,1,89.1000027191163
132,47,232454,2,0,P|179:65|96:118,1,178.200005438233
0,88,232975,1,0,0:0:0:0:
235,7,233148,6,0,P|263:48|255:150,1,133.650004078674
245,165,233495,1,0,0:0:0:0:
433,23,233668,1,0,0:0:0:0:
433,23,233755,1,0,0:0:0:0:
433,23,233842,2,0,L|446:78,1,44.5500013595581
371,163,234015,2,0,L|384:218,1,44.5500013595581
322,17,234189,2,0,P|282:51|234:58,1,89.1000027191163
210,42,234449,1,0,0:0:0:0:
190,76,234535,6,0,L|134:164,1,89.1000027191163
25,306,234882,1,0,0:0:0:0:
55,129,235056,1,0,0:0:0:0:
77,131,235142,1,0,0:0:0:0:
97,140,235229,1,0,0:0:0:0:
114,154,235316,1,0,0:0:0:0:
126,173,235402,1,0,0:0:0:0:
113,361,235576,2,0,L|224:370,1,89.1000027191163
240,357,235836,1,0,0:0:0:0:
211,328,235923,6,0,L|219:229,1,89.1000027191163
349,157,236269,1,0,0:0:0:0:
159,155,236443,2,0,L|100:154,1,44.5500013595581
266,23,236616,1,0,0:0:0:0:
266,23,236703,1,0,0:0:0:0:
266,23,236790,2,0,L|259:96,1,44.5500013595581
265,226,236963,2,0,L|305:328,1,89.1000027191163
331,330,237223,1,0,0:0:0:0:
369,342,237310,6,0,P|426:346|459:325,1,89.1000027191163
512,169,237657,1,0,0:0:0:0:
304,208,237830,1,0,0:0:0:0:
304,208,237917,1,0,0:0:0:0:
304,208,238004,2,0,P|293:157|268:121,1,89.1000027191163
113,317,238350,2,0,P|162:332|206:329,1,89.1000027191163
114,97,238697,6,0,P|75:132|56:171,1,89.1000027191163
45,202,238957,1,0,0:0:0:0:
42,242,239044,1,0,0:0:0:0:
205,57,239217,1,0,0:0:0:0:
202,79,239303,1,0,0:0:0:0:
200,101,239390,1,0,0:0:0:0:
198,123,239477,1,0,0:0:0:0:
196,145,239563,1,0,0:0:0:0:
74,340,239738,2,0,P|118:338|159:353,1,89.1000027191163
345,303,240085,6,0,P|396:320|443:313,1,89.1000027191163
512,187,240431,1,0,0:0:0:0:
306,194,240605,2,0,L|307:139,1,44.5500013595581
430,316,240778,2,0,L|432:198,1,89.1000027191163
309,116,241125,2,0,L|311:-2,1,89.1000027191163
54,252,241472,6,0,P|20:305|126:313,1,210.599990359498
112,83,241992,1,0,0:0:0:0:
89,69,242078,1,0,0:0:0:0:
63,63,242165,1,0,0:0:0:0:
37,65,242252,1,0,0:0:0:0:
12,73,242338,1,0,0:0:0:0:
225,346,242512,2,0,P|278:319|292:268,1,105.299995179749
263,27,242859,6,0,L|289:134,1,105.299995179749
430,291,243206,1,0,0:0:0:0:
449,67,243379,1,0,0:0:0:0:
449,67,243466,1,0,0:0:0:0:
449,67,243553,2,0,L|475:174,1,105.299995179749
512,367,243900,1,0,0:0:0:0:
363,223,244073,1,0,0:0:0:0:
304,331,244246,6,0,L|61:331,1,210.599990359498
43,152,244767,1,0,0:0:0:0:
43,152,244853,1,0,0:0:0:0:
43,152,244940,2,0,L|59:91,1,52.6499975898744
93,331,245113,1,0,0:0:0:0:
214,151,245287,2,0,P|252:110|306:96,1,105.299995179749
344,85,245547,1,0,0:0:0:0:
376,50,245634,6,0,L|381:169,1,105.299995179749
387,384,245980,1,0,0:0:0:0:
480,263,246154,1,0,0:0:0:0:
480,263,246241,1,0,0:0:0:0:
480,263,246327,2,0,L|404:234,1,52.6499975898744
288,269,246501,6,0,L|226:267,1,52.6499975898744
155,134,246674,6,0,L|85:102,1,52.6499975898744
0,359,246848,5,0,0:0:0:0:
280,32,247021,6,0,P|288:106|270:135,1,97.1999970336915
148,266,247368,1,0,0:0:0:0:
155,134,247541,1,0,0:0:0:0:
278,316,247715,5,0,0:0:0:0:
18,307,247888,1,0,0:0:0:0:
306,311,248061,1,0,0:0:0:0:
54,185,248235,6,0,P|29:231|34:283,1,97.1999970336915
107,103,248582,2,0,P|59:125|33:170,1,97.1999970336915
214,118,248928,1,0,0:0:0:0:
137,341,249102,1,0,0:0:0:0:
137,341,249189,1,0,0:0:0:0:
137,341,249275,2,0,L|202:353,1,48.5999985168458
356,346,249449,1,0,0:0:0:0:
244,241,249622,1,0,0:0:0:0:
244,241,249709,1,0,0:0:0:0:
244,241,249795,6,0,P|303:250|338:239,1,97.1999970336915
432,114,250142,1,0,0:0:0:0:
424,262,250316,1,0,0:0:0:0:
512,22,250489,1,0,0:0:0:0:
333,224,250663,1,0,0:0:0:0:
488,48,250836,1,0,0:0:0:0:
269,157,251009,6,0,P|294:202|341:225,1,97.1999970336915
227,68,251356,2,0,P|221:120|245:166,1,97.1999970336915
293,0,251703,1,0,0:0:0:0:
480,159,251876,1,0,0:0:0:0:
480,159,251963,1,0,0:0:0:0:
480,159,252050,2,0,L|479:216,1,48.5999985168458
405,354,252223,1,0,0:0:0:0:
367,148,252397,1,0,0:0:0:0:
367,148,252483,1,0,0:0:0:0:
367,148,252570,6,0,P|378:206|356:261,1,97.1999970336915
208,347,252917,1,0,0:0:0:0:
373,353,253090,1,0,0:0:0:0:
239,101,253264,1,0,0:0:0:0:
208,347,253437,1,0,0:0:0:0:
237,126,253611,1,0,0:0:0:0:
269,250,253784,6,0,P|217:259|169:238,1,97.1999970336915
363,224,254131,2,0,P|326:261|275:273,1,97.1999970336915
382,118,254477,1,0,0:0:0:0:
346,361,254651,1,0,0:0:0:0:
346,361,254738,1,0,0:0:0:0:
346,361,254824,2,0,P|400:323|438:325,1,97.1999970336915
477,151,255171,1,0,0:0:0:0:
477,151,255258,1,0,0:0:0:0:
477,151,255345,6,0,L|475:209,1,48.5999985168458
464,339,255518,1,0,0:0:0:0:
361,255,255691,1,0,0:0:0:0:
174,328,255865,1,0,0:0:0:0:
464,339,256038,1,0,0:0:0:0:
210,328,256212,1,0,0:0:0:0:
354,366,256385,1,0,0:0:0:0:
338,165,256558,6,0,P|363:211|358:263,1,97.1999970336915
285,83,256905,2,0,P|332:105|358:150,1,97.1999970336915
178,98,257251,1,0,0:0:0:0:
412,0,257426,1,0,0:0:0:0:
412,0,257512,1,0,0:0:0:0:
412,0,257599,2,0,L|300:14,1,97.1999970336915
344,210,257946,1,0,0:0:0:0:
344,210,258032,1,0,0:0:0:0:
344,210,258119,6,0,P|298:170|257:163,1,97.1999970336915
66,160,258466,1,0,0:0:0:0:
156,21,258639,1,0,0:0:0:0:
113,278,258813,2,0,P|144:321|193:337,1,97.1999970336915
401,272,259160,2,0,P|423:224|413:174,1,97.1999970336915
316,356,259506,6,0,L|283:251,1,97.1999970336915
231,96,259853,1,0,0:0:0:0:
130,244,260027,1,0,0:0:0:0:
145,262,260113,1,0,0:0:0:0:
165,275,260200,1,0,0:0:0:0:
188,282,260287,1,0,0:0:0:0:
213,282,260373,1,0,0:0:0:0:
319,80,260547,2,0,P|290:30|253:12,1,97.1999970336915
214,25,260807,1,0,0:0:0:0:
170,20,260894,6,0,L|94:114,1,97.1999970336915
0,219,261241,1,0,0:0:0:0:
124,108,261414,1,0,0:0:0:0:
53,340,261587,1,0,0:0:0:0:
287,283,261761,1,0,0:0:0:0:
114,143,261934,1,0,0:0:0:0:
207,330,262108,6,0,P|257:315|290:274,1,97.1999970336915
111,350,262455,2,0,P|160:367|210:354,1,97.1999970336915
46,264,262801,1,0,0:0:0:0:
356,357,262975,1,0,0:0:0:0:
356,357,263061,1,0,0:0:0:0:
356,357,263148,1,0,0:0:0:0:
418,112,263321,2,0,L|390:228,1,97.1999970336915
165,47,263668,6,0,P|98:68|145:148,1,145.799995550537
122,149,264015,1,0,0:0:0:0:
367,22,264189,1,0,0:0:0:0:
466,301,264362,1,0,0:0:0:0:
75,260,264535,1,0,0:0:0:0:
360,109,264709,1,0,0:0:0:0:
122,149,264882,6,0,P|119:97|139:51,1,97.1999970336915
291,290,265229,2,0,P|233:291|182:253,1,97.1999970336915
274,128,265576,1,0,0:0:0:0:
0,307,265749,1,0,0:0:0:0:
0,307,265836,1,0,0:0:0:0:
0,307,265923,1,0,0:0:0:0:
294,341,266096,1,0,0:0:0:0:
250,0,266269,1,0,0:0:0:0:
92,276,266443,6,0,P|129:325|166:337,1,97.1999970336915
452,152,266790,1,0,0:0:0:0:
233,104,266963,1,0,0:0:0:0:
243,125,267049,1,0,0:0:0:0:
254,147,267136,1,0,0:0:0:0:
264,169,267223,1,0,0:0:0:0:
275,191,267309,1,0,0:0:0:0:
121,344,267483,1,0,0:0:0:0:
281,361,267657,1,0,0:0:0:0:
71,43,267830,6,0,L|28:55,1,40.5
439,325,268177,1,0,0:0:0:0:
40,126,268350,2,0,L|-3:138,1,40.5
492,244,268697,1,0,0:0:0:0:
258,216,268871,2,0,P|248:251|251:286,1,60.75
256,301,269217,5,0,0:0:0:0:
