osu file format v14

[General]
AudioFilename: dadadadadadadadadada.mp3
AudioLeadIn: 0
PreviewTime: 73847
Countdown: 0
SampleSet: None
StackLeniency: 0.7
Mode: 3
LetterboxInBreaks: 0
SpecialStyle: 0
WidescreenStoryboard: 1

[Editor]
DistanceSpacing: 1.3
BeatDivisor: 4
GridSize: 4
TimelineZoom: 2.4

[Metadata]
Title:Dadadadadadadadadada
TitleUnicode:打打打打打打打打打打
Artist:Hige Driver join. SELEN
ArtistUnicode:ヒゲドライバー join. SELEN
Creator:Hydria
Version:Insane
Source:REFLEC BEAT groovin'!!
Tags:
BeatmapID:1269324
BeatmapSetID:600729

[Difficulty]
HPDrainRate:8
CircleSize:4
OverallDifficulty:8
ApproachRate:5
SliderMultiplier:1.4
SliderTickRate:1

[Events]
//Background and Video events
0,0,"f230e9d4d0b671192d6fa7d768bd9c29.jpg",0,0
//Break Periods
//Storyboard Layer 0 (Background)
//Storyboard Layer 1 (Fail)
//Storyboard Layer 2 (Pass)
//Storyboard Layer 3 (Foreground)
//Storyboard Sound Samples

[TimingPoints]
771,384.615384615385,4,2,3,30,1,0
74617,-100,4,2,3,30,0,1
90001,-100,4,2,3,30,0,0

[HitObjects]
448,192,4040,5,0,0:0:0:0:
448,192,4809,1,0,0:0:0:0:
448,192,5386,1,0,0:0:0:0:
448,192,5835,1,0,0:0:0:0:
448,192,6251,1,0,0:0:0:0:
448,192,6588,1,0,0:0:0:0:
448,192,6828,1,0,0:0:0:0:
448,192,7021,1,0,0:0:0:0:
448,192,7165,1,0,0:0:0:0:
448,192,7309,1,0,0:0:0:0:
448,192,7405,1,0,0:0:0:0:
448,192,7501,1,0,0:0:0:0:
448,192,7597,1,0,0:0:0:0:
448,192,7694,1,0,0:0:0:0:
448,192,7790,1,0,0:0:0:0:
448,192,7886,1,0,0:0:0:0:
448,192,7982,1,0,0:0:0:0:
448,192,8078,1,0,0:0:0:0:
448,192,8174,1,0,0:0:0:0:
320,192,8463,1,0,0:0:0:0:
448,192,8463,1,0,0:0:0:0:
320,192,8591,1,0,0:0:0:0:
448,192,8591,1,0,0:0:0:0:
448,192,8719,1,0,0:0:0:0:
320,192,8719,1,0,0:0:0:0:
64,192,8847,1,0,0:0:0:0:
448,192,8847,1,0,0:0:0:0:
448,192,8976,1,0,0:0:0:0:
64,192,8976,1,0,0:0:0:0:
64,192,9104,1,0,0:0:0:0:
448,192,9104,1,0,0:0:0:0:
192,192,9232,1,0,0:0:0:0:
64,192,9232,1,0,0:0:0:0:
64,192,9360,1,0,0:0:0:0:
192,192,9360,1,0,0:0:0:0:
64,192,9488,1,0,0:0:0:0:
192,192,9488,1,0,0:0:0:0:
192,192,9617,1,0,0:0:0:0:
320,192,9617,1,0,0:0:0:0:
448,192,9617,1,0,0:0:0:0:
64,192,10001,1,0,0:0:0:0:
448,192,10001,1,0,0:0:0:0:
320,192,10001,1,0,0:0:0:0:
64,192,10097,1,0,0:0:0:0:
192,192,10097,1,0,0:0:0:0:
320,192,10194,1,0,0:0:0:0:
64,192,10290,1,0,0:0:0:0:
448,192,10290,1,0,0:0:0:0:
192,192,10386,1,0,0:0:0:0:
448,192,10386,1,0,0:0:0:0:
320,192,10482,1,0,0:0:0:0:
192,192,10578,1,0,0:0:0:0:
64,192,10578,1,0,0:0:0:0:
448,192,10674,1,0,0:0:0:0:
320,192,10771,1,0,0:0:0:0:
64,192,10771,1,0,0:0:0:0:
192,192,10867,1,0,0:0:0:0:
320,192,10867,1,0,0:0:0:0:
64,192,10963,1,0,0:0:0:0:
192,192,11059,1,0,0:0:0:0:
448,192,11059,1,0,0:0:0:0:
320,192,11155,1,0,0:0:0:0:
448,192,11155,1,0,0:0:0:0:
192,192,11251,1,0,0:0:0:0:
64,192,11347,1,0,0:0:0:0:
320,192,11347,1,0,0:0:0:0:
448,192,11444,1,0,0:0:0:0:
64,192,11540,1,0,0:0:0:0:
192,192,11540,1,0,0:0:0:0:
192,192,11636,1,0,0:0:0:0:
320,192,11636,1,0,0:0:0:0:
448,192,11732,1,0,0:0:0:0:
192,192,11828,1,0,0:0:0:0:
64,192,11828,1,0,0:0:0:0:
64,192,11924,1,0,0:0:0:0:
448,192,11924,1,0,0:0:0:0:
320,192,12021,1,0,0:0:0:0:
192,192,12117,1,0,0:0:0:0:
64,192,12117,1,0,0:0:0:0:
320,192,12213,1,0,0:0:0:0:
192,192,12309,1,0,0:0:0:0:
448,192,12309,1,0,0:0:0:0:
64,192,12405,1,0,0:0:0:0:
320,192,12501,1,0,0:0:0:0:
448,192,12501,1,0,0:0:0:0:
64,192,12597,1,0,0:0:0:0:
320,192,12694,1,0,0:0:0:0:
448,192,12694,1,0,0:0:0:0:
64,192,12790,1,0,0:0:0:0:
192,192,12886,1,0,0:0:0:0:
320,192,12886,1,0,0:0:0:0:
448,192,12982,1,0,0:0:0:0:
64,192,12982,1,0,0:0:0:0:
192,192,13078,1,0,0:0:0:0:
320,192,13078,1,0,0:0:0:0:
320,192,13174,1,0,0:0:0:0:
448,192,13174,1,0,0:0:0:0:
192,192,13271,1,0,0:0:0:0:
64,192,13367,1,0,0:0:0:0:
448,192,13367,1,0,0:0:0:0:
320,192,13463,1,0,0:0:0:0:
64,192,13463,1,0,0:0:0:0:
192,192,13559,1,0,0:0:0:0:
320,192,13655,1,0,0:0:0:0:
448,192,13655,1,0,0:0:0:0:
64,192,13751,1,0,0:0:0:0:
192,192,13847,1,0,0:0:0:0:
448,192,13847,1,0,0:0:0:0:
320,192,13944,1,0,0:0:0:0:
192,192,13944,1,0,0:0:0:0:
448,192,14040,1,0,0:0:0:0:
64,192,14136,1,0,0:0:0:0:
192,192,14136,1,0,0:0:0:0:
320,192,14232,1,0,0:0:0:0:
64,192,14232,1,0,0:0:0:0:
448,192,14328,1,0,0:0:0:0:
192,192,14424,1,0,0:0:0:0:
320,192,14424,1,0,0:0:0:0:
64,192,14521,1,0,0:0:0:0:
448,192,14617,1,0,0:0:0:0:
192,192,14617,1,0,0:0:0:0:
320,192,14713,1,0,0:0:0:0:
448,192,14713,1,0,0:0:0:0:
64,192,14809,1,0,0:0:0:0:
192,192,14905,1,0,0:0:0:0:
320,192,14905,1,0,0:0:0:0:
448,192,15001,1,0,0:0:0:0:
192,192,15001,1,0,0:0:0:0:
64,192,15097,1,0,0:0:0:0:
320,192,15194,1,0,0:0:0:0:
448,192,15194,1,0,0:0:0:0:
64,192,15290,1,0,0:0:0:0:
192,192,15386,1,0,0:0:0:0:
320,192,15386,1,0,0:0:0:0:
448,192,15482,1,0,0:0:0:0:
64,192,15578,1,0,0:0:0:0:
192,192,15578,1,0,0:0:0:0:
320,192,15674,1,0,0:0:0:0:
448,192,15674,1,0,0:0:0:0:
192,192,15771,1,0,0:0:0:0:
64,192,15771,1,0,0:0:0:0:
320,192,15867,1,0,0:0:0:0:
192,192,15963,1,0,0:0:0:0:
448,192,15963,1,0,0:0:0:0:
64,192,16059,1,0,0:0:0:0:
448,192,16155,1,0,0:0:0:0:
320,192,16155,1,0,0:0:0:0:
64,192,16251,1,0,0:0:0:0:
320,192,16251,1,0,0:0:0:0:
192,192,16347,1,0,0:0:0:0:
64,192,16444,1,0,0:0:0:0:
448,192,16444,1,0,0:0:0:0:
192,192,16540,1,0,0:0:0:0:
448,192,16540,1,0,0:0:0:0:
320,192,16636,1,0,0:0:0:0:
192,192,16732,1,0,0:0:0:0:
64,192,16732,1,0,0:0:0:0:
448,192,16828,1,0,0:0:0:0:
320,192,16924,1,0,0:0:0:0:
64,192,16924,1,0,0:0:0:0:
192,192,17021,1,0,0:0:0:0:
320,192,17021,1,0,0:0:0:0:
64,192,17117,1,0,0:0:0:0:
192,192,17213,1,0,0:0:0:0:
448,192,17213,1,0,0:0:0:0:
320,192,17309,1,0,0:0:0:0:
448,192,17309,1,0,0:0:0:0:
192,192,17405,1,0,0:0:0:0:
64,192,17501,1,0,0:0:0:0:
320,192,17501,1,0,0:0:0:0:
448,192,17597,1,0,0:0:0:0:
64,192,17694,1,0,0:0:0:0:
192,192,17694,1,0,0:0:0:0:
192,192,17790,1,0,0:0:0:0:
320,192,17790,1,0,0:0:0:0:
448,192,17886,1,0,0:0:0:0:
192,192,17982,1,0,0:0:0:0:
64,192,17982,1,0,0:0:0:0:
64,192,18078,1,0,0:0:0:0:
448,192,18078,1,0,0:0:0:0:
320,192,18174,1,0,0:0:0:0:
192,192,18271,1,0,0:0:0:0:
64,192,18271,1,0,0:0:0:0:
320,192,18367,1,0,0:0:0:0:
192,192,18463,1,0,0:0:0:0:
448,192,18463,1,0,0:0:0:0:
64,192,18559,1,0,0:0:0:0:
320,192,18655,1,0,0:0:0:0:
448,192,18655,1,0,0:0:0:0:
64,192,18751,1,0,0:0:0:0:
320,192,18847,1,0,0:0:0:0:
448,192,18847,1,0,0:0:0:0:
64,192,18944,1,0,0:0:0:0:
192,192,19040,1,0,0:0:0:0:
320,192,19040,1,0,0:0:0:0:
448,192,19136,1,0,0:0:0:0:
64,192,19136,1,0,0:0:0:0:
192,192,19232,1,0,0:0:0:0:
320,192,19232,1,0,0:0:0:0:
320,192,19328,1,0,0:0:0:0:
448,192,19328,1,0,0:0:0:0:
192,192,19424,1,0,0:0:0:0:
64,192,19521,1,0,0:0:0:0:
448,192,19521,1,0,0:0:0:0:
320,192,19617,1,0,0:0:0:0:
64,192,19617,1,0,0:0:0:0:
192,192,19713,1,0,0:0:0:0:
320,192,19809,1,0,0:0:0:0:
448,192,19809,1,0,0:0:0:0:
64,192,19905,1,0,0:0:0:0:
192,192,20001,1,0,0:0:0:0:
448,192,20001,1,0,0:0:0:0:
320,192,20097,1,0,0:0:0:0:
192,192,20097,1,0,0:0:0:0:
448,192,20194,1,0,0:0:0:0:
64,192,20290,1,0,0:0:0:0:
192,192,20290,1,0,0:0:0:0:
320,192,20386,1,0,0:0:0:0:
64,192,20386,1,0,0:0:0:0:
448,192,20482,1,0,0:0:0:0:
192,192,20578,1,0,0:0:0:0:
320,192,20578,1,0,0:0:0:0:
64,192,20674,1,0,0:0:0:0:
448,192,20771,1,0,0:0:0:0:
192,192,20771,1,0,0:0:0:0:
320,192,20867,1,0,0:0:0:0:
448,192,20867,1,0,0:0:0:0:
64,192,20963,1,0,0:0:0:0:
192,192,21059,1,0,0:0:0:0:
320,192,21059,1,0,0:0:0:0:
448,192,21155,1,0,0:0:0:0:
192,192,21155,1,0,0:0:0:0:
64,192,21251,1,0,0:0:0:0:
320,192,21347,1,0,0:0:0:0:
448,192,21347,1,0,0:0:0:0:
64,192,21444,1,0,0:0:0:0:
192,192,21540,1,0,0:0:0:0:
320,192,21540,1,0,0:0:0:0:
448,192,21636,1,0,0:0:0:0:
64,192,21732,1,0,0:0:0:0:
192,192,21732,1,0,0:0:0:0:
320,192,21828,1,0,0:0:0:0:
448,192,21828,1,0,0:0:0:0:
192,192,21924,1,0,0:0:0:0:
64,192,21924,1,0,0:0:0:0:
320,192,22021,1,0,0:0:0:0:
192,192,22117,1,0,0:0:0:0:
448,192,22117,1,0,0:0:0:0:
64,192,22213,1,0,0:0:0:0:
448,192,22309,1,0,0:0:0:0:
320,192,22309,1,0,0:0:0:0:
320,192,22405,1,0,0:0:0:0:
192,192,22405,1,0,0:0:0:0:
64,192,22501,1,0,0:0:0:0:
192,192,22501,1,0,0:0:0:0:
320,192,22597,1,0,0:0:0:0:
448,192,22694,1,0,0:0:0:0:
64,192,22694,1,0,0:0:0:0:
192,192,22790,1,0,0:0:0:0:
448,192,22790,1,0,0:0:0:0:
64,192,22886,1,0,0:0:0:0:
320,192,22982,1,0,0:0:0:0:
192,192,22982,1,0,0:0:0:0:
64,192,23078,1,0,0:0:0:0:
320,192,23078,1,0,0:0:0:0:
192,192,23174,1,0,0:0:0:0:
448,192,23174,1,0,0:0:0:0:
64,192,23271,1,0,0:0:0:0:
320,192,23367,1,0,0:0:0:0:
448,192,23367,1,0,0:0:0:0:
64,192,23463,1,0,0:0:0:0:
320,192,23463,1,0,0:0:0:0:
448,192,23559,1,0,0:0:0:0:
64,192,23655,1,0,0:0:0:0:
192,192,23655,1,0,0:0:0:0:
320,192,23751,1,0,0:0:0:0:
192,192,23847,1,0,0:0:0:0:
448,192,23847,1,0,0:0:0:0:
320,192,23944,1,0,0:0:0:0:
64,192,24040,1,0,0:0:0:0:
320,192,24136,1,0,0:0:0:0:
448,192,24136,1,0,0:0:0:0:
320,192,24232,1,0,0:0:0:0:
64,192,24232,1,0,0:0:0:0:
192,192,24328,1,0,0:0:0:0:
448,192,24328,1,0,0:0:0:0:
320,192,24424,1,0,0:0:0:0:
448,192,24424,1,0,0:0:0:0:
64,192,24521,1,0,0:0:0:0:
192,192,24617,1,0,0:0:0:0:
448,192,24617,1,0,0:0:0:0:
192,192,24713,1,0,0:0:0:0:
320,192,24713,1,0,0:0:0:0:
64,192,24809,1,0,0:0:0:0:
320,192,24809,1,0,0:0:0:0:
448,192,24905,1,0,0:0:0:0:
64,192,24905,1,0,0:0:0:0:
192,192,25001,1,0,0:0:0:0:
448,192,25001,1,0,0:0:0:0:
64,192,25097,1,0,0:0:0:0:
320,192,25194,1,0,0:0:0:0:
192,192,25194,1,0,0:0:0:0:
320,192,25290,1,0,0:0:0:0:
448,192,25386,1,0,0:0:0:0:
192,192,25386,1,0,0:0:0:0:
64,192,25386,1,0,0:0:0:0:
64,192,25482,1,0,0:0:0:0:
320,192,25482,1,0,0:0:0:0:
192,192,25578,1,0,0:0:0:0:
320,192,25578,1,0,0:0:0:0:
448,192,25674,1,0,0:0:0:0:
192,192,25771,1,0,0:0:0:0:
64,192,25771,1,0,0:0:0:0:
64,192,25867,1,0,0:0:0:0:
320,192,25867,1,0,0:0:0:0:
320,192,25963,1,0,0:0:0:0:
448,192,25963,1,0,0:0:0:0:
192,192,26059,1,0,0:0:0:0:
64,192,26155,1,0,0:0:0:0:
448,192,26155,1,0,0:0:0:0:
448,192,26251,1,0,0:0:0:0:
320,192,26251,1,0,0:0:0:0:
64,192,26347,1,0,0:0:0:0:
320,192,26347,1,0,0:0:0:0:
192,192,26444,1,0,0:0:0:0:
64,192,26540,1,0,0:0:0:0:
448,192,26540,1,0,0:0:0:0:
192,192,26636,1,0,0:0:0:0:
448,192,26636,1,0,0:0:0:0:
192,192,26732,1,0,0:0:0:0:
320,192,26732,1,0,0:0:0:0:
64,192,26828,1,0,0:0:0:0:
320,192,26924,1,0,0:0:0:0:
448,192,26924,1,0,0:0:0:0:
320,192,27021,1,0,0:0:0:0:
192,192,27021,1,0,0:0:0:0:
64,192,27117,1,0,0:0:0:0:
192,192,27117,1,0,0:0:0:0:
448,192,27213,1,0,0:0:0:0:
320,192,27309,1,0,0:0:0:0:
64,192,27309,1,0,0:0:0:0:
192,192,27405,1,0,0:0:0:0:
320,192,27405,1,0,0:0:0:0:
192,192,27501,1,0,0:0:0:0:
448,192,27501,1,0,0:0:0:0:
64,192,27597,1,0,0:0:0:0:
448,192,27694,1,0,0:0:0:0:
320,192,27694,1,0,0:0:0:0:
192,192,27790,1,0,0:0:0:0:
64,192,27886,1,0,0:0:0:0:
320,192,27886,1,0,0:0:0:0:
192,192,27982,1,0,0:0:0:0:
320,192,27982,1,0,0:0:0:0:
448,192,28078,1,0,0:0:0:0:
64,192,28078,1,0,0:0:0:0:
192,192,28174,1,0,0:0:0:0:
320,192,28271,1,0,0:0:0:0:
448,192,28271,1,0,0:0:0:0:
192,192,28367,1,0,0:0:0:0:
64,192,28463,1,0,0:0:0:0:
320,192,28463,1,0,0:0:0:0:
64,192,28559,1,0,0:0:0:0:
448,192,28559,1,0,0:0:0:0:
192,192,28655,1,0,0:0:0:0:
448,192,28655,1,0,0:0:0:0:
64,192,28751,1,0,0:0:0:0:
320,192,28847,1,0,0:0:0:0:
448,192,28847,1,0,0:0:0:0:
64,192,28944,1,0,0:0:0:0:
192,192,29040,1,0,0:0:0:0:
320,192,29040,1,0,0:0:0:0:
192,192,29136,1,0,0:0:0:0:
448,192,29136,1,0,0:0:0:0:
64,192,29232,1,0,0:0:0:0:
448,192,29232,1,0,0:0:0:0:
64,192,29328,1,0,0:0:0:0:
320,192,29328,1,0,0:0:0:0:
448,192,29424,1,0,0:0:0:0:
192,192,29521,1,0,0:0:0:0:
320,192,29521,1,0,0:0:0:0:
192,192,29617,1,0,0:0:0:0:
448,192,29617,1,0,0:0:0:0:
320,192,29713,1,0,0:0:0:0:
448,192,29809,1,0,0:0:0:0:
64,192,29809,1,0,0:0:0:0:
192,192,29905,1,0,0:0:0:0:
64,192,30001,1,0,0:0:0:0:
320,192,30001,1,0,0:0:0:0:
320,192,30097,1,0,0:0:0:0:
448,192,30097,1,0,0:0:0:0:
192,192,30194,1,0,0:0:0:0:
448,192,30194,1,0,0:0:0:0:
320,192,30290,1,0,0:0:0:0:
64,192,30386,1,0,0:0:0:0:
192,192,30386,1,0,0:0:0:0:
64,192,30482,1,0,0:0:0:0:
320,192,30482,1,0,0:0:0:0:
192,192,30578,1,0,0:0:0:0:
448,192,30578,1,0,0:0:0:0:
320,192,30674,1,0,0:0:0:0:
448,192,30674,1,0,0:0:0:0:
64,192,30771,1,0,0:0:0:0:
320,192,30771,1,0,0:0:0:0:
64,192,30867,1,0,0:0:0:0:
448,192,30867,1,0,0:0:0:0:
192,192,30963,1,0,0:0:0:0:
448,192,30963,1,0,0:0:0:0:
320,192,31059,1,0,0:0:0:0:
192,192,31059,1,0,0:0:0:0:
64,192,31155,1,0,0:0:0:0:
320,192,31155,1,0,0:0:0:0:
192,192,31251,1,0,0:0:0:0:
448,192,31347,1,0,0:0:0:0:
320,192,31347,1,0,0:0:0:0:
448,192,31444,1,0,0:0:0:0:
192,192,31540,1,0,0:0:0:0:
64,192,31540,1,0,0:0:0:0:
320,192,31540,1,0,0:0:0:0:
64,192,31636,1,0,0:0:0:0:
448,192,31636,1,0,0:0:0:0:
320,192,31732,1,0,0:0:0:0:
448,192,31732,1,0,0:0:0:0:
192,192,31828,1,0,0:0:0:0:
64,192,31924,1,0,0:0:0:0:
320,192,31924,1,0,0:0:0:0:
448,192,32021,1,0,0:0:0:0:
64,192,32021,1,0,0:0:0:0:
192,192,32117,1,0,0:0:0:0:
448,192,32117,1,0,0:0:0:0:
64,192,32213,1,0,0:0:0:0:
320,192,32309,1,0,0:0:0:0:
448,192,32309,1,0,0:0:0:0:
192,192,32405,1,0,0:0:0:0:
320,192,32405,1,0,0:0:0:0:
192,192,32501,1,0,0:0:0:0:
64,192,32501,1,0,0:0:0:0:
448,192,32597,1,0,0:0:0:0:
64,192,32694,1,0,0:0:0:0:
320,192,32694,1,0,0:0:0:0:
64,192,32790,1,0,0:0:0:0:
192,192,32790,1,0,0:0:0:0:
192,192,32886,1,0,0:0:0:0:
448,192,32886,1,0,0:0:0:0:
320,192,32982,1,0,0:0:0:0:
64,192,33078,1,0,0:0:0:0:
192,192,33078,1,0,0:0:0:0:
64,192,33174,1,0,0:0:0:0:
448,192,33174,1,0,0:0:0:0:
448,192,33271,1,0,0:0:0:0:
192,192,33271,1,0,0:0:0:0:
320,192,33367,1,0,0:0:0:0:
192,192,33463,1,0,0:0:0:0:
64,192,33463,1,0,0:0:0:0:
64,192,33559,1,0,0:0:0:0:
320,192,33559,1,0,0:0:0:0:
320,192,33655,1,0,0:0:0:0:
448,192,33655,1,0,0:0:0:0:
64,192,33751,1,0,0:0:0:0:
192,192,33847,1,0,0:0:0:0:
320,192,33847,1,0,0:0:0:0:
448,192,33944,1,0,0:0:0:0:
192,192,33944,1,0,0:0:0:0:
64,192,34040,1,0,0:0:0:0:
448,192,34040,1,0,0:0:0:0:
320,192,34136,1,0,0:0:0:0:
64,192,34232,1,0,0:0:0:0:
192,192,34232,1,0,0:0:0:0:
192,192,34424,1,0,0:0:0:0:
320,192,34424,1,0,0:0:0:0:
320,192,34617,1,0,0:0:0:0:
448,192,34617,1,0,0:0:0:0:
64,192,34713,1,0,0:0:0:0:
448,192,34713,1,0,0:0:0:0:
320,192,34809,1,0,0:0:0:0:
64,192,34809,1,0,0:0:0:0:
192,192,34905,1,0,0:0:0:0:
320,192,34905,1,0,0:0:0:0:
448,192,35001,1,0,0:0:0:0:
192,192,35097,1,0,0:0:0:0:
64,192,35194,1,0,0:0:0:0:
320,192,35194,1,0,0:0:0:0:
448,192,35290,1,0,0:0:0:0:
192,192,35386,1,0,0:0:0:0:
64,192,35386,1,0,0:0:0:0:
192,192,35482,1,0,0:0:0:0:
448,192,35482,1,0,0:0:0:0:
320,192,35578,1,0,0:0:0:0:
448,192,35578,1,0,0:0:0:0:
64,192,35674,1,0,0:0:0:0:
320,192,35674,1,0,0:0:0:0:
192,192,35771,1,0,0:0:0:0:
448,192,35867,1,0,0:0:0:0:
320,192,35963,1,0,0:0:0:0:
64,192,35963,1,0,0:0:0:0:
192,192,36059,1,0,0:0:0:0:
320,192,36155,1,0,0:0:0:0:
448,192,36155,1,0,0:0:0:0:
64,192,36251,1,0,0:0:0:0:
448,192,36251,1,0,0:0:0:0:
64,192,36347,1,0,0:0:0:0:
320,192,36347,1,0,0:0:0:0:
320,192,36444,1,0,0:0:0:0:
192,192,36444,1,0,0:0:0:0:
64,192,36540,1,0,0:0:0:0:
448,192,36636,1,0,0:0:0:0:
320,192,36732,1,0,0:0:0:0:
64,192,36732,1,0,0:0:0:0:
192,192,36828,1,0,0:0:0:0:
320,192,36924,1,0,0:0:0:0:
448,192,36924,1,0,0:0:0:0:
64,192,37021,1,0,0:0:0:0:
320,192,37117,1,0,0:0:0:0:
448,192,37117,1,0,0:0:0:0:
64,192,37213,1,0,0:0:0:0:
320,192,37309,1,0,0:0:0:0:
448,192,37309,1,0,0:0:0:0:
192,192,37405,1,0,0:0:0:0:
64,192,37501,1,0,0:0:0:0:
320,192,37501,1,0,0:0:0:0:
320,192,37597,1,0,0:0:0:0:
64,192,37597,1,0,0:0:0:0:
192,192,37694,1,0,0:0:0:0:
64,192,37694,1,0,0:0:0:0:
448,192,37790,1,0,0:0:0:0:
192,192,37790,1,0,0:0:0:0:
64,192,37886,1,0,0:0:0:0:
448,192,37886,1,0,0:0:0:0:
320,192,37982,1,0,0:0:0:0:
64,192,37982,1,0,0:0:0:0:
192,192,38078,1,0,0:0:0:0:
448,192,38174,1,0,0:0:0:0:
320,192,38271,1,0,0:0:0:0:
64,192,38271,1,0,0:0:0:0:
192,192,38367,1,0,0:0:0:0:
320,192,38463,1,0,0:0:0:0:
448,192,38463,1,0,0:0:0:0:
64,192,38559,1,0,0:0:0:0:
448,192,38559,1,0,0:0:0:0:
64,192,38655,1,0,0:0:0:0:
320,192,38655,1,0,0:0:0:0:
192,192,38751,1,0,0:0:0:0:
320,192,38751,1,0,0:0:0:0:
64,192,38847,1,0,0:0:0:0:
448,192,38944,1,0,0:0:0:0:
320,192,39040,1,0,0:0:0:0:
64,192,39040,1,0,0:0:0:0:
192,192,39136,1,0,0:0:0:0:
320,192,39232,1,0,0:0:0:0:
448,192,39232,1,0,0:0:0:0:
448,192,39328,1,0,0:0:0:0:
64,192,39328,1,0,0:0:0:0:
64,192,39424,1,0,0:0:0:0:
192,192,39424,1,0,0:0:0:0:
192,192,39521,1,0,0:0:0:0:
320,192,39521,1,0,0:0:0:0:
64,192,39617,1,0,0:0:0:0:
448,192,39713,1,0,0:0:0:0:
320,192,39809,1,0,0:0:0:0:
192,192,39809,1,0,0:0:0:0:
64,192,39905,1,0,0:0:0:0:
320,192,40001,1,0,0:0:0:0:
448,192,40001,1,0,0:0:0:0:
192,192,40097,1,0,0:0:0:0:
320,192,40194,1,0,0:0:0:0:
448,192,40194,1,0,0:0:0:0:
192,192,40290,1,0,0:0:0:0:
448,192,40386,1,0,0:0:0:0:
320,192,40386,1,0,0:0:0:0:
64,192,40482,1,0,0:0:0:0:
192,192,40578,1,0,0:0:0:0:
320,192,40578,1,0,0:0:0:0:
192,192,40674,1,0,0:0:0:0:
320,192,40674,1,0,0:0:0:0:
448,192,40771,1,0,0:0:0:0:
64,192,40771,1,0,0:0:0:0:
320,192,40867,1,0,0:0:0:0:
64,192,40867,1,0,0:0:0:0:
192,192,40963,1,0,0:0:0:0:
320,192,40963,1,0,0:0:0:0:
192,192,41059,1,0,0:0:0:0:
448,192,41059,1,0,0:0:0:0:
64,192,41155,1,0,0:0:0:0:
320,192,41251,1,0,0:0:0:0:
192,192,41347,1,0,0:0:0:0:
64,192,41347,1,0,0:0:0:0:
448,192,41444,1,0,0:0:0:0:
320,192,41540,1,0,0:0:0:0:
192,192,41540,1,0,0:0:0:0:
64,192,41636,1,0,0:0:0:0:
320,192,41636,1,0,0:0:0:0:
64,192,41732,1,0,0:0:0:0:
448,192,41732,1,0,0:0:0:0:
448,192,41828,1,0,0:0:0:0:
192,192,41828,1,0,0:0:0:0:
320,192,41924,1,0,0:0:0:0:
64,192,42021,1,0,0:0:0:0:
192,192,42117,1,0,0:0:0:0:
448,192,42117,1,0,0:0:0:0:
320,192,42213,1,0,0:0:0:0:
64,192,42309,1,0,0:0:0:0:
192,192,42309,1,0,0:0:0:0:
64,192,42405,1,0,0:0:0:0:
448,192,42405,1,0,0:0:0:0:
448,192,42501,1,0,0:0:0:0:
320,192,42501,1,0,0:0:0:0:
192,192,42597,1,0,0:0:0:0:
320,192,42597,1,0,0:0:0:0:
64,192,42694,1,0,0:0:0:0:
320,192,42790,1,0,0:0:0:0:
448,192,42886,1,0,0:0:0:0:
64,192,42886,1,0,0:0:0:0:
192,192,42982,1,0,0:0:0:0:
448,192,43078,1,0,0:0:0:0:
320,192,43078,1,0,0:0:0:0:
64,192,43174,1,0,0:0:0:0:
448,192,43271,1,0,0:0:0:0:
320,192,43271,1,0,0:0:0:0:
64,192,43367,1,0,0:0:0:0:
320,192,43463,1,0,0:0:0:0:
448,192,43463,1,0,0:0:0:0:
192,192,43559,1,0,0:0:0:0:
64,192,43655,1,0,0:0:0:0:
320,192,43655,1,0,0:0:0:0:
320,192,43751,1,0,0:0:0:0:
64,192,43751,1,0,0:0:0:0:
448,192,43847,1,0,0:0:0:0:
192,192,43847,1,0,0:0:0:0:
64,192,43944,1,0,0:0:0:0:
192,192,43944,1,0,0:0:0:0:
64,192,44040,1,0,0:0:0:0:
448,192,44040,1,0,0:0:0:0:
448,192,44136,1,0,0:0:0:0:
192,192,44136,1,0,0:0:0:0:
320,192,44232,1,0,0:0:0:0:
64,192,44328,1,0,0:0:0:0:
192,192,44424,1,0,0:0:0:0:
448,192,44424,1,0,0:0:0:0:
320,192,44521,1,0,0:0:0:0:
64,192,44617,1,0,0:0:0:0:
192,192,44617,1,0,0:0:0:0:
64,192,44713,1,0,0:0:0:0:
448,192,44713,1,0,0:0:0:0:
448,192,44809,1,0,0:0:0:0:
192,192,44809,1,0,0:0:0:0:
192,192,44905,1,0,0:0:0:0:
320,192,44905,1,0,0:0:0:0:
64,192,45001,1,0,0:0:0:0:
448,192,45097,1,0,0:0:0:0:
320,192,45194,1,0,0:0:0:0:
64,192,45194,1,0,0:0:0:0:
192,192,45290,1,0,0:0:0:0:
320,192,45386,1,0,0:0:0:0:
448,192,45386,1,0,0:0:0:0:
192,192,45482,1,0,0:0:0:0:
448,192,45482,1,0,0:0:0:0:
192,192,45578,1,0,0:0:0:0:
320,192,45578,1,0,0:0:0:0:
64,192,45674,1,0,0:0:0:0:
320,192,45674,1,0,0:0:0:0:
192,192,45771,1,0,0:0:0:0:
448,192,45867,1,0,0:0:0:0:
320,192,45963,1,0,0:0:0:0:
64,192,45963,1,0,0:0:0:0:
192,192,46059,1,0,0:0:0:0:
320,192,46155,1,0,0:0:0:0:
448,192,46155,1,0,0:0:0:0:
320,192,46251,1,0,0:0:0:0:
448,192,46251,1,0,0:0:0:0:
192,192,46347,1,0,0:0:0:0:
64,192,46347,1,0,0:0:0:0:
64,192,46444,1,0,0:0:0:0:
192,192,46444,1,0,0:0:0:0:
320,192,46540,1,0,0:0:0:0:
448,192,46540,1,0,0:0:0:0:
192,192,46636,1,0,0:0:0:0:
320,192,46732,1,0,0:0:0:0:
192,192,46828,1,0,0:0:0:0:
64,192,46924,1,0,0:0:0:0:
448,192,46924,1,0,0:0:0:0:
320,192,47021,1,0,0:0:0:0:
64,192,47021,1,0,0:0:0:0:
320,192,47117,1,0,0:0:0:0:
192,192,47117,1,0,0:0:0:0:
448,192,47213,1,0,0:0:0:0:
320,192,47309,1,0,0:0:0:0:
192,192,47309,1,0,0:0:0:0:
64,192,47405,1,0,0:0:0:0:
320,192,47501,1,0,0:0:0:0:
448,192,47501,1,0,0:0:0:0:
192,192,47597,1,0,0:0:0:0:
448,192,47597,1,0,0:0:0:0:
64,192,47694,1,0,0:0:0:0:
320,192,47790,1,0,0:0:0:0:
448,192,47790,1,0,0:0:0:0:
320,192,47886,1,0,0:0:0:0:
192,192,47886,1,0,0:0:0:0:
64,192,47982,1,0,0:0:0:0:
192,192,47982,1,0,0:0:0:0:
64,192,48078,1,0,0:0:0:0:
448,192,48078,1,0,0:0:0:0:
320,192,48174,1,0,0:0:0:0:
192,192,48271,1,0,0:0:0:0:
64,192,48271,1,0,0:0:0:0:
320,192,48367,1,0,0:0:0:0:
192,192,48463,1,0,0:0:0:0:
448,192,48463,1,0,0:0:0:0:
64,192,48559,1,0,0:0:0:0:
448,192,48559,1,0,0:0:0:0:
320,192,48655,1,0,0:0:0:0:
64,192,48655,1,0,0:0:0:0:
192,192,48751,1,0,0:0:0:0:
320,192,48751,1,0,0:0:0:0:
448,192,48847,1,0,0:0:0:0:
64,192,48944,1,0,0:0:0:0:
192,192,48944,1,0,0:0:0:0:
320,192,49040,1,0,0:0:0:0:
192,192,49136,1,0,0:0:0:0:
448,192,49136,1,0,0:0:0:0:
64,192,49232,1,0,0:0:0:0:
320,192,49328,1,0,0:0:0:0:
448,192,49328,1,0,0:0:0:0:
64,192,49424,1,0,0:0:0:0:
192,192,49521,1,0,0:0:0:0:
320,192,49521,1,0,0:0:0:0:
320,192,49617,1,0,0:0:0:0:
448,192,49617,1,0,0:0:0:0:
192,192,49713,1,0,0:0:0:0:
64,192,49809,1,0,0:0:0:0:
448,192,49809,1,0,0:0:0:0:
448,192,49905,1,0,0:0:0:0:
192,192,49905,1,0,0:0:0:0:
320,192,50001,1,0,0:0:0:0:
64,192,50001,1,0,0:0:0:0:
64,192,50097,1,0,0:0:0:0:
448,192,50097,1,0,0:0:0:0:
448,192,50194,1,0,0:0:0:0:
320,192,50194,1,0,0:0:0:0:
192,192,50290,1,0,0:0:0:0:
64,192,50386,1,0,0:0:0:0:
320,192,50386,1,0,0:0:0:0:
64,192,50482,1,0,0:0:0:0:
192,192,50482,1,0,0:0:0:0:
192,192,50578,1,0,0:0:0:0:
448,192,50578,1,0,0:0:0:0:
320,192,50674,1,0,0:0:0:0:
64,192,50771,1,0,0:0:0:0:
192,192,50771,1,0,0:0:0:0:
64,192,50867,1,0,0:0:0:0:
448,192,50867,1,0,0:0:0:0:
448,192,50963,1,0,0:0:0:0:
320,192,50963,1,0,0:0:0:0:
192,192,51059,1,0,0:0:0:0:
64,192,51155,1,0,0:0:0:0:
320,192,51155,1,0,0:0:0:0:
320,192,51251,1,0,0:0:0:0:
192,192,51251,1,0,0:0:0:0:
192,192,51347,1,0,0:0:0:0:
448,192,51347,1,0,0:0:0:0:
64,192,51444,1,0,0:0:0:0:
320,192,51540,1,0,0:0:0:0:
448,192,51540,1,0,0:0:0:0:
192,192,51636,1,0,0:0:0:0:
320,192,51636,1,0,0:0:0:0:
64,192,51732,1,0,0:0:0:0:
192,192,51732,1,0,0:0:0:0:
448,192,51828,1,0,0:0:0:0:
320,192,51924,1,0,0:0:0:0:
64,192,51924,1,0,0:0:0:0:
192,192,52021,1,0,0:0:0:0:
320,192,52021,1,0,0:0:0:0:
64,192,52117,1,0,0:0:0:0:
192,192,52117,1,0,0:0:0:0:
448,192,52213,1,0,0:0:0:0:
320,192,52309,1,0,0:0:0:0:
64,192,52309,1,0,0:0:0:0:
192,192,52405,1,0,0:0:0:0:
320,192,52405,1,0,0:0:0:0:
192,192,52501,1,0,0:0:0:0:
448,192,52501,1,0,0:0:0:0:
320,192,52597,1,0,0:0:0:0:
64,192,52694,1,0,0:0:0:0:
192,192,52694,1,0,0:0:0:0:
448,192,52790,1,0,0:0:0:0:
320,192,52886,1,0,0:0:0:0:
64,192,52886,1,0,0:0:0:0:
192,192,52982,1,0,0:0:0:0:
320,192,53078,1,0,0:0:0:0:
448,192,53078,1,0,0:0:0:0:
64,192,53174,1,0,0:0:0:0:
448,192,53174,1,0,0:0:0:0:
192,192,53271,1,0,0:0:0:0:
320,192,53367,1,0,0:0:0:0:
448,192,53367,1,0,0:0:0:0:
64,192,53463,1,0,0:0:0:0:
320,192,53463,1,0,0:0:0:0:
192,192,53559,1,0,0:0:0:0:
320,192,53655,1,0,0:0:0:0:
448,192,53655,1,0,0:0:0:0:
64,192,53751,1,0,0:0:0:0:
192,192,53847,1,0,0:0:0:0:
320,192,53847,1,0,0:0:0:0:
448,192,53944,1,0,0:0:0:0:
192,192,53944,1,0,0:0:0:0:
64,192,54040,1,0,0:0:0:0:
320,192,54136,1,0,0:0:0:0:
448,192,54136,1,0,0:0:0:0:
320,192,54232,1,0,0:0:0:0:
64,192,54232,1,0,0:0:0:0:
192,192,54328,1,0,0:0:0:0:
320,192,54424,1,0,0:0:0:0:
448,192,54424,1,0,0:0:0:0:
64,192,54521,1,0,0:0:0:0:
192,192,54617,1,0,0:0:0:0:
320,192,54617,1,0,0:0:0:0:
192,192,54713,1,0,0:0:0:0:
448,192,54713,1,0,0:0:0:0:
448,192,54809,1,0,0:0:0:0:
64,192,54809,1,0,0:0:0:0:
320,192,54905,1,0,0:0:0:0:
192,192,55001,1,0,0:0:0:0:
64,192,55001,1,0,0:0:0:0:
448,192,55097,1,0,0:0:0:0:
320,192,55194,1,0,0:0:0:0:
64,192,55194,1,0,0:0:0:0:
64,192,55290,1,0,0:0:0:0:
192,192,55290,1,0,0:0:0:0:
448,192,55386,1,0,0:0:0:0:
320,192,55482,1,0,0:0:0:0:
192,192,55482,1,0,0:0:0:0:
64,192,55578,1,0,0:0:0:0:
320,192,55578,1,0,0:0:0:0:
448,192,55674,1,0,0:0:0:0:
64,192,55674,1,0,0:0:0:0:
192,192,55771,1,0,0:0:0:0:
320,192,55867,1,0,0:0:0:0:
448,192,55963,1,0,0:0:0:0:
64,192,55963,1,0,0:0:0:0:
320,192,56059,1,0,0:0:0:0:
64,192,56059,1,0,0:0:0:0:
448,192,56155,1,0,0:0:0:0:
192,192,56155,1,0,0:0:0:0:
192,192,56251,1,0,0:0:0:0:
320,192,56251,1,0,0:0:0:0:
64,192,56347,1,0,0:0:0:0:
320,192,56347,1,0,0:0:0:0:
192,192,56444,1,0,0:0:0:0:
320,192,56540,1,0,0:0:0:0:
448,192,56540,1,0,0:0:0:0:
64,192,56636,1,0,0:0:0:0:
448,192,56636,1,0,0:0:0:0:
320,192,56732,1,0,0:0:0:0:
64,192,56732,1,0,0:0:0:0:
192,192,56828,1,0,0:0:0:0:
320,192,56924,1,0,0:0:0:0:
448,192,56924,1,0,0:0:0:0:
320,192,57021,1,0,0:0:0:0:
192,192,57021,1,0,0:0:0:0:
64,192,57117,1,0,0:0:0:0:
192,192,57117,1,0,0:0:0:0:
448,192,57213,1,0,0:0:0:0:
320,192,57309,1,0,0:0:0:0:
64,192,57309,1,0,0:0:0:0:
64,192,57405,1,0,0:0:0:0:
448,192,57405,1,0,0:0:0:0:
192,192,57501,1,0,0:0:0:0:
448,192,57501,1,0,0:0:0:0:
64,192,57597,1,0,0:0:0:0:
320,192,57694,1,0,0:0:0:0:
448,192,57694,1,0,0:0:0:0:
192,192,57790,1,0,0:0:0:0:
320,192,57790,1,0,0:0:0:0:
64,192,57886,1,0,0:0:0:0:
192,192,57886,1,0,0:0:0:0:
448,192,57982,1,0,0:0:0:0:
320,192,58078,1,0,0:0:0:0:
64,192,58078,1,0,0:0:0:0:
192,192,58174,1,0,0:0:0:0:
320,192,58174,1,0,0:0:0:0:
192,192,58271,1,0,0:0:0:0:
448,192,58271,1,0,0:0:0:0:
64,192,58367,1,0,0:0:0:0:
320,192,58463,1,0,0:0:0:0:
448,192,58463,1,0,0:0:0:0:
64,192,58527,1,0,0:0:0:0:
192,192,58527,1,0,0:0:0:0:
448,192,58591,1,0,0:0:0:0:
320,192,58591,1,0,0:0:0:0:
64,192,58655,1,0,0:0:0:0:
192,192,58655,1,0,0:0:0:0:
448,192,58751,1,0,0:0:0:0:
64,192,58847,1,0,0:0:0:0:
192,192,58847,1,0,0:0:0:0:
192,192,58944,1,0,0:0:0:0:
64,192,58944,1,0,0:0:0:0:
320,192,59040,1,0,0:0:0:0:
448,192,59040,1,0,0:0:0:0:
448,192,59136,1,0,0:0:0:0:
320,192,59136,1,0,0:0:0:0:
192,192,59232,1,0,0:0:0:0:
64,192,59232,1,0,0:0:0:0:
448,192,59328,1,0,0:0:0:0:
320,192,59424,1,0,0:0:0:0:
64,192,59521,1,0,0:0:0:0:
192,192,59521,1,0,0:0:0:0:
64,192,59617,1,0,0:0:0:0:
448,192,59617,1,0,0:0:0:0:
320,192,59713,1,0,0:0:0:0:
192,192,59809,1,0,0:0:0:0:
64,192,59809,1,0,0:0:0:0:
320,192,59905,1,0,0:0:0:0:
192,192,60001,1,0,0:0:0:0:
448,192,60001,1,0,0:0:0:0:
64,192,60097,1,0,0:0:0:0:
320,192,60194,1,0,0:0:0:0:
64,192,60290,1,0,0:0:0:0:
192,192,60290,1,0,0:0:0:0:
192,192,60386,1,0,0:0:0:0:
448,192,60386,1,0,0:0:0:0:
320,192,60482,1,0,0:0:0:0:
64,192,60578,1,0,0:0:0:0:
192,192,60578,1,0,0:0:0:0:
448,192,60674,1,0,0:0:0:0:
64,192,60771,1,0,0:0:0:0:
320,192,60771,1,0,0:0:0:0:
192,192,60867,1,0,0:0:0:0:
320,192,60963,1,0,0:0:0:0:
448,192,61059,1,0,0:0:0:0:
64,192,61059,1,0,0:0:0:0:
192,192,61155,1,0,0:0:0:0:
448,192,61155,1,0,0:0:0:0:
320,192,61251,1,0,0:0:0:0:
192,192,61347,1,0,0:0:0:0:
64,192,61347,1,0,0:0:0:0:
448,192,61444,1,0,0:0:0:0:
320,192,61540,1,0,0:0:0:0:
192,192,61540,1,0,0:0:0:0:
64,192,61636,1,0,0:0:0:0:
320,192,61732,1,0,0:0:0:0:
448,192,61732,1,0,0:0:0:0:
64,192,61828,1,0,0:0:0:0:
192,192,61924,1,0,0:0:0:0:
320,192,61924,1,0,0:0:0:0:
448,192,62021,1,0,0:0:0:0:
192,192,62117,1,0,0:0:0:0:
64,192,62117,1,0,0:0:0:0:
320,192,62213,1,0,0:0:0:0:
64,192,62213,1,0,0:0:0:0:
320,192,62309,1,0,0:0:0:0:
448,192,62309,1,0,0:0:0:0:
192,192,62405,1,0,0:0:0:0:
64,192,62501,1,0,0:0:0:0:
320,192,62501,1,0,0:0:0:0:
320,192,62597,1,0,0:0:0:0:
448,192,62597,1,0,0:0:0:0:
64,192,62694,1,0,0:0:0:0:
448,192,62694,1,0,0:0:0:0:
192,192,62790,1,0,0:0:0:0:
320,192,62886,1,0,0:0:0:0:
448,192,62886,1,0,0:0:0:0:
192,192,62982,1,0,0:0:0:0:
64,192,63078,1,0,0:0:0:0:
320,192,63078,1,0,0:0:0:0:
448,192,63174,1,0,0:0:0:0:
192,192,63271,1,0,0:0:0:0:
64,192,63367,1,0,0:0:0:0:
320,192,63367,1,0,0:0:0:0:
64,192,63463,1,0,0:0:0:0:
448,192,63463,1,0,0:0:0:0:
192,192,63559,1,0,0:0:0:0:
320,192,63655,1,0,0:0:0:0:
448,192,63655,1,0,0:0:0:0:
64,192,63751,1,0,0:0:0:0:
192,192,63847,1,0,0:0:0:0:
320,192,63847,1,0,0:0:0:0:
448,192,63944,1,0,0:0:0:0:
192,192,64040,1,0,0:0:0:0:
64,192,64040,1,0,0:0:0:0:
320,192,64136,1,0,0:0:0:0:
64,192,64232,1,0,0:0:0:0:
192,192,64232,1,0,0:0:0:0:
448,192,64328,1,0,0:0:0:0:
320,192,64424,1,0,0:0:0:0:
192,192,64424,1,0,0:0:0:0:
64,192,64521,1,0,0:0:0:0:
320,192,64617,1,0,0:0:0:0:
448,192,64617,1,0,0:0:0:0:
192,192,64713,1,0,0:0:0:0:
448,192,64713,1,0,0:0:0:0:
320,192,64809,1,0,0:0:0:0:
64,192,64809,1,0,0:0:0:0:
64,192,64905,1,0,0:0:0:0:
192,192,64905,1,0,0:0:0:0:
448,192,65001,1,0,0:0:0:0:
320,192,65097,1,0,0:0:0:0:
64,192,65194,1,0,0:0:0:0:
192,192,65194,1,0,0:0:0:0:
192,192,65290,1,0,0:0:0:0:
320,192,65386,1,0,0:0:0:0:
448,192,65386,1,0,0:0:0:0:
64,192,65482,1,0,0:0:0:0:
192,192,65578,1,0,0:0:0:0:
320,192,65674,1,0,0:0:0:0:
448,192,65674,1,0,0:0:0:0:
448,192,65771,1,0,0:0:0:0:
64,192,65771,1,0,0:0:0:0:
192,192,65867,1,0,0:0:0:0:
320,192,65963,1,0,0:0:0:0:
448,192,65963,1,0,0:0:0:0:
192,192,66059,1,0,0:0:0:0:
64,192,66155,1,0,0:0:0:0:
320,192,66155,1,0,0:0:0:0:
448,192,66251,1,0,0:0:0:0:
192,192,66347,1,0,0:0:0:0:
64,192,66444,1,0,0:0:0:0:
320,192,66444,1,0,0:0:0:0:
192,192,66540,1,0,0:0:0:0:
320,192,66540,1,0,0:0:0:0:
448,192,66636,1,0,0:0:0:0:
192,192,66732,1,0,0:0:0:0:
64,192,66732,1,0,0:0:0:0:
320,192,66828,1,0,0:0:0:0:
448,192,66924,1,0,0:0:0:0:
64,192,66924,1,0,0:0:0:0:
192,192,67021,1,0,0:0:0:0:
448,192,67117,1,0,0:0:0:0:
320,192,67213,1,0,0:0:0:0:
64,192,67213,1,0,0:0:0:0:
64,192,67309,1,0,0:0:0:0:
192,192,67309,1,0,0:0:0:0:
448,192,67405,1,0,0:0:0:0:
320,192,67501,1,0,0:0:0:0:
192,192,67501,1,0,0:0:0:0:
64,192,67597,1,0,0:0:0:0:
320,192,67694,1,0,0:0:0:0:
448,192,67694,1,0,0:0:0:0:
64,192,67790,1,0,0:0:0:0:
320,192,67886,1,0,0:0:0:0:
448,192,67886,1,0,0:0:0:0:
192,192,67982,1,0,0:0:0:0:
64,192,68078,1,0,0:0:0:0:
320,192,68078,1,0,0:0:0:0:
448,192,68174,1,0,0:0:0:0:
64,192,68271,1,0,0:0:0:0:
192,192,68271,1,0,0:0:0:0:
192,192,68367,1,0,0:0:0:0:
320,192,68367,1,0,0:0:0:0:
320,192,68463,1,0,0:0:0:0:
448,192,68463,1,0,0:0:0:0:
64,192,68559,1,0,0:0:0:0:
448,192,68559,1,0,0:0:0:0:
192,192,68655,1,0,0:0:0:0:
320,192,68751,1,0,0:0:0:0:
448,192,68751,1,0,0:0:0:0:
64,192,68847,1,0,0:0:0:0:
320,192,68847,1,0,0:0:0:0:
192,192,68944,1,0,0:0:0:0:
320,192,69040,1,0,0:0:0:0:
448,192,69040,1,0,0:0:0:0:
64,192,69136,1,0,0:0:0:0:
192,192,69232,1,0,0:0:0:0:
448,192,69232,1,0,0:0:0:0:
320,192,69328,1,0,0:0:0:0:
192,192,69328,1,0,0:0:0:0:
64,192,69424,1,0,0:0:0:0:
320,192,69521,1,0,0:0:0:0:
448,192,69521,1,0,0:0:0:0:
192,192,69617,1,0,0:0:0:0:
448,192,69617,1,0,0:0:0:0:
64,192,69713,1,0,0:0:0:0:
320,192,69809,1,0,0:0:0:0:
448,192,69809,1,0,0:0:0:0:
64,192,69905,1,0,0:0:0:0:
192,192,70001,1,0,0:0:0:0:
320,192,70001,1,0,0:0:0:0:
448,192,70097,1,0,0:0:0:0:
192,192,70097,1,0,0:0:0:0:
64,192,70194,1,0,0:0:0:0:
320,192,70290,1,0,0:0:0:0:
448,192,70290,1,0,0:0:0:0:
320,192,70386,1,0,0:0:0:0:
192,192,70386,1,0,0:0:0:0:
64,192,70482,1,0,0:0:0:0:
192,192,70578,1,0,0:0:0:0:
448,192,70578,1,0,0:0:0:0:
320,192,70674,1,0,0:0:0:0:
192,192,70771,1,0,0:0:0:0:
64,192,70771,1,0,0:0:0:0:
448,192,70867,1,0,0:0:0:0:
192,192,70963,1,0,0:0:0:0:
64,192,70963,1,0,0:0:0:0:
192,192,71059,1,0,0:0:0:0:
320,192,71155,1,0,0:0:0:0:
448,192,71155,1,0,0:0:0:0:
64,192,71251,1,0,0:0:0:0:
320,192,71347,1,0,0:0:0:0:
448,192,71347,1,0,0:0:0:0:
320,192,71444,1,0,0:0:0:0:
192,192,71540,1,0,0:0:0:0:
64,192,71540,1,0,0:0:0:0:
64,192,71636,1,0,0:0:0:0:
448,192,71636,1,0,0:0:0:0:
448,192,71732,1,0,0:0:0:0:
192,192,71732,1,0,0:0:0:0:
192,192,71828,1,0,0:0:0:0:
320,192,71828,1,0,0:0:0:0:
320,192,71924,1,0,0:0:0:0:
64,192,71924,1,0,0:0:0:0:
64,192,72021,1,0,0:0:0:0:
192,192,72021,1,0,0:0:0:0:
192,192,72117,1,0,0:0:0:0:
320,192,72117,1,0,0:0:0:0:
320,192,72213,1,0,0:0:0:0:
448,192,72213,1,0,0:0:0:0:
64,192,72309,1,0,0:0:0:0:
448,192,72309,1,0,0:0:0:0:
320,192,72405,1,0,0:0:0:0:
64,192,72405,1,0,0:0:0:0:
192,192,72501,1,0,0:0:0:0:
320,192,72501,1,0,0:0:0:0:
192,192,72597,1,0,0:0:0:0:
64,192,72597,1,0,0:0:0:0:
64,192,72694,1,0,0:0:0:0:
448,192,72694,1,0,0:0:0:0:
448,192,72790,1,0,0:0:0:0:
192,192,72790,1,0,0:0:0:0:
192,192,72886,1,0,0:0:0:0:
320,192,72886,1,0,0:0:0:0:
320,192,72982,1,0,0:0:0:0:
448,192,72982,1,0,0:0:0:0:
64,192,73078,1,0,0:0:0:0:
192,192,73078,1,0,0:0:0:0:
320,192,73126,1,0,0:0:0:0:
448,192,73126,1,0,0:0:0:0:
192,192,73174,1,0,0:0:0:0:
64,192,73174,1,0,0:0:0:0:
320,192,73222,1,0,0:0:0:0:
448,192,73222,1,0,0:0:0:0:
192,192,73271,1,0,0:0:0:0:
64,192,73271,1,0,0:0:0:0:
448,192,73319,1,0,0:0:0:0:
320,192,73319,1,0,0:0:0:0:
192,192,73367,1,0,0:0:0:0:
64,192,73367,1,0,0:0:0:0:
320,192,73415,1,0,0:0:0:0:
448,192,73415,1,0,0:0:0:0:
64,192,73463,1,0,0:0:0:0:
192,192,73463,1,0,0:0:0:0:
320,192,73511,1,0,0:0:0:0:
448,192,73511,1,0,0:0:0:0:
192,192,73559,1,0,0:0:0:0:
64,192,73559,1,0,0:0:0:0:
320,192,73607,1,0,0:0:0:0:
448,192,73607,1,0,0:0:0:0:
192,192,73655,1,0,0:0:0:0:
64,192,73655,1,0,0:0:0:0:
320,192,73703,1,0,0:0:0:0:
448,192,73703,1,0,0:0:0:0:
64,192,73751,1,0,0:0:0:0:
192,192,73751,1,0,0:0:0:0:
320,192,73799,1,0,0:0:0:0:
448,192,73799,1,0,0:0:0:0:
192,192,73847,128,0,74232:0:0:0:0:
64,192,73847,1,0,0:0:0:0:
320,192,74232,128,0,74617:0:0:0:0:
64,192,74617,1,0,0:0:0:0:
192,192,74617,1,0,0:0:0:0:
448,192,74617,1,0,0:0:0:0:
64,192,74745,1,0,0:0:0:0:
192,192,74745,1,0,0:0:0:0:
448,192,74745,1,0,0:0:0:0:
64,192,74873,1,0,0:0:0:0:
192,192,74873,1,0,0:0:0:0:
448,192,74873,1,0,0:0:0:0:
64,192,75001,1,0,0:0:0:0:
320,192,75001,1,0,0:0:0:0:
448,192,75001,1,0,0:0:0:0:
448,192,75129,1,0,0:0:0:0:
320,192,75129,1,0,0:0:0:0:
64,192,75129,1,0,0:0:0:0:
64,192,75258,1,0,0:0:0:0:
320,192,75258,1,0,0:0:0:0:
448,192,75258,1,0,0:0:0:0:
64,192,75386,1,0,0:0:0:0:
192,192,75386,1,0,0:0:0:0:
320,192,75386,1,0,0:0:0:0:
192,192,75514,1,0,0:0:0:0:
64,192,75514,1,0,0:0:0:0:
448,192,75514,1,0,0:0:0:0:
192,192,75642,1,0,0:0:0:0:
320,192,75642,1,0,0:0:0:0:
448,192,75642,1,0,0:0:0:0:
64,192,75771,1,0,0:0:0:0:
320,192,75771,1,0,0:0:0:0:
448,192,75771,1,0,0:0:0:0:
64,192,76155,1,0,0:0:0:0:
192,192,76155,1,0,0:0:0:0:
320,192,76155,1,0,0:0:0:0:
320,192,76283,1,0,0:0:0:0:
64,192,76283,1,0,0:0:0:0:
192,192,76283,1,0,0:0:0:0:
64,192,76412,1,0,0:0:0:0:
192,192,76412,1,0,0:0:0:0:
320,192,76412,1,0,0:0:0:0:
192,192,76540,1,0,0:0:0:0:
320,192,76540,1,0,0:0:0:0:
448,192,76540,1,0,0:0:0:0:
448,192,76668,1,0,0:0:0:0:
320,192,76668,1,0,0:0:0:0:
192,192,76668,1,0,0:0:0:0:
192,192,76796,1,0,0:0:0:0:
320,192,76796,1,0,0:0:0:0:
448,192,76796,1,0,0:0:0:0:
64,192,76924,1,0,0:0:0:0:
320,192,76924,1,0,0:0:0:0:
448,192,76924,1,0,0:0:0:0:
64,192,77053,1,0,0:0:0:0:
192,192,77053,1,0,0:0:0:0:
448,192,77053,1,0,0:0:0:0:
64,192,77181,1,0,0:0:0:0:
320,192,77181,1,0,0:0:0:0:
448,192,77181,1,0,0:0:0:0:
64,192,77309,1,0,0:0:0:0:
192,192,77309,1,0,0:0:0:0:
320,192,77309,1,0,0:0:0:0:
64,192,77694,1,0,0:0:0:0:
320,192,77694,1,0,0:0:0:0:
448,192,77694,1,0,0:0:0:0:
64,192,77822,1,0,0:0:0:0:
192,192,77822,1,0,0:0:0:0:
448,192,77822,1,0,0:0:0:0:
192,192,77950,1,0,0:0:0:0:
320,192,77950,1,0,0:0:0:0:
448,192,77950,1,0,0:0:0:0:
320,192,78078,1,0,0:0:0:0:
192,192,78078,1,0,0:0:0:0:
64,192,78078,1,0,0:0:0:0:
64,192,78206,1,0,0:0:0:0:
448,192,78206,1,0,0:0:0:0:
320,192,78206,1,0,0:0:0:0:
64,192,78335,1,0,0:0:0:0:
192,192,78335,1,0,0:0:0:0:
448,192,78335,1,0,0:0:0:0:
64,192,78463,1,0,0:0:0:0:
320,192,78463,1,0,0:0:0:0:
448,192,78463,1,0,0:0:0:0:
64,192,78591,1,0,0:0:0:0:
192,192,78591,1,0,0:0:0:0:
320,192,78591,1,0,0:0:0:0:
192,192,78719,1,0,0:0:0:0:
320,192,78719,1,0,0:0:0:0:
448,192,78719,1,0,0:0:0:0:
64,192,78847,1,0,0:0:0:0:
448,192,78847,1,0,0:0:0:0:
320,192,78847,1,0,0:0:0:0:
64,192,78976,1,0,0:0:0:0:
192,192,78976,1,0,0:0:0:0:
448,192,78976,1,0,0:0:0:0:
320,192,79104,1,0,0:0:0:0:
64,192,79104,1,0,0:0:0:0:
448,192,79104,1,0,0:0:0:0:
64,192,79232,1,0,0:0:0:0:
192,192,79232,1,0,0:0:0:0:
320,192,79232,1,0,0:0:0:0:
192,192,79360,1,0,0:0:0:0:
320,192,79360,1,0,0:0:0:0:
448,192,79360,1,0,0:0:0:0:
64,192,79488,1,0,0:0:0:0:
448,192,79488,1,0,0:0:0:0:
192,192,79488,1,0,0:0:0:0:
64,192,79617,1,0,0:0:0:0:
192,192,79617,1,0,0:0:0:0:
320,192,79617,1,0,0:0:0:0:
64,192,79745,1,0,0:0:0:0:
320,192,79745,1,0,0:0:0:0:
448,192,79745,1,0,0:0:0:0:
192,192,79873,1,0,0:0:0:0:
320,192,79873,1,0,0:0:0:0:
448,192,79873,1,0,0:0:0:0:
64,192,80001,1,0,0:0:0:0:
192,192,80001,1,0,0:0:0:0:
448,192,80001,1,0,0:0:0:0:
64,192,80386,1,0,0:0:0:0:
192,192,80386,1,0,0:0:0:0:
320,192,80386,1,0,0:0:0:0:
448,192,80386,1,0,0:0:0:0:
448,192,80771,1,0,0:0:0:0:
64,192,80771,1,0,0:0:0:0:
192,192,80771,1,0,0:0:0:0:
64,192,80899,1,0,0:0:0:0:
192,192,80899,1,0,0:0:0:0:
448,192,80899,1,0,0:0:0:0:
64,192,81027,1,0,0:0:0:0:
192,192,81027,1,0,0:0:0:0:
448,192,81027,1,0,0:0:0:0:
64,192,81155,1,0,0:0:0:0:
320,192,81155,1,0,0:0:0:0:
448,192,81155,1,0,0:0:0:0:
448,192,81283,1,0,0:0:0:0:
320,192,81283,1,0,0:0:0:0:
64,192,81283,1,0,0:0:0:0:
64,192,81412,1,0,0:0:0:0:
320,192,81412,1,0,0:0:0:0:
448,192,81412,1,0,0:0:0:0:
64,192,81540,1,0,0:0:0:0:
192,192,81540,1,0,0:0:0:0:
320,192,81540,1,0,0:0:0:0:
192,192,81668,1,0,0:0:0:0:
64,192,81668,1,0,0:0:0:0:
448,192,81668,1,0,0:0:0:0:
192,192,81796,1,0,0:0:0:0:
320,192,81796,1,0,0:0:0:0:
448,192,81796,1,0,0:0:0:0:
64,192,81924,1,0,0:0:0:0:
320,192,81924,1,0,0:0:0:0:
448,192,81924,1,0,0:0:0:0:
192,192,82053,1,0,0:0:0:0:
448,192,82181,1,0,0:0:0:0:
64,192,82309,1,0,0:0:0:0:
192,192,82309,1,0,0:0:0:0:
320,192,82309,1,0,0:0:0:0:
320,192,82437,1,0,0:0:0:0:
64,192,82437,1,0,0:0:0:0:
192,192,82437,1,0,0:0:0:0:
64,192,82565,1,0,0:0:0:0:
192,192,82565,1,0,0:0:0:0:
320,192,82565,1,0,0:0:0:0:
192,192,82694,1,0,0:0:0:0:
320,192,82694,1,0,0:0:0:0:
448,192,82694,1,0,0:0:0:0:
448,192,82822,1,0,0:0:0:0:
320,192,82822,1,0,0:0:0:0:
192,192,82822,1,0,0:0:0:0:
192,192,82950,1,0,0:0:0:0:
320,192,82950,1,0,0:0:0:0:
448,192,82950,1,0,0:0:0:0:
64,192,83078,1,0,0:0:0:0:
320,192,83078,1,0,0:0:0:0:
448,192,83078,1,0,0:0:0:0:
64,192,83206,1,0,0:0:0:0:
192,192,83206,1,0,0:0:0:0:
448,192,83206,1,0,0:0:0:0:
64,192,83335,1,0,0:0:0:0:
320,192,83335,1,0,0:0:0:0:
448,192,83335,1,0,0:0:0:0:
64,192,83463,1,0,0:0:0:0:
192,192,83463,1,0,0:0:0:0:
320,192,83463,1,0,0:0:0:0:
448,192,83591,1,0,0:0:0:0:
192,192,83719,1,0,0:0:0:0:
64,192,83847,1,0,0:0:0:0:
320,192,83847,1,0,0:0:0:0:
448,192,83847,1,0,0:0:0:0:
64,192,83976,1,0,0:0:0:0:
192,192,83976,1,0,0:0:0:0:
448,192,83976,1,0,0:0:0:0:
192,192,84104,1,0,0:0:0:0:
320,192,84104,1,0,0:0:0:0:
448,192,84104,1,0,0:0:0:0:
320,192,84232,1,0,0:0:0:0:
192,192,84232,1,0,0:0:0:0:
64,192,84232,1,0,0:0:0:0:
64,192,84360,1,0,0:0:0:0:
448,192,84360,1,0,0:0:0:0:
320,192,84360,1,0,0:0:0:0:
64,192,84488,1,0,0:0:0:0:
192,192,84488,1,0,0:0:0:0:
448,192,84488,1,0,0:0:0:0:
64,192,84617,1,0,0:0:0:0:
320,192,84617,1,0,0:0:0:0:
448,192,84617,1,0,0:0:0:0:
64,192,84745,1,0,0:0:0:0:
192,192,84745,1,0,0:0:0:0:
320,192,84745,1,0,0:0:0:0:
192,192,84873,1,0,0:0:0:0:
320,192,84873,1,0,0:0:0:0:
448,192,84873,1,0,0:0:0:0:
64,192,85001,1,0,0:0:0:0:
448,192,85001,1,0,0:0:0:0:
320,192,85001,1,0,0:0:0:0:
64,192,85129,1,0,0:0:0:0:
192,192,85129,1,0,0:0:0:0:
448,192,85129,1,0,0:0:0:0:
320,192,85258,1,0,0:0:0:0:
64,192,85258,1,0,0:0:0:0:
448,192,85258,1,0,0:0:0:0:
64,192,85386,1,0,0:0:0:0:
192,192,85386,1,0,0:0:0:0:
320,192,85386,1,0,0:0:0:0:
192,192,85514,1,0,0:0:0:0:
320,192,85514,1,0,0:0:0:0:
448,192,85514,1,0,0:0:0:0:
64,192,85642,1,0,0:0:0:0:
448,192,85642,1,0,0:0:0:0:
192,192,85642,1,0,0:0:0:0:
64,192,85771,1,0,0:0:0:0:
192,192,85771,1,0,0:0:0:0:
320,192,85771,1,0,0:0:0:0:
64,192,85899,1,0,0:0:0:0:
320,192,85899,1,0,0:0:0:0:
448,192,85899,1,0,0:0:0:0:
192,192,86027,1,0,0:0:0:0:
320,192,86027,1,0,0:0:0:0:
448,192,86027,1,0,0:0:0:0:
64,192,86155,1,0,0:0:0:0:
192,192,86155,1,0,0:0:0:0:
448,192,86155,1,0,0:0:0:0:
192,192,86540,1,0,0:0:0:0:
320,192,86540,1,0,0:0:0:0:
64,192,86924,1,0,0:0:0:0:
320,192,86924,1,0,0:0:0:0:
448,192,86924,1,0,0:0:0:0:
64,192,87053,1,0,0:0:0:0:
192,192,87053,1,0,0:0:0:0:
448,192,87053,1,0,0:0:0:0:
192,192,87181,1,0,0:0:0:0:
64,192,87181,1,0,0:0:0:0:
448,192,87181,1,0,0:0:0:0:
320,192,87309,1,0,0:0:0:0:
64,192,87309,1,0,0:0:0:0:
192,192,87309,1,0,0:0:0:0:
192,192,87694,1,0,0:0:0:0:
320,192,87694,1,0,0:0:0:0:
448,192,87694,1,0,0:0:0:0:
448,192,87822,1,0,0:0:0:0:
64,192,87822,1,0,0:0:0:0:
192,192,87822,1,0,0:0:0:0:
64,192,87950,1,0,0:0:0:0:
192,192,87950,1,0,0:0:0:0:
448,192,87950,1,0,0:0:0:0:
320,192,88078,1,0,0:0:0:0:
64,192,88078,1,0,0:0:0:0:
192,192,88078,1,0,0:0:0:0:
64,192,88463,1,0,0:0:0:0:
320,192,88463,1,0,0:0:0:0:
448,192,88463,1,0,0:0:0:0:
64,192,88591,1,0,0:0:0:0:
192,192,88591,1,0,0:0:0:0:
320,192,88591,1,0,0:0:0:0:
192,192,88719,1,0,0:0:0:0:
320,192,88719,1,0,0:0:0:0:
448,192,88719,1,0,0:0:0:0:
192,192,88847,1,0,0:0:0:0:
448,192,88847,1,0,0:0:0:0:
64,192,88847,1,0,0:0:0:0:
64,192,88976,1,0,0:0:0:0:
192,192,88976,1,0,0:0:0:0:
320,192,88976,1,0,0:0:0:0:
448,192,89040,1,0,0:0:0:0:
64,192,89040,1,0,0:0:0:0:
320,192,89104,1,0,0:0:0:0:
448,192,89104,1,0,0:0:0:0:
192,192,89104,1,0,0:0:0:0:
448,192,89232,1,0,0:0:0:0:
320,192,89232,1,0,0:0:0:0:
64,192,89232,1,0,0:0:0:0:
64,192,89617,1,0,0:0:0:0:
64,192,90001,1,0,0:0:0:0:
448,192,90001,1,0,0:0:0:0:
64,192,90097,1,0,0:0:0:0:
192,192,90097,1,0,0:0:0:0:
320,192,90194,1,0,0:0:0:0:
64,192,90290,1,0,0:0:0:0:
448,192,90290,1,0,0:0:0:0:
192,192,90386,1,0,0:0:0:0:
448,192,90386,1,0,0:0:0:0:
320,192,90482,1,0,0:0:0:0:
192,192,90578,1,0,0:0:0:0:
64,192,90578,1,0,0:0:0:0:
448,192,90674,1,0,0:0:0:0:
320,192,90771,1,0,0:0:0:0:
64,192,90771,1,0,0:0:0:0:
192,192,90867,1,0,0:0:0:0:
320,192,90867,1,0,0:0:0:0:
64,192,90963,1,0,0:0:0:0:
192,192,91059,1,0,0:0:0:0:
448,192,91059,1,0,0:0:0:0:
320,192,91155,1,0,0:0:0:0:
448,192,91155,1,0,0:0:0:0:
192,192,91251,1,0,0:0:0:0:
64,192,91347,1,0,0:0:0:0:
320,192,91347,1,0,0:0:0:0:
448,192,91444,1,0,0:0:0:0:
64,192,91540,1,0,0:0:0:0:
192,192,91540,1,0,0:0:0:0:
192,192,91636,1,0,0:0:0:0:
320,192,91636,1,0,0:0:0:0:
448,192,91732,1,0,0:0:0:0:
192,192,91828,1,0,0:0:0:0:
64,192,91828,1,0,0:0:0:0:
64,192,91924,1,0,0:0:0:0:
448,192,91924,1,0,0:0:0:0:
320,192,92021,1,0,0:0:0:0:
192,192,92117,1,0,0:0:0:0:
64,192,92117,1,0,0:0:0:0:
320,192,92213,1,0,0:0:0:0:
192,192,92309,1,0,0:0:0:0:
448,192,92309,1,0,0:0:0:0:
64,192,92405,1,0,0:0:0:0:
320,192,92501,1,0,0:0:0:0:
448,192,92501,1,0,0:0:0:0:
64,192,92597,1,0,0:0:0:0:
320,192,92694,1,0,0:0:0:0:
448,192,92694,1,0,0:0:0:0:
64,192,92790,1,0,0:0:0:0:
192,192,92886,1,0,0:0:0:0:
320,192,92886,1,0,0:0:0:0:
448,192,92982,1,0,0:0:0:0:
64,192,92982,1,0,0:0:0:0:
192,192,93078,1,0,0:0:0:0:
320,192,93078,1,0,0:0:0:0:
320,192,93174,1,0,0:0:0:0:
448,192,93174,1,0,0:0:0:0:
192,192,93271,1,0,0:0:0:0:
64,192,93367,1,0,0:0:0:0:
448,192,93367,1,0,0:0:0:0:
320,192,93463,1,0,0:0:0:0:
64,192,93463,1,0,0:0:0:0:
192,192,93559,1,0,0:0:0:0:
320,192,93655,1,0,0:0:0:0:
448,192,93655,1,0,0:0:0:0:
64,192,93751,1,0,0:0:0:0:
192,192,93847,1,0,0:0:0:0:
448,192,93847,1,0,0:0:0:0:
320,192,93944,1,0,0:0:0:0:
192,192,93944,1,0,0:0:0:0:
448,192,94040,1,0,0:0:0:0:
64,192,94136,1,0,0:0:0:0:
192,192,94136,1,0,0:0:0:0:
320,192,94232,1,0,0:0:0:0:
64,192,94232,1,0,0:0:0:0:
448,192,94328,1,0,0:0:0:0:
192,192,94424,1,0,0:0:0:0:
320,192,94424,1,0,0:0:0:0:
64,192,94521,1,0,0:0:0:0:
448,192,94617,1,0,0:0:0:0:
192,192,94617,1,0,0:0:0:0:
320,192,94713,1,0,0:0:0:0:
448,192,94713,1,0,0:0:0:0:
64,192,94809,1,0,0:0:0:0:
192,192,94905,1,0,0:0:0:0:
320,192,94905,1,0,0:0:0:0:
448,192,95001,1,0,0:0:0:0:
192,192,95001,1,0,0:0:0:0:
64,192,95097,1,0,0:0:0:0:
320,192,95194,1,0,0:0:0:0:
448,192,95194,1,0,0:0:0:0:
64,192,95290,1,0,0:0:0:0:
192,192,95386,1,0,0:0:0:0:
320,192,95386,1,0,0:0:0:0:
448,192,95482,1,0,0:0:0:0:
64,192,95578,1,0,0:0:0:0:
192,192,95578,1,0,0:0:0:0:
320,192,95674,1,0,0:0:0:0:
448,192,95674,1,0,0:0:0:0:
192,192,95771,1,0,0:0:0:0:
64,192,95771,1,0,0:0:0:0:
320,192,95867,1,0,0:0:0:0:
192,192,95963,1,0,0:0:0:0:
448,192,95963,1,0,0:0:0:0:
64,192,96059,1,0,0:0:0:0:
448,192,96155,1,0,0:0:0:0:
320,192,96155,1,0,0:0:0:0:
64,192,96251,1,0,0:0:0:0:
320,192,96251,1,0,0:0:0:0:
192,192,96347,1,0,0:0:0:0:
64,192,96444,1,0,0:0:0:0:
448,192,96444,1,0,0:0:0:0:
192,192,96540,1,0,0:0:0:0:
448,192,96540,1,0,0:0:0:0:
320,192,96636,1,0,0:0:0:0:
192,192,96732,1,0,0:0:0:0:
64,192,96732,1,0,0:0:0:0:
448,192,96828,1,0,0:0:0:0:
320,192,96924,1,0,0:0:0:0:
64,192,96924,1,0,0:0:0:0:
192,192,97021,1,0,0:0:0:0:
320,192,97021,1,0,0:0:0:0:
64,192,97117,1,0,0:0:0:0:
192,192,97213,1,0,0:0:0:0:
448,192,97213,1,0,0:0:0:0:
320,192,97309,1,0,0:0:0:0:
448,192,97309,1,0,0:0:0:0:
192,192,97405,1,0,0:0:0:0:
64,192,97501,1,0,0:0:0:0:
320,192,97501,1,0,0:0:0:0:
448,192,97597,1,0,0:0:0:0:
64,192,97694,1,0,0:0:0:0:
192,192,97694,1,0,0:0:0:0:
192,192,97790,1,0,0:0:0:0:
320,192,97790,1,0,0:0:0:0:
448,192,97886,1,0,0:0:0:0:
192,192,97982,1,0,0:0:0:0:
64,192,97982,1,0,0:0:0:0:
64,192,98078,1,0,0:0:0:0:
448,192,98078,1,0,0:0:0:0:
320,192,98174,1,0,0:0:0:0:
192,192,98271,1,0,0:0:0:0:
64,192,98271,1,0,0:0:0:0:
320,192,98367,1,0,0:0:0:0:
192,192,98463,1,0,0:0:0:0:
448,192,98463,1,0,0:0:0:0:
64,192,98559,1,0,0:0:0:0:
320,192,98655,1,0,0:0:0:0:
448,192,98655,1,0,0:0:0:0:
64,192,98751,1,0,0:0:0:0:
320,192,98847,1,0,0:0:0:0:
448,192,98847,1,0,0:0:0:0:
64,192,98944,1,0,0:0:0:0:
192,192,99040,1,0,0:0:0:0:
320,192,99040,1,0,0:0:0:0:
448,192,99136,1,0,0:0:0:0:
64,192,99232,1,0,0:0:0:0:
192,192,99232,1,0,0:0:0:0:
320,192,99328,1,0,0:0:0:0:
64,192,99328,1,0,0:0:0:0:
192,192,99424,1,0,0:0:0:0:
320,192,99424,1,0,0:0:0:0:
192,192,99521,1,0,0:0:0:0:
448,192,99521,1,0,0:0:0:0:
320,192,99617,1,0,0:0:0:0:
64,192,99713,1,0,0:0:0:0:
192,192,99809,1,0,0:0:0:0:
320,192,99809,1,0,0:0:0:0:
448,192,99905,1,0,0:0:0:0:
192,192,100001,1,0,0:0:0:0:
64,192,100001,1,0,0:0:0:0:
64,192,100097,1,0,0:0:0:0:
448,192,100097,1,0,0:0:0:0:
448,192,100194,1,0,0:0:0:0:
320,192,100194,1,0,0:0:0:0:
320,192,100290,1,0,0:0:0:0:
192,192,100290,1,0,0:0:0:0:
64,192,100386,1,0,0:0:0:0:
320,192,100482,1,0,0:0:0:0:
192,192,100578,1,0,0:0:0:0:
64,192,100578,1,0,0:0:0:0:
448,192,100674,1,0,0:0:0:0:
320,192,100771,1,0,0:0:0:0:
192,192,100771,1,0,0:0:0:0:
64,192,100867,1,0,0:0:0:0:
320,192,100867,1,0,0:0:0:0:
64,192,100963,1,0,0:0:0:0:
448,192,100963,1,0,0:0:0:0:
448,192,101059,1,0,0:0:0:0:
192,192,101059,1,0,0:0:0:0:
192,192,101155,1,0,0:0:0:0:
320,192,101155,1,0,0:0:0:0:
64,192,101251,1,0,0:0:0:0:
320,192,101347,1,0,0:0:0:0:
448,192,101347,1,0,0:0:0:0:
192,192,101444,1,0,0:0:0:0:
64,192,101540,128,0,101636:0:0:0:0:
320,192,101540,128,0,101636:0:0:0:0:
448,192,101540,128,0,101636:0:0:0:0:
448,192,101732,128,0,101828:0:0:0:0:
320,192,101732,128,0,101828:0:0:0:0:
64,192,101732,128,0,101828:0:0:0:0:
64,192,101924,128,0,102021:0:0:0:0:
320,192,101924,128,0,102021:0:0:0:0:
448,192,101924,128,0,102021:0:0:0:0:
