osu file format v14

[General]
AudioFilename: dadadadadadadadadada.mp3
AudioLeadIn: 0
PreviewTime: -1
Countdown: 0
SampleSet: None
StackLeniency: 0.7
Mode: 1
LetterboxInBreaks: 0
WidescreenStoryboard: 1

[Editor]
Bookmarks: 22309,34617,46924,59232,74617,90001
DistanceSpacing: 1.2
BeatDivisor: 4
GridSize: 32
TimelineZoom: 1.8

[Metadata]
Title:Dadadadadadadadadada
TitleUnicode:Dadadadadadadadadada
Artist:Hige Driver join. SELEN
ArtistUnicode:Hige Driver join. SELEN
Creator:Grimbow
Version:GrimDADADA ez mode
Source:
Tags:
BeatmapID:1494324
BeatmapSetID:706760

[Difficulty]
HPDrainRate:5
CircleSize:5
OverallDifficulty:5
ApproachRate:5
SliderMultiplier:1.4
SliderTickRate:1

[Events]
//Background and Video events
0,0,"bg.jpg",0,0
//Break Periods
//Storyboard Layer 0 (Background)
//Storyboard Layer 1 (Fail)
//Storyboard Layer 2 (Pass)
//Storyboard Layer 3 (Foreground)
//Storyboard Sound Samples

[TimingPoints]
771,384.615384615385,4,2,0,100,1,0
74617,-66.6666666666667,4,2,0,100,0,1
90001,-100,4,2,0,100,0,0

[HitObjects]
256,192,9232,5,4,0:0:0:0:
256,192,9617,1,12,0:0:0:0:
256,192,10001,1,0,0:0:0:0:
256,192,10097,1,8,0:0:0:0:
256,192,10290,1,8,0:0:0:0:
256,192,10386,1,0,0:0:0:0:
256,192,10578,1,8,0:0:0:0:
256,192,10771,1,8,0:0:0:0:
256,192,10867,1,0,0:0:0:0:
256,192,10963,1,0,0:0:0:0:
256,192,11059,1,8,0:0:0:0:
256,192,11155,1,0,0:0:0:0:
256,192,11347,1,8,0:0:0:0:
256,192,11540,1,0,0:0:0:0:
256,192,11636,1,0,0:0:0:0:
256,192,11828,1,8,0:0:0:0:
256,192,11924,1,0,0:0:0:0:
256,192,12117,1,8,0:0:0:0:
256,192,12309,1,0,0:0:0:0:
256,192,12405,1,0,0:0:0:0:
256,192,12501,1,8,0:0:0:0:
256,192,12597,1,0,0:0:0:0:
256,192,12694,1,8,0:0:0:0:
256,192,13078,1,0,0:0:0:0:
256,192,13174,1,8,0:0:0:0:
256,192,13367,1,8,0:0:0:0:
256,192,13463,1,0,0:0:0:0:
256,192,13655,1,8,0:0:0:0:
256,192,13847,1,0,0:0:0:0:
256,192,13944,1,8,0:0:0:0:
256,192,14040,1,0,0:0:0:0:
256,192,14136,1,0,0:0:0:0:
256,192,14232,1,0,0:0:0:0:
256,192,14424,1,0,0:0:0:0:
256,192,14617,1,8,0:0:0:0:
256,192,14713,1,8,0:0:0:0:
256,192,14905,1,0,0:0:0:0:
256,192,15001,1,0,0:0:0:0:
256,192,15194,1,0,0:0:0:0:
256,192,15386,1,0,0:0:0:0:
256,192,15482,1,8,0:0:0:0:
256,192,15578,1,0,0:0:0:0:
256,192,15674,1,8,0:0:0:0:
256,192,15771,1,8,0:0:0:0:
256,192,15963,1,0,0:0:0:0:
256,192,16155,1,0,0:0:0:0:
256,192,16251,1,0,0:0:0:0:
256,192,16444,1,8,0:0:0:0:
256,192,16540,1,0,0:0:0:0:
256,192,16732,1,8,0:0:0:0:
256,192,16828,1,8,0:0:0:0:
256,192,16924,1,0,0:0:0:0:
256,192,17021,1,0,0:0:0:0:
256,192,17213,1,0,0:0:0:0:
256,192,17309,1,0,0:0:0:0:
256,192,17501,1,0,0:0:0:0:
256,192,17597,1,8,0:0:0:0:
256,192,17694,1,0,0:0:0:0:
256,192,17790,1,0,0:0:0:0:
256,192,17982,1,8,0:0:0:0:
256,192,18078,1,8,0:0:0:0:
256,192,18271,1,0,0:0:0:0:
256,192,18367,1,0,0:0:0:0:
256,192,18463,1,8,0:0:0:0:
256,192,18559,1,8,0:0:0:0:
256,192,18655,1,0,0:0:0:0:
256,192,18751,1,8,0:0:0:0:
256,192,18847,1,8,0:0:0:0:
256,192,19232,1,8,0:0:0:0:
256,192,19328,1,8,0:0:0:0:
256,192,19521,1,8,0:0:0:0:
256,192,19617,1,8,0:0:0:0:
256,192,19809,1,8,0:0:0:0:
256,192,20001,1,0,0:0:0:0:
256,192,20097,1,0,0:0:0:0:
256,192,20290,1,0,0:0:0:0:
256,192,20386,1,0,0:0:0:0:
256,192,20578,1,0,0:0:0:0:
256,192,20674,1,0,0:0:0:0:
256,192,20771,1,8,0:0:0:0:
256,192,20867,1,0,0:0:0:0:
256,192,21059,1,0,0:0:0:0:
256,192,21155,1,8,0:0:0:0:
256,192,21347,1,8,0:0:0:0:
256,192,21444,1,8,0:0:0:0:
256,192,21540,1,0,0:0:0:0:
256,192,21636,1,8,0:0:0:0:
256,192,21732,1,8,0:0:0:0:
256,192,21828,1,0,0:0:0:0:
256,192,21924,1,0,0:0:0:0:
256,192,22021,1,0,0:0:0:0:
256,192,22117,1,0,0:0:0:0:
256,192,22309,1,0,0:0:0:0:
256,192,22694,1,0,0:0:0:0:
256,192,23078,1,0,0:0:0:0:
256,192,23463,1,0,0:0:0:0:
256,192,23847,1,0,0:0:0:0:
256,192,24232,1,0,0:0:0:0:
256,192,24617,1,0,0:0:0:0:
256,192,25001,1,0,0:0:0:0:
256,192,25386,1,0,0:0:0:0:
256,192,25482,1,0,0:0:0:0:
256,192,25578,1,8,0:0:0:0:
256,192,25771,1,0,0:0:0:0:
256,192,25867,1,0,0:0:0:0:
256,192,25963,1,8,0:0:0:0:
256,192,26155,1,0,0:0:0:0:
256,192,26251,1,0,0:0:0:0:
256,192,26347,1,8,0:0:0:0:
256,192,26444,1,0,0:0:0:0:
256,192,26540,1,0,0:0:0:0:
256,192,26636,1,0,0:0:0:0:
256,192,26732,1,8,0:0:0:0:
256,192,26924,1,0,0:0:0:0:
256,192,27021,1,0,0:0:0:0:
256,192,27117,1,8,0:0:0:0:
256,192,27309,1,0,0:0:0:0:
256,192,27405,1,0,0:0:0:0:
256,192,27501,1,8,0:0:0:0:
256,192,27694,1,0,0:0:0:0:
256,192,27790,1,0,0:0:0:0:
256,192,27886,1,8,0:0:0:0:
256,192,27982,1,0,0:0:0:0:
256,192,28078,1,8,0:0:0:0:
256,192,28174,1,8,0:0:0:0:
256,192,28271,1,0,0:0:0:0:
256,192,28367,1,0,0:0:0:0:
256,192,28463,1,0,0:0:0:0:
256,192,28847,1,0,0:0:0:0:
256,192,29232,1,0,0:0:0:0:
256,192,29617,1,0,0:0:0:0:
256,192,30001,1,0,0:0:0:0:
256,192,30386,1,0,0:0:0:0:
256,192,30771,1,0,0:0:0:0:
256,192,31155,1,0,0:0:0:0:
256,192,31540,1,0,0:0:0:0:
256,192,31636,1,8,0:0:0:0:
256,192,31732,1,8,0:0:0:0:
256,192,31924,1,0,0:0:0:0:
256,192,32021,1,8,0:0:0:0:
256,192,32117,1,8,0:0:0:0:
256,192,32309,1,0,0:0:0:0:
256,192,32405,1,8,0:0:0:0:
256,192,32501,1,8,0:0:0:0:
256,192,32597,1,0,0:0:0:0:
256,192,32694,1,8,0:0:0:0:
256,192,32790,1,8,0:0:0:0:
256,192,32886,1,8,0:0:0:0:
256,192,33078,1,0,0:0:0:0:
256,192,33174,1,8,0:0:0:0:
256,192,33271,1,8,0:0:0:0:
256,192,33463,1,0,0:0:0:0:
256,192,33559,1,8,0:0:0:0:
256,192,33655,1,8,0:0:0:0:
256,192,33847,1,0,0:0:0:0:
256,192,33944,1,8,0:0:0:0:
256,192,34040,1,8,0:0:0:0:
256,192,34136,1,8,0:0:0:0:
256,192,34232,1,0,0:0:0:0:
256,192,34328,1,8,0:0:0:0:
256,192,34424,1,8,0:0:0:0:
256,192,34521,1,8,0:0:0:0:
256,192,34617,1,0,0:0:0:0:
256,192,34905,1,4,0:0:0:0:
256,192,35194,1,8,0:0:0:0:
256,192,35386,1,4,0:0:0:0:
256,192,35674,1,4,0:0:0:0:
256,192,35963,1,8,0:0:0:0:
256,192,36155,1,4,0:0:0:0:
256,192,36444,1,4,0:0:0:0:
256,192,36732,1,8,0:0:0:0:
256,192,36924,1,4,0:0:0:0:
256,192,37117,1,0,0:0:0:0:
256,192,37213,1,0,0:0:0:0:
256,192,37309,1,8,0:0:0:0:
256,192,37501,1,8,0:0:0:0:
256,192,37694,1,4,0:0:0:0:
256,192,37982,1,4,0:0:0:0:
256,192,38271,1,8,0:0:0:0:
256,192,38463,1,4,0:0:0:0:
256,192,38751,1,4,0:0:0:0:
256,192,39040,1,8,0:0:0:0:
256,192,39232,1,4,0:0:0:0:
256,192,39521,1,4,0:0:0:0:
256,192,39809,1,8,0:0:0:0:
256,192,40001,1,0,0:0:0:0:
256,192,40097,1,0,0:0:0:0:
256,192,40194,1,8,0:0:0:0:
256,192,40290,1,0,0:0:0:0:
256,192,40386,1,8,0:0:0:0:
256,192,40482,1,0,0:0:0:0:
256,192,40578,1,0,0:0:0:0:
256,192,40771,1,12,0:0:0:0:
256,192,41059,1,0,0:0:0:0:
256,192,41155,1,8,0:0:0:0:
256,192,41347,1,8,0:0:0:0:
256,192,41540,1,0,0:0:0:0:
256,192,41636,1,8,0:0:0:0:
256,192,41732,1,0,0:0:0:0:
256,192,41828,1,8,0:0:0:0:
256,192,41924,1,0,0:0:0:0:
256,192,42117,1,8,0:0:0:0:
256,192,42309,1,0,0:0:0:0:
256,192,42405,1,0,0:0:0:0:
256,192,42501,1,0,0:0:0:0:
256,192,42694,1,0,0:0:0:0:
256,192,42886,1,8,0:0:0:0:
256,192,42982,1,8,0:0:0:0:
256,192,43078,1,0,0:0:0:0:
256,192,43174,1,0,0:0:0:0:
256,192,43271,1,8,0:0:0:0:
256,192,43367,1,0,0:0:0:0:
256,192,43463,1,8,0:0:0:0:
256,192,43847,1,8,0:0:0:0:
256,192,43944,1,0,0:0:0:0:
256,192,44136,1,8,0:0:0:0:
256,192,44232,1,8,0:0:0:0:
256,192,44424,1,8,0:0:0:0:
256,192,44617,1,0,0:0:0:0:
256,192,44713,1,8,0:0:0:0:
256,192,44905,1,0,0:0:0:0:
256,192,45001,1,0,0:0:0:0:
256,192,45194,1,0,0:0:0:0:
256,192,45290,1,0,0:0:0:0:
256,192,45386,1,8,0:0:0:0:
256,192,45482,1,0,0:0:0:0:
256,192,45674,1,8,0:0:0:0:
256,192,45771,1,8,0:0:0:0:
256,192,45963,1,8,0:0:0:0:
256,192,46155,1,0,0:0:0:0:
256,192,46251,1,8,0:0:0:0:
256,192,46347,1,0,0:0:0:0:
256,192,46444,1,8,0:0:0:0:
256,192,46540,1,0,0:0:0:0:
256,192,46636,1,8,0:0:0:0:
256,192,46732,1,8,0:0:0:0:
256,192,46828,1,8,0:0:0:0:
256,192,46924,1,0,0:0:0:0:
256,192,47309,1,0,0:0:0:0:
256,192,47694,1,0,0:0:0:0:
256,192,48078,1,0,0:0:0:0:
256,192,48463,1,0,0:0:0:0:
256,192,48847,1,0,0:0:0:0:
256,192,49232,1,0,0:0:0:0:
256,192,49617,1,0,0:0:0:0:
256,192,50001,1,0,0:0:0:0:
256,192,50097,1,8,0:0:0:0:
256,192,50194,1,0,0:0:0:0:
256,192,50386,1,0,0:0:0:0:
256,192,50482,1,8,0:0:0:0:
256,192,50578,1,0,0:0:0:0:
256,192,50771,1,0,0:0:0:0:
256,192,50867,1,8,0:0:0:0:
256,192,50963,1,0,0:0:0:0:
256,192,51059,1,8,0:0:0:0:
256,192,51155,1,8,0:0:0:0:
256,192,51251,1,0,0:0:0:0:
256,192,51347,1,8,0:0:0:0:
256,192,51540,1,0,0:0:0:0:
256,192,51636,1,8,0:0:0:0:
256,192,51732,1,0,0:0:0:0:
256,192,51924,1,0,0:0:0:0:
256,192,52021,1,8,0:0:0:0:
256,192,52117,1,0,0:0:0:0:
256,192,52309,1,0,0:0:0:0:
256,192,52405,1,8,0:0:0:0:
256,192,52501,1,0,0:0:0:0:
256,192,52597,1,0,0:0:0:0:
256,192,52694,1,8,0:0:0:0:
256,192,52790,1,8,0:0:0:0:
256,192,52886,1,0,0:0:0:0:
256,192,52982,1,8,0:0:0:0:
256,192,53078,1,0,0:0:0:0:
256,192,53463,1,0,0:0:0:0:
256,192,53847,1,0,0:0:0:0:
256,192,54232,1,0,0:0:0:0:
256,192,54617,1,0,0:0:0:0:
256,192,55001,1,0,0:0:0:0:
256,192,55386,1,0,0:0:0:0:
256,192,55771,1,0,0:0:0:0:
256,192,56155,1,0,0:0:0:0:
256,192,56251,1,0,0:0:0:0:
256,192,56347,1,8,0:0:0:0:
256,192,56444,1,0,0:0:0:0:
256,192,56540,1,0,0:0:0:0:
256,192,56732,1,0,0:0:0:0:
256,192,56828,1,0,0:0:0:0:
256,192,56924,1,8,0:0:0:0:
256,192,57021,1,0,0:0:0:0:
256,192,57117,1,0,0:0:0:0:
256,192,57309,1,0,0:0:0:0:
256,192,57405,1,0,0:0:0:0:
256,192,57501,1,8,0:0:0:0:
256,192,57597,1,0,0:0:0:0:
256,192,57694,1,8,0:0:0:0:
256,192,57790,1,8,0:0:0:0:
256,192,57886,1,0,0:0:0:0:
256,192,57982,1,8,0:0:0:0:
256,192,58078,1,0,0:0:0:0:
256,192,58174,1,0,0:0:0:0:
256,192,58271,1,8,0:0:0:0:
256,192,58367,1,0,0:0:0:0:
256,192,58463,1,8,0:0:0:0:
256,192,58559,1,8,0:0:0:0:
256,192,58655,1,0,0:0:0:0:
256,192,58751,1,8,0:0:0:0:
256,192,58847,1,0,0:0:0:0:
256,192,58944,1,0,0:0:0:0:
256,192,59040,1,0,0:0:0:0:
256,192,59136,1,0,0:0:0:0:
256,192,59232,1,0,0:0:0:0:
256,192,59424,1,8,0:0:0:0:
256,192,59521,1,0,0:0:0:0:
256,192,59617,1,0,0:0:0:0:
256,192,59809,1,8,0:0:0:0:
256,192,60001,1,0,0:0:0:0:
256,192,60097,1,8,0:0:0:0:
256,192,60194,1,8,0:0:0:0:
256,192,60386,1,0,0:0:0:0:
256,192,60578,1,8,0:0:0:0:
256,192,60771,1,0,0:0:0:0:
256,192,60963,1,8,0:0:0:0:
256,192,61059,1,8,0:0:0:0:
256,192,61155,1,0,0:0:0:0:
256,192,61347,1,8,0:0:0:0:
256,192,61540,1,0,0:0:0:0:
256,192,61636,1,0,0:0:0:0:
256,192,61732,1,8,0:0:0:0:
256,192,61828,1,8,0:0:0:0:
256,192,61924,1,0,0:0:0:0:
256,192,62117,1,8,0:0:0:0:
256,192,62213,1,8,0:0:0:0:
256,192,62309,1,0,0:0:0:0:
256,192,62501,1,8,0:0:0:0:
256,192,62694,1,0,0:0:0:0:
256,192,62886,1,8,0:0:0:0:
256,192,63078,1,0,0:0:0:0:
256,192,63271,1,8,0:0:0:0:
256,192,63367,1,0,0:0:0:0:
256,192,63463,1,0,0:0:0:0:
256,192,63655,1,8,0:0:0:0:
256,192,63847,1,0,0:0:0:0:
256,192,64040,1,8,0:0:0:0:
256,192,64232,1,0,0:0:0:0:
256,192,64424,1,8,0:0:0:0:
256,192,64521,1,8,0:0:0:0:
256,192,64617,1,0,0:0:0:0:
256,192,64713,1,0,0:0:0:0:
256,192,64809,1,8,0:0:0:0:
256,192,64905,1,0,0:0:0:0:
256,192,65001,1,8,0:0:0:0:
256,192,65097,1,8,0:0:0:0:
256,192,65194,1,0,0:0:0:0:
256,192,65290,1,8,0:0:0:0:
256,192,65386,1,0,0:0:0:0:
256,192,65578,1,8,0:0:0:0:
256,192,65674,1,8,0:0:0:0:
256,192,65771,1,0,0:0:0:0:
256,192,65963,1,8,0:0:0:0:
256,192,66155,1,0,0:0:0:0:
256,192,66347,1,8,0:0:0:0:
256,192,66444,1,0,0:0:0:0:
256,192,66540,1,0,0:0:0:0:
256,192,66732,1,8,0:0:0:0:
256,192,66924,1,0,0:0:0:0:
256,192,67117,1,8,0:0:0:0:
256,192,67309,1,0,0:0:0:0:
256,192,67405,1,0,0:0:0:0:
256,192,67501,1,8,0:0:0:0:
256,192,67694,1,0,0:0:0:0:
256,192,67886,1,8,0:0:0:0:
256,192,68078,1,0,0:0:0:0:
256,192,68271,1,8,0:0:0:0:
256,192,68367,1,8,0:0:0:0:
256,192,68463,1,0,0:0:0:0:
256,192,68847,1,8,0:0:0:0:
256,192,69232,1,8,0:0:0:0:
256,192,69617,1,8,0:0:0:0:
256,192,70001,1,8,0:0:0:0:
256,192,70194,1,8,0:0:0:0:
256,192,70386,1,8,0:0:0:0:
256,192,70578,1,8,0:0:0:0:
256,192,70771,1,8,0:0:0:0:
256,192,70963,1,8,0:0:0:0:
256,192,71155,1,8,0:0:0:0:
256,192,71347,1,8,0:0:0:0:
256,192,71540,1,8,0:0:0:0:
256,192,71636,1,8,0:0:0:0:
256,192,71732,1,8,0:0:0:0:
256,192,71828,1,8,0:0:0:0:
256,192,71924,1,8,0:0:0:0:
256,192,72021,1,8,0:0:0:0:
256,192,72117,1,8,0:0:0:0:
256,192,72213,1,8,0:0:0:0:
256,192,72309,1,8,0:0:0:0:
256,192,72405,1,8,0:0:0:0:
256,192,72501,1,8,0:0:0:0:
256,192,72597,1,8,0:0:0:0:
256,192,72694,1,8,0:0:0:0:
256,192,72790,1,8,0:0:0:0:
256,192,72886,1,8,0:0:0:0:
256,192,72982,1,8,0:0:0:0:
256,192,73078,1,8,0:0:0:0:
256,192,73142,1,8,0:0:0:0:
256,192,73206,1,8,0:0:0:0:
256,192,73271,1,8,0:0:0:0:
256,192,73335,1,8,0:0:0:0:
256,192,73399,1,8,0:0:0:0:
256,192,73463,1,8,0:0:0:0:
256,192,73527,1,8,0:0:0:0:
256,192,73591,1,8,0:0:0:0:
256,192,73655,1,8,0:0:0:0:
256,192,73847,1,4,0:0:0:0:
256,192,74232,1,12,0:0:0:0:
256,192,74617,1,4,0:0:0:0:
256,192,74745,1,0,0:0:0:0:
256,192,74873,1,4,0:0:0:0:
256,192,75001,1,4,0:0:0:0:
256,192,75129,1,0,0:0:0:0:
256,192,75258,1,0,0:0:0:0:
256,192,75386,1,4,0:0:0:0:
256,192,75514,1,4,0:0:0:0:
256,192,75642,1,0,0:0:0:0:
256,192,75771,1,4,0:0:0:0:
256,192,76155,1,4,0:0:0:0:
256,192,76283,1,4,0:0:0:0:
256,192,76412,1,0,0:0:0:0:
256,192,76540,1,4,0:0:0:0:
256,192,76668,1,4,0:0:0:0:
256,192,76796,1,0,0:0:0:0:
256,192,76924,1,4,0:0:0:0:
256,192,77053,1,4,0:0:0:0:
256,192,77181,1,4,0:0:0:0:
256,192,77309,1,4,0:0:0:0:
256,192,77694,1,4,0:0:0:0:
256,192,77822,1,4,0:0:0:0:
256,192,77950,1,4,0:0:0:0:
256,192,78078,1,12,0:0:0:0:
256,192,78206,1,4,0:0:0:0:
256,192,78335,1,4,0:0:0:0:
256,192,78463,1,12,0:0:0:0:
256,192,78591,1,4,0:0:0:0:
256,192,78719,1,4,0:0:0:0:
256,192,78847,1,12,0:0:0:0:
256,192,78976,1,4,0:0:0:0:
256,192,79104,1,4,0:0:0:0:
256,192,79232,1,12,0:0:0:0:
256,192,79360,1,4,0:0:0:0:
256,192,79488,1,4,0:0:0:0:
256,192,79617,1,12,0:0:0:0:
256,192,79745,1,12,0:0:0:0:
256,192,79873,1,4,0:0:0:0:
256,192,80001,1,12,0:0:0:0:
256,192,80386,1,8,0:0:0:0:
256,192,80771,1,0,0:0:0:0:
256,192,80899,1,0,0:0:0:0:
256,192,81027,1,0,0:0:0:0:
256,192,81155,1,8,0:0:0:0:
256,192,81283,1,8,0:0:0:0:
256,192,81412,1,0,0:0:0:0:
256,192,81540,1,8,0:0:0:0:
256,192,81668,1,8,0:0:0:0:
256,192,81796,1,0,0:0:0:0:
256,192,81924,1,8,0:0:0:0:
256,192,82309,1,8,0:0:0:0:
256,192,82437,1,8,0:0:0:0:
256,192,82565,1,0,0:0:0:0:
256,192,82694,1,8,0:0:0:0:
256,192,82822,1,0,0:0:0:0:
256,192,82950,1,0,0:0:0:0:
256,192,83078,1,8,0:0:0:0:
256,192,83206,1,0,0:0:0:0:
256,192,83335,1,8,0:0:0:0:
256,192,83463,1,8,0:0:0:0:
256,192,83847,1,8,0:0:0:0:
256,192,83976,1,0,0:0:0:0:
256,192,84104,1,8,0:0:0:0:
256,192,84232,1,8,0:0:0:0:
256,192,84360,1,0,0:0:0:0:
256,192,84488,1,0,0:0:0:0:
256,192,84617,1,8,0:0:0:0:
256,192,84745,1,0,0:0:0:0:
256,192,84873,1,0,0:0:0:0:
256,192,85001,1,8,0:0:0:0:
256,192,85129,1,0,0:0:0:0:
256,192,85258,1,0,0:0:0:0:
256,192,85386,1,8,0:0:0:0:
256,192,85514,1,8,0:0:0:0:
256,192,85642,1,0,0:0:0:0:
256,192,85771,1,8,0:0:0:0:
256,192,85899,1,8,0:0:0:0:
256,192,86027,1,8,0:0:0:0:
256,192,86155,1,0,0:0:0:0:
256,192,86540,1,8,0:0:0:0:
256,192,86924,1,0,0:0:0:0:
256,192,86988,1,0,0:0:0:0:
256,192,87053,1,0,0:0:0:0:
256,192,87117,1,0,0:0:0:0:
256,192,87309,1,8,0:0:0:0:
256,192,87694,1,8,0:0:0:0:
256,192,87758,1,8,0:0:0:0:
256,192,87822,1,8,0:0:0:0:
256,192,87886,1,8,0:0:0:0:
256,192,88078,1,8,0:0:0:0:
256,192,88463,1,8,0:0:0:0:
256,192,88527,1,0,0:0:0:0:
256,192,88591,1,0,0:0:0:0:
256,192,88655,1,0,0:0:0:0:
256,192,88847,1,8,0:0:0:0:
256,192,88912,1,0,0:0:0:0:
256,192,88976,1,0,0:0:0:0:
256,192,89040,1,0,0:0:0:0:
256,192,89232,1,0,0:0:0:0:
256,192,89617,1,12,0:0:0:0:
256,192,90001,1,0,0:0:0:0:
256,192,90097,1,8,0:0:0:0:
256,192,90290,1,8,0:0:0:0:
256,192,90386,1,0,0:0:0:0:
256,192,90578,1,8,0:0:0:0:
256,192,90674,1,8,0:0:0:0:
256,192,90771,1,0,0:0:0:0:
256,192,90867,1,0,0:0:0:0:
256,192,91059,1,0,0:0:0:0:
256,192,91155,1,0,0:0:0:0:
256,192,91347,1,0,0:0:0:0:
256,192,91444,1,0,0:0:0:0:
256,192,91540,1,8,0:0:0:0:
256,192,91636,1,8,0:0:0:0:
256,192,91828,1,8,0:0:0:0:
256,192,91924,1,8,0:0:0:0:
256,192,92117,1,8,0:0:0:0:
256,192,92213,1,0,0:0:0:0:
256,192,92309,1,8,0:0:0:0:
256,192,92405,1,8,0:0:0:0:
256,192,92501,1,0,0:0:0:0:
256,192,92597,1,8,0:0:0:0:
256,192,92694,1,8,0:0:0:0:
256,192,93078,1,8,0:0:0:0:
256,192,93174,1,8,0:0:0:0:
256,192,93367,1,8,0:0:0:0:
256,192,93463,1,0,0:0:0:0:
256,192,93655,1,0,0:0:0:0:
256,192,93751,1,0,0:0:0:0:
256,192,93847,1,0,0:0:0:0:
256,192,93944,1,0,0:0:0:0:
256,192,94136,1,0,0:0:0:0:
256,192,94232,1,8,0:0:0:0:
256,192,94424,1,8,0:0:0:0:
256,192,94521,1,0,0:0:0:0:
256,192,94617,1,0,0:0:0:0:
256,192,94713,1,8,0:0:0:0:
256,192,94905,1,8,0:0:0:0:
256,192,95001,1,8,0:0:0:0:
256,192,95194,1,0,0:0:0:0:
256,192,95290,1,8,0:0:0:0:
256,192,95386,1,8,0:0:0:0:
256,192,95482,1,0,0:0:0:0:
256,192,95578,1,0,0:0:0:0:
256,192,95674,1,8,0:0:0:0:
256,192,95771,1,8,0:0:0:0:
256,192,95963,1,8,0:0:0:0:
256,192,96155,1,0,0:0:0:0:
256,192,96251,1,0,0:0:0:0:
256,192,96444,1,8,0:0:0:0:
256,192,96540,1,0,0:0:0:0:
256,192,96732,1,8,0:0:0:0:
256,192,96828,1,0,0:0:0:0:
256,192,96924,1,8,0:0:0:0:
256,192,97021,1,0,0:0:0:0:
256,192,97213,1,0,0:0:0:0:
256,192,97309,1,0,0:0:0:0:
256,192,97501,1,0,0:0:0:0:
256,192,97597,1,8,0:0:0:0:
256,192,97694,1,0,0:0:0:0:
256,192,97790,1,0,0:0:0:0:
256,192,97982,1,0,0:0:0:0:
256,192,98078,1,8,0:0:0:0:
256,192,98271,1,8,0:0:0:0:
256,192,98367,1,8,0:0:0:0:
256,192,98463,1,0,0:0:0:0:
256,192,98559,1,8,0:0:0:0:
256,192,98655,1,0,0:0:0:0:
256,192,98751,1,0,0:0:0:0:
256,192,98847,1,8,0:0:0:0:
256,192,99232,1,8,0:0:0:0:
256,192,99328,1,0,0:0:0:0:
256,192,99521,1,0,0:0:0:0:
256,192,99617,1,8,0:0:0:0:
256,192,99809,1,0,0:0:0:0:
256,192,99905,1,8,0:0:0:0:
256,192,100001,1,0,0:0:0:0:
256,192,100097,1,0,0:0:0:0:
256,192,100290,1,0,0:0:0:0:
256,192,100386,1,8,0:0:0:0:
256,192,100578,1,8,0:0:0:0:
256,192,100674,1,8,0:0:0:0:
256,192,100771,1,0,0:0:0:0:
256,192,100867,1,8,0:0:0:0:
256,192,100963,1,8,0:0:0:0:
256,192,101059,1,0,0:0:0:0:
256,192,101155,1,8,0:0:0:0:
256,192,101251,1,8,0:0:0:0:
256,192,101347,1,0,0:0:0:0:
256,192,101444,1,8,0:0:0:0:
256,192,101540,1,0,0:0:0:0:
256,192,101636,1,8,0:0:0:0:
256,192,101732,1,0,0:0:0:0:
256,192,101828,1,8,0:0:0:0:
256,192,101924,1,0,0:0:0:0:
