osu file format v14

[General]
AudioFilename: audio.mp3
AudioLeadIn: 0
PreviewTime: 157298
Countdown: 1
SampleSet: Soft
StackLeniency: 0.7
Mode: 0
LetterboxInBreaks: 0
WidescreenStoryboard: 0

[Editor]
DistanceSpacing: 3
BeatDivisor: 4
GridSize: 32
TimelineZoom: 2.650003

[Metadata]
Title:DADADADADADADADADADA (Long version)
TitleUnicode:DADADADADADADADADADA (Long version)
Artist:Hige Driver join. SELEN
ArtistUnicode:ヒゲドライバー join. SELEN
Creator:Usubiki
Version:ULTIMATE AR10
Source:
Tags:
BeatmapID:1419589
BeatmapSetID:671397

[Difficulty]
HPDrainRate:7
CircleSize:4.5
OverallDifficulty:9
ApproachRate:10
SliderMultiplier:2.7
SliderTickRate:1

[Events]
//Background and Video events
0,0,"dadadadada.jpg",0,0
//Break Periods
2,145286,153867
2,169902,178483
//Storyboard Layer 0 (Background)
//Storyboard Layer 1 (Fail)
//Storyboard Layer 2 (Pass)
//Storyboard Layer 3 (Foreground)
//Storyboard Sound Samples

[TimingPoints]
8933,384.615384615385,4,1,0,100,1,0
8933,-111.111111111111,4,2,0,50,0,0
9221,-100,4,2,0,50,0,0
9894,-200,4,2,0,50,0,0
10183,-100,4,2,0,50,0,0
10663,-200,4,2,0,50,0,0
10952,-100,4,2,0,50,0,0
11433,-200,4,2,0,50,0,0
11721,-100,4,2,0,50,0,0
11913,-80,4,2,0,50,0,0
12106,-66.6666666666667,4,2,0,50,0,0
12298,-57.1428571428571,4,2,0,50,0,0
12490,-100,4,2,0,50,0,0
14990,-80,4,2,0,50,0,0
15183,-66.6666666666667,4,2,0,50,0,0
15375,-57.1428571428571,4,2,0,50,0,0
15567,-100,4,2,0,50,0,0
18067,-80,4,2,0,50,0,0
18259,-66.6666666666667,4,2,0,50,0,0
18452,-57.1428571428571,4,2,0,50,0,0
18644,-100,4,2,0,50,0,0
21144,-66.6666666666667,4,2,0,50,0,0
21336,-57.1428571428571,4,2,0,50,0,0
21529,-50,4,2,0,50,0,0
21721,-100,4,2,0,50,0,0
25086,-200,4,2,0,50,0,0
27298,-100,4,2,0,50,0,0
31144,-200,4,2,0,50,0,0
33452,-100,4,2,0,50,0,0
46144,-200,4,2,0,50,0,0
46433,-100,4,2,0,50,0,0
73452,-133.333333333333,4,2,0,50,0,0
73933,-100,4,2,0,50,0,0
74221,-100,4,2,0,50,0,1
85952,-100,4,2,0,50,0,0
91913,-80,4,2,0,50,0,0
92106,-66.6666666666667,4,2,0,50,0,0
92298,-57.1428571428571,4,2,0,50,0,0
92490,-100,4,2,0,50,0,0
94990,-80,4,2,0,50,0,0
95183,-66.6666666666667,4,2,0,50,0,0
95375,-57.1428571428571,4,2,0,50,0,0
95759,-100,4,2,0,50,0,0
98067,-80,4,2,0,50,0,0
98259,-66.6666666666667,4,2,0,50,0,0
98452,-57.1428571428571,4,2,0,50,0,0
98644,-100,4,2,0,50,0,0
128836,-200,4,2,0,50,0,0
129317,-100,4,2,0,50,0,0
129606,-100,4,2,0,50,0,1
141336,-100,4,2,0,50,0,0
157202,-100,4,2,0,50,0,1
169029,-100,4,2,0,50,0,0
186144,-200,4,2,0,50,0,0
186497,-100,4,2,0,50,0,0
186529,-100,4,2,0,50,0,1
210471,-100,4,2,0,50,0,0

[HitObjects]
23,135,8933,6,0,B|34:137|34:137|43:133|43:133|52:137|52:137|66:129|66:129|73:141|73:141|84:132|84:132|96:144|96:144|121:126|121:126|136:157|136:157|165:127|165:127|181:162,1,202.500007724762
176,147,9317,2,0,B|195:185|195:185|185:164|185:164|214:223|214:223|199:192|199:192|241:278,1,242.999992584229
246,262,9702,1,0,0:0:0:0:
344,283,9798,1,0,0:0:0:0:
186,23,9990,2,0,L|178:0,2,16.875
116,213,10279,2,0,B|111:257|67:282|67:282|108:319|151:293,1,135
161,262,10567,5,0,0:0:0:0:
303,118,10759,2,0,L|286:93,2,16.875
436,271,11048,1,0,0:0:0:0:
236,239,11240,1,0,0:0:0:0:
170,224,11336,1,0,0:0:0:0:
105,210,11432,1,0,0:0:0:0:
142,115,11529,2,0,L|139:92,2,16.875
220,301,11721,1,0,0:0:0:0:
220,301,11817,2,0,L|157:245,1,67.5
237,119,12009,6,0,P|230:68|247:17,1,84.375
301,177,12202,2,0,P|276:120|281:66,1,101.250003862381
384,222,12394,2,0,P|338:168|324:109,1,118.125001126528
351,26,12586,1,0,0:0:0:0:
452,20,12683,1,0,0:0:0:0:
488,114,12779,2,0,P|493:150|459:211,1,67.5
462,204,12971,1,0,0:0:0:0:
432,220,13067,2,0,L|339:236,1,67.5
257,149,13356,1,0,0:0:0:0:
257,149,13548,6,0,L|151:178,1,67.5
159,176,13740,1,0,0:0:0:0:
128,189,13836,2,0,P|104:216|96:259,1,67.5
298,261,14125,1,0,0:0:0:0:
298,261,14317,2,0,L|352:202,1,67.5
366,186,14509,1,0,0:0:0:0:
387,159,14606,2,0,P|404:129|398:91,1,67.5
334,110,14798,1,0,0:0:0:0:
334,110,14894,2,0,L|252:89,1,67.5
117,84,15086,6,0,P|69:82|19:100,1,84.375
62,139,15279,2,0,P|16:168|-13:212,1,101.250003862381
46,224,15471,2,0,P|11:280|7:345,1,118.125001126528
97,370,15663,1,0,0:0:0:0:
187,324,15759,1,0,0:0:0:0:
183,221,15856,2,0,P|215:201|255:192,1,67.5
314,264,16048,2,0,P|356:266|398:252,1,67.5
330,172,16240,2,0,L|254:113,1,67.5
140,126,16433,1,0,0:0:0:0:
242,300,16625,6,0,P|281:325|325:329,1,67.5
334,233,16817,2,0,P|381:232|409:245,1,67.5
420,338,17009,2,0,L|481:286,1,67.5
440,161,17202,1,0,0:0:0:0:
184,75,17394,2,0,P|142:75|106:95,1,67.5
62,168,17586,2,0,P|65:209|82:241,1,67.5
157,171,17779,2,0,L|232:208,1,67.5
323,117,17971,1,0,0:0:0:0:
323,117,18067,1,0,0:0:0:0:
323,117,18163,6,0,P|355:154|372:207,1,84.375
312,196,18356,2,0,P|322:257|306:318,1,101.250003862381
258,263,18548,2,0,P|229:313|168:356,1,118.125001126528
81,339,18740,1,0,0:0:0:0:
23,256,18836,1,0,0:0:0:0:
69,165,18933,1,0,0:0:0:0:
69,165,19029,1,0,0:0:0:0:
69,165,19125,2,0,L|136:117,1,67.5
201,190,19317,1,0,0:0:0:0:
201,190,19413,1,0,0:0:0:0:
201,190,19509,2,0,L|260:252,1,67.5
273,70,19702,5,0,0:0:0:0:
273,70,19798,1,0,0:0:0:0:
273,70,19894,2,0,L|349:30,1,67.5
359,135,20086,1,0,0:0:0:0:
359,135,20183,1,0,0:0:0:0:
359,135,20279,2,0,L|415:205,1,67.5
432,283,20471,1,0,0:0:0:0:
361,355,20567,1,0,0:0:0:0:
261,336,20663,1,0,0:0:0:0:
240,237,20759,1,0,0:0:0:0:
309,161,20856,1,0,0:0:0:0:
281,67,20952,1,0,0:0:0:0:
182,43,21048,1,0,0:0:0:0:
111,115,21144,1,0,0:0:0:0:
136,224,21240,6,0,P|172:269|220:297,1,101.250003862381,0|0,0:3|0:3,0:3:0:0:
240,237,21433,2,0,P|298:268|358:267,1,118.125001126528,0|0,0:3|0:3,0:3:0:0:
374,203,21625,2,0,P|449:215|510:184,1,135,0|0,0:3|0:3,0:3:0:0:
451,104,21817,1,0,0:0:0:0:
349,103,21913,1,0,0:0:0:0:
332,202,22009,2,0,L|237:201,1,67.5
218,109,22202,2,0,L|127:108,1,67.5
100,195,22394,1,0,0:0:0:0:
100,195,22490,2,0,P|157:242|238:258,1,135
247,198,22779,6,0,L|306:150,1,67.5
307,222,22971,2,0,L|377:250,1,67.5
428,214,23163,1,0,0:0:0:0:
349,103,23356,1,0,0:0:0:0:
349,103,23548,1,0,0:0:0:0:
349,103,23644,1,0,0:0:0:0:
349,103,23740,2,0,L|249:136,1,67.5
154,84,23933,1,0,0:0:0:0:
97,167,24029,1,0,0:0:0:0:
162,244,24125,1,0,0:0:0:0:
209,154,24221,1,0,0:0:0:0:
212,255,24317,2,0,L|257:308,2,67.5
209,154,24606,1,0,0:0:0:0:
209,154,24702,2,0,L|320:139,1,67.5
351,211,24894,2,0,L|422:159,1,67.5
347,88,25086,5,0,0:0:0:0:
315,75,25183,1,0,0:0:0:0:
279,60,25279,2,0,L|234:40,1,33.75
162,46,25471,5,0,0:0:0:0:
105,69,25567,1,0,0:0:0:0:
91,128,25663,2,0,L|86:183,1,33.75
187,307,25856,5,0,0:0:0:0:
258,326,25952,1,0,0:0:0:0:
305,269,26048,2,0,L|309:223,1,33.75
314,67,26240,5,0,0:0:0:0:
410,36,26336,1,0,0:0:0:0:
478,111,26433,2,0,L|465:151,1,33.75
376,331,26625,5,0,0:0:0:0:
257,355,26721,1,0,0:0:0:0:
146,313,26817,2,0,L|116:281,1,33.75
52,89,27009,5,0,0:0:0:0:
178,39,27106,1,0,0:0:0:0:
301,92,27202,2,0,L|334:118,1,33.75
399,184,27394,5,0,0:0:0:0:
399,285,27490,1,0,0:0:0:0:
313,338,27586,1,0,0:0:0:0:
215,307,27683,1,0,0:0:0:0:
203,206,27779,1,0,0:0:0:0:
247,115,27875,1,0,0:0:0:0:
197,27,27971,1,0,0:0:0:0:
96,39,28067,1,0,0:0:0:0:
59,133,28163,5,0,0:0:0:0:
95,172,28259,1,0,0:0:0:0:
136,207,28356,2,0,L|208:267,1,67.5
257,134,28548,1,0,0:0:0:0:
291,264,28644,1,0,0:0:0:0:
291,264,28740,2,0,L|370:293,1,67.5
346,151,28933,5,0,0:0:0:0:
423,260,29029,1,0,0:0:0:0:
293,221,29125,1,0,0:0:0:0:
421,178,29221,2,0,L|500:152,1,67.5
367,91,29413,2,0,L|298:41,1,67.5
182,93,29606,1,0,0:0:0:0:
182,93,29702,1,0,0:0:0:0:
182,93,29798,1,0,0:0:0:0:
107,161,29894,1,0,0:0:0:0:
185,224,29990,1,0,0:0:0:0:
185,224,30086,2,0,L|265:222,1,67.5
302,133,30279,2,0,P|342:165|364:206,1,67.5
362,282,30471,5,0,0:0:0:0:
271,327,30567,1,0,0:0:0:0:
178,285,30663,1,0,0:0:0:0:
83,321,30759,1,0,0:0:0:0:
32,232,30856,2,0,L|40:144,1,67.5
73,70,31048,1,0,0:0:0:0:
171,46,31144,1,0,0:0:0:0:
184,146,31240,5,0,0:0:0:0:
199,245,31336,1,0,0:0:0:0:
283,186,31433,2,0,L|316:157,1,33.75
388,86,31625,5,0,0:0:0:0:
435,186,31721,1,0,0:0:0:0:
323,179,31817,2,0,L|267:172,1,33.75
169,155,32009,5,0,0:0:0:0:
236,257,32106,1,0,0:0:0:0:
297,152,32202,2,0,L|319:110,1,33.75
372,5,32394,5,0,0:0:0:0:
240,2,32490,1,0,0:0:0:0:
307,114,32586,2,0,L|334:155,1,33.75
410,257,32779,5,0,0:0:0:0:
309,357,32875,1,0,0:0:0:0:
277,219,32971,2,0,L|249:189,1,33.75
151,82,33163,5,0,0:0:0:0:
0,64,33259,1,0,0:0:0:0:
20,215,33356,2,0,L|30:262,1,33.75
76,336,33548,1,0,0:0:0:0:
172,367,33644,1,0,0:0:0:0:
259,316,33740,1,0,0:0:0:0:
284,218,33836,1,0,0:0:0:0:
249,121,33933,2,0,P|250:41|286:5,1,135
431,144,34317,1,0,0:0:0:0:
399,275,34413,1,0,0:0:0:0:
399,275,34606,2,0,B|325:231|235:267|235:267|197:233,1,202.5
85,89,35086,5,0,0:0:0:0:
211,138,35183,1,0,0:0:0:0:
211,138,35375,2,0,B|297:158|331:243|331:243|357:205,1,202.5
481,0,35856,1,0,0:0:0:0:
388,97,35952,1,0,0:0:0:0:
388,97,36144,2,0,B|307:137|305:231|305:231|274:259,1,202.5
103,356,36625,5,0,0:0:0:0:
163,163,36817,1,0,0:0:0:0:
338,263,37009,1,0,0:0:0:0:
58,259,37394,5,0,0:0:0:0:
58,259,37490,1,0,0:0:0:0:
58,259,37586,1,0,0:0:0:0:
58,259,37683,2,0,B|135:162|135:162|222:198,1,202.5
378,261,38163,5,0,0:0:0:0:
378,261,38259,1,0,0:0:0:0:
378,261,38356,1,0,0:0:0:0:
378,261,38452,2,0,B|399:129|399:129|290:117,1,202.5
184,127,38933,5,0,0:0:0:0:
184,127,39029,1,0,0:0:0:0:
184,127,39125,1,0,0:0:0:0:
184,127,39221,2,0,B|72:185|72:185|150:248,1,202.5
232,314,39702,5,0,0:0:0:0:
421,244,39894,1,0,0:0:0:0:
316,71,40086,1,0,0:0:0:0:
316,71,40279,6,0,L|199:46,1,67.5
123,103,40471,1,0,0:0:0:0:
202,251,40567,1,0,0:0:0:0:
202,251,40663,1,0,0:0:0:0:
202,251,40759,2,0,B|264:316|264:316|296:242|371:274,1,202.5
341,351,41240,5,0,0:0:0:0:
330,182,41336,1,0,0:0:0:0:
330,182,41433,1,0,0:0:0:0:
330,182,41529,2,0,B|310:75|310:75|368:107|422:57,1,202.5
354,6,42009,5,0,0:0:0:0:
201,82,42106,1,0,0:0:0:0:
201,82,42202,1,0,0:0:0:0:
201,82,42298,2,0,B|107:117|107:117|157:160|124:224,1,202.5
46,178,42779,1,0,0:0:0:0:
46,178,42875,1,0,0:0:0:0:
170,291,42971,1,0,0:0:0:0:
170,291,43067,1,0,0:0:0:0:
324,223,43163,1,0,0:0:0:0:
324,223,43259,1,0,0:0:0:0:
324,223,43356,2,0,L|393:177,1,67.5
240,90,43548,5,0,0:0:0:0:
133,220,43644,1,0,0:0:0:0:
133,220,43740,1,0,0:0:0:0:
133,220,43836,1,0,0:0:0:0:
240,90,44125,1,0,0:0:0:0:
472,333,44317,5,0,0:0:0:0:
338,230,44413,1,0,0:0:0:0:
338,230,44509,1,0,0:0:0:0:
338,230,44606,1,0,0:0:0:0:
472,333,44894,1,0,0:0:0:0:
257,73,45086,5,0,0:0:0:0:
422,33,45183,1,0,0:0:0:0:
422,33,45279,1,0,0:0:0:0:
422,33,45375,1,0,0:0:0:0:
257,73,45663,1,0,0:0:0:0:
477,229,45856,5,0,0:0:0:0:
81,147,46048,5,0,0:0:0:0:
279,329,46240,6,0,L|279:220,1,101.25
212,109,46625,2,0,L|240:37,1,67.5
339,133,46817,2,0,L|309:212,1,67.5
182,218,47009,1,0,0:0:0:0:
277,315,47106,1,0,0:0:0:0:
277,315,47202,1,0,0:0:0:0:
277,315,47298,2,0,L|361:288,1,67.5
424,237,47490,5,0,0:0:0:0:
450,139,47586,1,0,0:0:0:0:
390,56,47683,1,0,0:0:0:0:
390,56,47779,2,0,B|322:104|322:104|221:81,1,135
291,6,48067,2,0,L|215:57,1,67.5
211,58,48259,1,0,0:0:0:0:
192,158,48356,1,0,0:0:0:0:
248,241,48452,2,0,L|302:291,1,67.5
394,257,48644,1,0,0:0:0:0:
318,324,48740,2,0,P|280:349|237:346,1,67.5
182,282,48933,6,0,L|133:219,1,67.5
203,149,49125,1,0,0:0:0:0:
203,149,49221,1,0,0:0:0:0:
203,149,49317,2,0,L|266:81,1,67.5
349,94,49509,1,0,0:0:0:0:
94,56,49702,5,0,0:0:0:0:
121,181,49798,1,0,0:0:0:0:
210,272,49894,2,0,L|271:307,1,67.5
383,249,50086,5,0,0:0:0:0:
448,153,50183,1,0,0:0:0:0:
419,41,50279,2,0,L|346:5,1,67.5
258,66,50471,5,0,0:0:0:0:
186,137,50567,1,0,0:0:0:0:
176,237,50663,2,0,L|204:310,1,67.5
298,328,50856,5,0,0:0:0:0:
390,286,50952,1,0,0:0:0:0:
414,187,51048,2,0,L|394:121,1,67.5
308,69,51240,5,0,0:0:0:0:
242,53,51336,1,0,0:0:0:0:
177,76,51433,2,0,L|112:124,1,67.5
214,159,51625,5,0,0:0:0:0:
261,161,51721,1,0,0:0:0:0:
304,178,51817,2,0,P|348:197|373:230,1,67.5
306,311,52009,1,0,0:0:0:0:
189,240,52106,1,0,0:0:0:0:
223,109,52202,1,0,0:0:0:0:
357,114,52298,1,0,0:0:0:0:
412,237,52394,2,0,P|364:290|304:311,1,135
56,203,52779,5,0,0:0:0:0:
56,203,52875,1,0,0:0:0:0:
111,80,52971,2,0,L|191:73,1,67.5
282,160,53163,1,0,0:0:0:0:
189,258,53259,1,0,0:0:0:0:
189,258,53356,2,0,L|271:296,1,67.5
363,212,53548,2,0,P|414:146|400:90,1,135
293,25,53836,1,0,0:0:0:0:
293,25,53933,2,0,P|216:32|154:80,1,135
282,160,54221,1,0,0:0:0:0:
162,222,54317,5,0,0:0:0:0:
224,301,54413,1,0,0:0:0:0:
325,303,54509,1,0,0:0:0:0:
393,227,54606,1,0,0:0:0:0:
393,227,54702,2,0,L|412:152,1,67.5
327,54,54894,1,0,0:0:0:0:
283,181,54990,1,0,0:0:0:0:
409,134,55086,1,0,0:0:0:0:
275,105,55183,2,0,L|205:89,1,67.5
90,25,55375,2,0,P|29:91|38:164,1,135
62,262,55663,1,0,0:0:0:0:
148,319,55759,1,0,0:0:0:0:
186,224,55856,5,0,0:0:0:0:
229,172,55952,1,0,0:0:0:0:
249,236,56048,2,0,L|291:294,1,67.5
327,346,56240,5,0,0:0:0:0:
387,374,56336,1,0,0:0:0:0:
380,306,56433,2,0,L|378:227,1,67.5
378,171,56625,5,0,0:0:0:0:
379,103,56721,1,0,0:0:0:0:
323,140,56817,2,0,L|260:171,1,67.5
202,200,57009,5,0,0:0:0:0:
140,228,57106,1,0,0:0:0:0:
141,160,57202,2,0,L|160:92,1,67.5
190,35,57394,1,0,0:0:0:0:
256,21,57490,1,0,0:0:0:0:
308,63,57586,1,0,0:0:0:0:
316,130,57683,1,0,0:0:0:0:
284,189,57779,1,0,0:0:0:0:
244,243,57875,1,0,0:0:0:0:
248,310,57971,1,0,0:0:0:0:
298,354,58067,1,0,0:0:0:0:
364,344,58163,1,0,0:0:0:0:
388,266,58259,1,0,0:0:0:0:
332,206,58356,1,0,0:0:0:0:
239,188,58452,1,0,0:0:0:0:
139,208,58548,2,0,P|91:224|57:248,1,67.5
115,325,58740,5,0,0:0:0:0:
115,325,58836,1,0,0:0:0:0:
115,325,58933,2,0,L|191:289,1,67.5
194,196,59125,1,0,0:0:0:0:
60,177,59221,2,0,P|30:177|-13:198,1,67.5
66,306,59413,1,0,0:0:0:0:
193,262,59509,1,0,0:0:0:0:
255,234,59606,1,0,0:0:0:0:
297,182,59702,6,0,B|347:158|343:115|410:95,1,135
420,162,59990,1,0,0:0:0:0:
420,162,60086,2,0,L|389:233,1,67.5
346,273,60279,1,0,0:0:0:0:
230,202,60375,1,0,0:0:0:0:
230,202,60471,2,0,L|157:143,1,67.5
85,61,60663,1,0,0:0:0:0:
218,80,60759,1,0,0:0:0:0:
135,188,60856,2,0,B|132:184|76:182|52:187,1,67.5
135,188,61048,2,0,L|161:258,1,67.5
268,329,61240,5,0,0:0:0:0:
297,232,61336,1,0,0:0:0:0:
235,150,61433,2,0,P|185:105|112:102,1,135
39,161,61721,1,0,0:0:0:0:
47,261,61817,1,0,0:0:0:0:
133,313,61913,1,0,0:0:0:0:
230,286,62009,2,0,P|259:259|274:225,1,67.5
186,177,62202,1,0,0:0:0:0:
186,177,62298,1,0,0:0:0:0:
186,177,62394,2,0,L|250:124,1,67.5
334,164,62586,1,0,0:0:0:0:
334,164,62683,1,0,0:0:0:0:
293,256,62779,6,0,P|363:265|425:217,1,135
418,130,63067,1,0,0:0:0:0:
332,75,63163,2,0,L|282:19,1,67.5
232,110,63356,2,0,L|128:99,1,67.5
102,23,63548,1,0,0:0:0:0:
29,93,63644,1,0,0:0:0:0:
86,176,63740,2,0,L|135:230,1,67.5
219,174,63933,2,0,L|272:230,1,67.5
288,342,64125,2,0,P|355:332|363:319,1,67.5
402,249,64317,5,0,0:0:0:0:
287,238,64413,1,0,0:0:0:0:
303,110,64509,1,0,0:0:0:0:
165,149,64606,1,0,0:0:0:0:
206,1,64702,1,0,0:0:0:0:
57,45,64798,1,0,0:0:0:0:
36,178,64894,5,0,0:0:0:0:
36,178,64990,1,0,0:0:0:0:
36,178,65086,2,0,L|32:258,1,67.5
162,287,65279,2,0,L|223:323,1,67.5
227,186,65471,1,0,0:0:0:0:
227,186,65567,1,0,0:0:0:0:
268,57,65663,1,0,0:0:0:0:
332,77,65759,1,0,0:0:0:0:
368,134,65856,2,0,L|383:202,1,67.5
344,255,66048,2,0,L|290:199,1,67.5
256,260,66240,2,0,L|201:196,1,67.5
260,161,66433,6,0,P|212:96|152:86,1,135
167,185,66721,1,0,0:0:0:0:
167,185,66817,1,0,0:0:0:0:
167,185,66913,1,0,0:0:0:0:
85,244,67009,2,0,L|109:314,1,67.5
201,270,67202,2,0,L|265:317,1,67.5
231,372,67394,2,0,P|312:355|323:304,1,135
302,213,67683,1,0,0:0:0:0:
302,213,67779,2,0,L|194:97,1,135
8,105,68163,5,0,0:0:0:0:
92,209,68259,1,0,0:0:0:0:
292,26,68452,1,0,0:0:0:0:
292,26,68740,1,0,0:0:0:0:
409,270,68933,5,0,0:0:0:0:
279,231,69029,1,0,0:0:0:0:
506,85,69221,1,0,0:0:0:0:
506,85,69509,1,0,0:0:0:0:
450,280,69702,6,0,L|367:281,1,67.5
352,184,69894,2,0,L|261:184,1,67.5
243,276,70086,2,0,L|156:275,1,67.5
162,173,70279,2,0,L|93:132,1,67.5
98,37,70471,2,0,L|176:73,1,67.5
250,22,70663,2,0,L|317:69,1,67.5
229,129,70856,2,0,L|265:193,1,67.5
355,148,71048,2,0,L|364:259,1,67.5
354,282,71240,5,0,0:0:0:0:
313,335,71336,1,0,0:0:0:0:
239,351,71433,1,0,0:0:0:0:
176,310,71529,1,0,0:0:0:0:
176,229,71625,1,0,0:0:0:0:
227,166,71721,1,0,0:0:0:0:
264,94,71817,1,0,0:0:0:0:
241,16,71913,1,0,0:0:0:0:
160,8,72009,5,0,0:0:0:0:
102,75,72106,1,0,0:0:0:0:
145,151,72202,1,0,0:0:0:0:
235,176,72298,1,0,0:0:0:0:
323,143,72394,1,0,0:0:0:0:
420,170,72490,1,0,0:0:0:0:
449,273,72586,1,0,0:0:0:0:
370,358,72683,1,0,0:0:0:0:
262,302,72779,2,0,L|236:269,15,33.75
210,241,73548,2,0,B|153:179|72:177|72:177|14:64|123:47,1,303.750011587143
351,73,74317,5,0,0:0:0:0:
214,217,74445,1,0,0:0:0:0:
409,175,74574,1,0,0:0:0:0:
234,82,74702,1,0,0:0:0:0:
342,248,74830,1,0,0:0:0:0:
153,310,74958,1,0,0:0:0:0:
169,113,75086,1,0,0:0:0:0:
347,201,75215,1,0,0:0:0:0:
206,338,75343,1,0,0:0:0:0:
64,201,75471,1,0,0:0:0:0:
291,52,75856,5,0,0:0:0:0:
221,237,75984,1,0,0:0:0:0:
414,191,76112,1,0,0:0:0:0:
220,145,76240,1,0,0:0:0:0:
308,322,76368,1,0,0:0:0:0:
373,134,76497,1,0,0:0:0:0:
200,36,76625,1,0,0:0:0:0:
96,204,76753,1,0,0:0:0:0:
293,207,76881,1,0,0:0:0:0:
141,334,77009,1,0,0:0:0:0:
214,118,77394,5,0,0:0:0:0:
289,142,77522,1,0,0:0:0:0:
211,196,77650,1,0,0:0:0:0:
268,100,77779,1,0,0:0:0:0:
320,214,77907,1,0,0:0:0:0:
194,146,78035,1,0,0:0:0:0:
345,102,78163,1,0,0:0:0:0:
262,254,78291,1,0,0:0:0:0:
135,110,78420,5,0,0:0:0:0:
326,35,78548,1,0,0:0:0:0:
305,255,78676,1,0,0:0:0:0:
243,25,78804,1,0,0:0:0:0:
162,267,78933,1,0,0:0:0:0:
377,135,79061,1,0,0:0:0:0:
115,69,79189,1,0,0:0:0:0:
251,319,79317,1,0,0:0:0:0:
385,68,79445,1,0,0:0:0:0:
131,201,79574,1,0,0:0:0:0:
392,312,79702,1,0,0:0:0:0:
179,122,80086,6,0,L|135:79,5,45
162,198,80471,5,0,0:0:0:0:
347,133,80599,1,0,0:0:0:0:
229,291,80727,1,0,0:0:0:0:
204,93,80856,1,0,0:0:0:0:
368,202,80984,1,0,0:0:0:0:
465,29,81112,1,0,0:0:0:0:
272,73,81240,1,0,0:0:0:0:
451,156,81368,1,0,0:0:0:0:
254,187,81497,1,0,0:0:0:0:
404,315,81625,1,0,0:0:0:0:
64,271,82009,5,0,0:0:0:0:
263,271,82138,1,0,0:0:0:0:
167,97,82266,1,0,0:0:0:0:
127,291,82394,1,0,0:0:0:0:
284,172,82522,1,0,0:0:0:0:
87,149,82650,1,0,0:0:0:0:
259,50,82779,1,0,0:0:0:0:
213,242,82907,1,0,0:0:0:0:
409,218,83035,1,0,0:0:0:0:
230,132,83163,1,0,0:0:0:0:
284,227,83548,5,0,0:0:0:0:
275,148,83676,1,0,0:0:0:0:
203,209,83804,1,0,0:0:0:0:
310,183,83933,1,0,0:0:0:0:
197,126,84061,1,0,0:0:0:0:
242,260,84189,1,0,0:0:0:0:
311,117,84317,1,0,0:0:0:0:
148,178,84445,1,0,0:0:0:0:
313,271,84574,5,0,0:0:0:0:
251,75,84702,1,0,0:0:0:0:
151,271,84830,1,0,0:0:0:0:
365,171,84958,1,0,0:0:0:0:
135,66,85086,1,0,0:0:0:0:
229,320,85215,1,0,0:0:0:0:
420,110,85343,1,0,0:0:0:0:
122,148,85471,1,0,0:0:0:0:
388,285,85599,1,0,0:0:0:0:
233,26,85727,1,0,0:0:0:0:
98,297,85856,1,0,0:0:0:0:
170,63,86625,5,0,0:0:0:0:
218,273,86753,1,0,0:0:0:0:
349,101,86881,1,0,0:0:0:0:
146,176,87009,1,0,0:0:0:0:
405,187,87394,5,0,0:0:0:0:
226,64,87522,1,0,0:0:0:0:
268,275,87650,1,0,0:0:0:0:
97,141,87779,1,0,0:0:0:0:
383,236,88163,5,0,0:0:0:0:
211,105,88291,1,0,0:0:0:0:
195,321,88420,1,0,0:0:0:0:
444,180,88548,1,0,0:0:0:0:
390,180,88612,1,0,0:0:0:0:
336,180,88676,1,0,0:0:0:0:
282,180,88740,1,0,0:0:0:0:
228,180,88804,1,0,0:0:0:0:
174,180,88868,1,0,0:0:0:0:
120,179,88933,1,0,0:0:0:0:
255,338,89317,5,0,0:0:0:0:
154,59,89702,5,0,0:0:0:0:
238,114,89798,1,0,0:0:0:0:
72,230,89990,1,0,0:0:0:0:
72,230,90038,1,0,0:0:0:0:
72,230,90086,1,0,0:0:0:0:
207,239,90279,2,0,L|284:263,1,67.5
300,319,90471,5,0,0:0:0:0:
382,260,90567,1,0,0:0:0:0:
238,114,90759,1,0,0:0:0:0:
238,114,90808,1,0,0:0:0:0:
238,114,90856,1,0,0:0:0:0:
48,184,91048,2,0,L|23:267,1,67.5
117,296,91240,1,0,0:0:0:0:
196,233,91336,2,0,L|265:187,1,67.5
310,160,91529,1,0,0:0:0:0:
338,141,91577,1,0,0:0:0:0:
366,123,91625,2,0,L|437:74,1,67.5
424,152,91817,2,0,L|389:212,1,67.5
324,318,92009,6,0,P|274:339|221:336,1,84.375
230,291,92202,2,0,P|172:284|124:241,1,101.250003862381
171,211,92394,2,0,P|131:160|132:99,1,118.125001126528
193,39,92586,1,0,0:0:0:0:
193,39,92683,1,0,0:0:0:0:
277,94,92779,5,0,0:0:0:0:
367,138,92875,1,0,0:0:0:0:
195,245,93067,1,0,0:0:0:0:
152,273,93115,1,0,0:0:0:0:
109,300,93163,1,0,0:0:0:0:
201,119,93356,2,0,L|266:68,1,67.5
388,64,93548,5,0,0:0:0:0:
455,139,93644,1,0,0:0:0:0:
328,296,93836,1,0,0:0:0:0:
285,323,93884,1,0,0:0:0:0:
233,329,93933,1,0,0:0:0:0:
331,152,94125,2,0,L|273:106,1,67.5
148,147,94317,5,0,0:0:0:0:
86,227,94413,2,0,L|120:298,1,67.5
216,303,94606,1,0,0:0:0:0:
216,303,94702,2,0,L|295:274,1,67.5
261,180,94894,2,0,L|355:215,1,67.5
365,323,95086,6,0,P|411:306|437:265,1,84.375
364,192,95279,2,0,P|381:142|375:82,1,101.250003862381
285,98,95471,2,0,P|273:48|225:-4,1,118.125001126528
111,1,95663,1,0,0:0:0:0:
26,83,95759,1,0,0:0:0:0:
158,114,95856,5,0,0:0:0:0:
199,206,95952,1,0,0:0:0:0:
363,88,96144,1,0,0:0:0:0:
402,142,96192,1,0,0:0:0:0:
443,194,96240,1,0,0:0:0:0:
295,334,96433,2,0,L|198:344,1,67.5
130,312,96625,5,0,0:0:0:0:
116,211,96721,1,0,0:0:0:0:
288,105,96913,1,0,0:0:0:0:
344,68,96961,1,0,0:0:0:0:
402,34,97009,1,0,0:0:0:0:
370,234,97202,2,0,L|330:298,1,67.5
236,317,97394,1,0,0:0:0:0:
150,262,97490,2,0,P|121:229|109:191,1,67.5
185,136,97683,2,0,L|248:75,1,67.5
325,131,97875,5,0,0:0:0:0:
274,218,97971,1,0,0:0:0:0:
173,212,98067,1,0,0:0:0:0:
100,108,98163,2,0,P|130:73|171:47,1,84.375
235,125,98356,2,0,P|288:102|348:97,1,101.250003862381
323,218,98548,2,0,P|384:211|446:222,1,118.125001126528
401,313,98740,5,0,0:0:0:0:
310,358,98836,1,0,0:0:0:0:
212,328,98933,5,0,0:0:0:0:
136,260,99029,1,0,0:0:0:0:
134,158,99125,2,0,P|146:119|175:88,1,67.5
258,54,99317,5,0,0:0:0:0:
358,65,99413,1,0,0:0:0:0:
432,133,99509,2,0,P|458:168|471:207,1,67.5
440,292,99702,5,0,0:0:0:0:
343,322,99798,1,0,0:0:0:0:
260,263,99894,2,0,L|219:203,1,67.5
158,128,100086,5,0,0:0:0:0:
56,137,100183,1,0,0:0:0:0:
12,228,100279,2,0,P|-5:265|0:301,1,67.5
67,371,100471,5,0,0:0:0:0:
168,369,100567,1,0,0:0:0:0:
238,296,100663,2,0,P|266:266|274:228,1,67.5
286,135,100856,5,0,0:0:0:0:
352,58,100952,1,0,0:0:0:0:
450,82,101048,2,0,P|486:108|504:132,1,67.5
454,216,101240,2,0,L|391:180,1,67.5
323,67,101433,2,0,L|277:117,1,67.5
305,282,101625,2,0,L|247:238,1,67.5
179,51,101817,2,0,L|139:127,1,67.5
151,312,102009,6,0,P|190:333|230:335,1,67.5
219,234,102202,2,0,L|272:167,1,67.5
348,130,102394,1,0,0:0:0:0:
447,146,102490,1,0,0:0:0:0:
372,213,102586,2,0,L|309:258,1,67.5
254,171,102779,5,0,0:0:0:0:
254,171,102875,1,0,0:0:0:0:
245,70,102971,2,0,L|168:54,1,67.5
153,154,103163,2,0,L|101:209,1,67.5
175,278,103356,1,0,0:0:0:0:
272,250,103452,1,0,0:0:0:0:
348,316,103548,2,0,L|409:280,1,67.5
402,180,103740,1,0,0:0:0:0:
348,94,103836,1,0,0:0:0:0:
301,185,103933,2,0,L|364:250,1,67.5
443,201,104125,2,0,L|389:144,1,67.5
296,140,104317,6,0,L|236:88,1,67.5
157,145,104509,1,0,0:0:0:0:
157,145,104606,1,0,0:0:0:0:
124,240,104702,2,0,L|176:298,1,67.5
255,237,104894,2,0,L|339:270,1,67.5
385,336,105086,5,0,0:0:0:0:
471,282,105183,1,0,0:0:0:0:
381,234,105279,2,0,L|337:176,1,67.5
281,98,105471,5,0,0:0:0:0:
380,115,105567,1,0,0:0:0:0:
309,187,105663,2,0,L|245:246,1,67.5
182,299,105856,5,0,0:0:0:0:
86,265,105952,1,0,0:0:0:0:
141,180,106048,2,0,L|190:122,1,67.5
248,49,106240,5,0,0:0:0:0:
348,40,106336,1,0,0:0:0:0:
321,138,106433,2,0,L|302:209,1,67.5
287,302,106625,5,0,0:0:0:0:
372,355,106721,1,0,0:0:0:0:
385,254,106817,2,0,L|398:177,1,67.5
386,86,107009,5,0,0:0:0:0:
285,68,107106,1,0,0:0:0:0:
307,166,107202,2,0,L|335:229,1,67.5
368,322,107394,5,0,0:0:0:0:
267,333,107490,1,0,0:0:0:0:
200,256,107586,2,0,L|156:187,1,67.5
191,100,107779,1,0,0:0:0:0:
191,100,107875,1,0,0:0:0:0:
191,100,107971,2,0,L|271:123,1,67.5
284,215,108163,1,0,0:0:0:0:
284,215,108259,1,0,0:0:0:0:
375,170,108356,2,0,P|406:215|405:242,1,67.5
335,297,108548,6,0,L|274:354,1,67.5
205,281,108740,2,0,L|126:260,1,67.5
69,337,108933,2,0,P|34:306|27:276,1,67.5
47,188,109125,1,0,0:0:0:0:
129,129,109221,1,0,0:0:0:0:
129,129,109317,2,0,L|221:113,1,67.5
204,218,109509,2,0,L|278:248,1,67.5
308,150,109702,5,0,0:0:0:0:
406,171,109798,1,0,0:0:0:0:
441,265,109894,2,0,P|437:316|418:344,1,67.5
341,280,110086,2,0,L|253:265,1,67.5
180,307,110279,2,0,P|161:269|160:237,1,67.5
182,146,110471,1,0,0:0:0:0:
263,86,110567,1,0,0:0:0:0:
361,109,110663,2,0,P|392:134|408:171,1,67.5
464,240,110856,1,0,0:0:0:0:
390,309,110952,1,0,0:0:0:0:
288,315,111048,2,0,L|201:297,1,67.5
104,235,111240,5,0,0:0:0:0:
105,100,111336,1,0,0:0:0:0:
230,148,111433,2,0,L|293:181,1,67.5
410,244,111625,5,0,0:0:0:0:
405,109,111721,1,0,0:0:0:0:
290,180,111817,2,0,L|217:223,1,67.5
114,280,112009,5,0,0:0:0:0:
235,342,112106,1,0,0:0:0:0:
231,214,112202,2,0,L|225:135,1,67.5
132,49,112394,5,0,0:0:0:0:
264,23,112490,1,0,0:0:0:0:
225,146,112586,2,0,L|206:219,1,67.5
197,278,112779,5,0,0:0:0:0:
235,342,112875,1,0,0:0:0:0:
302,342,112971,1,0,0:0:0:0:
346,291,113067,1,0,0:0:0:0:
341,223,113163,1,0,0:0:0:0:
303,159,113259,1,0,0:0:0:0:
305,77,113356,1,0,0:0:0:0:
369,28,113452,1,0,0:0:0:0:
446,49,113548,1,0,0:0:0:0:
474,132,113644,1,0,0:0:0:0:
414,195,113740,1,0,0:0:0:0:
326,191,113836,1,0,0:0:0:0:
268,123,113933,1,0,0:0:0:0:
174,111,114029,1,0,0:0:0:0:
86,160,114125,5,0,0:0:0:0:
86,160,114221,1,0,0:0:0:0:
86,160,114317,2,0,L|82:239,1,67.5
180,251,114509,2,0,L|222:318,1,67.5
314,335,114702,1,0,0:0:0:0:
316,233,114798,1,0,0:0:0:0:
223,273,114894,2,0,L|146:305,1,67.5
60,308,115086,5,0,0:0:0:0:
60,308,115183,1,0,0:0:0:0:
76,208,115279,2,0,L|147:155,1,67.5
230,174,115471,2,0,L|296:124,1,67.5
256,35,115663,2,0,P|301:26|333:32,1,67.5
321,130,115856,2,0,P|369:201|362:264,1,135
266,252,116144,2,0,L|199:278,1,67.5
122,214,116336,1,0,0:0:0:0:
101,113,116433,1,0,0:0:0:0:
200,96,116529,1,0,0:0:0:0:
200,96,116625,6,0,L|288:77,1,67.5
251,181,116817,2,0,L|340:158,1,67.5
304,264,117009,2,0,L|377:244,1,67.5
453,188,117202,1,0,0:0:0:0:
400,101,117298,1,0,0:0:0:0:
318,160,117394,1,0,0:0:0:0:
318,160,117490,2,0,L|239:218,1,67.5
165,170,117683,1,0,0:0:0:0:
71,208,117779,1,0,0:0:0:0:
148,272,117875,2,0,L|205:320,1,67.5
294,280,118067,1,0,0:0:0:0:
266,182,118163,5,0,0:0:0:0:
199,258,118259,1,0,0:0:0:0:
297,230,118356,2,0,L|380:208,1,67.5
398,118,118548,1,0,0:0:0:0:
398,118,118644,1,0,0:0:0:0:
343,32,118740,2,0,L|256:15,1,67.5
258,119,118933,2,0,L|192:161,1,67.5
208,256,119125,2,0,L|286:204,1,67.5
339,151,119317,2,0,P|402:202|402:265,1,135
323,311,119606,1,0,0:0:0:0:
208,256,119702,5,0,0:0:0:0:
244,199,119798,1,0,0:0:0:0:
157,211,119894,1,0,0:0:0:0:
272,249,119990,1,0,0:0:0:0:
207,130,120086,1,0,0:0:0:0:
191,292,120183,1,0,0:0:0:0:
309,145,120279,1,0,0:0:0:0:
309,145,120375,1,0,0:0:0:0:
309,145,120471,6,0,L|364:79,1,67.5
445,190,120663,2,0,L|395:253,1,67.5
275,289,120856,1,0,0:0:0:0:
152,232,120952,1,0,0:0:0:0:
268,164,121048,2,0,L|338:132,1,67.5
390,256,121240,2,0,L|344:312,1,67.5
213,331,121433,1,0,0:0:0:0:
213,331,121529,1,0,0:0:0:0:
190,232,121625,2,0,L|174:154,1,67.5
220,75,121817,5,0,0:0:0:0:
220,75,121913,1,0,0:0:0:0:
286,151,122009,2,0,L|365:186,1,67.5
394,87,122202,1,0,0:0:0:0:
394,87,122298,1,0,0:0:0:0:
394,87,122394,2,0,L|415:170,1,67.5
346,230,122586,1,0,0:0:0:0:
421,299,122683,1,0,0:0:0:0:
454,203,122779,6,0,P|450:162|425:131,1,67.5
339,111,122971,2,0,P|308:122|285:160,1,67.5
347,230,123163,2,0,P|334:276|310:295,1,67.5
220,307,123356,1,0,0:0:0:0:
140,244,123452,1,0,0:0:0:0:
144,143,123548,5,0,0:0:0:0:
319,242,123644,1,0,0:0:0:0:
319,242,123836,1,0,0:0:0:0:
323,140,124125,1,0,0:0:0:0:
125,293,124317,5,0,0:0:0:0:
323,332,124413,1,0,0:0:0:0:
323,332,124606,1,0,0:0:0:0:
319,230,124894,6,0,L|317:151,1,67.5
417,147,125086,2,0,P|404:108|378:81,1,67.5
286,72,125279,2,0,L|204:69,1,67.5
135,127,125471,2,0,P|110:169|114:205,1,67.5
210,176,125663,2,0,L|272:216,1,67.5
206,295,125856,2,0,L|283:330,1,67.5
316,234,126048,2,0,L|386:241,1,67.5
437,155,126240,2,0,L|361:118,1,67.5
274,130,126433,2,0,P|226:147|199:176,1,67.5
176,213,126625,5,0,0:0:0:0:
175,280,126721,1,0,0:0:0:0:
224,325,126817,1,0,0:0:0:0:
298,328,126913,1,0,0:0:0:0:
346,272,127009,1,0,0:0:0:0:
333,191,127106,1,0,0:0:0:0:
268,142,127202,1,0,0:0:0:0:
266,61,127298,1,0,0:0:0:0:
340,28,127394,1,0,0:0:0:0:
407,72,127490,1,0,0:0:0:0:
404,159,127586,1,0,0:0:0:0:
316,196,127683,1,0,0:0:0:0:
223,154,127779,1,0,0:0:0:0:
125,126,127875,1,0,0:0:0:0:
46,190,127971,1,0,0:0:0:0:
73,287,128067,1,0,0:0:0:0:
73,287,128548,5,0,0:0:0:0:
73,287,128933,2,0,L|226:287,1,135
125,68,129702,5,0,0:0:0:0:
140,247,129830,1,0,0:0:0:0:
203,79,129958,1,0,0:0:0:0:
75,205,130086,1,0,0:0:0:0:
247,149,130215,1,0,0:0:0:0:
209,324,130343,1,0,0:0:0:0:
322,184,130471,1,0,0:0:0:0:
160,262,130599,1,0,0:0:0:0:
335,298,130727,1,0,0:0:0:0:
189,190,130856,1,0,0:0:0:0:
458,28,131240,5,0,0:0:0:0:
443,207,131368,1,0,0:0:0:0:
380,39,131496,1,0,0:0:0:0:
508,165,131624,1,0,0:0:0:0:
336,109,131753,1,0,0:0:0:0:
374,284,131881,1,0,0:0:0:0:
261,144,132009,1,0,0:0:0:0:
423,222,132137,1,0,0:0:0:0:
248,258,132265,1,0,0:0:0:0:
394,150,132394,1,0,0:0:0:0:
117,155,132779,5,0,0:0:0:0:
381,198,132907,1,0,0:0:0:0:
112,177,133035,1,0,0:0:0:0:
381,177,133163,1,0,0:0:0:0:
113,203,133291,1,0,0:0:0:0:
379,149,133420,1,0,0:0:0:0:
122,229,133548,5,0,0:0:0:0:
386,176,133676,1,0,0:0:0:0:
113,203,133804,1,0,0:0:0:0:
383,198,133933,1,0,0:0:0:0:
112,177,134061,1,0,0:0:0:0:
377,220,134189,1,0,0:0:0:0:
117,154,134317,5,0,0:0:0:0:
383,198,134445,1,0,0:0:0:0:
112,177,134574,1,0,0:0:0:0:
386,176,134702,1,0,0:0:0:0:
113,203,134830,1,0,0:0:0:0:
378,156,134958,1,0,0:0:0:0:
116,223,135086,1,0,0:0:0:0:
255,190,135471,6,0,L|255:145,5,45
301,223,135856,5,0,0:0:0:0:
119,90,135984,1,0,0:0:0:0:
151,266,136112,1,0,0:0:0:0:
269,130,136240,1,0,0:0:0:0:
96,178,136368,1,0,0:0:0:0:
256,261,136497,1,0,0:0:0:0:
206,88,136625,1,0,0:0:0:0:
127,249,136753,1,0,0:0:0:0:
301,205,136881,1,0,0:0:0:0:
145,115,137009,1,0,0:0:0:0:
211,223,137394,5,0,0:0:0:0:
393,90,137522,1,0,0:0:0:0:
361,266,137650,1,0,0:0:0:0:
243,130,137778,1,0,0:0:0:0:
416,178,137906,1,0,0:0:0:0:
256,261,138035,1,0,0:0:0:0:
306,88,138163,1,0,0:0:0:0:
385,249,138291,1,0,0:0:0:0:
211,205,138419,1,0,0:0:0:0:
367,115,138547,1,0,0:0:0:0:
221,327,138933,5,0,0:0:0:0:
264,63,139061,1,0,0:0:0:0:
243,332,139189,1,0,0:0:0:0:
242,63,139317,1,0,0:0:0:0:
268,330,139445,1,0,0:0:0:0:
214,65,139574,1,0,0:0:0:0:
294,322,139702,5,0,0:0:0:0:
242,58,139830,1,0,0:0:0:0:
268,330,139958,1,0,0:0:0:0:
263,61,140087,1,0,0:0:0:0:
243,332,140215,1,0,0:0:0:0:
286,67,140343,1,0,0:0:0:0:
219,326,140471,5,0,0:0:0:0:
263,61,140599,1,0,0:0:0:0:
243,332,140728,1,0,0:0:0:0:
242,58,140856,1,0,0:0:0:0:
268,330,140984,1,0,0:0:0:0:
222,66,141112,1,0,0:0:0:0:
288,328,141240,1,0,0:0:0:0:
256,191,141625,6,0,L|464:192,1,180
500,192,142009,5,0,0:0:0:0:
346,193,142138,1,0,0:0:0:0:
193,192,142266,1,0,0:0:0:0:
40,193,142394,1,0,0:0:0:0:
255,1,142779,5,0,0:0:0:0:
255,126,142907,1,0,0:0:0:0:
257,251,143035,1,0,0:0:0:0:
258,376,143163,1,0,0:0:0:0:
168,119,143548,5,0,0:0:0:0:
341,262,143676,1,0,0:0:0:0:
147,148,143804,1,0,0:0:0:0:
354,239,143933,1,0,0:0:0:0:
254,192,144061,1,0,0:0:0:0:
254,192,144125,1,0,0:0:0:0:
254,192,144189,1,0,0:0:0:0:
254,192,144253,1,0,0:0:0:0:
254,192,144317,1,0,0:0:0:0:
256,26,144702,5,0,0:0:0:0:
254,192,145086,5,0,0:0:0:0:
256,192,154317,12,0,157009,0:0:0:0:
166,46,157394,5,0,0:0:0:0:
58,127,157490,1,0,0:0:0:0:
139,234,157586,1,0,0:0:0:0:
251,157,157683,1,0,0:0:0:0:
251,157,157779,2,0,L|406:187,1,135
512,250,158163,5,0,0:0:0:0:
512,384,158259,1,0,0:0:0:0:
378,384,158355,1,0,0:0:0:0:
372,248,158452,1,0,0:0:0:0:
372,248,158548,2,0,L|254:142,1,135
19,57,158933,5,0,0:0:0:0:
73,180,159029,1,0,0:0:0:0:
145,66,159125,1,0,0:0:0:0:
216,180,159221,1,0,0:0:0:0:
216,180,159317,2,0,L|299:305,1,135
328,92,159702,6,0,L|383:25,1,67.5
438,124,159894,2,0,L|504:169,1,67.5
453,254,160086,2,0,L|415:324,1,67.5
319,327,160279,1,0,0:0:0:0:
188,293,160375,1,0,0:0:0:0:
189,158,160471,5,0,0:0:0:0:
281,60,160567,1,0,0:0:0:0:
384,146,160663,1,0,0:0:0:0:
299,250,160759,1,0,0:0:0:0:
189,158,160856,2,0,L|82:63,1,135
345,147,161240,5,0,0:0:0:0:
422,257,161336,1,0,0:0:0:0:
312,336,161433,1,0,0:0:0:0:
233,226,161529,1,0,0:0:0:0:
345,147,161625,2,0,L|452:58,1,135
293,280,162009,5,0,0:0:0:0:
382,177,162106,1,0,0:0:0:0:
247,184,162202,1,0,0:0:0:0:
310,65,162298,1,0,0:0:0:0:
181,104,162394,2,0,L|36:158,1,135
237,350,162779,6,0,L|324:373,1,67.5
421,304,162971,2,0,L|447:231,1,67.5
372,125,163163,2,0,L|305:90,1,67.5
176,108,163356,1,0,0:0:0:0:
66,187,163452,1,0,0:0:0:0:
200,288,163548,5,0,0:0:0:0:
351,287,163644,1,0,0:0:0:0:
347,136,163740,1,0,0:0:0:0:
195,135,163836,1,0,0:0:0:0:
286,257,163933,5,0,0:0:0:0:
412,172,164029,1,0,0:0:0:0:
326,47,164125,1,0,0:0:0:0:
209,142,164221,1,0,0:0:0:0:
343,209,164317,5,0,0:0:0:0:
418,82,164413,1,0,0:0:0:0:
281,19,164509,1,0,0:0:0:0:
212,155,164606,1,0,0:0:0:0:
363,161,164702,5,0,0:0:0:0:
365,312,164798,1,0,0:0:0:0:
213,312,164894,5,0,0:0:0:0:
103,207,164990,1,0,0:0:0:0:
215,106,165086,1,0,0:0:0:0:
321,216,165183,1,0,0:0:0:0:
192,253,165279,5,0,0:0:0:0:
276,127,165375,1,0,0:0:0:0:
407,201,165471,1,0,0:0:0:0:
338,336,165567,1,0,0:0:0:0:
255,209,165663,5,0,0:0:0:0:
420,177,165759,1,0,0:0:0:0:
325,35,165856,6,0,L|250:21,1,67.5
111,103,166048,2,0,L|184:140,1,67.5
337,162,166240,2,0,L|275:213,1,67.5
153,286,166433,1,0,0:0:0:0:
336,336,166529,1,0,0:0:0:0:
233,224,166625,5,0,0:0:0:0:
282,80,166721,1,0,0:0:0:0:
396,179,166817,1,0,0:0:0:0:
245,162,166913,1,0,0:0:0:0:
373,80,167009,5,0,0:0:0:0:
390,232,167106,1,0,0:0:0:0:
250,291,167202,1,0,0:0:0:0:
312,152,167298,1,0,0:0:0:0:
392,281,167394,5,0,0:0:0:0:
252,342,167490,1,0,0:0:0:0:
167,216,167586,1,0,0:0:0:0:
320,216,167683,1,0,0:0:0:0:
197,304,167779,5,0,0:0:0:0:
137,164,167875,1,0,0:0:0:0:
270,93,167971,1,0,0:0:0:0:
273,244,168067,1,0,0:0:0:0:
189,117,168163,5,0,0:0:0:0:
336,81,168259,1,0,0:0:0:0:
242,203,168356,1,0,0:0:0:0:
181,63,168452,1,0,0:0:0:0:
313,138,168548,5,0,0:0:0:0:
181,213,168644,1,0,0:0:0:0:
331,233,168740,1,0,0:0:0:0:
241,110,168836,1,0,0:0:0:0:
246,271,168933,5,0,0:0:0:0:
246,271,169125,1,0,0:0:0:0:
246,271,169317,1,0,0:0:0:0:
246,271,169509,1,0,0:0:0:0:
256,192,169702,5,0,0:0:0:0:
63,97,178933,5,0,0:0:0:0:
90,111,179317,1,0,0:0:0:0:
120,126,179702,1,0,0:0:0:0:
148,142,180086,1,0,0:0:0:0:
174,163,180279,5,0,0:0:0:0:
174,163,180471,1,0,0:0:0:0:
278,247,180663,1,0,0:0:0:0:
399,187,180856,1,0,0:0:0:0:
373,54,181048,1,0,0:0:0:0:
258,125,181240,1,0,0:0:0:0:
341,231,181433,1,0,0:0:0:0:
446,147,181625,1,0,0:0:0:0:
342,60,181817,1,0,0:0:0:0:
271,175,182009,5,0,0:0:0:0:
239,200,182106,1,0,0:0:0:0:
204,220,182202,1,0,0:0:0:0:
163,222,182298,1,0,0:0:0:0:
124,210,182394,1,0,0:0:0:0:
86,181,182490,1,0,0:0:0:0:
76,134,182586,1,0,0:0:0:0:
95,82,182683,1,0,0:0:0:0:
145,62,182779,5,0,0:0:0:0:
199,87,182875,1,0,0:0:0:0:
223,142,182971,1,0,0:0:0:0:
272,187,183067,1,0,0:0:0:0:
339,193,183163,1,0,0:0:0:0:
412,182,183259,1,0,0:0:0:0:
475,222,183356,1,0,0:0:0:0:
497,292,183452,1,0,0:0:0:0:
454,352,183548,2,0,L|409:368,15,33.75
385,358,184317,2,0,L|359:347,30,16.875
352,340,185086,5,0,0:0:0:0:
337,317,185471,1,0,0:0:0:0:
321,294,185856,1,0,0:0:0:0:
307,270,186240,2,0,L|245:176,1,101.25
249,182,186625,5,0,0:0:0:0:
81,331,186753,1,0,0:0:0:0:
140,114,186881,1,0,0:0:0:0:
293,278,187009,1,0,0:0:0:0:
73,222,187138,1,0,0:0:0:0:
256,92,187266,1,0,0:0:0:0:
326,305,187394,1,0,0:0:0:0:
146,170,187522,1,0,0:0:0:0:
368,140,187650,1,0,0:0:0:0:
197,288,187779,1,0,0:0:0:0:
434,34,188163,5,0,0:0:0:0:
214,82,188291,1,0,0:0:0:0:
382,233,188420,1,0,0:0:0:0:
325,15,188548,1,0,0:0:0:0:
177,184,188676,1,0,0:0:0:0:
399,152,188804,1,0,0:0:0:0:
178,102,188933,1,0,0:0:0:0:
301,289,189061,1,0,0:0:0:0:
318,65,189189,1,0,0:0:0:0:
153,218,189317,1,0,0:0:0:0:
321,159,189702,5,0,0:0:0:0:
247,222,189830,1,0,0:0:0:0:
233,110,189958,1,0,0:0:0:0:
306,215,190086,1,0,0:0:0:0:
166,172,190215,1,0,0:0:0:0:
310,100,190343,1,0,0:0:0:0:
212,248,190471,1,0,0:0:0:0:
153,63,190599,1,0,0:0:0:0:
324,183,190727,1,0,0:0:0:0:
96,174,190856,5,0,0:0:0:0:
329,110,190984,1,0,0:0:0:0:
186,325,191112,1,0,0:0:0:0:
261,61,191240,1,0,0:0:0:0:
58,246,191368,1,0,0:0:0:0:
332,212,191497,1,0,0:0:0:0:
81,101,191625,1,0,0:0:0:0:
263,306,191753,1,0,0:0:0:0:
413,75,191881,1,0,0:0:0:0:
163,190,192009,1,0,0:0:0:0:
344,217,192394,6,0,L|387:253,5,45
301,187,192779,5,0,0:0:0:0:
166,97,192907,1,0,0:0:0:0:
324,66,193035,1,0,0:0:0:0:
204,227,193163,1,0,0:0:0:0:
252,31,193291,1,0,0:0:0:0:
404,165,193420,1,0,0:0:0:0:
201,153,193548,1,0,0:0:0:0:
342,297,193676,1,0,0:0:0:0:
327,94,193804,1,0,0:0:0:0:
181,235,193933,1,0,0:0:0:0:
427,193,194317,5,0,0:0:0:0:
278,91,194445,1,0,0:0:0:0:
282,272,194574,1,0,0:0:0:0:
354,107,194702,1,0,0:0:0:0:
178,145,194830,1,0,0:0:0:0:
347,205,194958,1,0,0:0:0:0:
237,62,195086,1,0,0:0:0:0:
101,181,195215,1,0,0:0:0:0:
279,159,195343,1,0,0:0:0:0:
133,53,195471,1,0,0:0:0:0:
326,272,195856,5,0,0:0:0:0:
255,216,195984,1,0,0:0:0:0:
362,207,196112,1,0,0:0:0:0:
251,267,196240,1,0,0:0:0:0:
295,130,196368,1,0,0:0:0:0:
384,266,196497,1,0,0:0:0:0:
226,180,196625,1,0,0:0:0:0:
417,129,196753,1,0,0:0:0:0:
292,305,196881,1,0,0:0:0:0:
210,86,197009,5,0,0:0:0:0:
440,190,197138,1,0,0:0:0:0:
173,229,197266,1,0,0:0:0:0:
382,32,197394,1,0,0:0:0:0:
360,336,197522,1,0,0:0:0:0:
169,97,197650,1,0,0:0:0:0:
443,235,197779,1,0,0:0:0:0:
153,333,197907,1,0,0:0:0:0:
253,44,198035,1,0,0:0:0:0:
419,300,198163,2,0,P|331:363|246:348,1,180
64,122,198548,6,0,P|145:75|239:94,1,180
407,290,198933,1,0,0:0:0:0:
214,101,199061,1,0,0:0:0:0:
407,290,199189,1,0,0:0:0:0:
214,101,199317,1,0,0:0:0:0:
405,290,199445,1,0,0:0:0:0:
214,101,199574,1,0,0:0:0:0:
99,344,199702,5,0,0:0:0:0:
314,181,199830,1,0,0:0:0:0:
101,346,199958,1,0,0:0:0:0:
314,181,200086,1,0,0:0:0:0:
99,347,200215,1,0,0:0:0:0:
314,181,200343,1,0,0:0:0:0:
84,40,200471,5,0,0:0:0:0:
353,52,200599,1,0,0:0:0:0:
83,38,200727,1,0,0:0:0:0:
353,52,200856,1,0,0:0:0:0:
83,41,200984,1,0,0:0:0:0:
353,52,201112,1,0,0:0:0:0:
154,234,201240,5,0,0:0:0:0:
190,104,201368,1,0,0:0:0:0:
154,234,201497,5,0,0:0:0:0:
258,148,201625,1,0,0:0:0:0:
154,234,201753,5,0,0:0:0:0:
288,226,201881,1,0,0:0:0:0:
154,234,202009,5,0,0:0:0:0:
265,311,202138,1,0,0:0:0:0:
154,234,202266,5,0,0:0:0:0:
195,362,202394,1,0,0:0:0:0:
154,234,202522,5,0,0:0:0:0:
115,363,202650,1,0,0:0:0:0:
154,234,202779,5,0,0:0:0:0:
48,318,202907,1,0,0:0:0:0:
154,234,203035,5,0,0:0:0:0:
19,244,203163,1,0,0:0:0:0:
154,234,203291,5,0,0:0:0:0:
37,163,203420,1,0,0:0:0:0:
154,234,203548,5,0,0:0:0:0:
103,109,203676,1,0,0:0:0:0:
154,234,203804,5,0,0:0:0:0:
189,102,203933,1,0,0:0:0:0:
154,234,204061,5,0,0:0:0:0:
256,146,204189,1,0,0:0:0:0:
154,234,204317,5,0,0:0:0:0:
287,218,204445,1,0,0:0:0:0:
154,234,204574,5,0,0:0:0:0:
154,234,204702,2,0,P|194:283|311:309,1,180
357,138,205086,5,0,0:0:0:0:
206,238,205215,1,0,0:0:0:0:
383,212,205343,1,0,0:0:0:0:
282,62,205471,1,0,0:0:0:0:
261,240,205599,1,0,0:0:0:0:
424,166,205727,1,0,0:0:0:0:
247,127,205856,1,0,0:0:0:0:
371,256,205984,1,0,0:0:0:0:
372,76,206112,1,0,0:0:0:0:
239,197,206240,5,0,0:0:0:0:
225,17,206368,1,0,0:0:0:0:
360,137,206497,1,0,0:0:0:0:
183,168,206625,1,0,0:0:0:0:
82,18,206753,1,0,0:0:0:0:
256,59,206881,1,0,0:0:0:0:
89,126,207009,1,0,0:0:0:0:
241,223,207138,1,0,0:0:0:0:
202,47,207266,1,0,0:0:0:0:
123,208,207394,2,0,P|92:286|165:359,1,180
294,249,207779,2,0,L|486:290,1,180
367,86,208163,5,0,0:0:0:0:
251,278,208291,1,0,0:0:0:0:
436,147,208420,1,0,0:0:0:0:
217,96,208548,1,0,0:0:0:0:
101,238,208933,5,0,0:0:0:0:
320,190,209061,1,0,0:0:0:0:
103,130,209189,1,0,0:0:0:0:
197,333,209317,1,0,0:0:0:0:
413,73,209702,5,0,0:0:0:0:
184,216,209830,1,0,0:0:0:0:
453,212,209958,1,0,0:0:0:0:
224,69,210086,1,0,0:0:0:0:
328,319,210215,1,0,0:0:0:0:
373,53,210343,1,0,0:0:0:0:
134,179,210471,1,0,0:0:0:0:
117,56,211240,5,0,0:0:0:0:
396,200,211368,1,0,0:0:0:0:
79,198,211497,1,0,0:0:0:0:
350,356,211625,1,0,0:0:0:0:
366,47,212009,5,0,0:0:0:0:
70,161,212138,1,0,0:0:0:0:
381,202,212266,1,0,0:0:0:0:
94,332,212394,1,0,0:0:0:0:
325,74,212779,5,0,0:0:0:0:
180,301,212907,1,0,0:0:0:0:
408,157,213035,1,0,0:0:0:0:
140,123,213163,1,0,0:0:0:0:
347,294,213291,1,0,0:0:0:0:
347,294,213356,1,0,0:0:0:0:
347,294,213420,1,0,0:0:0:0:
347,294,213484,1,0,0:0:0:0:
347,294,213548,2,0,P|243:217|218:93,1,225
227,104,213933,1,0,0:0:0:0:
256,192,214317,5,0,0:0:0:0:
