osu file format v14

[General]
AudioFilename: audio.mp3
AudioLeadIn: 0
PreviewTime: 75458
Countdown: 0
SampleSet: Normal
StackLeniency: 0.4
Mode: 2
LetterboxInBreaks: 0
WidescreenStoryboard: 1

[Editor]
DistanceSpacing: 2
BeatDivisor: 4
GridSize: 8
TimelineZoom: 2.899999

[Metadata]
Title:DADADADADADADADADADA
TitleUnicode:打打打打打打打打打打
Artist:Hige Driver join. SELEN
ArtistUnicode:ヒゲドライバー join. SELEN
Creator:[ Azu- ]
Version:CUP
Source:REFLEC BEAT groovin'!!
Tags:
BeatmapID:1717501
BeatmapSetID:818506

[Difficulty]
HPDrainRate:4
CircleSize:2
OverallDifficulty:6
ApproachRate:6
SliderMultiplier:1.1
SliderTickRate:1

[Events]
//Background and Video events
0,0,"BG.jpg",0,0
//Break Periods
2,91523,92966
//Storyboard Layer 0 (Background)
//Storyboard Layer 1 (Fail)
//Storyboard Layer 2 (Pass)
//Storyboard Layer 3 (Foreground)
//Storyboard Sound Samples

[TimingPoints]
8247,384.615384615385,4,1,1,75,1,0
75939,-100,4,1,1,75,0,1
87862,-100,4,1,1,75,0,0
88247,-100,4,1,1,75,0,1
97477,-100,4,1,1,75,0,0
100554,-100,4,1,1,75,0,1
100939,-100,4,1,1,75,0,0
101323,-100,4,1,1,75,0,1
101708,-100,4,1,1,75,0,0
102093,-100,4,1,1,75,0,1
103631,-100,4,1,1,75,0,0
109785,-100,4,1,1,75,0,1
115170,-100,4,1,1,75,0,0
115554,-100,4,1,1,75,0,1
115747,-100,4,1,1,5,0,0

[Colours]
Combo1 : 228,224,214
Combo2 : 232,215,162
Combo3 : 215,119,119
Combo4 : 105,99,133

[HitObjects]
256,240,8247,5,0,0:0:0:0:
256,216,8375,1,0,0:0:0:0:
256,192,8503,1,0,0:0:0:0:
256,168,8631,1,0,0:0:0:0:
256,144,8759,1,0,0:0:0:0:
256,120,8888,1,0,0:0:0:0:
256,96,9016,2,0,L|256:216,1,110,0|0,0:0|0:0,0:0:0:0:
144,192,9785,5,6,0:0:0:0:
80,160,9977,1,0,0:0:0:0:
80,88,10170,2,0,L|192:88,1,110,10|2,0:0|0:0,0:0:0:0:
280,88,10747,1,0,0:0:0:0:
376,88,10939,1,10,0:0:0:0:
280,88,11323,5,2,0:0:0:0:
216,120,11516,1,0,0:0:0:0:
216,192,11708,1,10,0:0:0:0:
288,216,11900,1,0,0:0:0:0:
360,216,12093,2,0,L|472:216,1,110,2|10,0:0|0:0,0:0:0:0:
408,144,12862,5,6,0:0:0:0:
336,128,13054,1,0,0:0:0:0:
336,56,13247,2,0,L|448:56,1,110,10|2,0:0|0:0,0:0:0:0:
448,128,13823,1,0,0:0:0:0:
376,128,14016,1,10,0:0:0:0:
272,128,14400,5,2,0:0:0:0:
200,144,14593,1,0,0:0:0:0:
200,216,14785,1,10,0:0:0:0:
200,288,14977,1,0,0:0:0:0:
152,328,15170,2,0,L|40:328,1,110,2|10,0:0|0:0,0:0:0:0:
64,208,15939,5,6,0:0:0:0:
160,208,16227,1,0,0:0:0:0:
256,208,16516,1,0,0:0:0:0:
256,120,16708,1,2,0:0:0:0:
352,120,16997,1,0,0:0:0:0:
448,120,17285,1,0,0:0:0:0:
352,120,17477,6,0,L|256:120,2,82.5,2|0|0,0:0|0:0|0:0,0:0:0:0:
272,208,18247,2,0,L|160:208,1,110,2|10,0:0|0:0,0:0:0:0:
256,192,19016,12,10,21708,0:0:0:0:
88,192,22093,5,6,0:0:0:0:
136,144,22285,1,0,0:0:0:0:
208,144,22477,2,0,L|296:144,2,82.5,8|0|0,0:0|0:0|0:0,0:0:0:0:
208,64,23247,1,8,0:0:0:0:
288,64,23439,1,0,0:0:0:0:
368,64,23631,6,0,L|488:64,2,110,2|8|2,0:0|0:0|0:0,0:0:0:0:
296,64,24593,1,0,0:0:0:0:
224,64,24785,1,8,0:0:0:0:
152,64,24977,1,8,0:0:0:0:
72,64,25170,6,0,P|72:192|160:248,2,220,6|2|2,0:0|0:0|0:0,0:0:0:0:
168,72,27093,1,10,0:0:0:0:
280,72,27477,1,2,0:0:0:0:
336,72,27670,1,8,0:0:0:0:
392,72,27862,1,10,0:0:0:0:
272,72,28247,6,0,L|144:72,2,110,6|10|0,0:0|0:0|0:0,0:0:0:0:
336,72,29208,1,0,0:0:0:0:
400,112,29400,1,10,0:0:0:0:
400,184,29593,1,0,0:0:0:0:
344,232,29785,2,0,L|224:232,1,110,2|8,0:0|0:0,0:0:0:0:
160,232,30554,2,0,L|32:232,1,110,2|8,0:0|0:0,0:0:0:0:
88,192,31323,6,0,P|152:192|256:72,2,220,6|2|2,0:0|0:0|0:0,0:0:0:0:
88,304,33247,1,10,0:0:0:0:
192,304,33631,1,2,0:0:0:0:
296,304,34016,1,10,0:0:0:0:
392,304,34400,6,0,L|392:200,2,82.5,6|8|8,0:0|0:0|0:0,0:0:0:0:
336,208,35170,2,0,L|336:120,2,82.5,2|8|8,0:0|0:0|0:0,0:0:0:0:
280,216,35939,6,0,L|280:312,2,82.5,2|8|8,0:0|0:0|0:0,0:0:0:0:
216,216,36708,2,0,L|104:216,1,110,2|10,0:0|0:0,0:0:0:0:
88,192,37477,6,0,L|88:96,2,82.5,6|8|8,0:0|0:0|0:0,0:0:0:0:
152,200,38247,2,0,L|152:288,2,82.5,2|8|8,0:0|0:0|0:0,0:0:0:0:
216,192,39016,6,0,L|216:96,2,82.5,2|8|8,0:0|0:0|0:0,0:0:0:0:
280,200,39785,2,0,L|400:200,1,110,2|10,0:0|0:0,0:0:0:0:
408,128,40554,6,0,P|392:128|232:256,2,220,6|2|2,0:0|0:0|0:0,0:0:0:0:
312,128,42477,1,10,0:0:0:0:
200,128,42862,1,2,0:0:0:0:
136,128,43054,1,8,0:0:0:0:
64,128,43247,1,10,0:0:0:0:
256,192,43631,12,0,45939,0:0:0:0:
256,192,46323,5,0,0:0:0:0:
200,192,46708,6,0,L|64:192,2,110,6|10|0,0:0|0:0|0:0,0:0:0:0:
256,192,47862,1,10,0:0:0:0:
320,192,48247,6,0,L|384:192,1,55,2|0,0:0|0:0,0:0:0:0:
432,192,48631,2,0,B|432:160|432:160|368:160,2,82.5,10|0|8,0:0|0:0|0:0,0:0:0:0:
368,192,49400,2,0,L|288:192,1,55,10|0,0:0|0:0,0:0:0:0:
216,192,49785,6,0,P|80:192|48:128,2,220,6|2|2,0:0|0:0|0:0,0:0:0:0:
296,192,51708,1,10,0:0:0:0:
376,192,52093,1,2,0:0:0:0:
456,192,52477,1,10,0:0:0:0:
376,192,52862,6,0,L|280:192,2,82.5,6|0|0,0:0|0:0|0:0,0:0:0:0:
368,120,53631,2,0,L|456:120,2,82.5,2|0|0,0:0|0:0|0:0,0:0:0:0:
296,120,54400,6,0,L|240:120,1,55,2|0,0:0|0:0,0:0:0:0:
168,120,54785,1,10,0:0:0:0:
120,184,54977,1,0,0:0:0:0:
120,256,55170,2,0,L|232:256,1,110,2|10,0:0|0:0,0:0:0:0:
312,256,55939,6,0,P|392:264|472:144,3,220,6|2|2|2,0:0|0:0|0:0|0:0,0:0:0:0:
368,144,59016,5,6,0:0:0:0:
288,144,59304,1,8,0:0:0:0:
208,144,59593,1,8,0:0:0:0:
152,88,59785,1,2,0:0:0:0:
232,88,60073,1,8,0:0:0:0:
312,88,60362,1,8,0:0:0:0:
392,88,60554,6,0,L|392:192,2,82.5,2|8|8,0:0|0:0|0:0,0:0:0:0:
312,80,61323,1,2,0:0:0:0:
240,80,61516,1,8,0:0:0:0:
168,80,61708,1,10,0:0:0:0:
56,80,62093,5,6,0:0:0:0:
56,152,62285,1,0,0:0:0:0:
128,152,62477,1,10,0:0:0:0:
192,192,62670,1,0,0:0:0:0:
192,264,62862,2,0,L|288:264,2,82.5,2|8|8,0:0|0:0|0:0,0:0:0:0:
120,256,63631,6,0,L|120:192,1,55,2|0,0:0|0:0,0:0:0:0:
120,136,64016,2,0,L|240:136,1,110,10|0,0:0|0:0,0:0:0:0:
304,136,64977,1,0,0:0:0:0:
376,136,65170,6,0,L|464:136,2,82.5,6|8|8,0:0|0:0|0:0,0:0:0:0:
344,200,65939,2,0,L|240:200,2,82.5,2|8|8,0:0|0:0|0:0,0:0:0:0:
392,240,66708,6,0,L|392:336,2,82.5,2|8|8,0:0|0:0|0:0,0:0:0:0:
328,208,67477,1,2,0:0:0:0:
264,160,67670,1,0,0:0:0:0:
264,88,67862,1,10,0:0:0:0:
256,192,68247,12,6,71323,0:0:0:0:
256,192,71516,12,2,74400,0:0:0:0:
256,192,75554,5,10,0:0:0:0:
320,192,75939,6,0,P|320:136|472:72,2,220,6|2|6,0:0|0:0|0:0,0:0:0:0:
200,192,78247,1,2,0:0:0:0:
200,144,78375,1,8,0:0:0:0:
200,88,78503,1,8,0:0:0:0:
200,40,78631,1,2,0:0:0:0:
272,40,79016,6,0,P|328:40|472:136,3,220,6|2|2|2,0:0|0:0|0:0|0:0,0:0:0:0:
384,200,81708,1,10,0:0:0:0:
296,208,82093,6,0,P|216:208|80:248,2,220,6|2|6,0:0|0:0|0:0,0:0:0:0:
296,144,84016,2,0,L|416:104,2,110,2|2|2,0:0|0:0|0:0,0:0:0:0:
232,112,85170,6,0,P|168:112|120:240,2,220,6|2|2,0:0|0:0|0:0,0:0:0:0:
288,112,87093,1,2,0:0:0:0:
368,112,87477,1,2,0:0:0:0:
448,112,87862,1,10,0:0:0:0:
256,192,88247,12,6,91323,0:0:0:0:
256,192,94016,5,2,0:0:0:0:
256,192,94400,12,2,97093,0:0:0:0:
232,192,97477,5,2,0:0:0:0:
256,144,97605,1,8,0:0:0:0:
280,96,97734,1,8,0:0:0:0:
280,56,97862,1,10,0:0:0:0:
288,192,98247,5,2,0:0:0:0:
288,224,98375,1,8,0:0:0:0:
256,272,98503,1,8,0:0:0:0:
224,312,98631,1,2,0:0:0:0:
216,192,99016,6,0,L|336:192,2,110,2|2|2,0:0|0:0|0:0,0:0:0:0:
208,112,100170,1,10,0:0:0:0:
264,112,100554,5,2,0:0:0:0:
280,112,100682,1,8,0:0:0:0:
296,112,100811,1,8,0:0:0:0:
312,112,100939,2,0,L|312:232,1,110,10|2,0:0|0:0,0:0:0:0:
296,216,101452,1,8,0:0:0:0:
280,216,101580,1,8,0:0:0:0:
264,216,101708,1,10,0:0:0:0:
248,216,102093,6,0,P|200:216|128:248,2,110,2|2|2,0:0|0:0|0:0,0:0:0:0:
240,144,103247,1,10,0:0:0:0:
288,144,103631,6,0,P|360:168|448:312,2,220,6|2|2,0:0|0:0|0:0,0:0:0:0:
224,152,105554,1,10,0:0:0:0:
144,152,105939,1,2,0:0:0:0:
72,144,106323,1,10,0:0:0:0:
72,72,106708,6,0,P|136:96|160:240,2,220,6|2|2,0:0|0:0|0:0,0:0:0:0:
80,176,108631,1,10,0:0:0:0:
160,216,109016,1,2,0:0:0:0:
248,200,109400,1,10,0:0:0:0:
312,160,109785,6,0,L|408:152,2,82.5,6|0|0,0:0|0:0|0:0,0:0:0:0:
288,104,110554,2,0,L|208:48,2,82.5,2|0|0,0:0|0:0|0:0,0:0:0:0:
360,160,111323,6,0,P|400:208|416:360,2,220,2|2|2,0:0|0:0|0:0,0:0:0:0:
288,160,113150,1,8,0:0:0:0:
208,160,113439,1,8,0:0:0:0:
152,144,113631,1,2,0:0:0:0:
96,96,113920,1,8,0:0:0:0:
152,72,114208,1,8,0:0:0:0:
256,192,114400,12,0,115939,0:0:0:0:
