osu file format v14

[General]
AudioFilename: audio.mp3
AudioLeadIn: 0
PreviewTime: 74317
Countdown: 0
SampleSet: Normal
StackLeniency: 0.7
Mode: 3
LetterboxInBreaks: 0
SpecialStyle: 0
WidescreenStoryboard: 1

[Editor]
Bookmarks: 22009,145085,183546,184315,185085
DistanceSpacing: 2
BeatDivisor: 12
GridSize: 32
TimelineZoom: 8

[Metadata]
Title:DADADADADADADADA (Long Version)
TitleUnicode:打打打打打打打打打打(Long Version)
Artist:Hige Driver join. SELEN
ArtistUnicode:ヒゲドライバー join. SELEN
Creator:phoneetic
Version:GROOVIN!
Source:REFLEC BEAT groovin'!!
Tags:lokovodo cookiezi jakads sotarks kroytz impossible hard hardest map dada hige driver selen long version
BeatmapID:1936862
BeatmapSetID:927335

[Difficulty]
HPDrainRate:10
CircleSize:4
OverallDifficulty:10
ApproachRate:5
SliderMultiplier:1.4
SliderTickRate:1

[Events]
//Background and Video events
0,0,"1548214991788s.jpg",0,0
//Break Periods
2,144900,156192
2,169900,177731
//Storyboard Layer 0 (Background)
//Storyboard Layer 1 (Fail)
//Storyboard Layer 2 (Pass)
//Storyboard Layer 3 (Foreground)
//Storyboard Sound Samples

[TimingPoints]
8933,384.615384615385,4,1,0,100,1,0
9702,384.615384615385,4,1,0,5,1,0
73548,192.307692307692,4,1,0,5,1,0
73548,-200,4,1,0,5,0,0
74317,384.615384615385,4,1,0,5,1,0
128162,384.615384615385,4,1,0,5,1,0

[HitObjects]
64,192,8933,5,0,0:0:0:0:
448,192,8997,1,0,0:0:0:0:
64,192,9061,1,0,0:0:0:0:
320,192,9125,1,0,0:0:0:0:
192,192,9189,1,0,0:0:0:0:
448,192,9253,1,0,0:0:0:0:
64,192,9317,128,0,9702:0:0:0:0:
192,192,9317,1,0,0:0:0:0:
320,192,9381,1,0,0:0:0:0:
192,192,9445,1,0,0:0:0:0:
320,192,9509,1,0,0:0:0:0:
192,192,9574,1,0,0:0:0:0:
320,192,9638,1,0,0:0:0:0:
192,192,9702,1,0,0:0:0:0:
448,192,9702,1,0,0:0:0:0:
192,192,9766,1,0,0:0:0:0:
64,192,9830,1,0,0:0:0:0:
320,192,9830,1,0,0:0:0:0:
192,192,9894,1,0,0:0:0:0:
448,192,9958,1,0,0:0:0:0:
64,192,9958,1,0,0:0:0:0:
192,192,10022,1,0,0:0:0:0:
448,192,10086,1,0,0:0:0:0:
192,192,10086,1,0,0:0:0:0:
320,192,10150,1,0,0:0:0:0:
64,192,10150,1,0,0:0:0:0:
192,192,10214,1,0,0:0:0:0:
448,192,10278,1,0,0:0:0:0:
192,192,10343,1,0,0:0:0:0:
64,192,10407,128,0,10471:0:0:0:0:
320,192,10407,128,0,10471:0:0:0:0:
192,192,10407,1,0,0:0:0:0:
192,192,10471,128,0,10535:0:0:0:0:
448,192,10471,1,0,0:0:0:0:
320,192,10535,128,0,10599:0:0:0:0:
448,192,10535,1,0,0:0:0:0:
64,192,10599,1,0,0:0:0:0:
192,192,10599,128,0,10663:0:0:0:0:
320,192,10663,1,0,0:0:0:0:
448,192,10727,1,0,0:0:0:0:
192,192,10791,1,0,0:0:0:0:
320,192,10855,1,0,0:0:0:0:
192,192,10919,1,0,0:0:0:0:
64,192,10984,1,0,0:0:0:0:
320,192,11048,1,0,0:0:0:0:
192,192,11112,1,0,0:0:0:0:
320,192,11176,1,0,0:0:0:0:
64,192,11240,1,0,0:0:0:0:
448,192,11304,1,0,0:0:0:0:
192,192,11304,1,0,0:0:0:0:
320,192,11368,1,0,0:0:0:0:
64,192,11368,1,0,0:0:0:0:
192,192,11432,1,0,0:0:0:0:
448,192,11432,1,0,0:0:0:0:
64,192,11496,128,0,11625:0:0:0:0:
448,192,11496,1,0,0:0:0:0:
320,192,11560,1,0,0:0:0:0:
448,192,11625,1,0,0:0:0:0:
448,192,11689,128,0,12009:0:0:0:0:
192,192,11689,1,0,0:0:0:0:
64,192,11753,1,0,0:0:0:0:
192,192,11817,128,0,12009:0:0:0:0:
320,192,11817,1,0,0:0:0:0:
64,192,11881,1,0,0:0:0:0:
320,192,11945,1,0,0:0:0:0:
64,192,12009,1,0,0:0:0:0:
320,192,12009,128,0,12202:0:0:0:0:
192,192,12073,128,0,12266:0:0:0:0:
64,192,12137,128,0,12330:0:0:0:0:
448,192,12202,128,0,12330:0:0:0:0:
64,192,12394,1,0,0:0:0:0:
192,192,12458,1,0,0:0:0:0:
448,192,12522,1,0,0:0:0:0:
320,192,12586,1,0,0:0:0:0:
64,192,12650,1,0,0:0:0:0:
192,192,12714,1,0,0:0:0:0:
64,192,12778,1,0,0:0:0:0:
448,192,12778,1,0,0:0:0:0:
192,192,12843,128,0,12971:0:0:0:0:
64,192,12843,1,0,0:0:0:0:
320,192,12907,1,0,0:0:0:0:
448,192,12971,1,0,0:0:0:0:
320,192,12971,128,0,13099:0:0:0:0:
192,192,13035,1,0,0:0:0:0:
448,192,13099,1,0,0:0:0:0:
64,192,13099,128,0,13227:0:0:0:0:
192,192,13099,1,0,0:0:0:0:
448,192,13163,1,0,0:0:0:0:
192,192,13227,1,0,0:0:0:0:
320,192,13227,128,0,13355:0:0:0:0:
64,192,13291,1,0,0:0:0:0:
448,192,13355,1,0,0:0:0:0:
192,192,13355,128,0,13484:0:0:0:0:
64,192,13355,1,0,0:0:0:0:
320,192,13419,1,0,0:0:0:0:
448,192,13484,1,0,0:0:0:0:
64,192,13484,128,0,13612:0:0:0:0:
320,192,13548,128,0,13676:0:0:0:0:
192,192,13612,128,0,13740:0:0:0:0:
448,192,13676,128,0,13804:0:0:0:0:
64,192,13740,128,0,13868:0:0:0:0:
320,192,13804,128,0,13932:0:0:0:0:
192,192,13868,128,0,13996:0:0:0:0:
448,192,13996,128,0,14125:0:0:0:0:
320,192,14125,128,0,14253:0:0:0:0:
64,192,14125,128,0,14253:0:0:0:0:
192,192,14189,128,0,14317:0:0:0:0:
448,192,14189,128,0,14317:0:0:0:0:
64,192,14317,1,0,0:0:0:0:
192,192,14381,1,0,0:0:0:0:
320,192,14445,1,0,0:0:0:0:
448,192,14509,1,0,0:0:0:0:
320,192,14573,1,0,0:0:0:0:
192,192,14637,1,0,0:0:0:0:
64,192,14702,1,0,0:0:0:0:
320,192,14766,1,0,0:0:0:0:
192,192,14830,1,0,0:0:0:0:
448,192,14894,1,0,0:0:0:0:
192,192,14958,1,0,0:0:0:0:
320,192,15022,1,0,0:0:0:0:
64,192,15086,1,0,0:0:0:0:
320,192,15150,1,0,0:0:0:0:
192,192,15214,1,0,0:0:0:0:
448,192,15278,1,0,0:0:0:0:
64,192,15278,128,0,15343:0:0:0:0:
192,192,15343,128,0,15407:0:0:0:0:
320,192,15407,128,0,15471:0:0:0:0:
448,192,15471,128,0,15535:0:0:0:0:
64,192,15471,1,0,0:0:0:0:
64,192,15535,128,0,15599:0:0:0:0:
192,192,15535,1,0,0:0:0:0:
192,192,15599,128,0,15663:0:0:0:0:
320,192,15599,1,0,0:0:0:0:
320,192,15663,128,0,15727:0:0:0:0:
448,192,15663,1,0,0:0:0:0:
448,192,15727,128,0,15791:0:0:0:0:
64,192,15727,1,0,0:0:0:0:
192,192,15791,1,0,0:0:0:0:
64,192,15855,1,0,0:0:0:0:
448,192,15855,1,0,0:0:0:0:
192,192,15855,1,0,0:0:0:0:
320,192,15855,1,0,0:0:0:0:
192,192,15919,1,0,0:0:0:0:
320,192,15984,1,0,0:0:0:0:
64,192,16048,1,0,0:0:0:0:
320,192,16112,1,0,0:0:0:0:
192,192,16176,1,0,0:0:0:0:
320,192,16240,1,0,0:0:0:0:
448,192,16304,1,0,0:0:0:0:
192,192,16368,1,0,0:0:0:0:
448,192,16432,1,0,0:0:0:0:
192,192,16496,1,0,0:0:0:0:
64,192,16560,1,0,0:0:0:0:
448,192,16625,1,0,0:0:0:0:
192,192,16625,1,0,0:0:0:0:
64,192,16689,1,0,0:0:0:0:
320,192,16753,1,0,0:0:0:0:
192,192,16817,1,0,0:0:0:0:
448,192,16817,1,0,0:0:0:0:
320,192,16881,1,0,0:0:0:0:
64,192,16945,1,0,0:0:0:0:
320,192,17009,1,0,0:0:0:0:
448,192,17009,1,0,0:0:0:0:
192,192,17073,1,0,0:0:0:0:
64,192,17137,1,0,0:0:0:0:
192,192,17202,1,0,0:0:0:0:
320,192,17202,1,0,0:0:0:0:
64,192,17266,128,0,17394:0:0:0:0:
192,192,17266,1,0,0:0:0:0:
320,192,17330,1,0,0:0:0:0:
192,192,17394,1,0,0:0:0:0:
448,192,17394,1,0,0:0:0:0:
320,192,17458,1,0,0:0:0:0:
192,192,17522,1,0,0:0:0:0:
320,192,17586,1,0,0:0:0:0:
448,192,17586,1,0,0:0:0:0:
64,192,17586,1,0,0:0:0:0:
192,192,17650,1,0,0:0:0:0:
64,192,17714,1,0,0:0:0:0:
320,192,17714,1,0,0:0:0:0:
192,192,17778,1,0,0:0:0:0:
448,192,17778,1,0,0:0:0:0:
448,192,17843,1,0,0:0:0:0:
320,192,17907,1,0,0:0:0:0:
192,192,17971,1,0,0:0:0:0:
64,192,17971,1,0,0:0:0:0:
320,192,18035,1,0,0:0:0:0:
192,192,18099,1,0,0:0:0:0:
64,192,18163,1,0,0:0:0:0:
320,192,18163,1,0,0:0:0:0:
448,192,18163,1,0,0:0:0:0:
64,192,18227,128,0,18355:0:0:0:0:
320,192,18227,128,0,18291:0:0:0:0:
192,192,18291,1,0,0:0:0:0:
320,192,18355,1,0,0:0:0:0:
448,192,18355,1,0,0:0:0:0:
192,192,18419,1,0,0:0:0:0:
320,192,18484,1,0,0:0:0:0:
192,192,18548,1,0,0:0:0:0:
64,192,18548,1,0,0:0:0:0:
448,192,18548,1,0,0:0:0:0:
320,192,18612,1,0,0:0:0:0:
192,192,18676,1,0,0:0:0:0:
320,192,18740,1,0,0:0:0:0:
448,192,18740,1,0,0:0:0:0:
64,192,18740,1,0,0:0:0:0:
192,192,18804,1,0,0:0:0:0:
320,192,18868,1,0,0:0:0:0:
64,192,18932,1,0,0:0:0:0:
192,192,18932,1,0,0:0:0:0:
448,192,18932,1,0,0:0:0:0:
64,192,18996,1,0,0:0:0:0:
320,192,18996,1,0,0:0:0:0:
448,192,18996,1,0,0:0:0:0:
64,192,19060,1,0,0:0:0:0:
192,192,19060,1,0,0:0:0:0:
448,192,19060,1,0,0:0:0:0:
64,192,19125,1,0,0:0:0:0:
320,192,19125,1,0,0:0:0:0:
448,192,19125,1,0,0:0:0:0:
64,192,19189,1,0,0:0:0:0:
192,192,19189,1,0,0:0:0:0:
448,192,19189,1,0,0:0:0:0:
64,192,19253,1,0,0:0:0:0:
320,192,19253,1,0,0:0:0:0:
448,192,19253,1,0,0:0:0:0:
64,192,19317,1,0,0:0:0:0:
192,192,19317,1,0,0:0:0:0:
448,192,19317,1,0,0:0:0:0:
448,192,19381,1,0,0:0:0:0:
320,192,19381,1,0,0:0:0:0:
64,192,19381,1,0,0:0:0:0:
64,192,19445,1,0,0:0:0:0:
192,192,19445,1,0,0:0:0:0:
448,192,19445,1,0,0:0:0:0:
64,192,19509,1,0,0:0:0:0:
320,192,19509,1,0,0:0:0:0:
448,192,19509,1,0,0:0:0:0:
64,192,19573,1,0,0:0:0:0:
192,192,19573,1,0,0:0:0:0:
448,192,19573,1,0,0:0:0:0:
64,192,19637,1,0,0:0:0:0:
320,192,19637,1,0,0:0:0:0:
448,192,19637,1,0,0:0:0:0:
64,192,19702,1,0,0:0:0:0:
192,192,19702,1,0,0:0:0:0:
448,192,19702,1,0,0:0:0:0:
320,192,19766,1,0,0:0:0:0:
448,192,19766,1,0,0:0:0:0:
64,192,19766,1,0,0:0:0:0:
64,192,19830,1,0,0:0:0:0:
192,192,19830,1,0,0:0:0:0:
448,192,19830,1,0,0:0:0:0:
320,192,19894,1,0,0:0:0:0:
448,192,19894,1,0,0:0:0:0:
64,192,19894,1,0,0:0:0:0:
64,192,19958,1,0,0:0:0:0:
192,192,19958,1,0,0:0:0:0:
448,192,19958,1,0,0:0:0:0:
64,192,20022,1,0,0:0:0:0:
448,192,20022,1,0,0:0:0:0:
320,192,20022,1,0,0:0:0:0:
64,192,20086,1,0,0:0:0:0:
192,192,20086,1,0,0:0:0:0:
448,192,20086,1,0,0:0:0:0:
448,192,20150,1,0,0:0:0:0:
320,192,20150,1,0,0:0:0:0:
64,192,20150,1,0,0:0:0:0:
64,192,20214,1,0,0:0:0:0:
192,192,20214,1,0,0:0:0:0:
448,192,20214,1,0,0:0:0:0:
320,192,20278,1,0,0:0:0:0:
448,192,20278,1,0,0:0:0:0:
64,192,20278,1,0,0:0:0:0:
64,192,20343,1,0,0:0:0:0:
192,192,20343,1,0,0:0:0:0:
448,192,20343,1,0,0:0:0:0:
320,192,20407,1,0,0:0:0:0:
448,192,20407,1,0,0:0:0:0:
64,192,20407,1,0,0:0:0:0:
64,192,20471,128,0,20535:0:0:0:0:
320,192,20471,128,0,20535:0:0:0:0:
192,192,20535,128,0,20599:0:0:0:0:
448,192,20535,128,0,20599:0:0:0:0:
64,192,20599,128,0,20663:0:0:0:0:
320,192,20599,128,0,20663:0:0:0:0:
192,192,20663,128,0,20727:0:0:0:0:
448,192,20663,128,0,20727:0:0:0:0:
320,192,20727,128,0,20791:0:0:0:0:
64,192,20727,128,0,20791:0:0:0:0:
192,192,20791,128,0,20855:0:0:0:0:
448,192,20791,128,0,20855:0:0:0:0:
64,192,20855,128,0,20919:0:0:0:0:
320,192,20855,128,0,20919:0:0:0:0:
192,192,20919,128,0,20984:0:0:0:0:
448,192,20919,128,0,20984:0:0:0:0:
64,192,20984,128,0,21048:0:0:0:0:
320,192,20984,128,0,21048:0:0:0:0:
192,192,21048,128,0,21112:0:0:0:0:
448,192,21048,128,0,21112:0:0:0:0:
64,192,21112,128,0,21176:0:0:0:0:
320,192,21112,128,0,21176:0:0:0:0:
192,192,21176,128,0,21240:0:0:0:0:
448,192,21176,128,0,21240:0:0:0:0:
64,192,21240,128,0,21272:0:0:0:0:
320,192,21240,128,0,21272:0:0:0:0:
192,192,21272,128,0,21304:0:0:0:0:
448,192,21272,128,0,21304:0:0:0:0:
64,192,21304,128,0,21336:0:0:0:0:
320,192,21304,128,0,21336:0:0:0:0:
192,192,21336,128,0,21368:0:0:0:0:
448,192,21336,128,0,21368:0:0:0:0:
64,192,21368,128,0,21400:0:0:0:0:
320,192,21368,128,0,21400:0:0:0:0:
192,192,21400,128,0,21432:0:0:0:0:
448,192,21400,128,0,21432:0:0:0:0:
64,192,21432,128,0,21464:0:0:0:0:
320,192,21432,128,0,21464:0:0:0:0:
192,192,21464,128,0,21496:0:0:0:0:
448,192,21464,128,0,21496:0:0:0:0:
64,192,21496,128,0,21528:0:0:0:0:
320,192,21496,128,0,21528:0:0:0:0:
192,192,21528,128,0,21560:0:0:0:0:
448,192,21528,128,0,21560:0:0:0:0:
64,192,21560,128,0,21593:0:0:0:0:
320,192,21560,128,0,21593:0:0:0:0:
192,192,21593,128,0,21625:0:0:0:0:
448,192,21593,128,0,21625:0:0:0:0:
64,192,21625,128,0,21657:0:0:0:0:
320,192,21625,128,0,21657:0:0:0:0:
192,192,21657,128,0,21689:0:0:0:0:
448,192,21657,128,0,21689:0:0:0:0:
64,192,21689,128,0,21721:0:0:0:0:
320,192,21689,128,0,21721:0:0:0:0:
192,192,21721,128,0,21753:0:0:0:0:
448,192,21721,128,0,21753:0:0:0:0:
64,192,21753,128,0,21785:0:0:0:0:
320,192,21753,128,0,21785:0:0:0:0:
192,192,21785,128,0,21817:0:0:0:0:
448,192,21785,128,0,21817:0:0:0:0:
64,192,21817,128,0,21849:0:0:0:0:
320,192,21817,128,0,21849:0:0:0:0:
192,192,21849,128,0,21881:0:0:0:0:
448,192,21849,128,0,21881:0:0:0:0:
320,192,21881,128,0,21913:0:0:0:0:
64,192,21881,128,0,21913:0:0:0:0:
192,192,21913,1,0,0:0:0:0:
448,192,21913,1,0,0:0:0:0:
64,192,21945,1,0,0:0:0:0:
320,192,21945,1,0,0:0:0:0:
192,192,21977,1,0,0:0:0:0:
448,192,21977,1,0,0:0:0:0:
64,192,22009,1,0,0:0:0:0:
320,192,22009,1,0,0:0:0:0:
64,192,22394,1,0,0:0:0:0:
64,192,22778,1,0,0:0:0:0:
64,192,23163,1,0,0:0:0:0:
64,192,23548,1,0,0:0:0:0:
192,192,23612,1,0,0:0:0:0:
320,192,23676,1,0,0:0:0:0:
448,192,23740,1,0,0:0:0:0:
320,192,23804,1,0,0:0:0:0:
192,192,23868,1,0,0:0:0:0:
64,192,23932,1,0,0:0:0:0:
192,192,23996,1,0,0:0:0:0:
320,192,24060,1,0,0:0:0:0:
192,192,24125,1,0,0:0:0:0:
320,192,24189,1,0,0:0:0:0:
448,192,24253,1,0,0:0:0:0:
320,192,24317,1,0,0:0:0:0:
192,192,24381,1,0,0:0:0:0:
64,192,24445,1,0,0:0:0:0:
192,192,24509,1,0,0:0:0:0:
320,192,24573,1,0,0:0:0:0:
448,192,24637,1,0,0:0:0:0:
320,192,24702,1,0,0:0:0:0:
192,192,24766,1,0,0:0:0:0:
64,192,24830,1,0,0:0:0:0:
192,192,24894,1,0,0:0:0:0:
448,192,24894,1,0,0:0:0:0:
64,192,24958,1,0,0:0:0:0:
192,192,25022,1,0,0:0:0:0:
64,192,25086,128,0,25150:0:0:0:0:
448,192,25086,128,0,25150:0:0:0:0:
320,192,25150,128,0,25214:0:0:0:0:
192,192,25150,128,0,25214:0:0:0:0:
64,192,25214,128,0,25278:0:0:0:0:
448,192,25214,128,0,25278:0:0:0:0:
192,192,25278,1,0,0:0:0:0:
320,192,25278,1,0,0:0:0:0:
64,192,25343,1,0,0:0:0:0:
448,192,25343,1,0,0:0:0:0:
192,192,25407,1,0,0:0:0:0:
320,192,25407,1,0,0:0:0:0:
64,192,25471,1,0,0:0:0:0:
448,192,25471,1,0,0:0:0:0:
320,192,25535,1,0,0:0:0:0:
64,192,25535,1,0,0:0:0:0:
192,192,25599,1,0,0:0:0:0:
448,192,25599,1,0,0:0:0:0:
64,192,25663,1,0,0:0:0:0:
320,192,25663,1,0,0:0:0:0:
192,192,25727,1,0,0:0:0:0:
448,192,25727,1,0,0:0:0:0:
64,192,25791,1,0,0:0:0:0:
320,192,25791,1,0,0:0:0:0:
64,192,25855,128,0,26625:0:0:0:0:
192,192,25855,1,0,0:0:0:0:
320,192,25919,1,0,0:0:0:0:
192,192,25984,1,0,0:0:0:0:
320,192,26048,1,0,0:0:0:0:
192,192,26112,1,0,0:0:0:0:
320,192,26176,1,0,0:0:0:0:
448,192,26240,1,0,0:0:0:0:
192,192,26304,1,0,0:0:0:0:
448,192,26368,1,0,0:0:0:0:
192,192,26432,1,0,0:0:0:0:
448,192,26496,1,0,0:0:0:0:
192,192,26560,1,0,0:0:0:0:
448,192,26625,1,0,0:0:0:0:
192,192,26625,1,0,0:0:0:0:
320,192,26625,128,0,28163:0:0:0:0:
64,192,26689,1,0,0:0:0:0:
192,192,26753,1,0,0:0:0:0:
448,192,26817,1,0,0:0:0:0:
64,192,26881,1,0,0:0:0:0:
192,192,26945,1,0,0:0:0:0:
448,192,27009,1,0,0:0:0:0:
64,192,27073,1,0,0:0:0:0:
192,192,27137,1,0,0:0:0:0:
448,192,27202,1,0,0:0:0:0:
64,192,27266,1,0,0:0:0:0:
192,192,27330,1,0,0:0:0:0:
448,192,27394,1,0,0:0:0:0:
64,192,27426,1,0,0:0:0:0:
192,192,27458,1,0,0:0:0:0:
448,192,27490,1,0,0:0:0:0:
64,192,27522,1,0,0:0:0:0:
192,192,27554,1,0,0:0:0:0:
448,192,27586,1,0,0:0:0:0:
64,192,27618,1,0,0:0:0:0:
192,192,27650,1,0,0:0:0:0:
448,192,27682,1,0,0:0:0:0:
192,192,27714,1,0,0:0:0:0:
448,192,27746,1,0,0:0:0:0:
192,192,27778,1,0,0:0:0:0:
64,192,27810,1,0,0:0:0:0:
448,192,27843,1,0,0:0:0:0:
192,192,27875,1,0,0:0:0:0:
64,192,27907,1,0,0:0:0:0:
448,192,27939,1,0,0:0:0:0:
192,192,27971,1,0,0:0:0:0:
64,192,28003,1,0,0:0:0:0:
448,192,28035,1,0,0:0:0:0:
192,192,28067,1,0,0:0:0:0:
64,192,28099,1,0,0:0:0:0:
192,192,28131,1,0,0:0:0:0:
64,192,28163,1,0,0:0:0:0:
448,192,28163,1,0,0:0:0:0:
192,192,28163,1,0,0:0:0:0:
64,192,28548,1,0,0:0:0:0:
64,192,28932,1,0,0:0:0:0:
64,192,29317,1,0,0:0:0:0:
64,192,29702,1,0,0:0:0:0:
64,192,29766,1,0,0:0:0:0:
192,192,29830,1,0,0:0:0:0:
192,192,29894,1,0,0:0:0:0:
64,192,29958,1,0,0:0:0:0:
64,192,30022,1,0,0:0:0:0:
192,192,30086,1,0,0:0:0:0:
192,192,30150,1,0,0:0:0:0:
64,192,30214,1,0,0:0:0:0:
64,192,30278,1,0,0:0:0:0:
192,192,30343,1,0,0:0:0:0:
192,192,30407,1,0,0:0:0:0:
64,192,30471,1,0,0:0:0:0:
64,192,30535,1,0,0:0:0:0:
192,192,30599,1,0,0:0:0:0:
192,192,30663,1,0,0:0:0:0:
64,192,30727,1,0,0:0:0:0:
64,192,30791,1,0,0:0:0:0:
192,192,30855,1,0,0:0:0:0:
192,192,30919,1,0,0:0:0:0:
64,192,30984,1,0,0:0:0:0:
64,192,31048,1,0,0:0:0:0:
192,192,31112,1,0,0:0:0:0:
192,192,31176,1,0,0:0:0:0:
64,192,31240,1,0,0:0:0:0:
448,192,31240,1,0,0:0:0:0:
192,192,31240,128,0,31432:0:0:0:0:
320,192,31304,1,0,0:0:0:0:
64,192,31368,1,0,0:0:0:0:
320,192,31432,128,0,31625:0:0:0:0:
64,192,31432,1,0,0:0:0:0:
448,192,31496,1,0,0:0:0:0:
64,192,31560,1,0,0:0:0:0:
448,192,31625,128,0,31817:0:0:0:0:
320,192,31689,1,0,0:0:0:0:
64,192,31753,1,0,0:0:0:0:
192,192,31817,128,0,32009:0:0:0:0:
64,192,31817,1,0,0:0:0:0:
320,192,31881,1,0,0:0:0:0:
448,192,31945,1,0,0:0:0:0:
320,192,32009,128,0,32202:0:0:0:0:
64,192,32073,1,0,0:0:0:0:
448,192,32137,1,0,0:0:0:0:
64,192,32202,128,0,32394:0:0:0:0:
192,192,32266,1,0,0:0:0:0:
320,192,32330,1,0,0:0:0:0:
320,192,32394,128,0,32586:0:0:0:0:
192,192,32458,1,0,0:0:0:0:
64,192,32522,1,0,0:0:0:0:
64,192,32586,128,0,32778:0:0:0:0:
192,192,32650,1,0,0:0:0:0:
320,192,32714,1,0,0:0:0:0:
192,192,32778,128,0,32843:0:0:0:0:
448,192,32778,128,0,32843:0:0:0:0:
64,192,32843,128,0,32907:0:0:0:0:
320,192,32843,128,0,32907:0:0:0:0:
192,192,32907,128,0,32971:0:0:0:0:
448,192,32907,128,0,32971:0:0:0:0:
64,192,32971,128,0,33035:0:0:0:0:
320,192,32971,128,0,33035:0:0:0:0:
192,192,33035,128,0,33099:0:0:0:0:
448,192,33035,128,0,33099:0:0:0:0:
64,192,33099,128,0,33163:0:0:0:0:
320,192,33099,128,0,33163:0:0:0:0:
192,192,33163,128,0,33227:0:0:0:0:
448,192,33163,128,0,33227:0:0:0:0:
64,192,33227,128,0,33291:0:0:0:0:
320,192,33227,128,0,33291:0:0:0:0:
192,192,33291,128,0,33355:0:0:0:0:
448,192,33291,128,0,33355:0:0:0:0:
320,192,33355,128,0,33548:0:0:0:0:
64,192,33355,128,0,33419:0:0:0:0:
192,192,33419,128,0,33484:0:0:0:0:
448,192,33484,128,0,33548:0:0:0:0:
192,192,33548,128,0,33740:0:0:0:0:
64,192,33548,128,0,33612:0:0:0:0:
320,192,33612,128,0,33676:0:0:0:0:
448,192,33676,128,0,33740:0:0:0:0:
64,192,33740,1,0,0:0:0:0:
192,192,33772,1,0,0:0:0:0:
448,192,33804,1,0,0:0:0:0:
320,192,33836,1,0,0:0:0:0:
64,192,33868,1,0,0:0:0:0:
192,192,33900,1,0,0:0:0:0:
448,192,33932,1,0,0:0:0:0:
320,192,33964,1,0,0:0:0:0:
64,192,33996,1,0,0:0:0:0:
192,192,34028,1,0,0:0:0:0:
448,192,34060,1,0,0:0:0:0:
320,192,34093,1,0,0:0:0:0:
64,192,34125,1,0,0:0:0:0:
192,192,34157,1,0,0:0:0:0:
448,192,34189,1,0,0:0:0:0:
320,192,34221,1,0,0:0:0:0:
64,192,34253,1,0,0:0:0:0:
192,192,34285,1,0,0:0:0:0:
64,192,34317,1,0,0:0:0:0:
448,192,34317,1,0,0:0:0:0:
320,192,34317,1,0,0:0:0:0:
64,192,34573,1,0,0:0:0:0:
320,192,34573,1,0,0:0:0:0:
64,192,34894,1,0,0:0:0:0:
448,192,34894,1,0,0:0:0:0:
192,192,35086,1,0,0:0:0:0:
320,192,35086,1,0,0:0:0:0:
64,192,35407,1,0,0:0:0:0:
448,192,35407,1,0,0:0:0:0:
64,192,35727,1,0,0:0:0:0:
192,192,35727,1,0,0:0:0:0:
448,192,35727,1,0,0:0:0:0:
192,192,35855,1,0,0:0:0:0:
320,192,35855,1,0,0:0:0:0:
448,192,35855,1,0,0:0:0:0:
64,192,36176,1,0,0:0:0:0:
192,192,36176,1,0,0:0:0:0:
320,192,36496,1,0,0:0:0:0:
448,192,36496,1,0,0:0:0:0:
64,192,36625,1,0,0:0:0:0:
320,192,36625,1,0,0:0:0:0:
192,192,36689,1,0,0:0:0:0:
320,192,36753,1,0,0:0:0:0:
192,192,36817,1,0,0:0:0:0:
448,192,36817,1,0,0:0:0:0:
320,192,36881,1,0,0:0:0:0:
192,192,36945,1,0,0:0:0:0:
64,192,37009,1,0,0:0:0:0:
320,192,37009,1,0,0:0:0:0:
192,192,37073,1,0,0:0:0:0:
320,192,37137,1,0,0:0:0:0:
448,192,37202,1,0,0:0:0:0:
320,192,37202,1,0,0:0:0:0:
192,192,37266,1,0,0:0:0:0:
320,192,37330,1,0,0:0:0:0:
192,192,37394,1,0,0:0:0:0:
448,192,37394,1,0,0:0:0:0:
320,192,37714,1,0,0:0:0:0:
64,192,37714,1,0,0:0:0:0:
448,192,38035,1,0,0:0:0:0:
192,192,38035,1,0,0:0:0:0:
320,192,38227,1,0,0:0:0:0:
64,192,38227,1,0,0:0:0:0:
448,192,38484,1,0,0:0:0:0:
192,192,38484,1,0,0:0:0:0:
320,192,38804,1,0,0:0:0:0:
64,192,38804,1,0,0:0:0:0:
448,192,38996,1,0,0:0:0:0:
192,192,38996,1,0,0:0:0:0:
320,192,39253,1,0,0:0:0:0:
64,192,39253,1,0,0:0:0:0:
448,192,39509,1,0,0:0:0:0:
192,192,39509,1,0,0:0:0:0:
320,192,39702,1,0,0:0:0:0:
192,192,39766,1,0,0:0:0:0:
448,192,39830,1,0,0:0:0:0:
192,192,39894,1,0,0:0:0:0:
320,192,39958,1,0,0:0:0:0:
192,192,40022,1,0,0:0:0:0:
320,192,40086,1,0,0:0:0:0:
192,192,40150,1,0,0:0:0:0:
64,192,40214,1,0,0:0:0:0:
320,192,40278,1,0,0:0:0:0:
192,192,40278,1,0,0:0:0:0:
64,192,40343,1,0,0:0:0:0:
320,192,40407,1,0,0:0:0:0:
64,192,40471,1,0,0:0:0:0:
448,192,40471,1,0,0:0:0:0:
320,192,40791,1,0,0:0:0:0:
64,192,41112,1,0,0:0:0:0:
448,192,41304,1,0,0:0:0:0:
192,192,41625,1,0,0:0:0:0:
320,192,41817,1,0,0:0:0:0:
64,192,42009,1,0,0:0:0:0:
448,192,42266,1,0,0:0:0:0:
192,192,42586,1,0,0:0:0:0:
320,192,42778,1,0,0:0:0:0:
448,192,42778,1,0,0:0:0:0:
192,192,42843,1,0,0:0:0:0:
64,192,42843,1,0,0:0:0:0:
320,192,42907,1,0,0:0:0:0:
448,192,42907,1,0,0:0:0:0:
192,192,42971,1,0,0:0:0:0:
64,192,42971,1,0,0:0:0:0:
320,192,43035,1,0,0:0:0:0:
448,192,43035,1,0,0:0:0:0:
192,192,43099,1,0,0:0:0:0:
64,192,43099,1,0,0:0:0:0:
320,192,43163,1,0,0:0:0:0:
448,192,43163,1,0,0:0:0:0:
192,192,43227,1,0,0:0:0:0:
64,192,43227,1,0,0:0:0:0:
320,192,43291,1,0,0:0:0:0:
448,192,43291,1,0,0:0:0:0:
192,192,43355,1,0,0:0:0:0:
64,192,43355,1,0,0:0:0:0:
320,192,43419,1,0,0:0:0:0:
448,192,43419,1,0,0:0:0:0:
192,192,43484,1,0,0:0:0:0:
64,192,43484,1,0,0:0:0:0:
320,192,43548,1,0,0:0:0:0:
448,192,43548,1,0,0:0:0:0:
320,192,43868,1,0,0:0:0:0:
192,192,44125,1,0,0:0:0:0:
448,192,44317,1,0,0:0:0:0:
64,192,44573,1,0,0:0:0:0:
320,192,44830,1,0,0:0:0:0:
192,192,45086,1,0,0:0:0:0:
448,192,45343,1,0,0:0:0:0:
64,192,45663,1,0,0:0:0:0:
64,192,45855,128,0,45919:0:0:0:0:
192,192,45855,128,0,45919:0:0:0:0:
320,192,45855,128,0,45919:0:0:0:0:
448,192,45855,128,0,45919:0:0:0:0:
64,192,46048,128,0,46112:0:0:0:0:
192,192,46048,128,0,46112:0:0:0:0:
320,192,46048,128,0,46112:0:0:0:0:
448,192,46048,128,0,46112:0:0:0:0:
64,192,46240,128,0,46625:0:0:0:0:
448,192,46240,128,0,46625:0:0:0:0:
192,192,46240,1,0,0:0:0:0:
320,192,46304,1,0,0:0:0:0:
192,192,46368,1,0,0:0:0:0:
320,192,46432,1,0,0:0:0:0:
192,192,46496,1,0,0:0:0:0:
320,192,46560,1,0,0:0:0:0:
192,192,46625,1,0,0:0:0:0:
192,192,47009,1,0,0:0:0:0:
192,192,47394,1,0,0:0:0:0:
192,192,47778,1,0,0:0:0:0:
64,192,48163,128,0,48355:0:0:0:0:
192,192,48227,128,0,48419:0:0:0:0:
320,192,48291,128,0,48484:0:0:0:0:
448,192,48355,128,0,48548:0:0:0:0:
64,192,48419,128,0,48612:0:0:0:0:
192,192,48484,128,0,48676:0:0:0:0:
320,192,48548,128,0,48740:0:0:0:0:
448,192,48612,128,0,48804:0:0:0:0:
64,192,48676,128,0,48868:0:0:0:0:
192,192,48740,128,0,48932:0:0:0:0:
320,192,48804,128,0,48996:0:0:0:0:
448,192,48868,128,0,49060:0:0:0:0:
64,192,48932,128,0,49125:0:0:0:0:
192,192,48996,128,0,49189:0:0:0:0:
320,192,49060,128,0,49253:0:0:0:0:
448,192,49125,128,0,49317:0:0:0:0:
64,192,49189,128,0,49381:0:0:0:0:
192,192,49253,128,0,49445:0:0:0:0:
320,192,49317,128,0,49509:0:0:0:0:
448,192,49381,128,0,49573:0:0:0:0:
64,192,49445,128,0,49702:0:0:0:0:
192,192,49509,128,0,49702:0:0:0:0:
320,192,49573,128,0,49702:0:0:0:0:
448,192,49637,128,0,49702:0:0:0:0:
192,192,49766,1,0,0:0:0:0:
320,192,49830,1,0,0:0:0:0:
64,192,49894,1,0,0:0:0:0:
448,192,49894,1,0,0:0:0:0:
320,192,49958,1,0,0:0:0:0:
192,192,50022,1,0,0:0:0:0:
64,192,50086,1,0,0:0:0:0:
320,192,50086,1,0,0:0:0:0:
192,192,50150,1,0,0:0:0:0:
64,192,50214,1,0,0:0:0:0:
192,192,50278,1,0,0:0:0:0:
320,192,50278,1,0,0:0:0:0:
448,192,50278,1,0,0:0:0:0:
64,192,50343,1,0,0:0:0:0:
448,192,50407,1,0,0:0:0:0:
64,192,50471,1,0,0:0:0:0:
320,192,50471,1,0,0:0:0:0:
192,192,50535,1,0,0:0:0:0:
64,192,50599,1,0,0:0:0:0:
192,192,50663,1,0,0:0:0:0:
320,192,50663,1,0,0:0:0:0:
448,192,50727,1,0,0:0:0:0:
320,192,50791,1,0,0:0:0:0:
64,192,50855,1,0,0:0:0:0:
192,192,50855,1,0,0:0:0:0:
320,192,50919,1,0,0:0:0:0:
448,192,50984,1,0,0:0:0:0:
320,192,51048,1,0,0:0:0:0:
192,192,51048,1,0,0:0:0:0:
64,192,51112,1,0,0:0:0:0:
192,192,51176,1,0,0:0:0:0:
64,192,51240,1,0,0:0:0:0:
320,192,51240,1,0,0:0:0:0:
448,192,51240,1,0,0:0:0:0:
64,192,51304,1,0,0:0:0:0:
192,192,51368,1,0,0:0:0:0:
448,192,51432,1,0,0:0:0:0:
320,192,51496,1,0,0:0:0:0:
64,192,51560,1,0,0:0:0:0:
192,192,51625,1,0,0:0:0:0:
448,192,51689,1,0,0:0:0:0:
320,192,51753,1,0,0:0:0:0:
64,192,51817,1,0,0:0:0:0:
192,192,51881,1,0,0:0:0:0:
448,192,51945,1,0,0:0:0:0:
64,192,52009,128,0,52073:0:0:0:0:
320,192,52009,128,0,52073:0:0:0:0:
192,192,52073,128,0,52137:0:0:0:0:
448,192,52073,128,0,52137:0:0:0:0:
64,192,52137,128,0,52202:0:0:0:0:
320,192,52137,128,0,52202:0:0:0:0:
192,192,52202,128,0,52266:0:0:0:0:
448,192,52202,128,0,52266:0:0:0:0:
320,192,52266,128,0,52330:0:0:0:0:
64,192,52266,128,0,52330:0:0:0:0:
192,192,52330,128,0,52394:0:0:0:0:
448,192,52330,128,0,52394:0:0:0:0:
320,192,52394,128,0,52458:0:0:0:0:
64,192,52394,128,0,52458:0:0:0:0:
192,192,52458,128,0,52522:0:0:0:0:
448,192,52458,128,0,52522:0:0:0:0:
64,192,52522,128,0,52586:0:0:0:0:
320,192,52522,128,0,52586:0:0:0:0:
192,192,52586,128,0,52650:0:0:0:0:
448,192,52586,128,0,52650:0:0:0:0:
320,192,52650,128,0,52714:0:0:0:0:
64,192,52650,128,0,52714:0:0:0:0:
192,192,52714,128,0,52778:0:0:0:0:
448,192,52714,128,0,52778:0:0:0:0:
64,192,52778,1,0,0:0:0:0:
320,192,52778,1,0,0:0:0:0:
64,192,53163,1,0,0:0:0:0:
64,192,53548,1,0,0:0:0:0:
64,192,53932,1,0,0:0:0:0:
64,192,54317,1,0,0:0:0:0:
192,192,54381,1,0,0:0:0:0:
320,192,54445,1,0,0:0:0:0:
64,192,54509,1,0,0:0:0:0:
192,192,54509,1,0,0:0:0:0:
320,192,54573,1,0,0:0:0:0:
448,192,54637,1,0,0:0:0:0:
192,192,54702,1,0,0:0:0:0:
320,192,54702,1,0,0:0:0:0:
64,192,54702,1,0,0:0:0:0:
448,192,54766,1,0,0:0:0:0:
320,192,54830,1,0,0:0:0:0:
64,192,54894,1,0,0:0:0:0:
448,192,54894,1,0,0:0:0:0:
192,192,54958,1,0,0:0:0:0:
320,192,55022,1,0,0:0:0:0:
64,192,55086,1,0,0:0:0:0:
192,192,55086,1,0,0:0:0:0:
320,192,55150,1,0,0:0:0:0:
448,192,55214,1,0,0:0:0:0:
320,192,55278,1,0,0:0:0:0:
192,192,55278,1,0,0:0:0:0:
448,192,55343,1,0,0:0:0:0:
320,192,55407,1,0,0:0:0:0:
64,192,55471,1,0,0:0:0:0:
192,192,55471,1,0,0:0:0:0:
320,192,55535,1,0,0:0:0:0:
192,192,55599,1,0,0:0:0:0:
64,192,55663,1,0,0:0:0:0:
320,192,55663,1,0,0:0:0:0:
192,192,55727,1,0,0:0:0:0:
320,192,55791,1,0,0:0:0:0:
64,192,55855,1,0,0:0:0:0:
192,192,55855,1,0,0:0:0:0:
448,192,55855,1,0,0:0:0:0:
320,192,55855,128,0,57394:0:0:0:0:
192,192,55919,1,0,0:0:0:0:
64,192,55984,1,0,0:0:0:0:
192,192,56048,1,0,0:0:0:0:
64,192,56112,1,0,0:0:0:0:
192,192,56176,1,0,0:0:0:0:
64,192,56240,1,0,0:0:0:0:
192,192,56304,1,0,0:0:0:0:
64,192,56368,1,0,0:0:0:0:
192,192,56432,1,0,0:0:0:0:
64,192,56496,1,0,0:0:0:0:
192,192,56560,1,0,0:0:0:0:
64,192,56625,1,0,0:0:0:0:
448,192,56625,128,0,57394:0:0:0:0:
192,192,56689,1,0,0:0:0:0:
64,192,56753,1,0,0:0:0:0:
192,192,56817,1,0,0:0:0:0:
64,192,56881,1,0,0:0:0:0:
192,192,56945,1,0,0:0:0:0:
64,192,57009,1,0,0:0:0:0:
192,192,57073,1,0,0:0:0:0:
64,192,57137,1,0,0:0:0:0:
192,192,57202,1,0,0:0:0:0:
64,192,57266,1,0,0:0:0:0:
192,192,57330,1,0,0:0:0:0:
64,192,57394,1,0,0:0:0:0:
64,192,57458,1,0,0:0:0:0:
192,192,57458,1,0,0:0:0:0:
320,192,57522,1,0,0:0:0:0:
448,192,57522,1,0,0:0:0:0:
64,192,57586,1,0,0:0:0:0:
192,192,57586,1,0,0:0:0:0:
320,192,57650,1,0,0:0:0:0:
448,192,57650,1,0,0:0:0:0:
64,192,57714,1,0,0:0:0:0:
192,192,57714,1,0,0:0:0:0:
320,192,57778,1,0,0:0:0:0:
448,192,57778,1,0,0:0:0:0:
64,192,57843,1,0,0:0:0:0:
192,192,57843,1,0,0:0:0:0:
320,192,57907,1,0,0:0:0:0:
448,192,57907,1,0,0:0:0:0:
64,192,57971,1,0,0:0:0:0:
192,192,57971,1,0,0:0:0:0:
320,192,58035,1,0,0:0:0:0:
448,192,58035,1,0,0:0:0:0:
64,192,58099,1,0,0:0:0:0:
192,192,58099,1,0,0:0:0:0:
64,192,58163,1,0,0:0:0:0:
192,192,58195,1,0,0:0:0:0:
320,192,58227,1,0,0:0:0:0:
448,192,58259,1,0,0:0:0:0:
320,192,58291,1,0,0:0:0:0:
192,192,58323,1,0,0:0:0:0:
64,192,58355,1,0,0:0:0:0:
192,192,58387,1,0,0:0:0:0:
320,192,58419,1,0,0:0:0:0:
448,192,58452,1,0,0:0:0:0:
320,192,58484,1,0,0:0:0:0:
192,192,58516,1,0,0:0:0:0:
64,192,58548,1,0,0:0:0:0:
192,192,58580,1,0,0:0:0:0:
320,192,58612,1,0,0:0:0:0:
448,192,58644,1,0,0:0:0:0:
320,192,58676,1,0,0:0:0:0:
192,192,58708,1,0,0:0:0:0:
64,192,58740,1,0,0:0:0:0:
192,192,58772,1,0,0:0:0:0:
320,192,58804,1,0,0:0:0:0:
448,192,58836,1,0,0:0:0:0:
320,192,58868,1,0,0:0:0:0:
192,192,58900,1,0,0:0:0:0:
64,192,58932,1,0,0:0:0:0:
320,192,58932,1,0,0:0:0:0:
448,192,58932,1,0,0:0:0:0:
192,192,58996,1,0,0:0:0:0:
320,192,59060,1,0,0:0:0:0:
192,192,59125,1,0,0:0:0:0:
448,192,59125,1,0,0:0:0:0:
64,192,59189,1,0,0:0:0:0:
192,192,59253,1,0,0:0:0:0:
448,192,59317,1,0,0:0:0:0:
320,192,59317,1,0,0:0:0:0:
192,192,59381,1,0,0:0:0:0:
320,192,59445,1,0,0:0:0:0:
192,192,59509,1,0,0:0:0:0:
64,192,59509,1,0,0:0:0:0:
320,192,59573,1,0,0:0:0:0:
64,192,59637,1,0,0:0:0:0:
192,192,59702,1,0,0:0:0:0:
448,192,59702,1,0,0:0:0:0:
320,192,59766,1,0,0:0:0:0:
192,192,59830,1,0,0:0:0:0:
64,192,59894,1,0,0:0:0:0:
320,192,59894,1,0,0:0:0:0:
192,192,59958,1,0,0:0:0:0:
320,192,60022,1,0,0:0:0:0:
192,192,60086,1,0,0:0:0:0:
64,192,60086,1,0,0:0:0:0:
320,192,60150,1,0,0:0:0:0:
64,192,60214,1,0,0:0:0:0:
320,192,60278,1,0,0:0:0:0:
448,192,60278,1,0,0:0:0:0:
320,192,60343,1,0,0:0:0:0:
64,192,60407,1,0,0:0:0:0:
192,192,60471,128,0,60663:0:0:0:0:
448,192,60471,1,0,0:0:0:0:
64,192,60535,1,0,0:0:0:0:
320,192,60599,1,0,0:0:0:0:
448,192,60663,128,0,60855:0:0:0:0:
64,192,60727,1,0,0:0:0:0:
320,192,60791,1,0,0:0:0:0:
192,192,60855,128,0,61048:0:0:0:0:
320,192,60919,1,0,0:0:0:0:
448,192,60984,1,0,0:0:0:0:
64,192,61048,128,0,61240:0:0:0:0:
320,192,61112,1,0,0:0:0:0:
192,192,61176,1,0,0:0:0:0:
320,192,61240,1,0,0:0:0:0:
448,192,61240,1,0,0:0:0:0:
192,192,61304,1,0,0:0:0:0:
320,192,61304,1,0,0:0:0:0:
64,192,61368,1,0,0:0:0:0:
192,192,61368,1,0,0:0:0:0:
192,192,61432,1,0,0:0:0:0:
320,192,61432,1,0,0:0:0:0:
320,192,61496,1,0,0:0:0:0:
448,192,61496,1,0,0:0:0:0:
192,192,61560,1,0,0:0:0:0:
320,192,61560,1,0,0:0:0:0:
64,192,61625,1,0,0:0:0:0:
192,192,61625,1,0,0:0:0:0:
320,192,61689,1,0,0:0:0:0:
448,192,61689,1,0,0:0:0:0:
64,192,61753,1,0,0:0:0:0:
192,192,61753,1,0,0:0:0:0:
320,192,61817,1,0,0:0:0:0:
448,192,61817,1,0,0:0:0:0:
64,192,61881,1,0,0:0:0:0:
192,192,61881,1,0,0:0:0:0:
320,192,61945,1,0,0:0:0:0:
448,192,61945,1,0,0:0:0:0:
64,192,62009,1,0,0:0:0:0:
448,192,62009,1,0,0:0:0:0:
192,192,62073,1,0,0:0:0:0:
320,192,62137,1,0,0:0:0:0:
192,192,62202,1,0,0:0:0:0:
448,192,62202,1,0,0:0:0:0:
320,192,62266,1,0,0:0:0:0:
448,192,62330,1,0,0:0:0:0:
320,192,62394,1,0,0:0:0:0:
192,192,62394,1,0,0:0:0:0:
64,192,62458,1,0,0:0:0:0:
448,192,62522,1,0,0:0:0:0:
192,192,62586,1,0,0:0:0:0:
320,192,62586,1,0,0:0:0:0:
448,192,62650,1,0,0:0:0:0:
64,192,62714,1,0,0:0:0:0:
192,192,62778,1,0,0:0:0:0:
448,192,62778,1,0,0:0:0:0:
64,192,62843,1,0,0:0:0:0:
192,192,62907,1,0,0:0:0:0:
320,192,62971,1,0,0:0:0:0:
448,192,62971,1,0,0:0:0:0:
192,192,63035,1,0,0:0:0:0:
64,192,63099,1,0,0:0:0:0:
192,192,63163,1,0,0:0:0:0:
320,192,63163,1,0,0:0:0:0:
64,192,63227,1,0,0:0:0:0:
320,192,63291,1,0,0:0:0:0:
192,192,63355,1,0,0:0:0:0:
448,192,63355,1,0,0:0:0:0:
320,192,63419,1,0,0:0:0:0:
64,192,63484,1,0,0:0:0:0:
64,192,63548,128,0,63612:0:0:0:0:
448,192,63548,128,0,63612:0:0:0:0:
192,192,63612,128,0,63676:0:0:0:0:
320,192,63676,128,0,63740:0:0:0:0:
64,192,63740,128,0,63804:0:0:0:0:
448,192,63740,128,0,63804:0:0:0:0:
320,192,63804,128,0,63868:0:0:0:0:
448,192,63868,128,0,63932:0:0:0:0:
192,192,63932,128,0,63996:0:0:0:0:
320,192,63932,128,0,63996:0:0:0:0:
64,192,63996,128,0,64060:0:0:0:0:
320,192,64060,128,0,64125:0:0:0:0:
64,192,64125,128,0,64189:0:0:0:0:
192,192,64125,128,0,64189:0:0:0:0:
320,192,64189,128,0,64253:0:0:0:0:
64,192,64253,128,0,64317:0:0:0:0:
192,192,64317,128,0,64381:0:0:0:0:
448,192,64317,128,0,64381:0:0:0:0:
320,192,64317,1,0,0:0:0:0:
320,192,64381,128,0,64445:0:0:0:0:
64,192,64381,1,0,0:0:0:0:
64,192,64445,128,0,64509:0:0:0:0:
448,192,64445,1,0,0:0:0:0:
192,192,64509,128,0,64573:0:0:0:0:
448,192,64509,128,0,64573:0:0:0:0:
320,192,64509,1,0,0:0:0:0:
64,192,64573,128,0,64637:0:0:0:0:
320,192,64573,1,0,0:0:0:0:
320,192,64637,128,0,64702:0:0:0:0:
192,192,64637,1,0,0:0:0:0:
192,192,64702,128,0,64766:0:0:0:0:
448,192,64702,128,0,64766:0:0:0:0:
64,192,64702,1,0,0:0:0:0:
320,192,64766,128,0,64830:0:0:0:0:
64,192,64766,1,0,0:0:0:0:
448,192,64830,128,0,64894:0:0:0:0:
192,192,64830,1,0,0:0:0:0:
64,192,64894,128,0,64958:0:0:0:0:
192,192,64894,128,0,64958:0:0:0:0:
320,192,64894,1,0,0:0:0:0:
320,192,64958,128,0,65022:0:0:0:0:
448,192,64958,1,0,0:0:0:0:
192,192,65022,128,0,65086:0:0:0:0:
64,192,65022,1,0,0:0:0:0:
64,192,65086,1,0,0:0:0:0:
448,192,65086,1,0,0:0:0:0:
320,192,65086,1,0,0:0:0:0:
192,192,65150,1,0,0:0:0:0:
320,192,65214,1,0,0:0:0:0:
64,192,65278,1,0,0:0:0:0:
192,192,65278,1,0,0:0:0:0:
320,192,65343,1,0,0:0:0:0:
192,192,65407,1,0,0:0:0:0:
320,192,65471,1,0,0:0:0:0:
448,192,65471,1,0,0:0:0:0:
192,192,65535,1,0,0:0:0:0:
320,192,65599,1,0,0:0:0:0:
192,192,65663,1,0,0:0:0:0:
64,192,65663,1,0,0:0:0:0:
320,192,65727,1,0,0:0:0:0:
64,192,65791,1,0,0:0:0:0:
192,192,65855,1,0,0:0:0:0:
448,192,65855,1,0,0:0:0:0:
320,192,65919,1,0,0:0:0:0:
448,192,65984,1,0,0:0:0:0:
192,192,66048,1,0,0:0:0:0:
320,192,66048,1,0,0:0:0:0:
448,192,66112,1,0,0:0:0:0:
64,192,66176,1,0,0:0:0:0:
192,192,66240,1,0,0:0:0:0:
320,192,66240,1,0,0:0:0:0:
448,192,66304,1,0,0:0:0:0:
320,192,66368,1,0,0:0:0:0:
64,192,66432,1,0,0:0:0:0:
448,192,66432,1,0,0:0:0:0:
192,192,66496,1,0,0:0:0:0:
320,192,66560,1,0,0:0:0:0:
448,192,66625,1,0,0:0:0:0:
192,192,66625,128,0,66817:0:0:0:0:
64,192,66625,1,0,0:0:0:0:
320,192,66689,1,0,0:0:0:0:
448,192,66753,1,0,0:0:0:0:
320,192,66817,128,0,67009:0:0:0:0:
64,192,66817,1,0,0:0:0:0:
192,192,66881,1,0,0:0:0:0:
448,192,66945,1,0,0:0:0:0:
64,192,67009,128,0,67202:0:0:0:0:
192,192,67009,1,0,0:0:0:0:
448,192,67073,1,0,0:0:0:0:
320,192,67137,1,0,0:0:0:0:
192,192,67202,1,0,0:0:0:0:
320,192,67202,128,0,67394:0:0:0:0:
448,192,67266,1,0,0:0:0:0:
64,192,67330,1,0,0:0:0:0:
192,192,67394,128,0,67586:0:0:0:0:
448,192,67394,1,0,0:0:0:0:
320,192,67458,1,0,0:0:0:0:
448,192,67522,1,0,0:0:0:0:
64,192,67586,128,0,67778:0:0:0:0:
320,192,67586,1,0,0:0:0:0:
448,192,67650,1,0,0:0:0:0:
320,192,67714,1,0,0:0:0:0:
192,192,67778,1,0,0:0:0:0:
320,192,67778,128,0,67971:0:0:0:0:
448,192,67843,1,0,0:0:0:0:
192,192,67907,1,0,0:0:0:0:
64,192,67971,128,0,68163:0:0:0:0:
192,192,67971,1,0,0:0:0:0:
320,192,68035,1,0,0:0:0:0:
448,192,68099,1,0,0:0:0:0:
448,192,68163,1,0,0:0:0:0:
320,192,68227,1,0,0:0:0:0:
448,192,68291,1,0,0:0:0:0:
320,192,68355,1,0,0:0:0:0:
448,192,68419,1,0,0:0:0:0:
320,192,68484,1,0,0:0:0:0:
448,192,68548,1,0,0:0:0:0:
320,192,68612,1,0,0:0:0:0:
448,192,68676,1,0,0:0:0:0:
320,192,68740,1,0,0:0:0:0:
448,192,68804,1,0,0:0:0:0:
320,192,68868,1,0,0:0:0:0:
448,192,68932,1,0,0:0:0:0:
320,192,68996,1,0,0:0:0:0:
448,192,69060,1,0,0:0:0:0:
320,192,69125,1,0,0:0:0:0:
448,192,69189,1,0,0:0:0:0:
320,192,69253,1,0,0:0:0:0:
448,192,69317,1,0,0:0:0:0:
320,192,69381,1,0,0:0:0:0:
448,192,69445,1,0,0:0:0:0:
320,192,69509,1,0,0:0:0:0:
448,192,69573,1,0,0:0:0:0:
320,192,69637,1,0,0:0:0:0:
448,192,69702,1,0,0:0:0:0:
192,192,69766,1,0,0:0:0:0:
448,192,69830,1,0,0:0:0:0:
192,192,69894,1,0,0:0:0:0:
448,192,69958,1,0,0:0:0:0:
192,192,70022,1,0,0:0:0:0:
448,192,70086,1,0,0:0:0:0:
192,192,70150,1,0,0:0:0:0:
448,192,70214,1,0,0:0:0:0:
192,192,70278,1,0,0:0:0:0:
448,192,70343,1,0,0:0:0:0:
192,192,70407,1,0,0:0:0:0:
448,192,70471,1,0,0:0:0:0:
192,192,70535,1,0,0:0:0:0:
448,192,70599,1,0,0:0:0:0:
192,192,70663,1,0,0:0:0:0:
448,192,70727,1,0,0:0:0:0:
192,192,70791,1,0,0:0:0:0:
448,192,70855,1,0,0:0:0:0:
192,192,70919,1,0,0:0:0:0:
448,192,70984,1,0,0:0:0:0:
192,192,71048,1,0,0:0:0:0:
448,192,71112,1,0,0:0:0:0:
192,192,71176,1,0,0:0:0:0:
448,192,71240,1,0,0:0:0:0:
192,192,71240,1,0,0:0:0:0:
320,192,71304,1,0,0:0:0:0:
448,192,71304,1,0,0:0:0:0:
64,192,71368,1,0,0:0:0:0:
192,192,71368,1,0,0:0:0:0:
448,192,71368,1,0,0:0:0:0:
320,192,71432,1,0,0:0:0:0:
64,192,71432,1,0,0:0:0:0:
192,192,71496,1,0,0:0:0:0:
448,192,71496,1,0,0:0:0:0:
192,192,71560,1,0,0:0:0:0:
448,192,71560,1,0,0:0:0:0:
64,192,71560,1,0,0:0:0:0:
192,192,71625,1,0,0:0:0:0:
320,192,71625,1,0,0:0:0:0:
448,192,71625,1,0,0:0:0:0:
64,192,71689,1,0,0:0:0:0:
192,192,71689,1,0,0:0:0:0:
320,192,71689,1,0,0:0:0:0:
192,192,71753,1,0,0:0:0:0:
448,192,71753,1,0,0:0:0:0:
320,192,71817,1,0,0:0:0:0:
448,192,71817,1,0,0:0:0:0:
64,192,71881,1,0,0:0:0:0:
320,192,71881,1,0,0:0:0:0:
192,192,71945,1,0,0:0:0:0:
320,192,71945,1,0,0:0:0:0:
448,192,71945,1,0,0:0:0:0:
64,192,72009,1,0,0:0:0:0:
192,192,72009,1,0,0:0:0:0:
320,192,72009,1,0,0:0:0:0:
192,192,72073,1,0,0:0:0:0:
320,192,72073,1,0,0:0:0:0:
448,192,72073,1,0,0:0:0:0:
192,192,72137,1,0,0:0:0:0:
448,192,72137,1,0,0:0:0:0:
64,192,72137,1,0,0:0:0:0:
192,192,72202,1,0,0:0:0:0:
448,192,72202,1,0,0:0:0:0:
192,192,72266,1,0,0:0:0:0:
320,192,72266,1,0,0:0:0:0:
192,192,72330,1,0,0:0:0:0:
64,192,72330,1,0,0:0:0:0:
192,192,72394,1,0,0:0:0:0:
320,192,72394,1,0,0:0:0:0:
320,192,72458,1,0,0:0:0:0:
448,192,72458,1,0,0:0:0:0:
192,192,72522,1,0,0:0:0:0:
320,192,72522,1,0,0:0:0:0:
64,192,72586,1,0,0:0:0:0:
192,192,72586,1,0,0:0:0:0:
320,192,72586,1,0,0:0:0:0:
192,192,72650,1,0,0:0:0:0:
320,192,72650,1,0,0:0:0:0:
448,192,72650,1,0,0:0:0:0:
320,192,72714,1,0,0:0:0:0:
192,192,72714,1,0,0:0:0:0:
64,192,72714,1,0,0:0:0:0:
64,192,72778,1,0,0:0:0:0:
320,192,72778,1,0,0:0:0:0:
192,192,72810,1,0,0:0:0:0:
448,192,72810,1,0,0:0:0:0:
320,192,72843,1,0,0:0:0:0:
64,192,72843,1,0,0:0:0:0:
192,192,72875,1,0,0:0:0:0:
448,192,72875,1,0,0:0:0:0:
64,192,72907,1,0,0:0:0:0:
320,192,72907,1,0,0:0:0:0:
192,192,72939,1,0,0:0:0:0:
448,192,72939,1,0,0:0:0:0:
64,192,72971,1,0,0:0:0:0:
320,192,72971,1,0,0:0:0:0:
192,192,73003,1,0,0:0:0:0:
448,192,73003,1,0,0:0:0:0:
64,192,73035,1,0,0:0:0:0:
320,192,73035,1,0,0:0:0:0:
192,192,73067,1,0,0:0:0:0:
448,192,73067,1,0,0:0:0:0:
64,192,73099,1,0,0:0:0:0:
320,192,73099,1,0,0:0:0:0:
192,192,73131,1,0,0:0:0:0:
448,192,73131,1,0,0:0:0:0:
64,192,73163,1,0,0:0:0:0:
320,192,73163,1,0,0:0:0:0:
192,192,73195,1,0,0:0:0:0:
448,192,73195,1,0,0:0:0:0:
64,192,73227,1,0,0:0:0:0:
320,192,73227,1,0,0:0:0:0:
192,192,73259,1,0,0:0:0:0:
448,192,73259,1,0,0:0:0:0:
64,192,73291,1,0,0:0:0:0:
320,192,73291,1,0,0:0:0:0:
192,192,73323,1,0,0:0:0:0:
448,192,73323,1,0,0:0:0:0:
64,192,73355,1,0,0:0:0:0:
320,192,73355,1,0,0:0:0:0:
192,192,73387,1,0,0:0:0:0:
448,192,73387,1,0,0:0:0:0:
64,192,73419,1,0,0:0:0:0:
320,192,73419,1,0,0:0:0:0:
192,192,73452,1,0,0:0:0:0:
448,192,73452,1,0,0:0:0:0:
64,192,73484,1,0,0:0:0:0:
320,192,73484,1,0,0:0:0:0:
192,192,73516,1,0,0:0:0:0:
448,192,73516,1,0,0:0:0:0:
64,192,73548,1,0,0:0:0:0:
192,192,73564,1,0,0:0:0:0:
320,192,73580,1,0,0:0:0:0:
448,192,73596,1,0,0:0:0:0:
320,192,73612,1,0,0:0:0:0:
192,192,73628,1,0,0:0:0:0:
64,192,73644,1,0,0:0:0:0:
192,192,73660,1,0,0:0:0:0:
320,192,73676,1,0,0:0:0:0:
448,192,73692,1,0,0:0:0:0:
320,192,73708,1,0,0:0:0:0:
192,192,73724,1,0,0:0:0:0:
64,192,73740,1,0,0:0:0:0:
192,192,73756,1,0,0:0:0:0:
320,192,73772,1,0,0:0:0:0:
448,192,73788,1,0,0:0:0:0:
320,192,73804,1,0,0:0:0:0:
192,192,73820,1,0,0:0:0:0:
64,192,73836,1,0,0:0:0:0:
192,192,73852,1,0,0:0:0:0:
320,192,73868,1,0,0:0:0:0:
448,192,73884,1,0,0:0:0:0:
320,192,73900,1,0,0:0:0:0:
192,192,73916,1,0,0:0:0:0:
64,192,73932,128,0,73948:0:0:0:0:
320,192,73932,128,0,73948:0:0:0:0:
192,192,73948,128,0,73964:0:0:0:0:
448,192,73948,128,0,73964:0:0:0:0:
320,192,73964,128,0,73980:0:0:0:0:
64,192,73964,128,0,73980:0:0:0:0:
192,192,73980,128,0,73996:0:0:0:0:
448,192,73980,128,0,73996:0:0:0:0:
64,192,73996,128,0,74012:0:0:0:0:
320,192,73996,128,0,74012:0:0:0:0:
448,192,74012,128,0,74028:0:0:0:0:
192,192,74012,128,0,74028:0:0:0:0:
64,192,74028,128,0,74044:0:0:0:0:
320,192,74028,128,0,74044:0:0:0:0:
448,192,74044,128,0,74060:0:0:0:0:
192,192,74044,128,0,74060:0:0:0:0:
320,192,74060,128,0,74076:0:0:0:0:
64,192,74060,128,0,74076:0:0:0:0:
192,192,74076,128,0,74092:0:0:0:0:
448,192,74076,128,0,74092:0:0:0:0:
320,192,74092,128,0,74108:0:0:0:0:
64,192,74092,128,0,74108:0:0:0:0:
192,192,74108,128,0,74124:0:0:0:0:
448,192,74108,128,0,74124:0:0:0:0:
64,192,74124,128,0,74140:0:0:0:0:
320,192,74124,128,0,74140:0:0:0:0:
448,192,74140,128,0,74156:0:0:0:0:
192,192,74140,128,0,74156:0:0:0:0:
64,192,74156,128,0,74173:0:0:0:0:
320,192,74156,128,0,74173:0:0:0:0:
448,192,74173,128,0,74189:0:0:0:0:
192,192,74173,128,0,74189:0:0:0:0:
320,192,74189,128,0,74205:0:0:0:0:
64,192,74189,128,0,74205:0:0:0:0:
192,192,74205,128,0,74221:0:0:0:0:
448,192,74205,128,0,74221:0:0:0:0:
320,192,74221,128,0,74237:0:0:0:0:
64,192,74221,128,0,74237:0:0:0:0:
192,192,74237,128,0,74253:0:0:0:0:
448,192,74237,128,0,74253:0:0:0:0:
64,192,74253,128,0,74269:0:0:0:0:
320,192,74253,128,0,74269:0:0:0:0:
448,192,74269,128,0,74285:0:0:0:0:
192,192,74269,128,0,74285:0:0:0:0:
64,192,74285,128,0,74301:0:0:0:0:
320,192,74285,128,0,74301:0:0:0:0:
448,192,74301,128,0,74317:0:0:0:0:
192,192,74301,128,0,74317:0:0:0:0:
64,192,74317,128,0,74413:0:0:0:0:
320,192,74317,128,0,74381:0:0:0:0:
448,192,74445,128,0,74573:0:0:0:0:
320,192,74445,128,0,74541:0:0:0:0:
192,192,74445,128,0,74509:0:0:0:0:
64,192,74445,128,0,74477:0:0:0:0:
64,192,74573,128,0,74701:0:0:0:0:
320,192,74573,128,0,74701:0:0:0:0:
192,192,74573,128,0,74605:0:0:0:0:
448,192,74701,128,0,74829:0:0:0:0:
192,192,74701,128,0,74797:0:0:0:0:
64,192,74829,128,0,74958:0:0:0:0:
320,192,74829,128,0,74861:0:0:0:0:
192,192,74829,128,0,74925:0:0:0:0:
192,192,74958,128,0,75086:0:0:0:0:
320,192,74958,128,0,75022:0:0:0:0:
448,192,74958,128,0,75054:0:0:0:0:
64,192,75086,128,0,75118:0:0:0:0:
320,192,75086,128,0,75118:0:0:0:0:
448,192,75086,128,0,75182:0:0:0:0:
64,192,75214,128,0,75246:0:0:0:0:
192,192,75214,128,0,75342:0:0:0:0:
320,192,75214,128,0,75278:0:0:0:0:
448,192,75214,128,0,75310:0:0:0:0:
64,192,75342,128,0,75374:0:0:0:0:
320,192,75342,128,0,75374:0:0:0:0:
448,192,75342,128,0,75374:0:0:0:0:
64,192,75470,128,0,75599:0:0:0:0:
448,192,75470,128,0,75599:0:0:0:0:
320,192,75470,128,0,75502:0:0:0:0:
192,192,75470,128,0,75567:0:0:0:0:
64,192,75855,128,0,75983:0:0:0:0:
192,192,75855,128,0,75887:0:0:0:0:
320,192,75855,128,0,75887:0:0:0:0:
448,192,75855,128,0,75951:0:0:0:0:
448,192,75983,128,0,76015:0:0:0:0:
320,192,75983,128,0,76047:0:0:0:0:
192,192,75983,128,0,76079:0:0:0:0:
64,192,76111,128,0,76143:0:0:0:0:
192,192,76111,128,0,76240:0:0:0:0:
320,192,76111,128,0,76143:0:0:0:0:
448,192,76111,128,0,76175:0:0:0:0:
64,192,76240,128,0,76368:0:0:0:0:
320,192,76240,128,0,76368:0:0:0:0:
448,192,76240,128,0,76336:0:0:0:0:
192,192,76368,128,0,76496:0:0:0:0:
448,192,76368,128,0,76432:0:0:0:0:
64,192,76496,128,0,76528:0:0:0:0:
320,192,76496,128,0,76560:0:0:0:0:
448,192,76496,128,0,76624:0:0:0:0:
64,192,76624,128,0,76752:0:0:0:0:
192,192,76624,128,0,76656:0:0:0:0:
320,192,76624,128,0,76720:0:0:0:0:
448,192,76752,128,0,76817:0:0:0:0:
192,192,76752,128,0,76817:0:0:0:0:
320,192,76752,128,0,76784:0:0:0:0:
64,192,76881,128,0,76977:0:0:0:0:
192,192,76881,128,0,76945:0:0:0:0:
320,192,76881,128,0,76913:0:0:0:0:
448,192,76881,128,0,76945:0:0:0:0:
64,192,77009,128,0,77137:0:0:0:0:
192,192,77009,128,0,77041:0:0:0:0:
320,192,77009,128,0,77137:0:0:0:0:
448,192,77009,128,0,77105:0:0:0:0:
64,192,77393,128,0,77425:0:0:0:0:
192,192,77393,128,0,77458:0:0:0:0:
320,192,77393,128,0,77490:0:0:0:0:
448,192,77393,128,0,77458:0:0:0:0:
64,192,77522,128,0,77586:0:0:0:0:
192,192,77522,128,0,77586:0:0:0:0:
320,192,77522,128,0,77586:0:0:0:0:
448,192,77522,128,0,77554:0:0:0:0:
320,192,77650,128,0,77778:0:0:0:0:
192,192,77650,128,0,77714:0:0:0:0:
448,192,77650,128,0,77746:0:0:0:0:
64,192,77650,128,0,77746:0:0:0:0:
192,192,77778,128,0,77874:0:0:0:0:
64,192,77778,128,0,77874:0:0:0:0:
448,192,77778,128,0,77810:0:0:0:0:
320,192,77906,128,0,77938:0:0:0:0:
192,192,77906,128,0,77938:0:0:0:0:
64,192,77906,128,0,78002:0:0:0:0:
448,192,77906,128,0,77970:0:0:0:0:
192,192,78034,128,0,78163:0:0:0:0:
64,192,78034,128,0,78099:0:0:0:0:
320,192,78034,128,0,78131:0:0:0:0:
448,192,78034,128,0,78067:0:0:0:0:
320,192,78163,128,0,78195:0:0:0:0:
64,192,78163,128,0,78195:0:0:0:0:
448,192,78163,128,0,78227:0:0:0:0:
320,192,78291,128,0,78355:0:0:0:0:
192,192,78291,128,0,78323:0:0:0:0:
64,192,78291,128,0,78387:0:0:0:0:
448,192,78291,128,0,78323:0:0:0:0:
64,192,78419,128,0,78547:0:0:0:0:
320,192,78419,128,0,78547:0:0:0:0:
192,192,78419,128,0,78451:0:0:0:0:
448,192,78419,128,0,78451:0:0:0:0:
192,192,78547,128,0,78675:0:0:0:0:
448,192,78547,128,0,78579:0:0:0:0:
320,192,78675,128,0,78708:0:0:0:0:
64,192,78675,128,0,78740:0:0:0:0:
448,192,78675,128,0,78708:0:0:0:0:
64,192,78804,128,0,78868:0:0:0:0:
192,192,78804,128,0,78836:0:0:0:0:
320,192,78804,128,0,78900:0:0:0:0:
448,192,78804,128,0,78868:0:0:0:0:
64,192,78932,128,0,78964:0:0:0:0:
192,192,78932,128,0,78964:0:0:0:0:
320,192,78932,128,0,78964:0:0:0:0:
448,192,78932,128,0,78964:0:0:0:0:
64,192,79060,128,0,79124:0:0:0:0:
192,192,79060,128,0,79124:0:0:0:0:
320,192,79060,128,0,79124:0:0:0:0:
448,192,79060,128,0,79124:0:0:0:0:
64,192,79188,128,0,79284:0:0:0:0:
192,192,79188,128,0,79284:0:0:0:0:
320,192,79188,128,0,79284:0:0:0:0:
448,192,79188,128,0,79284:0:0:0:0:
64,192,79317,128,0,79381:0:0:0:0:
192,192,79317,128,0,79381:0:0:0:0:
320,192,79317,128,0,79381:0:0:0:0:
448,192,79317,128,0,79381:0:0:0:0:
64,192,79445,128,0,79477:0:0:0:0:
192,192,79445,128,0,79477:0:0:0:0:
320,192,79445,128,0,79477:0:0:0:0:
448,192,79445,128,0,79477:0:0:0:0:
64,192,79573,128,0,79637:0:0:0:0:
192,192,79573,128,0,79637:0:0:0:0:
320,192,79573,128,0,79637:0:0:0:0:
448,192,79573,128,0,79637:0:0:0:0:
64,192,79701,1,0,0:0:0:0:
192,192,79701,1,0,0:0:0:0:
320,192,79701,1,0,0:0:0:0:
448,192,79701,1,0,0:0:0:0:
64,192,80086,128,0,80438:0:0:0:0:
192,192,80086,128,0,80374:0:0:0:0:
320,192,80086,128,0,80406:0:0:0:0:
448,192,80086,128,0,80310:0:0:0:0:
64,192,80470,128,0,80567:0:0:0:0:
192,192,80470,128,0,80534:0:0:0:0:
320,192,80470,128,0,80567:0:0:0:0:
448,192,80470,128,0,80567:0:0:0:0:
64,192,80599,128,0,80663:0:0:0:0:
192,192,80599,128,0,80631:0:0:0:0:
320,192,80599,128,0,80663:0:0:0:0:
448,192,80599,128,0,80631:0:0:0:0:
64,192,80727,128,0,80823:0:0:0:0:
192,192,80727,128,0,80759:0:0:0:0:
320,192,80727,128,0,80791:0:0:0:0:
448,192,80727,128,0,80823:0:0:0:0:
64,192,80855,128,0,80983:0:0:0:0:
192,192,80855,128,0,80887:0:0:0:0:
320,192,80855,128,0,80887:0:0:0:0:
448,192,80855,128,0,80887:0:0:0:0:
192,192,80983,128,0,81111:0:0:0:0:
320,192,80983,128,0,81111:0:0:0:0:
448,192,80983,128,0,81111:0:0:0:0:
64,192,81111,128,0,81240:0:0:0:0:
192,192,81240,128,0,81272:0:0:0:0:
320,192,81240,128,0,81272:0:0:0:0:
448,192,81240,128,0,81272:0:0:0:0:
64,192,81368,128,0,81432:0:0:0:0:
192,192,81368,128,0,81400:0:0:0:0:
320,192,81368,128,0,81464:0:0:0:0:
448,192,81368,128,0,81432:0:0:0:0:
64,192,81496,128,0,81592:0:0:0:0:
192,192,81496,128,0,81528:0:0:0:0:
320,192,81496,128,0,81560:0:0:0:0:
448,192,81496,128,0,81528:0:0:0:0:
64,192,81624,128,0,81656:0:0:0:0:
192,192,81624,128,0,81656:0:0:0:0:
320,192,81624,128,0,81688:0:0:0:0:
448,192,81624,128,0,81656:0:0:0:0:
64,192,82009,128,0,82041:0:0:0:0:
192,192,82009,128,0,82073:0:0:0:0:
320,192,82009,128,0,82105:0:0:0:0:
448,192,82009,128,0,82105:0:0:0:0:
64,192,82137,128,0,82169:0:0:0:0:
192,192,82137,128,0,82233:0:0:0:0:
320,192,82137,128,0,82201:0:0:0:0:
448,192,82137,128,0,82233:0:0:0:0:
64,192,82265,128,0,82361:0:0:0:0:
192,192,82265,128,0,82329:0:0:0:0:
320,192,82265,128,0,82297:0:0:0:0:
448,192,82265,128,0,82361:0:0:0:0:
64,192,82393,128,0,82490:0:0:0:0:
192,192,82393,128,0,82490:0:0:0:0:
320,192,82393,128,0,82490:0:0:0:0:
448,192,82393,128,0,82425:0:0:0:0:
192,192,82522,128,0,82618:0:0:0:0:
320,192,82522,128,0,82650:0:0:0:0:
64,192,82522,128,0,82554:0:0:0:0:
448,192,82522,128,0,82650:0:0:0:0:
64,192,82650,128,0,82682:0:0:0:0:
192,192,82650,128,0,82682:0:0:0:0:
64,192,82778,128,0,82874:0:0:0:0:
192,192,82778,128,0,82810:0:0:0:0:
320,192,82778,128,0,82842:0:0:0:0:
448,192,82778,128,0,82874:0:0:0:0:
64,192,82906,128,0,82938:0:0:0:0:
192,192,82906,128,0,82938:0:0:0:0:
320,192,82906,128,0,82938:0:0:0:0:
448,192,82906,128,0,82970:0:0:0:0:
64,192,83034,128,0,83067:0:0:0:0:
192,192,83034,128,0,83099:0:0:0:0:
320,192,83034,128,0,83067:0:0:0:0:
448,192,83034,128,0,83067:0:0:0:0:
64,192,83163,128,0,83259:0:0:0:0:
192,192,83163,128,0,83195:0:0:0:0:
320,192,83163,128,0,83227:0:0:0:0:
448,192,83163,128,0,83259:0:0:0:0:
64,192,83547,128,0,83579:0:0:0:0:
192,192,83547,128,0,83579:0:0:0:0:
320,192,83547,128,0,83579:0:0:0:0:
448,192,83547,128,0,83579:0:0:0:0:
64,192,83675,128,0,83740:0:0:0:0:
192,192,83675,128,0,83740:0:0:0:0:
320,192,83675,128,0,83740:0:0:0:0:
448,192,83675,128,0,83740:0:0:0:0:
64,192,83804,128,0,83900:0:0:0:0:
192,192,83804,128,0,83900:0:0:0:0:
320,192,83804,128,0,83900:0:0:0:0:
448,192,83804,128,0,83900:0:0:0:0:
64,192,83932,128,0,83996:0:0:0:0:
192,192,83932,128,0,83996:0:0:0:0:
320,192,83932,128,0,83996:0:0:0:0:
448,192,83932,128,0,83996:0:0:0:0:
64,192,84060,128,0,84092:0:0:0:0:
192,192,84060,128,0,84092:0:0:0:0:
320,192,84060,128,0,84092:0:0:0:0:
448,192,84060,128,0,84092:0:0:0:0:
64,192,84188,128,0,84252:0:0:0:0:
192,192,84188,128,0,84252:0:0:0:0:
320,192,84188,128,0,84252:0:0:0:0:
448,192,84188,128,0,84252:0:0:0:0:
64,192,84317,128,0,84413:0:0:0:0:
192,192,84317,128,0,84413:0:0:0:0:
320,192,84317,128,0,84413:0:0:0:0:
448,192,84317,128,0,84413:0:0:0:0:
64,192,84445,128,0,84509:0:0:0:0:
192,192,84445,128,0,84509:0:0:0:0:
320,192,84445,128,0,84509:0:0:0:0:
448,192,84445,128,0,84509:0:0:0:0:
64,192,84573,128,0,84605:0:0:0:0:
192,192,84573,128,0,84605:0:0:0:0:
320,192,84573,128,0,84605:0:0:0:0:
448,192,84573,128,0,84605:0:0:0:0:
64,192,84701,128,0,84765:0:0:0:0:
192,192,84701,128,0,84765:0:0:0:0:
320,192,84701,128,0,84765:0:0:0:0:
448,192,84701,128,0,84765:0:0:0:0:
64,192,84829,128,0,84925:0:0:0:0:
192,192,84829,128,0,84925:0:0:0:0:
320,192,84829,128,0,84925:0:0:0:0:
448,192,84829,128,0,84925:0:0:0:0:
64,192,84958,128,0,85022:0:0:0:0:
192,192,84958,128,0,85022:0:0:0:0:
320,192,84958,128,0,85022:0:0:0:0:
448,192,84958,128,0,85022:0:0:0:0:
64,192,85086,128,0,85118:0:0:0:0:
192,192,85086,128,0,85118:0:0:0:0:
320,192,85086,128,0,85118:0:0:0:0:
448,192,85086,128,0,85118:0:0:0:0:
64,192,85214,128,0,85246:0:0:0:0:
192,192,85214,128,0,85246:0:0:0:0:
320,192,85214,128,0,85278:0:0:0:0:
448,192,85214,128,0,85310:0:0:0:0:
64,192,85342,128,0,85374:0:0:0:0:
320,192,85342,128,0,85406:0:0:0:0:
192,192,85342,128,0,85438:0:0:0:0:
448,192,85342,128,0,85438:0:0:0:0:
64,192,85470,128,0,85502:0:0:0:0:
192,192,85470,128,0,85534:0:0:0:0:
320,192,85470,128,0,85502:0:0:0:0:
448,192,85470,128,0,85534:0:0:0:0:
64,192,85599,128,0,85631:0:0:0:0:
192,192,85599,128,0,85663:0:0:0:0:
320,192,85599,128,0,85695:0:0:0:0:
448,192,85599,128,0,85695:0:0:0:0:
64,192,85727,1,0,0:0:0:0:
192,192,85727,1,0,0:0:0:0:
320,192,85727,128,0,85791:0:0:0:0:
448,192,85727,128,0,85759:0:0:0:0:
64,192,85855,1,0,0:0:0:0:
192,192,85855,128,0,85887:0:0:0:0:
320,192,85855,128,0,85919:0:0:0:0:
448,192,85855,128,0,85951:0:0:0:0:
64,192,86624,128,0,86720:0:0:0:0:
192,192,86624,128,0,86688:0:0:0:0:
320,192,86624,128,0,86656:0:0:0:0:
448,192,86624,128,0,86688:0:0:0:0:
64,192,86752,128,0,86784:0:0:0:0:
192,192,86752,128,0,86784:0:0:0:0:
320,192,86752,128,0,86784:0:0:0:0:
448,192,86752,1,0,0:0:0:0:
64,192,86881,128,0,86913:0:0:0:0:
192,192,86881,128,0,86945:0:0:0:0:
320,192,86881,128,0,86913:0:0:0:0:
448,192,86881,128,0,86945:0:0:0:0:
64,192,87009,1,0,0:0:0:0:
320,192,87009,1,0,0:0:0:0:
192,192,87009,128,0,87105:0:0:0:0:
448,192,87009,128,0,87105:0:0:0:0:
64,192,87393,128,0,87490:0:0:0:0:
192,192,87393,128,0,87490:0:0:0:0:
320,192,87393,128,0,87458:0:0:0:0:
448,192,87393,128,0,87458:0:0:0:0:
64,192,87522,128,0,87586:0:0:0:0:
192,192,87522,128,0,87586:0:0:0:0:
320,192,87522,128,0,87554:0:0:0:0:
448,192,87522,128,0,87554:0:0:0:0:
64,192,87650,128,0,87682:0:0:0:0:
192,192,87650,128,0,87682:0:0:0:0:
320,192,87650,1,0,0:0:0:0:
448,192,87650,1,0,0:0:0:0:
64,192,87778,1,0,0:0:0:0:
192,192,87778,1,0,0:0:0:0:
320,192,87778,1,0,0:0:0:0:
448,192,87778,1,0,0:0:0:0:
64,192,88163,1,0,0:0:0:0:
320,192,88163,1,0,0:0:0:0:
192,192,88163,1,0,0:0:0:0:
448,192,88163,1,0,0:0:0:0:
64,192,88291,128,0,88323:0:0:0:0:
192,192,88291,128,0,88323:0:0:0:0:
320,192,88291,128,0,88323:0:0:0:0:
448,192,88291,128,0,88323:0:0:0:0:
64,192,88419,128,0,88483:0:0:0:0:
192,192,88419,128,0,88483:0:0:0:0:
320,192,88419,128,0,88483:0:0:0:0:
448,192,88419,128,0,88483:0:0:0:0:
64,192,88547,128,0,88643:0:0:0:0:
192,192,88547,128,0,88643:0:0:0:0:
320,192,88547,128,0,88643:0:0:0:0:
448,192,88547,128,0,88643:0:0:0:0:
64,192,88675,1,0,0:0:0:0:
192,192,88675,1,0,0:0:0:0:
320,192,88675,1,0,0:0:0:0:
448,192,88675,1,0,0:0:0:0:
192,192,88740,128,0,88772:0:0:0:0:
320,192,88740,128,0,88772:0:0:0:0:
64,192,88740,1,0,0:0:0:0:
448,192,88740,1,0,0:0:0:0:
64,192,88836,128,0,88932:0:0:0:0:
192,192,88836,128,0,88900:0:0:0:0:
320,192,88836,128,0,88932:0:0:0:0:
448,192,88836,128,0,88900:0:0:0:0:
192,192,88932,1,0,0:0:0:0:
448,192,88932,1,0,0:0:0:0:
448,192,89317,1,0,0:0:0:0:
192,192,89701,1,0,0:0:0:0:
448,192,89701,1,0,0:0:0:0:
192,192,89765,1,0,0:0:0:0:
64,192,89829,1,0,0:0:0:0:
320,192,89829,1,0,0:0:0:0:
192,192,89893,1,0,0:0:0:0:
448,192,89958,1,0,0:0:0:0:
64,192,89958,1,0,0:0:0:0:
192,192,90022,1,0,0:0:0:0:
448,192,90086,1,0,0:0:0:0:
192,192,90086,1,0,0:0:0:0:
320,192,90150,1,0,0:0:0:0:
64,192,90150,1,0,0:0:0:0:
192,192,90214,1,0,0:0:0:0:
448,192,90278,1,0,0:0:0:0:
192,192,90342,1,0,0:0:0:0:
64,192,90406,128,0,90470:0:0:0:0:
320,192,90406,128,0,90470:0:0:0:0:
192,192,90406,1,0,0:0:0:0:
192,192,90470,128,0,90534:0:0:0:0:
448,192,90470,1,0,0:0:0:0:
320,192,90534,128,0,90599:0:0:0:0:
448,192,90534,1,0,0:0:0:0:
64,192,90599,1,0,0:0:0:0:
192,192,90599,128,0,90663:0:0:0:0:
320,192,90663,1,0,0:0:0:0:
448,192,90727,1,0,0:0:0:0:
192,192,90791,1,0,0:0:0:0:
320,192,90855,1,0,0:0:0:0:
192,192,90919,1,0,0:0:0:0:
64,192,90983,1,0,0:0:0:0:
320,192,91047,1,0,0:0:0:0:
192,192,91111,1,0,0:0:0:0:
320,192,91175,1,0,0:0:0:0:
64,192,91240,1,0,0:0:0:0:
448,192,91304,1,0,0:0:0:0:
192,192,91304,1,0,0:0:0:0:
320,192,91368,1,0,0:0:0:0:
64,192,91368,1,0,0:0:0:0:
192,192,91432,1,0,0:0:0:0:
448,192,91432,1,0,0:0:0:0:
64,192,91496,128,0,91624:0:0:0:0:
448,192,91496,1,0,0:0:0:0:
320,192,91560,1,0,0:0:0:0:
448,192,91624,1,0,0:0:0:0:
448,192,91688,128,0,92009:0:0:0:0:
192,192,91688,1,0,0:0:0:0:
64,192,91752,1,0,0:0:0:0:
192,192,91817,128,0,92009:0:0:0:0:
320,192,91817,1,0,0:0:0:0:
64,192,91881,1,0,0:0:0:0:
320,192,91945,1,0,0:0:0:0:
64,192,92009,1,0,0:0:0:0:
320,192,92009,128,0,92201:0:0:0:0:
192,192,92073,128,0,92265:0:0:0:0:
64,192,92137,128,0,92329:0:0:0:0:
448,192,92201,128,0,92329:0:0:0:0:
64,192,92393,1,0,0:0:0:0:
192,192,92458,1,0,0:0:0:0:
448,192,92522,1,0,0:0:0:0:
320,192,92586,1,0,0:0:0:0:
64,192,92650,1,0,0:0:0:0:
192,192,92714,1,0,0:0:0:0:
64,192,92778,1,0,0:0:0:0:
448,192,92778,1,0,0:0:0:0:
192,192,92842,128,0,92970:0:0:0:0:
64,192,92842,1,0,0:0:0:0:
320,192,92906,1,0,0:0:0:0:
448,192,92970,1,0,0:0:0:0:
320,192,92970,128,0,93099:0:0:0:0:
192,192,93034,1,0,0:0:0:0:
448,192,93099,1,0,0:0:0:0:
64,192,93099,128,0,93227:0:0:0:0:
192,192,93099,1,0,0:0:0:0:
448,192,93163,1,0,0:0:0:0:
192,192,93227,1,0,0:0:0:0:
320,192,93227,128,0,93355:0:0:0:0:
64,192,93291,1,0,0:0:0:0:
448,192,93355,1,0,0:0:0:0:
192,192,93355,128,0,93483:0:0:0:0:
64,192,93355,1,0,0:0:0:0:
320,192,93419,1,0,0:0:0:0:
448,192,93483,1,0,0:0:0:0:
64,192,93483,128,0,93611:0:0:0:0:
320,192,93547,128,0,93675:0:0:0:0:
192,192,93611,128,0,93740:0:0:0:0:
448,192,93675,128,0,93804:0:0:0:0:
64,192,93740,128,0,93868:0:0:0:0:
320,192,93804,128,0,93932:0:0:0:0:
192,192,93868,128,0,93996:0:0:0:0:
448,192,93996,128,0,94124:0:0:0:0:
320,192,94124,128,0,94252:0:0:0:0:
64,192,94124,128,0,94252:0:0:0:0:
192,192,94188,128,0,94317:0:0:0:0:
448,192,94188,128,0,94317:0:0:0:0:
64,192,94317,1,0,0:0:0:0:
192,192,94381,1,0,0:0:0:0:
320,192,94445,1,0,0:0:0:0:
448,192,94509,1,0,0:0:0:0:
320,192,94573,1,0,0:0:0:0:
192,192,94637,1,0,0:0:0:0:
64,192,94701,1,0,0:0:0:0:
320,192,94765,1,0,0:0:0:0:
192,192,94829,1,0,0:0:0:0:
448,192,94893,1,0,0:0:0:0:
192,192,94958,1,0,0:0:0:0:
320,192,95022,1,0,0:0:0:0:
64,192,95086,1,0,0:0:0:0:
320,192,95150,1,0,0:0:0:0:
192,192,95214,1,0,0:0:0:0:
448,192,95278,1,0,0:0:0:0:
64,192,95278,128,0,95342:0:0:0:0:
192,192,95342,128,0,95406:0:0:0:0:
320,192,95406,128,0,95470:0:0:0:0:
448,192,95470,128,0,95534:0:0:0:0:
64,192,95470,1,0,0:0:0:0:
64,192,95534,128,0,95599:0:0:0:0:
192,192,95534,1,0,0:0:0:0:
192,192,95599,128,0,95663:0:0:0:0:
320,192,95599,1,0,0:0:0:0:
320,192,95663,128,0,95727:0:0:0:0:
448,192,95663,1,0,0:0:0:0:
448,192,95727,128,0,95791:0:0:0:0:
64,192,95727,1,0,0:0:0:0:
192,192,95791,1,0,0:0:0:0:
64,192,95855,1,0,0:0:0:0:
448,192,95855,1,0,0:0:0:0:
192,192,95855,1,0,0:0:0:0:
320,192,95855,1,0,0:0:0:0:
192,192,95919,1,0,0:0:0:0:
320,192,95983,1,0,0:0:0:0:
64,192,96047,1,0,0:0:0:0:
320,192,96111,1,0,0:0:0:0:
192,192,96175,1,0,0:0:0:0:
320,192,96240,1,0,0:0:0:0:
448,192,96304,1,0,0:0:0:0:
192,192,96368,1,0,0:0:0:0:
448,192,96432,1,0,0:0:0:0:
192,192,96496,1,0,0:0:0:0:
64,192,96560,1,0,0:0:0:0:
448,192,96624,1,0,0:0:0:0:
192,192,96624,1,0,0:0:0:0:
64,192,96688,1,0,0:0:0:0:
320,192,96752,1,0,0:0:0:0:
192,192,96817,1,0,0:0:0:0:
448,192,96817,1,0,0:0:0:0:
320,192,96881,1,0,0:0:0:0:
64,192,96945,1,0,0:0:0:0:
320,192,97009,1,0,0:0:0:0:
448,192,97009,1,0,0:0:0:0:
192,192,97073,1,0,0:0:0:0:
64,192,97137,1,0,0:0:0:0:
192,192,97201,1,0,0:0:0:0:
320,192,97201,1,0,0:0:0:0:
64,192,97265,128,0,97393:0:0:0:0:
192,192,97265,1,0,0:0:0:0:
320,192,97329,1,0,0:0:0:0:
192,192,97393,1,0,0:0:0:0:
448,192,97393,1,0,0:0:0:0:
320,192,97458,1,0,0:0:0:0:
192,192,97522,1,0,0:0:0:0:
320,192,97586,1,0,0:0:0:0:
448,192,97586,1,0,0:0:0:0:
64,192,97586,1,0,0:0:0:0:
192,192,97650,1,0,0:0:0:0:
64,192,97714,1,0,0:0:0:0:
320,192,97714,1,0,0:0:0:0:
192,192,97778,1,0,0:0:0:0:
448,192,97778,1,0,0:0:0:0:
448,192,97842,1,0,0:0:0:0:
320,192,97906,1,0,0:0:0:0:
192,192,97970,1,0,0:0:0:0:
64,192,97970,1,0,0:0:0:0:
320,192,98034,1,0,0:0:0:0:
192,192,98099,1,0,0:0:0:0:
64,192,98163,1,0,0:0:0:0:
320,192,98163,1,0,0:0:0:0:
448,192,98163,1,0,0:0:0:0:
64,192,98227,128,0,98355:0:0:0:0:
320,192,98227,128,0,98291:0:0:0:0:
192,192,98291,1,0,0:0:0:0:
320,192,98355,1,0,0:0:0:0:
448,192,98355,1,0,0:0:0:0:
192,192,98419,1,0,0:0:0:0:
320,192,98483,1,0,0:0:0:0:
192,192,98547,1,0,0:0:0:0:
64,192,98547,1,0,0:0:0:0:
448,192,98547,1,0,0:0:0:0:
320,192,98611,1,0,0:0:0:0:
192,192,98675,1,0,0:0:0:0:
320,192,98740,1,0,0:0:0:0:
448,192,98740,1,0,0:0:0:0:
64,192,98740,1,0,0:0:0:0:
192,192,98804,1,0,0:0:0:0:
320,192,98868,1,0,0:0:0:0:
64,192,98932,1,0,0:0:0:0:
192,192,98932,1,0,0:0:0:0:
448,192,98932,1,0,0:0:0:0:
64,192,98996,1,0,0:0:0:0:
320,192,98996,1,0,0:0:0:0:
448,192,98996,1,0,0:0:0:0:
64,192,99060,1,0,0:0:0:0:
192,192,99060,1,0,0:0:0:0:
448,192,99060,1,0,0:0:0:0:
64,192,99124,1,0,0:0:0:0:
320,192,99124,1,0,0:0:0:0:
448,192,99124,1,0,0:0:0:0:
64,192,99188,1,0,0:0:0:0:
192,192,99188,1,0,0:0:0:0:
448,192,99188,1,0,0:0:0:0:
64,192,99252,1,0,0:0:0:0:
320,192,99252,1,0,0:0:0:0:
448,192,99252,1,0,0:0:0:0:
64,192,99317,1,0,0:0:0:0:
192,192,99317,1,0,0:0:0:0:
448,192,99317,1,0,0:0:0:0:
448,192,99381,1,0,0:0:0:0:
320,192,99381,1,0,0:0:0:0:
64,192,99381,1,0,0:0:0:0:
64,192,99445,1,0,0:0:0:0:
192,192,99445,1,0,0:0:0:0:
448,192,99445,1,0,0:0:0:0:
64,192,99509,1,0,0:0:0:0:
320,192,99509,1,0,0:0:0:0:
448,192,99509,1,0,0:0:0:0:
64,192,99573,1,0,0:0:0:0:
192,192,99573,1,0,0:0:0:0:
448,192,99573,1,0,0:0:0:0:
64,192,99637,1,0,0:0:0:0:
320,192,99637,1,0,0:0:0:0:
448,192,99637,1,0,0:0:0:0:
64,192,99701,1,0,0:0:0:0:
192,192,99701,1,0,0:0:0:0:
448,192,99701,1,0,0:0:0:0:
320,192,99765,1,0,0:0:0:0:
448,192,99765,1,0,0:0:0:0:
64,192,99765,1,0,0:0:0:0:
64,192,99829,1,0,0:0:0:0:
192,192,99829,1,0,0:0:0:0:
448,192,99829,1,0,0:0:0:0:
320,192,99893,1,0,0:0:0:0:
448,192,99893,1,0,0:0:0:0:
64,192,99893,1,0,0:0:0:0:
64,192,99958,1,0,0:0:0:0:
192,192,99958,1,0,0:0:0:0:
448,192,99958,1,0,0:0:0:0:
64,192,100022,1,0,0:0:0:0:
448,192,100022,1,0,0:0:0:0:
320,192,100022,1,0,0:0:0:0:
64,192,100086,1,0,0:0:0:0:
192,192,100086,1,0,0:0:0:0:
448,192,100086,1,0,0:0:0:0:
448,192,100150,1,0,0:0:0:0:
320,192,100150,1,0,0:0:0:0:
64,192,100150,1,0,0:0:0:0:
64,192,100214,1,0,0:0:0:0:
192,192,100214,1,0,0:0:0:0:
448,192,100214,1,0,0:0:0:0:
320,192,100278,1,0,0:0:0:0:
448,192,100278,1,0,0:0:0:0:
64,192,100278,1,0,0:0:0:0:
64,192,100342,1,0,0:0:0:0:
192,192,100342,1,0,0:0:0:0:
448,192,100342,1,0,0:0:0:0:
320,192,100406,1,0,0:0:0:0:
448,192,100406,1,0,0:0:0:0:
64,192,100406,1,0,0:0:0:0:
64,192,100470,128,0,100534:0:0:0:0:
320,192,100470,128,0,100534:0:0:0:0:
192,192,100534,128,0,100599:0:0:0:0:
448,192,100534,128,0,100599:0:0:0:0:
64,192,100599,128,0,100663:0:0:0:0:
320,192,100599,128,0,100663:0:0:0:0:
192,192,100663,128,0,100727:0:0:0:0:
448,192,100663,128,0,100727:0:0:0:0:
320,192,100727,128,0,100791:0:0:0:0:
64,192,100727,128,0,100791:0:0:0:0:
192,192,100791,128,0,100855:0:0:0:0:
448,192,100791,128,0,100855:0:0:0:0:
64,192,100855,128,0,100919:0:0:0:0:
320,192,100855,128,0,100919:0:0:0:0:
192,192,100919,128,0,100983:0:0:0:0:
448,192,100919,128,0,100983:0:0:0:0:
64,192,100983,128,0,101047:0:0:0:0:
320,192,100983,128,0,101047:0:0:0:0:
192,192,101047,128,0,101111:0:0:0:0:
448,192,101047,128,0,101111:0:0:0:0:
64,192,101111,128,0,101175:0:0:0:0:
320,192,101111,128,0,101175:0:0:0:0:
192,192,101175,128,0,101240:0:0:0:0:
448,192,101175,128,0,101240:0:0:0:0:
64,192,101240,128,0,101272:0:0:0:0:
320,192,101240,128,0,101272:0:0:0:0:
192,192,101272,128,0,101304:0:0:0:0:
448,192,101272,128,0,101304:0:0:0:0:
64,192,101304,128,0,101336:0:0:0:0:
320,192,101304,128,0,101336:0:0:0:0:
192,192,101336,128,0,101368:0:0:0:0:
448,192,101336,128,0,101368:0:0:0:0:
64,192,101368,128,0,101400:0:0:0:0:
320,192,101368,128,0,101400:0:0:0:0:
192,192,101400,128,0,101432:0:0:0:0:
448,192,101400,128,0,101432:0:0:0:0:
64,192,101432,128,0,101464:0:0:0:0:
320,192,101432,128,0,101464:0:0:0:0:
192,192,101464,128,0,101496:0:0:0:0:
448,192,101464,128,0,101496:0:0:0:0:
64,192,101496,128,0,101528:0:0:0:0:
320,192,101496,128,0,101528:0:0:0:0:
192,192,101528,128,0,101560:0:0:0:0:
448,192,101528,128,0,101560:0:0:0:0:
64,192,101560,128,0,101592:0:0:0:0:
320,192,101560,128,0,101592:0:0:0:0:
192,192,101592,128,0,101624:0:0:0:0:
448,192,101592,128,0,101624:0:0:0:0:
64,192,101624,128,0,101656:0:0:0:0:
320,192,101624,128,0,101656:0:0:0:0:
192,192,101656,128,0,101688:0:0:0:0:
448,192,101656,128,0,101688:0:0:0:0:
64,192,101688,128,0,101720:0:0:0:0:
320,192,101688,128,0,101720:0:0:0:0:
192,192,101720,128,0,101752:0:0:0:0:
448,192,101720,128,0,101752:0:0:0:0:
64,192,101752,128,0,101784:0:0:0:0:
320,192,101752,128,0,101784:0:0:0:0:
192,192,101784,128,0,101817:0:0:0:0:
448,192,101784,128,0,101817:0:0:0:0:
64,192,101817,128,0,101849:0:0:0:0:
320,192,101817,128,0,101849:0:0:0:0:
192,192,101849,128,0,101881:0:0:0:0:
448,192,101849,128,0,101881:0:0:0:0:
320,192,101881,128,0,101913:0:0:0:0:
64,192,101881,128,0,101913:0:0:0:0:
192,192,101913,1,0,0:0:0:0:
448,192,101913,1,0,0:0:0:0:
64,192,101945,1,0,0:0:0:0:
320,192,101945,1,0,0:0:0:0:
192,192,101977,1,0,0:0:0:0:
448,192,101977,1,0,0:0:0:0:
64,192,102009,1,0,0:0:0:0:
320,192,102009,1,0,0:0:0:0:
64,192,102393,1,0,0:0:0:0:
64,192,102778,1,0,0:0:0:0:
64,192,103163,1,0,0:0:0:0:
64,192,103547,1,0,0:0:0:0:
192,192,103611,1,0,0:0:0:0:
320,192,103675,1,0,0:0:0:0:
448,192,103740,1,0,0:0:0:0:
320,192,103804,1,0,0:0:0:0:
192,192,103868,1,0,0:0:0:0:
64,192,103932,1,0,0:0:0:0:
192,192,103996,1,0,0:0:0:0:
320,192,104060,1,0,0:0:0:0:
192,192,104124,1,0,0:0:0:0:
320,192,104188,1,0,0:0:0:0:
448,192,104252,1,0,0:0:0:0:
320,192,104317,1,0,0:0:0:0:
192,192,104381,1,0,0:0:0:0:
64,192,104445,1,0,0:0:0:0:
192,192,104509,1,0,0:0:0:0:
320,192,104573,1,0,0:0:0:0:
448,192,104637,1,0,0:0:0:0:
320,192,104701,1,0,0:0:0:0:
192,192,104765,1,0,0:0:0:0:
64,192,104829,1,0,0:0:0:0:
192,192,104893,1,0,0:0:0:0:
448,192,104893,1,0,0:0:0:0:
64,192,104958,1,0,0:0:0:0:
192,192,105022,1,0,0:0:0:0:
64,192,105086,128,0,105150:0:0:0:0:
448,192,105086,128,0,105150:0:0:0:0:
320,192,105150,128,0,105214:0:0:0:0:
192,192,105150,128,0,105214:0:0:0:0:
64,192,105214,128,0,105278:0:0:0:0:
448,192,105214,128,0,105278:0:0:0:0:
192,192,105278,1,0,0:0:0:0:
320,192,105278,1,0,0:0:0:0:
64,192,105342,1,0,0:0:0:0:
448,192,105342,1,0,0:0:0:0:
192,192,105406,1,0,0:0:0:0:
320,192,105406,1,0,0:0:0:0:
64,192,105470,1,0,0:0:0:0:
448,192,105470,1,0,0:0:0:0:
320,192,105534,1,0,0:0:0:0:
64,192,105534,1,0,0:0:0:0:
192,192,105599,1,0,0:0:0:0:
448,192,105599,1,0,0:0:0:0:
64,192,105663,1,0,0:0:0:0:
320,192,105663,1,0,0:0:0:0:
192,192,105727,1,0,0:0:0:0:
448,192,105727,1,0,0:0:0:0:
64,192,105791,1,0,0:0:0:0:
320,192,105791,1,0,0:0:0:0:
64,192,105855,128,0,106624:0:0:0:0:
192,192,105855,1,0,0:0:0:0:
320,192,105919,1,0,0:0:0:0:
192,192,105983,1,0,0:0:0:0:
320,192,106047,1,0,0:0:0:0:
192,192,106111,1,0,0:0:0:0:
320,192,106175,1,0,0:0:0:0:
448,192,106240,1,0,0:0:0:0:
192,192,106304,1,0,0:0:0:0:
448,192,106368,1,0,0:0:0:0:
192,192,106432,1,0,0:0:0:0:
448,192,106496,1,0,0:0:0:0:
192,192,106560,1,0,0:0:0:0:
448,192,106624,1,0,0:0:0:0:
192,192,106624,1,0,0:0:0:0:
320,192,106624,128,0,108163:0:0:0:0:
64,192,106688,1,0,0:0:0:0:
192,192,106752,1,0,0:0:0:0:
448,192,106817,1,0,0:0:0:0:
64,192,106881,1,0,0:0:0:0:
192,192,106945,1,0,0:0:0:0:
448,192,107009,1,0,0:0:0:0:
64,192,107073,1,0,0:0:0:0:
192,192,107137,1,0,0:0:0:0:
448,192,107201,1,0,0:0:0:0:
64,192,107265,1,0,0:0:0:0:
192,192,107329,1,0,0:0:0:0:
448,192,107393,1,0,0:0:0:0:
64,192,107425,1,0,0:0:0:0:
192,192,107458,1,0,0:0:0:0:
448,192,107490,1,0,0:0:0:0:
64,192,107522,1,0,0:0:0:0:
192,192,107554,1,0,0:0:0:0:
448,192,107586,1,0,0:0:0:0:
64,192,107618,1,0,0:0:0:0:
192,192,107650,1,0,0:0:0:0:
448,192,107682,1,0,0:0:0:0:
192,192,107714,1,0,0:0:0:0:
448,192,107746,1,0,0:0:0:0:
192,192,107778,1,0,0:0:0:0:
64,192,107810,1,0,0:0:0:0:
448,192,107842,1,0,0:0:0:0:
192,192,107874,1,0,0:0:0:0:
64,192,107906,1,0,0:0:0:0:
448,192,107938,1,0,0:0:0:0:
192,192,107970,1,0,0:0:0:0:
64,192,108002,1,0,0:0:0:0:
448,192,108034,1,0,0:0:0:0:
192,192,108067,1,0,0:0:0:0:
64,192,108099,1,0,0:0:0:0:
192,192,108131,1,0,0:0:0:0:
64,192,108163,1,0,0:0:0:0:
448,192,108163,1,0,0:0:0:0:
192,192,108163,1,0,0:0:0:0:
64,192,108547,1,0,0:0:0:0:
64,192,108932,1,0,0:0:0:0:
64,192,109317,1,0,0:0:0:0:
64,192,109701,1,0,0:0:0:0:
64,192,109765,1,0,0:0:0:0:
192,192,109829,1,0,0:0:0:0:
192,192,109893,1,0,0:0:0:0:
64,192,109958,1,0,0:0:0:0:
64,192,110022,1,0,0:0:0:0:
192,192,110086,1,0,0:0:0:0:
192,192,110150,1,0,0:0:0:0:
64,192,110214,1,0,0:0:0:0:
64,192,110278,1,0,0:0:0:0:
192,192,110342,1,0,0:0:0:0:
192,192,110406,1,0,0:0:0:0:
64,192,110470,1,0,0:0:0:0:
64,192,110534,1,0,0:0:0:0:
192,192,110599,1,0,0:0:0:0:
192,192,110663,1,0,0:0:0:0:
64,192,110727,1,0,0:0:0:0:
64,192,110791,1,0,0:0:0:0:
192,192,110855,1,0,0:0:0:0:
192,192,110919,1,0,0:0:0:0:
64,192,110983,1,0,0:0:0:0:
64,192,111047,1,0,0:0:0:0:
192,192,111111,1,0,0:0:0:0:
192,192,111175,1,0,0:0:0:0:
64,192,111240,1,0,0:0:0:0:
448,192,111240,1,0,0:0:0:0:
192,192,111240,128,0,111432:0:0:0:0:
320,192,111304,1,0,0:0:0:0:
64,192,111368,1,0,0:0:0:0:
320,192,111432,128,0,111624:0:0:0:0:
64,192,111432,1,0,0:0:0:0:
448,192,111496,1,0,0:0:0:0:
64,192,111560,1,0,0:0:0:0:
448,192,111624,128,0,111817:0:0:0:0:
320,192,111688,1,0,0:0:0:0:
64,192,111752,1,0,0:0:0:0:
192,192,111817,128,0,112009:0:0:0:0:
64,192,111817,1,0,0:0:0:0:
320,192,111881,1,0,0:0:0:0:
448,192,111945,1,0,0:0:0:0:
320,192,112009,128,0,112201:0:0:0:0:
64,192,112073,1,0,0:0:0:0:
448,192,112137,1,0,0:0:0:0:
64,192,112201,128,0,112393:0:0:0:0:
192,192,112265,1,0,0:0:0:0:
320,192,112329,1,0,0:0:0:0:
320,192,112393,128,0,112586:0:0:0:0:
192,192,112458,1,0,0:0:0:0:
64,192,112522,1,0,0:0:0:0:
64,192,112586,128,0,112778:0:0:0:0:
192,192,112650,1,0,0:0:0:0:
320,192,112714,1,0,0:0:0:0:
192,192,112778,128,0,112842:0:0:0:0:
448,192,112778,128,0,112842:0:0:0:0:
64,192,112842,128,0,112906:0:0:0:0:
320,192,112842,128,0,112906:0:0:0:0:
192,192,112906,128,0,112970:0:0:0:0:
448,192,112906,128,0,112970:0:0:0:0:
64,192,112970,128,0,113034:0:0:0:0:
320,192,112970,128,0,113034:0:0:0:0:
192,192,113034,128,0,113099:0:0:0:0:
448,192,113034,128,0,113099:0:0:0:0:
64,192,113099,128,0,113163:0:0:0:0:
320,192,113099,128,0,113163:0:0:0:0:
192,192,113163,128,0,113227:0:0:0:0:
448,192,113163,128,0,113227:0:0:0:0:
64,192,113227,128,0,113291:0:0:0:0:
320,192,113227,128,0,113291:0:0:0:0:
192,192,113291,128,0,113355:0:0:0:0:
448,192,113291,128,0,113355:0:0:0:0:
320,192,113355,128,0,113547:0:0:0:0:
64,192,113355,128,0,113419:0:0:0:0:
192,192,113419,128,0,113483:0:0:0:0:
448,192,113483,128,0,113547:0:0:0:0:
192,192,113547,128,0,113740:0:0:0:0:
64,192,113547,128,0,113611:0:0:0:0:
320,192,113611,128,0,113675:0:0:0:0:
448,192,113675,128,0,113740:0:0:0:0:
64,192,113740,1,0,0:0:0:0:
192,192,113772,1,0,0:0:0:0:
448,192,113804,1,0,0:0:0:0:
320,192,113836,1,0,0:0:0:0:
64,192,113868,1,0,0:0:0:0:
192,192,113900,1,0,0:0:0:0:
448,192,113932,1,0,0:0:0:0:
320,192,113964,1,0,0:0:0:0:
64,192,113996,1,0,0:0:0:0:
192,192,114028,1,0,0:0:0:0:
448,192,114060,1,0,0:0:0:0:
320,192,114092,1,0,0:0:0:0:
64,192,114124,1,0,0:0:0:0:
192,192,114156,1,0,0:0:0:0:
448,192,114188,1,0,0:0:0:0:
320,192,114220,1,0,0:0:0:0:
64,192,114252,1,0,0:0:0:0:
192,192,114284,1,0,0:0:0:0:
64,192,114317,1,0,0:0:0:0:
448,192,114317,1,0,0:0:0:0:
320,192,114317,1,0,0:0:0:0:
64,192,114573,1,0,0:0:0:0:
320,192,114573,1,0,0:0:0:0:
64,192,114893,1,0,0:0:0:0:
448,192,114893,1,0,0:0:0:0:
192,192,115086,1,0,0:0:0:0:
320,192,115086,1,0,0:0:0:0:
64,192,115406,1,0,0:0:0:0:
448,192,115406,1,0,0:0:0:0:
64,192,115727,1,0,0:0:0:0:
192,192,115727,1,0,0:0:0:0:
448,192,115727,1,0,0:0:0:0:
192,192,115855,1,0,0:0:0:0:
320,192,115855,1,0,0:0:0:0:
448,192,115855,1,0,0:0:0:0:
64,192,116175,1,0,0:0:0:0:
192,192,116175,1,0,0:0:0:0:
320,192,116496,1,0,0:0:0:0:
448,192,116496,1,0,0:0:0:0:
64,192,116624,1,0,0:0:0:0:
320,192,116624,1,0,0:0:0:0:
192,192,116688,1,0,0:0:0:0:
320,192,116752,1,0,0:0:0:0:
192,192,116817,1,0,0:0:0:0:
448,192,116817,1,0,0:0:0:0:
320,192,116881,1,0,0:0:0:0:
192,192,116945,1,0,0:0:0:0:
64,192,117009,1,0,0:0:0:0:
320,192,117009,1,0,0:0:0:0:
192,192,117073,1,0,0:0:0:0:
320,192,117137,1,0,0:0:0:0:
448,192,117201,1,0,0:0:0:0:
320,192,117201,1,0,0:0:0:0:
192,192,117265,1,0,0:0:0:0:
320,192,117329,1,0,0:0:0:0:
192,192,117393,1,0,0:0:0:0:
448,192,117393,1,0,0:0:0:0:
320,192,117714,1,0,0:0:0:0:
64,192,117714,1,0,0:0:0:0:
448,192,118034,1,0,0:0:0:0:
192,192,118034,1,0,0:0:0:0:
320,192,118227,1,0,0:0:0:0:
64,192,118227,1,0,0:0:0:0:
448,192,118483,1,0,0:0:0:0:
192,192,118483,1,0,0:0:0:0:
320,192,118804,1,0,0:0:0:0:
64,192,118804,1,0,0:0:0:0:
448,192,118996,1,0,0:0:0:0:
192,192,118996,1,0,0:0:0:0:
320,192,119252,1,0,0:0:0:0:
64,192,119252,1,0,0:0:0:0:
448,192,119509,1,0,0:0:0:0:
192,192,119509,1,0,0:0:0:0:
320,192,119701,1,0,0:0:0:0:
192,192,119765,1,0,0:0:0:0:
448,192,119829,1,0,0:0:0:0:
192,192,119893,1,0,0:0:0:0:
320,192,119958,1,0,0:0:0:0:
192,192,120022,1,0,0:0:0:0:
320,192,120086,1,0,0:0:0:0:
192,192,120150,1,0,0:0:0:0:
64,192,120214,1,0,0:0:0:0:
320,192,120278,1,0,0:0:0:0:
192,192,120278,1,0,0:0:0:0:
64,192,120342,1,0,0:0:0:0:
320,192,120406,1,0,0:0:0:0:
64,192,120470,1,0,0:0:0:0:
448,192,120470,1,0,0:0:0:0:
320,192,120791,1,0,0:0:0:0:
64,192,121111,1,0,0:0:0:0:
448,192,121304,1,0,0:0:0:0:
192,192,121624,1,0,0:0:0:0:
320,192,121817,1,0,0:0:0:0:
64,192,122009,1,0,0:0:0:0:
448,192,122265,1,0,0:0:0:0:
192,192,122586,1,0,0:0:0:0:
320,192,122778,1,0,0:0:0:0:
448,192,122778,1,0,0:0:0:0:
192,192,122842,1,0,0:0:0:0:
64,192,122842,1,0,0:0:0:0:
320,192,122906,1,0,0:0:0:0:
448,192,122906,1,0,0:0:0:0:
192,192,122970,1,0,0:0:0:0:
64,192,122970,1,0,0:0:0:0:
320,192,123034,1,0,0:0:0:0:
448,192,123034,1,0,0:0:0:0:
192,192,123099,1,0,0:0:0:0:
64,192,123099,1,0,0:0:0:0:
320,192,123163,1,0,0:0:0:0:
448,192,123163,1,0,0:0:0:0:
192,192,123227,1,0,0:0:0:0:
64,192,123227,1,0,0:0:0:0:
320,192,123291,1,0,0:0:0:0:
448,192,123291,1,0,0:0:0:0:
192,192,123355,1,0,0:0:0:0:
64,192,123355,1,0,0:0:0:0:
320,192,123419,1,0,0:0:0:0:
448,192,123419,1,0,0:0:0:0:
192,192,123483,1,0,0:0:0:0:
64,192,123483,1,0,0:0:0:0:
320,192,123547,1,0,0:0:0:0:
448,192,123547,1,0,0:0:0:0:
64,192,123740,1,0,0:0:0:0:
192,192,123932,1,0,0:0:0:0:
320,192,124124,1,0,0:0:0:0:
448,192,124317,1,0,0:0:0:0:
320,192,124509,1,0,0:0:0:0:
192,192,124701,1,0,0:0:0:0:
64,192,124893,1,0,0:0:0:0:
448,192,125086,1,0,0:0:0:0:
64,192,125278,1,0,0:0:0:0:
448,192,125470,1,0,0:0:0:0:
64,192,125663,1,0,0:0:0:0:
192,192,125855,1,0,0:0:0:0:
320,192,126047,1,0,0:0:0:0:
448,192,126240,1,0,0:0:0:0:
320,192,126432,1,0,0:0:0:0:
64,192,126624,128,0,126656:0:0:0:0:
320,192,126624,128,0,126656:0:0:0:0:
192,192,126656,128,0,126688:0:0:0:0:
448,192,126656,128,0,126688:0:0:0:0:
320,192,126688,128,0,126720:0:0:0:0:
64,192,126688,128,0,126720:0:0:0:0:
192,192,126720,128,0,126752:0:0:0:0:
448,192,126720,128,0,126752:0:0:0:0:
64,192,126752,128,0,126784:0:0:0:0:
320,192,126752,128,0,126784:0:0:0:0:
192,192,126784,128,0,126817:0:0:0:0:
448,192,126784,128,0,126817:0:0:0:0:
64,192,126817,128,0,126849:0:0:0:0:
320,192,126817,128,0,126849:0:0:0:0:
448,192,126849,128,0,126881:0:0:0:0:
192,192,126849,128,0,126881:0:0:0:0:
320,192,126881,128,0,126913:0:0:0:0:
64,192,126881,128,0,126913:0:0:0:0:
448,192,126913,128,0,126945:0:0:0:0:
192,192,126913,128,0,126945:0:0:0:0:
320,192,126945,128,0,126977:0:0:0:0:
64,192,126945,128,0,126977:0:0:0:0:
192,192,126977,128,0,127009:0:0:0:0:
448,192,126977,128,0,127009:0:0:0:0:
64,192,127009,128,0,127041:0:0:0:0:
320,192,127009,128,0,127041:0:0:0:0:
192,192,127041,128,0,127073:0:0:0:0:
448,192,127041,128,0,127073:0:0:0:0:
64,192,127073,128,0,127105:0:0:0:0:
320,192,127073,128,0,127105:0:0:0:0:
448,192,127105,128,0,127137:0:0:0:0:
192,192,127105,128,0,127137:0:0:0:0:
320,192,127137,128,0,127169:0:0:0:0:
64,192,127137,128,0,127169:0:0:0:0:
448,192,127169,128,0,127201:0:0:0:0:
192,192,127169,128,0,127201:0:0:0:0:
320,192,127201,128,0,127233:0:0:0:0:
64,192,127201,128,0,127233:0:0:0:0:
192,192,127233,128,0,127265:0:0:0:0:
448,192,127233,128,0,127265:0:0:0:0:
64,192,127265,128,0,127297:0:0:0:0:
320,192,127265,128,0,127297:0:0:0:0:
192,192,127297,128,0,127329:0:0:0:0:
448,192,127297,128,0,127329:0:0:0:0:
64,192,127329,128,0,127361:0:0:0:0:
320,192,127329,128,0,127361:0:0:0:0:
64,192,127393,1,0,0:0:0:0:
320,192,127393,1,0,0:0:0:0:
192,192,127401,1,0,0:0:0:0:
448,192,127401,1,0,0:0:0:0:
64,192,127409,1,0,0:0:0:0:
320,192,127409,1,0,0:0:0:0:
192,192,127417,1,0,0:0:0:0:
448,192,127417,1,0,0:0:0:0:
64,192,127425,1,0,0:0:0:0:
320,192,127425,1,0,0:0:0:0:
192,192,127433,1,0,0:0:0:0:
448,192,127433,1,0,0:0:0:0:
320,192,127441,1,0,0:0:0:0:
64,192,127441,1,0,0:0:0:0:
192,192,127449,1,0,0:0:0:0:
448,192,127449,1,0,0:0:0:0:
320,192,127457,1,0,0:0:0:0:
64,192,127457,1,0,0:0:0:0:
448,192,127465,1,0,0:0:0:0:
192,192,127465,1,0,0:0:0:0:
64,192,127473,1,0,0:0:0:0:
320,192,127473,1,0,0:0:0:0:
448,192,127481,1,0,0:0:0:0:
192,192,127481,1,0,0:0:0:0:
64,192,127489,1,0,0:0:0:0:
320,192,127489,1,0,0:0:0:0:
192,192,127497,1,0,0:0:0:0:
448,192,127497,1,0,0:0:0:0:
320,192,127505,1,0,0:0:0:0:
64,192,127505,1,0,0:0:0:0:
192,192,127513,1,0,0:0:0:0:
448,192,127513,1,0,0:0:0:0:
320,192,127521,1,0,0:0:0:0:
64,192,127521,1,0,0:0:0:0:
448,192,127529,1,0,0:0:0:0:
192,192,127529,1,0,0:0:0:0:
64,192,127537,1,0,0:0:0:0:
320,192,127537,1,0,0:0:0:0:
448,192,127545,1,0,0:0:0:0:
192,192,127545,1,0,0:0:0:0:
64,192,127553,1,0,0:0:0:0:
320,192,127553,1,0,0:0:0:0:
192,192,127561,1,0,0:0:0:0:
448,192,127561,1,0,0:0:0:0:
320,192,127569,1,0,0:0:0:0:
64,192,127569,1,0,0:0:0:0:
192,192,127577,1,0,0:0:0:0:
448,192,127577,1,0,0:0:0:0:
64,192,127585,1,0,0:0:0:0:
320,192,127585,1,0,0:0:0:0:
192,192,127588,1,0,0:0:0:0:
448,192,127588,1,0,0:0:0:0:
320,192,127592,1,0,0:0:0:0:
64,192,127592,1,0,0:0:0:0:
192,192,127596,1,0,0:0:0:0:
448,192,127596,1,0,0:0:0:0:
64,192,127600,1,0,0:0:0:0:
320,192,127600,1,0,0:0:0:0:
448,192,127602,1,0,0:0:0:0:
192,192,127602,1,0,0:0:0:0:
320,192,127608,1,0,0:0:0:0:
64,192,127608,1,0,0:0:0:0:
192,192,127611,1,0,0:0:0:0:
448,192,127611,1,0,0:0:0:0:
64,192,127616,1,0,0:0:0:0:
320,192,127616,1,0,0:0:0:0:
448,192,127620,1,0,0:0:0:0:
192,192,127620,1,0,0:0:0:0:
320,192,127624,1,0,0:0:0:0:
64,192,127624,1,0,0:0:0:0:
192,192,127626,1,0,0:0:0:0:
448,192,127626,1,0,0:0:0:0:
64,192,127632,1,0,0:0:0:0:
320,192,127632,1,0,0:0:0:0:
448,192,127635,1,0,0:0:0:0:
192,192,127635,1,0,0:0:0:0:
320,192,127640,1,0,0:0:0:0:
64,192,127640,1,0,0:0:0:0:
192,192,127644,1,0,0:0:0:0:
448,192,127644,1,0,0:0:0:0:
64,192,127648,1,0,0:0:0:0:
320,192,127648,1,0,0:0:0:0:
448,192,127650,1,0,0:0:0:0:
192,192,127650,1,0,0:0:0:0:
320,192,127656,1,0,0:0:0:0:
64,192,127656,1,0,0:0:0:0:
192,192,127659,1,0,0:0:0:0:
448,192,127659,1,0,0:0:0:0:
64,192,127664,1,0,0:0:0:0:
320,192,127664,1,0,0:0:0:0:
448,192,127668,1,0,0:0:0:0:
192,192,127668,1,0,0:0:0:0:
320,192,127672,1,0,0:0:0:0:
64,192,127672,1,0,0:0:0:0:
192,192,127674,1,0,0:0:0:0:
448,192,127674,1,0,0:0:0:0:
64,192,127680,1,0,0:0:0:0:
320,192,127680,1,0,0:0:0:0:
448,192,127683,1,0,0:0:0:0:
192,192,127683,1,0,0:0:0:0:
320,192,127688,1,0,0:0:0:0:
64,192,127688,1,0,0:0:0:0:
192,192,127692,1,0,0:0:0:0:
448,192,127692,1,0,0:0:0:0:
64,192,127696,1,0,0:0:0:0:
320,192,127696,1,0,0:0:0:0:
448,192,127698,1,0,0:0:0:0:
192,192,127698,1,0,0:0:0:0:
320,192,127704,1,0,0:0:0:0:
64,192,127704,1,0,0:0:0:0:
192,192,127707,1,0,0:0:0:0:
448,192,127707,1,0,0:0:0:0:
64,192,127712,1,0,0:0:0:0:
320,192,127712,1,0,0:0:0:0:
448,192,127716,1,0,0:0:0:0:
192,192,127716,1,0,0:0:0:0:
320,192,127720,1,0,0:0:0:0:
64,192,127720,1,0,0:0:0:0:
192,192,127722,1,0,0:0:0:0:
448,192,127722,1,0,0:0:0:0:
64,192,127728,1,0,0:0:0:0:
320,192,127728,1,0,0:0:0:0:
448,192,127731,1,0,0:0:0:0:
192,192,127731,1,0,0:0:0:0:
320,192,127736,1,0,0:0:0:0:
64,192,127736,1,0,0:0:0:0:
192,192,127740,1,0,0:0:0:0:
448,192,127740,1,0,0:0:0:0:
64,192,127744,1,0,0:0:0:0:
320,192,127744,1,0,0:0:0:0:
448,192,127746,1,0,0:0:0:0:
192,192,127746,1,0,0:0:0:0:
320,192,127752,1,0,0:0:0:0:
64,192,127752,1,0,0:0:0:0:
192,192,127755,1,0,0:0:0:0:
448,192,127755,1,0,0:0:0:0:
64,192,127760,1,0,0:0:0:0:
320,192,127760,1,0,0:0:0:0:
448,192,127764,1,0,0:0:0:0:
192,192,127764,1,0,0:0:0:0:
320,192,127768,1,0,0:0:0:0:
64,192,127768,1,0,0:0:0:0:
192,192,127770,1,0,0:0:0:0:
448,192,127770,1,0,0:0:0:0:
320,192,127776,1,0,0:0:0:0:
64,192,127776,1,0,0:0:0:0:
192,192,127779,1,0,0:0:0:0:
448,192,127779,1,0,0:0:0:0:
64,192,127782,1,0,0:0:0:0:
320,192,127782,1,0,0:0:0:0:
192,192,127788,1,0,0:0:0:0:
448,192,127788,1,0,0:0:0:0:
320,192,127791,1,0,0:0:0:0:
64,192,127791,1,0,0:0:0:0:
192,192,127793,1,0,0:0:0:0:
448,192,127793,1,0,0:0:0:0:
64,192,127799,1,0,0:0:0:0:
320,192,127799,1,0,0:0:0:0:
192,192,127802,1,0,0:0:0:0:
448,192,127802,1,0,0:0:0:0:
320,192,127807,1,0,0:0:0:0:
64,192,127807,1,0,0:0:0:0:
448,192,127811,1,0,0:0:0:0:
192,192,127811,1,0,0:0:0:0:
320,192,127815,1,0,0:0:0:0:
64,192,127815,1,0,0:0:0:0:
448,192,127817,1,0,0:0:0:0:
192,192,127817,1,0,0:0:0:0:
64,192,127823,1,0,0:0:0:0:
320,192,127823,1,0,0:0:0:0:
448,192,127826,1,0,0:0:0:0:
192,192,127826,1,0,0:0:0:0:
64,192,127831,1,0,0:0:0:0:
320,192,127831,1,0,0:0:0:0:
192,192,127835,1,0,0:0:0:0:
448,192,127835,1,0,0:0:0:0:
64,192,127839,1,0,0:0:0:0:
320,192,127839,1,0,0:0:0:0:
192,192,127841,1,0,0:0:0:0:
448,192,127841,1,0,0:0:0:0:
64,192,127847,1,0,0:0:0:0:
320,192,127847,1,0,0:0:0:0:
448,192,127850,1,0,0:0:0:0:
192,192,127850,1,0,0:0:0:0:
320,192,127855,1,0,0:0:0:0:
64,192,127855,1,0,0:0:0:0:
448,192,127859,1,0,0:0:0:0:
192,192,127859,1,0,0:0:0:0:
320,192,127863,1,0,0:0:0:0:
64,192,127863,1,0,0:0:0:0:
448,192,127865,1,0,0:0:0:0:
192,192,127865,1,0,0:0:0:0:
320,192,127871,1,0,0:0:0:0:
64,192,127871,1,0,0:0:0:0:
448,192,127874,1,0,0:0:0:0:
192,192,127874,1,0,0:0:0:0:
320,192,127879,1,0,0:0:0:0:
64,192,127879,1,0,0:0:0:0:
192,192,127883,1,0,0:0:0:0:
448,192,127883,1,0,0:0:0:0:
64,192,127887,1,0,0:0:0:0:
320,192,127887,1,0,0:0:0:0:
448,192,127889,1,0,0:0:0:0:
192,192,127889,1,0,0:0:0:0:
64,192,127895,1,0,0:0:0:0:
320,192,127895,1,0,0:0:0:0:
448,192,127898,1,0,0:0:0:0:
192,192,127898,1,0,0:0:0:0:
64,192,127903,1,0,0:0:0:0:
320,192,127903,1,0,0:0:0:0:
448,192,127907,1,0,0:0:0:0:
192,192,127907,1,0,0:0:0:0:
320,192,127911,1,0,0:0:0:0:
64,192,127911,1,0,0:0:0:0:
192,192,127913,1,0,0:0:0:0:
448,192,127913,1,0,0:0:0:0:
64,192,127919,1,0,0:0:0:0:
320,192,127919,1,0,0:0:0:0:
448,192,127922,1,0,0:0:0:0:
192,192,127922,1,0,0:0:0:0:
320,192,127927,1,0,0:0:0:0:
64,192,127927,1,0,0:0:0:0:
448,192,127931,1,0,0:0:0:0:
192,192,127931,1,0,0:0:0:0:
64,192,127935,1,0,0:0:0:0:
320,192,127935,1,0,0:0:0:0:
448,192,127937,1,0,0:0:0:0:
192,192,127937,1,0,0:0:0:0:
64,192,127943,1,0,0:0:0:0:
320,192,127943,1,0,0:0:0:0:
192,192,127946,1,0,0:0:0:0:
448,192,127946,1,0,0:0:0:0:
64,192,127951,1,0,0:0:0:0:
320,192,127951,1,0,0:0:0:0:
448,192,127955,1,0,0:0:0:0:
192,192,127955,1,0,0:0:0:0:
64,192,127959,1,0,0:0:0:0:
320,192,127959,1,0,0:0:0:0:
192,192,127961,1,0,0:0:0:0:
448,192,127961,1,0,0:0:0:0:
320,192,127967,1,0,0:0:0:0:
64,192,127967,1,0,0:0:0:0:
192,192,127970,1,0,0:0:0:0:
448,192,127970,1,0,0:0:0:0:
64,192,127973,1,0,0:0:0:0:
320,192,127973,1,0,0:0:0:0:
192,192,127979,1,0,0:0:0:0:
448,192,127979,1,0,0:0:0:0:
320,192,127982,1,0,0:0:0:0:
64,192,127982,1,0,0:0:0:0:
192,192,127985,1,0,0:0:0:0:
448,192,127985,1,0,0:0:0:0:
64,192,127991,1,0,0:0:0:0:
320,192,127991,1,0,0:0:0:0:
192,192,127994,1,0,0:0:0:0:
448,192,127994,1,0,0:0:0:0:
320,192,127997,1,0,0:0:0:0:
64,192,127997,1,0,0:0:0:0:
448,192,128002,1,0,0:0:0:0:
192,192,128002,1,0,0:0:0:0:
320,192,128006,1,0,0:0:0:0:
64,192,128006,1,0,0:0:0:0:
448,192,128008,1,0,0:0:0:0:
192,192,128008,1,0,0:0:0:0:
64,192,128014,1,0,0:0:0:0:
320,192,128014,1,0,0:0:0:0:
448,192,128017,1,0,0:0:0:0:
192,192,128017,1,0,0:0:0:0:
64,192,128022,1,0,0:0:0:0:
320,192,128022,1,0,0:0:0:0:
192,192,128026,1,0,0:0:0:0:
448,192,128026,1,0,0:0:0:0:
64,192,128030,1,0,0:0:0:0:
320,192,128030,1,0,0:0:0:0:
192,192,128032,1,0,0:0:0:0:
448,192,128032,1,0,0:0:0:0:
64,192,128038,1,0,0:0:0:0:
320,192,128038,1,0,0:0:0:0:
448,192,128041,1,0,0:0:0:0:
192,192,128041,1,0,0:0:0:0:
320,192,128046,1,0,0:0:0:0:
64,192,128046,1,0,0:0:0:0:
448,192,128050,1,0,0:0:0:0:
192,192,128050,1,0,0:0:0:0:
320,192,128054,1,0,0:0:0:0:
64,192,128054,1,0,0:0:0:0:
448,192,128056,1,0,0:0:0:0:
192,192,128056,1,0,0:0:0:0:
320,192,128062,1,0,0:0:0:0:
64,192,128062,1,0,0:0:0:0:
448,192,128065,1,0,0:0:0:0:
192,192,128065,1,0,0:0:0:0:
320,192,128070,1,0,0:0:0:0:
64,192,128070,1,0,0:0:0:0:
192,192,128074,1,0,0:0:0:0:
448,192,128074,1,0,0:0:0:0:
64,192,128078,1,0,0:0:0:0:
320,192,128078,1,0,0:0:0:0:
448,192,128080,1,0,0:0:0:0:
192,192,128080,1,0,0:0:0:0:
64,192,128086,1,0,0:0:0:0:
320,192,128086,1,0,0:0:0:0:
448,192,128089,1,0,0:0:0:0:
192,192,128089,1,0,0:0:0:0:
64,192,128094,1,0,0:0:0:0:
320,192,128094,1,0,0:0:0:0:
448,192,128098,1,0,0:0:0:0:
192,192,128098,1,0,0:0:0:0:
320,192,128102,1,0,0:0:0:0:
64,192,128102,1,0,0:0:0:0:
192,192,128104,1,0,0:0:0:0:
448,192,128104,1,0,0:0:0:0:
64,192,128110,1,0,0:0:0:0:
320,192,128110,1,0,0:0:0:0:
448,192,128113,1,0,0:0:0:0:
192,192,128113,1,0,0:0:0:0:
320,192,128118,1,0,0:0:0:0:
64,192,128118,1,0,0:0:0:0:
448,192,128122,1,0,0:0:0:0:
192,192,128122,1,0,0:0:0:0:
64,192,128126,1,0,0:0:0:0:
320,192,128126,1,0,0:0:0:0:
448,192,128128,1,0,0:0:0:0:
192,192,128128,1,0,0:0:0:0:
64,192,128134,1,0,0:0:0:0:
320,192,128134,1,0,0:0:0:0:
192,192,128137,1,0,0:0:0:0:
448,192,128137,1,0,0:0:0:0:
64,192,128142,1,0,0:0:0:0:
320,192,128142,1,0,0:0:0:0:
448,192,128146,1,0,0:0:0:0:
192,192,128146,1,0,0:0:0:0:
64,192,128150,1,0,0:0:0:0:
320,192,128150,1,0,0:0:0:0:
192,192,128152,1,0,0:0:0:0:
448,192,128152,1,0,0:0:0:0:
64,192,128162,1,0,0:0:0:0:
64,192,128546,1,0,0:0:0:0:
64,192,128931,1,0,0:0:0:0:
64,192,129315,128,0,129347:0:0:0:0:
320,192,129315,128,0,129347:0:0:0:0:
192,192,129347,128,0,129379:0:0:0:0:
448,192,129347,128,0,129379:0:0:0:0:
64,192,129379,128,0,129412:0:0:0:0:
320,192,129379,128,0,129412:0:0:0:0:
192,192,129412,128,0,129444:0:0:0:0:
448,192,129412,128,0,129444:0:0:0:0:
64,192,129444,128,0,129476:0:0:0:0:
320,192,129444,128,0,129476:0:0:0:0:
192,192,129476,128,0,129508:0:0:0:0:
448,192,129476,128,0,129508:0:0:0:0:
64,192,129508,1,0,0:0:0:0:
320,192,129508,1,0,0:0:0:0:
192,192,129540,1,0,0:0:0:0:
448,192,129540,1,0,0:0:0:0:
64,192,129572,1,0,0:0:0:0:
320,192,129572,1,0,0:0:0:0:
192,192,129604,1,0,0:0:0:0:
448,192,129604,1,0,0:0:0:0:
64,192,129636,1,0,0:0:0:0:
320,192,129636,1,0,0:0:0:0:
192,192,129668,1,0,0:0:0:0:
448,192,129668,1,0,0:0:0:0:
64,192,129700,128,0,129796:0:0:0:0:
192,192,129700,128,0,129732:0:0:0:0:
320,192,129700,128,0,129732:0:0:0:0:
448,192,129700,128,0,129796:0:0:0:0:
192,192,129828,128,0,129892:0:0:0:0:
320,192,129828,128,0,129892:0:0:0:0:
64,192,129828,128,0,129860:0:0:0:0:
448,192,129828,128,0,129924:0:0:0:0:
64,192,129956,128,0,129988:0:0:0:0:
192,192,129956,128,0,130020:0:0:0:0:
320,192,129956,128,0,130053:0:0:0:0:
448,192,129956,1,0,0:0:0:0:
64,192,130085,128,0,130181:0:0:0:0:
192,192,130085,128,0,130181:0:0:0:0:
320,192,130085,128,0,130181:0:0:0:0:
448,192,130085,128,0,130181:0:0:0:0:
64,192,130213,128,0,130245:0:0:0:0:
192,192,130213,128,0,130245:0:0:0:0:
320,192,130213,128,0,130309:0:0:0:0:
448,192,130213,128,0,130245:0:0:0:0:
64,192,130341,1,0,0:0:0:0:
320,192,130341,1,0,0:0:0:0:
192,192,130341,128,0,130437:0:0:0:0:
448,192,130341,128,0,130437:0:0:0:0:
192,192,130469,1,0,0:0:0:0:
448,192,130469,1,0,0:0:0:0:
64,192,130469,128,0,130565:0:0:0:0:
320,192,130469,128,0,130565:0:0:0:0:
64,192,130597,1,0,0:0:0:0:
192,192,130597,1,0,0:0:0:0:
320,192,130597,128,0,130629:0:0:0:0:
448,192,130597,128,0,130662:0:0:0:0:
64,192,130726,128,0,130790:0:0:0:0:
192,192,130726,128,0,130758:0:0:0:0:
320,192,130726,128,0,130822:0:0:0:0:
448,192,130726,128,0,130758:0:0:0:0:
64,192,130854,128,0,130950:0:0:0:0:
192,192,130854,128,0,130918:0:0:0:0:
320,192,130854,128,0,130886:0:0:0:0:
448,192,130854,1,0,0:0:0:0:
64,192,131238,1,0,0:0:0:0:
192,192,131238,1,0,0:0:0:0:
320,192,131238,1,0,0:0:0:0:
448,192,131238,1,0,0:0:0:0:
64,192,131367,1,0,0:0:0:0:
192,192,131367,128,0,131463:0:0:0:0:
320,192,131367,1,0,0:0:0:0:
448,192,131367,128,0,131463:0:0:0:0:
192,192,131495,128,0,131527:0:0:0:0:
320,192,131495,128,0,131559:0:0:0:0:
448,192,131495,128,0,131591:0:0:0:0:
64,192,131495,1,0,0:0:0:0:
64,192,131623,128,0,131687:0:0:0:0:
192,192,131623,128,0,131655:0:0:0:0:
320,192,131623,128,0,131687:0:0:0:0:
448,192,131623,128,0,131655:0:0:0:0:
64,192,131751,128,0,131847:0:0:0:0:
192,192,131751,128,0,131815:0:0:0:0:
320,192,131751,128,0,131847:0:0:0:0:
448,192,131751,128,0,131783:0:0:0:0:
64,192,131879,128,0,131976:0:0:0:0:
320,192,131879,128,0,131976:0:0:0:0:
192,192,131879,128,0,131944:0:0:0:0:
448,192,131879,128,0,131912:0:0:0:0:
64,192,132008,1,0,0:0:0:0:
192,192,132008,1,0,0:0:0:0:
320,192,132008,1,0,0:0:0:0:
448,192,132008,128,0,132040:0:0:0:0:
64,192,132136,128,0,132168:0:0:0:0:
192,192,132136,1,0,0:0:0:0:
320,192,132136,128,0,132232:0:0:0:0:
448,192,132136,128,0,132200:0:0:0:0:
64,192,132264,128,0,132296:0:0:0:0:
192,192,132264,128,0,132328:0:0:0:0:
320,192,132264,128,0,132296:0:0:0:0:
448,192,132264,128,0,132328:0:0:0:0:
64,192,132392,128,0,132424:0:0:0:0:
192,192,132392,128,0,132456:0:0:0:0:
320,192,132392,128,0,132424:0:0:0:0:
448,192,132392,128,0,132456:0:0:0:0:
64,192,132777,1,0,0:0:0:0:
192,192,132777,1,0,0:0:0:0:
320,192,132777,1,0,0:0:0:0:
448,192,132777,1,0,0:0:0:0:
64,192,132905,128,0,132937:0:0:0:0:
192,192,132905,128,0,132937:0:0:0:0:
320,192,132905,128,0,132937:0:0:0:0:
448,192,132905,128,0,132937:0:0:0:0:
64,192,133033,128,0,133097:0:0:0:0:
192,192,133033,128,0,133097:0:0:0:0:
320,192,133033,128,0,133097:0:0:0:0:
448,192,133033,128,0,133097:0:0:0:0:
64,192,133162,128,0,133258:0:0:0:0:
192,192,133162,128,0,133258:0:0:0:0:
320,192,133162,128,0,133258:0:0:0:0:
448,192,133162,128,0,133258:0:0:0:0:
64,192,133290,128,0,133354:0:0:0:0:
192,192,133290,128,0,133354:0:0:0:0:
320,192,133290,128,0,133354:0:0:0:0:
448,192,133290,128,0,133354:0:0:0:0:
64,192,133418,128,0,133450:0:0:0:0:
192,192,133418,128,0,133450:0:0:0:0:
320,192,133418,128,0,133450:0:0:0:0:
448,192,133418,128,0,133450:0:0:0:0:
64,192,133546,1,0,0:0:0:0:
192,192,133546,1,0,0:0:0:0:
320,192,133546,1,0,0:0:0:0:
448,192,133546,1,0,0:0:0:0:
64,192,133674,128,0,133706:0:0:0:0:
192,192,133674,128,0,133706:0:0:0:0:
320,192,133674,128,0,133706:0:0:0:0:
448,192,133674,128,0,133706:0:0:0:0:
64,192,133803,128,0,133867:0:0:0:0:
192,192,133803,128,0,133867:0:0:0:0:
320,192,133803,128,0,133867:0:0:0:0:
448,192,133803,128,0,133867:0:0:0:0:
64,192,133931,128,0,134027:0:0:0:0:
192,192,133931,128,0,134027:0:0:0:0:
320,192,133931,128,0,134027:0:0:0:0:
448,192,133931,128,0,134027:0:0:0:0:
64,192,134059,1,0,0:0:0:0:
192,192,134059,128,0,134155:0:0:0:0:
320,192,134059,128,0,134123:0:0:0:0:
448,192,134059,1,0,0:0:0:0:
64,192,134187,128,0,134219:0:0:0:0:
192,192,134187,128,0,134283:0:0:0:0:
320,192,134187,128,0,134219:0:0:0:0:
448,192,134187,128,0,134251:0:0:0:0:
64,192,134315,1,0,0:0:0:0:
320,192,134315,1,0,0:0:0:0:
192,192,134315,128,0,134347:0:0:0:0:
448,192,134315,128,0,134347:0:0:0:0:
64,192,134444,128,0,134508:0:0:0:0:
192,192,134444,128,0,134540:0:0:0:0:
320,192,134444,128,0,134540:0:0:0:0:
448,192,134444,128,0,134476:0:0:0:0:
64,192,134572,128,0,134604:0:0:0:0:
192,192,134572,128,0,134668:0:0:0:0:
320,192,134572,128,0,134604:0:0:0:0:
448,192,134572,128,0,134604:0:0:0:0:
64,192,134700,128,0,134732:0:0:0:0:
320,192,134700,128,0,134796:0:0:0:0:
192,192,134700,128,0,134764:0:0:0:0:
448,192,134700,128,0,134732:0:0:0:0:
64,192,134828,128,0,134860:0:0:0:0:
192,192,134828,128,0,134892:0:0:0:0:
320,192,134828,128,0,134924:0:0:0:0:
448,192,134828,128,0,134924:0:0:0:0:
64,192,134956,128,0,135053:0:0:0:0:
192,192,134956,128,0,134988:0:0:0:0:
320,192,134956,128,0,134988:0:0:0:0:
448,192,134956,128,0,135053:0:0:0:0:
64,192,135085,128,0,135181:0:0:0:0:
192,192,135085,128,0,135181:0:0:0:0:
320,192,135085,128,0,135181:0:0:0:0:
448,192,135085,128,0,135181:0:0:0:0:
64,192,135469,1,0,0:0:0:0:
192,192,135501,1,0,0:0:0:0:
320,192,135533,1,0,0:0:0:0:
448,192,135565,1,0,0:0:0:0:
64,192,135597,1,0,0:0:0:0:
192,192,135629,1,0,0:0:0:0:
320,192,135662,1,0,0:0:0:0:
448,192,135694,1,0,0:0:0:0:
64,192,135726,1,0,0:0:0:0:
192,192,135758,1,0,0:0:0:0:
320,192,135790,1,0,0:0:0:0:
448,192,135822,1,0,0:0:0:0:
64,192,135854,128,0,135886:0:0:0:0:
320,192,135854,128,0,135950:0:0:0:0:
448,192,135854,128,0,135950:0:0:0:0:
192,192,135854,128,0,135886:0:0:0:0:
64,192,135982,128,0,136014:0:0:0:0:
192,192,135982,128,0,136046:0:0:0:0:
320,192,135982,128,0,136014:0:0:0:0:
448,192,135982,128,0,136046:0:0:0:0:
64,192,136110,128,0,136142:0:0:0:0:
192,192,136110,128,0,136142:0:0:0:0:
320,192,136110,1,0,0:0:0:0:
448,192,136110,128,0,136206:0:0:0:0:
64,192,136238,128,0,136335:0:0:0:0:
192,192,136238,128,0,136270:0:0:0:0:
320,192,136238,128,0,136303:0:0:0:0:
448,192,136238,1,0,0:0:0:0:
64,192,136367,1,0,0:0:0:0:
320,192,136367,1,0,0:0:0:0:
192,192,136367,128,0,136399:0:0:0:0:
448,192,136367,128,0,136463:0:0:0:0:
64,192,136495,1,0,0:0:0:0:
192,192,136495,1,0,0:0:0:0:
320,192,136495,1,0,0:0:0:0:
448,192,136495,1,0,0:0:0:0:
64,192,136623,128,0,136655:0:0:0:0:
192,192,136623,128,0,136655:0:0:0:0:
320,192,136623,128,0,136655:0:0:0:0:
448,192,136623,128,0,136655:0:0:0:0:
64,192,136751,128,0,136815:0:0:0:0:
192,192,136751,128,0,136815:0:0:0:0:
320,192,136751,128,0,136815:0:0:0:0:
448,192,136751,128,0,136815:0:0:0:0:
64,192,136879,128,0,136976:0:0:0:0:
192,192,136879,128,0,136976:0:0:0:0:
320,192,136879,128,0,136976:0:0:0:0:
448,192,136879,128,0,136976:0:0:0:0:
64,192,137008,128,0,137104:0:0:0:0:
192,192,137008,128,0,137104:0:0:0:0:
320,192,137008,128,0,137072:0:0:0:0:
448,192,137008,128,0,137072:0:0:0:0:
64,192,137392,128,0,137456:0:0:0:0:
192,192,137392,128,0,137456:0:0:0:0:
320,192,137392,128,0,137424:0:0:0:0:
448,192,137392,128,0,137424:0:0:0:0:
64,192,137520,128,0,137553:0:0:0:0:
192,192,137520,128,0,137553:0:0:0:0:
320,192,137520,1,0,0:0:0:0:
448,192,137520,1,0,0:0:0:0:
64,192,137649,128,0,137681:0:0:0:0:
192,192,137649,128,0,137681:0:0:0:0:
320,192,137649,128,0,137713:0:0:0:0:
448,192,137649,128,0,137713:0:0:0:0:
64,192,137777,128,0,137841:0:0:0:0:
192,192,137777,128,0,137841:0:0:0:0:
320,192,137777,128,0,137873:0:0:0:0:
448,192,137777,128,0,137873:0:0:0:0:
64,192,137905,128,0,138001:0:0:0:0:
192,192,137905,128,0,138001:0:0:0:0:
320,192,137905,128,0,138001:0:0:0:0:
448,192,137905,128,0,138001:0:0:0:0:
64,192,138033,1,0,0:0:0:0:
192,192,138033,1,0,0:0:0:0:
320,192,138033,1,0,0:0:0:0:
448,192,138033,1,0,0:0:0:0:
64,192,138162,128,0,138226:0:0:0:0:
192,192,138162,128,0,138194:0:0:0:0:
320,192,138162,128,0,138258:0:0:0:0:
448,192,138162,128,0,138194:0:0:0:0:
64,192,138290,128,0,138322:0:0:0:0:
192,192,138290,128,0,138322:0:0:0:0:
320,192,138290,128,0,138354:0:0:0:0:
448,192,138290,128,0,138386:0:0:0:0:
64,192,138418,128,0,138514:0:0:0:0:
192,192,138418,128,0,138514:0:0:0:0:
320,192,138418,128,0,138450:0:0:0:0:
448,192,138418,128,0,138482:0:0:0:0:
64,192,138546,128,0,138642:0:0:0:0:
192,192,138546,128,0,138610:0:0:0:0:
320,192,138546,128,0,138610:0:0:0:0:
448,192,138546,128,0,138578:0:0:0:0:
64,192,138931,1,0,0:0:0:0:
192,192,138931,1,0,0:0:0:0:
320,192,138931,1,0,0:0:0:0:
448,192,138931,1,0,0:0:0:0:
64,192,139059,1,0,0:0:0:0:
192,192,139059,1,0,0:0:0:0:
320,192,139059,1,0,0:0:0:0:
448,192,139059,1,0,0:0:0:0:
64,192,139187,1,0,0:0:0:0:
192,192,139187,1,0,0:0:0:0:
320,192,139187,1,0,0:0:0:0:
448,192,139187,1,0,0:0:0:0:
64,192,139315,128,0,139347:0:0:0:0:
192,192,139315,128,0,139347:0:0:0:0:
320,192,139315,128,0,139347:0:0:0:0:
448,192,139315,128,0,139347:0:0:0:0:
64,192,139444,128,0,139476:0:0:0:0:
192,192,139444,128,0,139476:0:0:0:0:
320,192,139444,128,0,139476:0:0:0:0:
448,192,139444,128,0,139476:0:0:0:0:
64,192,139572,128,0,139604:0:0:0:0:
192,192,139572,128,0,139604:0:0:0:0:
320,192,139572,128,0,139604:0:0:0:0:
448,192,139572,128,0,139604:0:0:0:0:
64,192,139700,128,0,139764:0:0:0:0:
192,192,139700,128,0,139764:0:0:0:0:
320,192,139700,128,0,139764:0:0:0:0:
448,192,139700,128,0,139764:0:0:0:0:
64,192,139828,128,0,139892:0:0:0:0:
192,192,139828,128,0,139892:0:0:0:0:
320,192,139828,128,0,139892:0:0:0:0:
448,192,139828,128,0,139892:0:0:0:0:
64,192,139956,128,0,140020:0:0:0:0:
192,192,139956,128,0,140020:0:0:0:0:
320,192,139956,128,0,140020:0:0:0:0:
448,192,139956,128,0,140020:0:0:0:0:
64,192,140085,128,0,140181:0:0:0:0:
192,192,140085,128,0,140181:0:0:0:0:
320,192,140085,128,0,140181:0:0:0:0:
448,192,140085,128,0,140181:0:0:0:0:
64,192,140213,128,0,140309:0:0:0:0:
192,192,140213,128,0,140309:0:0:0:0:
320,192,140213,128,0,140309:0:0:0:0:
448,192,140213,128,0,140309:0:0:0:0:
64,192,140341,128,0,140437:0:0:0:0:
192,192,140341,128,0,140437:0:0:0:0:
320,192,140341,128,0,140373:0:0:0:0:
448,192,140341,128,0,140437:0:0:0:0:
64,192,140469,128,0,140565:0:0:0:0:
192,192,140469,128,0,140501:0:0:0:0:
320,192,140469,128,0,140501:0:0:0:0:
448,192,140469,128,0,140565:0:0:0:0:
192,192,140597,128,0,140694:0:0:0:0:
320,192,140597,128,0,140694:0:0:0:0:
64,192,140597,128,0,140629:0:0:0:0:
448,192,140597,128,0,140629:0:0:0:0:
64,192,140726,128,0,140822:0:0:0:0:
320,192,140726,128,0,140822:0:0:0:0:
192,192,140726,128,0,140758:0:0:0:0:
448,192,140726,128,0,140758:0:0:0:0:
192,192,140854,128,0,140950:0:0:0:0:
448,192,140854,128,0,140950:0:0:0:0:
64,192,140854,128,0,140886:0:0:0:0:
320,192,140854,128,0,140886:0:0:0:0:
64,192,140982,1,0,0:0:0:0:
320,192,140982,1,0,0:0:0:0:
192,192,140982,128,0,141014:0:0:0:0:
448,192,140982,128,0,141014:0:0:0:0:
64,192,141110,1,0,0:0:0:0:
192,192,141110,128,0,141174:0:0:0:0:
320,192,141110,128,0,141206:0:0:0:0:
448,192,141110,128,0,141174:0:0:0:0:
64,192,141238,128,0,141335:0:0:0:0:
192,192,141238,1,0,0:0:0:0:
320,192,141238,128,0,141270:0:0:0:0:
448,192,141238,128,0,141335:0:0:0:0:
192,192,141623,1,0,0:0:0:0:
64,192,141623,1,0,0:0:0:0:
320,192,141623,1,0,0:0:0:0:
448,192,141623,1,0,0:0:0:0:
64,192,142008,1,0,0:0:0:0:
320,192,142008,1,0,0:0:0:0:
192,192,142136,1,0,0:0:0:0:
448,192,142136,1,0,0:0:0:0:
64,192,142264,1,0,0:0:0:0:
320,192,142264,1,0,0:0:0:0:
64,192,142392,128,0,142777:0:0:0:0:
192,192,142392,1,0,0:0:0:0:
320,192,142392,1,0,0:0:0:0:
448,192,142392,1,0,0:0:0:0:
192,192,142777,128,0,142841:0:0:0:0:
320,192,142777,128,0,142841:0:0:0:0:
448,192,142777,128,0,142841:0:0:0:0:
64,192,142905,128,0,142969:0:0:0:0:
192,192,142905,128,0,142969:0:0:0:0:
320,192,142905,128,0,142969:0:0:0:0:
64,192,143033,128,0,143065:0:0:0:0:
192,192,143033,128,0,143065:0:0:0:0:
320,192,143033,128,0,143065:0:0:0:0:
448,192,143033,128,0,143129:0:0:0:0:
320,192,143162,128,0,143514:0:0:0:0:
64,192,143162,128,0,143482:0:0:0:0:
192,192,143162,1,0,0:0:0:0:
448,192,143162,1,0,0:0:0:0:
192,192,143546,1,0,0:0:0:0:
448,192,143546,1,0,0:0:0:0:
64,192,143546,1,0,0:0:0:0:
320,192,143546,1,0,0:0:0:0:
64,192,143770,128,0,143867:0:0:0:0:
320,192,143770,128,0,143867:0:0:0:0:
192,192,143770,1,0,0:0:0:0:
448,192,143770,1,0,0:0:0:0:
192,192,143899,1,0,0:0:0:0:
320,192,143899,1,0,0:0:0:0:
448,192,143899,1,0,0:0:0:0:
64,192,143899,1,0,0:0:0:0:
64,192,144027,128,0,144059:0:0:0:0:
192,192,144027,128,0,144091:0:0:0:0:
320,192,144027,128,0,144059:0:0:0:0:
448,192,144027,128,0,144123:0:0:0:0:
64,192,144155,128,0,144219:0:0:0:0:
192,192,144155,128,0,144251:0:0:0:0:
320,192,144155,128,0,144187:0:0:0:0:
448,192,144155,128,0,144251:0:0:0:0:
192,192,144283,128,0,144315:0:0:0:0:
64,192,144283,1,0,0:0:0:0:
320,192,144283,1,0,0:0:0:0:
448,192,144283,1,0,0:0:0:0:
64,192,144700,1,0,0:0:0:0:
64,192,157392,5,0,0:0:0:0:
192,192,157456,1,0,0:0:0:0:
448,192,157456,1,0,0:0:0:0:
320,192,157520,1,0,0:0:0:0:
64,192,157585,1,0,0:0:0:0:
448,192,157585,1,0,0:0:0:0:
192,192,157649,1,0,0:0:0:0:
320,192,157713,1,0,0:0:0:0:
192,192,157777,1,0,0:0:0:0:
64,192,157777,1,0,0:0:0:0:
320,192,157841,1,0,0:0:0:0:
64,192,157905,1,0,0:0:0:0:
192,192,157969,1,0,0:0:0:0:
320,192,157969,1,0,0:0:0:0:
448,192,157969,1,0,0:0:0:0:
320,192,158033,1,0,0:0:0:0:
192,192,158097,1,0,0:0:0:0:
320,192,158162,1,0,0:0:0:0:
448,192,158162,1,0,0:0:0:0:
320,192,158226,1,0,0:0:0:0:
64,192,158290,1,0,0:0:0:0:
192,192,158354,1,0,0:0:0:0:
448,192,158354,1,0,0:0:0:0:
64,192,158418,1,0,0:0:0:0:
448,192,158482,1,0,0:0:0:0:
64,192,158546,1,0,0:0:0:0:
192,192,158546,1,0,0:0:0:0:
320,192,158546,1,0,0:0:0:0:
448,192,158546,1,0,0:0:0:0:
320,192,158610,1,0,0:0:0:0:
192,192,158674,1,0,0:0:0:0:
320,192,158738,1,0,0:0:0:0:
448,192,158738,1,0,0:0:0:0:
192,192,158803,1,0,0:0:0:0:
64,192,158867,1,0,0:0:0:0:
320,192,158931,1,0,0:0:0:0:
448,192,158931,1,0,0:0:0:0:
192,192,158995,1,0,0:0:0:0:
64,192,159059,1,0,0:0:0:0:
192,192,159123,1,0,0:0:0:0:
320,192,159123,1,0,0:0:0:0:
320,192,159187,1,0,0:0:0:0:
64,192,159251,1,0,0:0:0:0:
320,192,159315,128,0,159379:0:0:0:0:
448,192,159315,1,0,0:0:0:0:
192,192,159379,1,0,0:0:0:0:
64,192,159444,1,0,0:0:0:0:
192,192,159508,1,0,0:0:0:0:
448,192,159508,1,0,0:0:0:0:
320,192,159572,1,0,0:0:0:0:
192,192,159636,1,0,0:0:0:0:
64,192,159700,1,0,0:0:0:0:
448,192,159700,1,0,0:0:0:0:
320,192,159764,1,0,0:0:0:0:
192,192,159828,1,0,0:0:0:0:
64,192,159892,1,0,0:0:0:0:
448,192,159892,1,0,0:0:0:0:
320,192,159956,1,0,0:0:0:0:
192,192,160020,1,0,0:0:0:0:
320,192,160085,1,0,0:0:0:0:
448,192,160085,1,0,0:0:0:0:
192,192,160149,1,0,0:0:0:0:
448,192,160213,1,0,0:0:0:0:
192,192,160277,1,0,0:0:0:0:
320,192,160277,1,0,0:0:0:0:
64,192,160341,1,0,0:0:0:0:
192,192,160405,1,0,0:0:0:0:
64,192,160469,128,0,160533:0:0:0:0:
192,192,160469,1,0,0:0:0:0:
320,192,160469,128,0,160533:0:0:0:0:
448,192,160469,1,0,0:0:0:0:
192,192,160533,1,0,0:0:0:0:
320,192,160597,1,0,0:0:0:0:
64,192,160662,128,0,160726:0:0:0:0:
192,192,160662,1,0,0:0:0:0:
320,192,160726,1,0,0:0:0:0:
448,192,160790,1,0,0:0:0:0:
192,192,160854,128,0,160918:0:0:0:0:
448,192,160854,1,0,0:0:0:0:
320,192,160918,1,0,0:0:0:0:
192,192,160982,1,0,0:0:0:0:
64,192,161046,1,0,0:0:0:0:
320,192,161046,1,0,0:0:0:0:
448,192,161046,1,0,0:0:0:0:
192,192,161110,1,0,0:0:0:0:
320,192,161174,1,0,0:0:0:0:
64,192,161238,1,0,0:0:0:0:
192,192,161238,1,0,0:0:0:0:
448,192,161238,1,0,0:0:0:0:
320,192,161303,1,0,0:0:0:0:
192,192,161367,1,0,0:0:0:0:
320,192,161431,1,0,0:0:0:0:
448,192,161431,1,0,0:0:0:0:
192,192,161495,1,0,0:0:0:0:
64,192,161559,1,0,0:0:0:0:
192,192,161623,1,0,0:0:0:0:
448,192,161623,1,0,0:0:0:0:
320,192,161687,1,0,0:0:0:0:
192,192,161751,1,0,0:0:0:0:
64,192,161815,1,0,0:0:0:0:
320,192,161815,1,0,0:0:0:0:
192,192,161815,1,0,0:0:0:0:
448,192,161815,1,0,0:0:0:0:
320,192,161879,1,0,0:0:0:0:
64,192,161944,1,0,0:0:0:0:
64,192,162008,1,0,0:0:0:0:
192,192,162008,1,0,0:0:0:0:
320,192,162008,1,0,0:0:0:0:
448,192,162008,1,0,0:0:0:0:
192,192,162072,1,0,0:0:0:0:
320,192,162136,1,0,0:0:0:0:
64,192,162200,128,0,163162:0:0:0:0:
448,192,162200,1,0,0:0:0:0:
192,192,162200,1,0,0:0:0:0:
320,192,162264,1,0,0:0:0:0:
448,192,162328,1,0,0:0:0:0:
320,192,162392,1,0,0:0:0:0:
192,192,162456,1,0,0:0:0:0:
448,192,162520,1,0,0:0:0:0:
192,192,162585,1,0,0:0:0:0:
448,192,162649,1,0,0:0:0:0:
192,192,162713,1,0,0:0:0:0:
192,192,162777,128,0,163546:0:0:0:0:
448,192,162777,1,0,0:0:0:0:
320,192,162841,1,0,0:0:0:0:
448,192,162905,1,0,0:0:0:0:
320,192,162969,1,0,0:0:0:0:
448,192,163033,1,0,0:0:0:0:
320,192,163097,1,0,0:0:0:0:
448,192,163162,128,0,163546:0:0:0:0:
320,192,163162,128,0,163226:0:0:0:0:
64,192,163226,128,0,163290:0:0:0:0:
320,192,163290,128,0,163354:0:0:0:0:
64,192,163354,128,0,163418:0:0:0:0:
320,192,163418,128,0,163482:0:0:0:0:
64,192,163482,128,0,163546:0:0:0:0:
320,192,163546,1,0,0:0:0:0:
192,192,163610,1,0,0:0:0:0:
320,192,163674,1,0,0:0:0:0:
64,192,163738,128,0,163803:0:0:0:0:
192,192,163738,1,0,0:0:0:0:
320,192,163738,1,0,0:0:0:0:
448,192,163803,1,0,0:0:0:0:
320,192,163867,1,0,0:0:0:0:
192,192,163931,1,0,0:0:0:0:
448,192,163931,1,0,0:0:0:0:
320,192,163995,1,0,0:0:0:0:
64,192,164059,1,0,0:0:0:0:
192,192,164123,1,0,0:0:0:0:
320,192,164123,1,0,0:0:0:0:
448,192,164123,1,0,0:0:0:0:
64,192,164187,1,0,0:0:0:0:
448,192,164251,1,0,0:0:0:0:
192,192,164315,1,0,0:0:0:0:
320,192,164315,1,0,0:0:0:0:
448,192,164379,1,0,0:0:0:0:
64,192,164444,1,0,0:0:0:0:
192,192,164508,1,0,0:0:0:0:
448,192,164508,1,0,0:0:0:0:
320,192,164572,1,0,0:0:0:0:
192,192,164636,1,0,0:0:0:0:
64,192,164700,1,0,0:0:0:0:
448,192,164700,1,0,0:0:0:0:
320,192,164700,1,0,0:0:0:0:
192,192,164764,1,0,0:0:0:0:
448,192,164828,1,0,0:0:0:0:
320,192,164892,1,0,0:0:0:0:
64,192,164892,1,0,0:0:0:0:
448,192,164892,1,0,0:0:0:0:
192,192,164956,1,0,0:0:0:0:
320,192,165020,1,0,0:0:0:0:
448,192,165085,1,0,0:0:0:0:
192,192,165085,1,0,0:0:0:0:
64,192,165149,1,0,0:0:0:0:
192,192,165213,1,0,0:0:0:0:
320,192,165277,1,0,0:0:0:0:
448,192,165277,1,0,0:0:0:0:
192,192,165277,1,0,0:0:0:0:
64,192,165341,1,0,0:0:0:0:
448,192,165405,1,0,0:0:0:0:
64,192,165469,1,0,0:0:0:0:
192,192,165469,1,0,0:0:0:0:
320,192,165469,1,0,0:0:0:0:
448,192,165469,128,0,165533:0:0:0:0:
192,192,165533,128,0,165597:0:0:0:0:
320,192,165597,128,0,165662:0:0:0:0:
64,192,165662,128,0,165726:0:0:0:0:
448,192,165662,128,0,165726:0:0:0:0:
192,192,165726,128,0,165790:0:0:0:0:
448,192,165790,128,0,165854:0:0:0:0:
64,192,165854,128,0,165918:0:0:0:0:
320,192,165854,128,0,165918:0:0:0:0:
192,192,165918,128,0,165982:0:0:0:0:
320,192,165982,128,0,166046:0:0:0:0:
192,192,166046,128,0,166110:0:0:0:0:
448,192,166046,128,0,166110:0:0:0:0:
64,192,166046,128,0,166110:0:0:0:0:
320,192,166110,128,0,166174:0:0:0:0:
192,192,166174,128,0,166238:0:0:0:0:
64,192,166238,128,0,166303:0:0:0:0:
320,192,166238,128,0,166303:0:0:0:0:
448,192,166238,128,0,166303:0:0:0:0:
192,192,166303,128,0,166367:0:0:0:0:
320,192,166367,128,0,166431:0:0:0:0:
64,192,166431,128,0,166495:0:0:0:0:
448,192,166431,128,0,166495:0:0:0:0:
320,192,166495,128,0,166559:0:0:0:0:
192,192,166559,128,0,166623:0:0:0:0:
64,192,166623,1,0,0:0:0:0:
320,192,166623,1,0,0:0:0:0:
448,192,166623,1,0,0:0:0:0:
192,192,166687,1,0,0:0:0:0:
320,192,166751,1,0,0:0:0:0:
192,192,166815,1,0,0:0:0:0:
448,192,166815,1,0,0:0:0:0:
320,192,166879,1,0,0:0:0:0:
192,192,166944,1,0,0:0:0:0:
64,192,167008,1,0,0:0:0:0:
320,192,167008,1,0,0:0:0:0:
448,192,167008,1,0,0:0:0:0:
192,192,167072,1,0,0:0:0:0:
320,192,167136,1,0,0:0:0:0:
64,192,167200,1,0,0:0:0:0:
192,192,167200,1,0,0:0:0:0:
320,192,167264,1,0,0:0:0:0:
448,192,167328,1,0,0:0:0:0:
320,192,167392,1,0,0:0:0:0:
192,192,167392,1,0,0:0:0:0:
64,192,167456,1,0,0:0:0:0:
448,192,167520,1,0,0:0:0:0:
64,192,167585,1,0,0:0:0:0:
448,192,167585,1,0,0:0:0:0:
192,192,167585,1,0,0:0:0:0:
320,192,167649,1,0,0:0:0:0:
192,192,167713,1,0,0:0:0:0:
320,192,167777,1,0,0:0:0:0:
448,192,167777,1,0,0:0:0:0:
64,192,167777,1,0,0:0:0:0:
192,192,167841,1,0,0:0:0:0:
64,192,167905,1,0,0:0:0:0:
192,192,167969,1,0,0:0:0:0:
320,192,167969,1,0,0:0:0:0:
448,192,168033,1,0,0:0:0:0:
192,192,168097,1,0,0:0:0:0:
64,192,168162,128,0,168226:0:0:0:0:
320,192,168162,128,0,168226:0:0:0:0:
192,192,168226,128,0,168290:0:0:0:0:
448,192,168226,128,0,168290:0:0:0:0:
64,192,168290,128,0,168354:0:0:0:0:
320,192,168290,128,0,168354:0:0:0:0:
192,192,168354,128,0,168418:0:0:0:0:
448,192,168354,128,0,168418:0:0:0:0:
320,192,168418,128,0,168482:0:0:0:0:
64,192,168418,128,0,168482:0:0:0:0:
192,192,168482,128,0,168546:0:0:0:0:
448,192,168482,128,0,168546:0:0:0:0:
320,192,168546,128,0,168610:0:0:0:0:
64,192,168546,128,0,168610:0:0:0:0:
192,192,168610,128,0,168674:0:0:0:0:
448,192,168610,128,0,168674:0:0:0:0:
320,192,168674,128,0,168738:0:0:0:0:
64,192,168674,128,0,168738:0:0:0:0:
320,192,168931,1,0,0:0:0:0:
192,192,169123,1,0,0:0:0:0:
320,192,169315,1,0,0:0:0:0:
192,192,169508,1,0,0:0:0:0:
64,192,169700,1,0,0:0:0:0:
192,192,169700,1,0,0:0:0:0:
320,192,169700,1,0,0:0:0:0:
448,192,169700,1,0,0:0:0:0:
64,192,178931,5,0,0:0:0:0:
192,192,178995,1,0,0:0:0:0:
320,192,179059,1,0,0:0:0:0:
192,192,179123,1,0,0:0:0:0:
320,192,179187,1,0,0:0:0:0:
448,192,179251,1,0,0:0:0:0:
64,192,179315,1,0,0:0:0:0:
192,192,179379,1,0,0:0:0:0:
320,192,179444,1,0,0:0:0:0:
192,192,179508,1,0,0:0:0:0:
320,192,179572,1,0,0:0:0:0:
448,192,179636,1,0,0:0:0:0:
64,192,179700,1,0,0:0:0:0:
192,192,179764,1,0,0:0:0:0:
320,192,179828,1,0,0:0:0:0:
192,192,179892,1,0,0:0:0:0:
320,192,179956,1,0,0:0:0:0:
448,192,180020,1,0,0:0:0:0:
64,192,180085,1,0,0:0:0:0:
192,192,180149,1,0,0:0:0:0:
320,192,180213,1,0,0:0:0:0:
192,192,180277,1,0,0:0:0:0:
320,192,180341,1,0,0:0:0:0:
448,192,180405,1,0,0:0:0:0:
64,192,180469,1,0,0:0:0:0:
192,192,180469,1,0,0:0:0:0:
320,192,180662,1,0,0:0:0:0:
448,192,180662,1,0,0:0:0:0:
64,192,180854,1,0,0:0:0:0:
192,192,180854,1,0,0:0:0:0:
320,192,181046,1,0,0:0:0:0:
448,192,181046,1,0,0:0:0:0:
64,192,181238,1,0,0:0:0:0:
192,192,181238,1,0,0:0:0:0:
320,192,181431,1,0,0:0:0:0:
448,192,181431,1,0,0:0:0:0:
192,192,181431,1,0,0:0:0:0:
64,192,181623,1,0,0:0:0:0:
192,192,181623,1,0,0:0:0:0:
320,192,181623,1,0,0:0:0:0:
192,192,181815,1,0,0:0:0:0:
320,192,181815,1,0,0:0:0:0:
448,192,181815,1,0,0:0:0:0:
64,192,182008,1,0,0:0:0:0:
192,192,182040,1,0,0:0:0:0:
320,192,182072,1,0,0:0:0:0:
448,192,182104,1,0,0:0:0:0:
320,192,182136,1,0,0:0:0:0:
192,192,182168,1,0,0:0:0:0:
64,192,182200,1,0,0:0:0:0:
192,192,182232,1,0,0:0:0:0:
320,192,182264,1,0,0:0:0:0:
448,192,182296,1,0,0:0:0:0:
320,192,182328,1,0,0:0:0:0:
192,192,182360,1,0,0:0:0:0:
64,192,182392,1,0,0:0:0:0:
192,192,182424,1,0,0:0:0:0:
320,192,182456,1,0,0:0:0:0:
448,192,182488,1,0,0:0:0:0:
320,192,182520,1,0,0:0:0:0:
192,192,182553,1,0,0:0:0:0:
64,192,182585,1,0,0:0:0:0:
192,192,182617,1,0,0:0:0:0:
320,192,182649,1,0,0:0:0:0:
448,192,182681,1,0,0:0:0:0:
320,192,182713,1,0,0:0:0:0:
192,192,182745,1,0,0:0:0:0:
64,192,182777,1,0,0:0:0:0:
320,192,182777,1,0,0:0:0:0:
192,192,182809,1,0,0:0:0:0:
448,192,182809,1,0,0:0:0:0:
320,192,182841,1,0,0:0:0:0:
64,192,182841,1,0,0:0:0:0:
448,192,182873,1,0,0:0:0:0:
192,192,182873,1,0,0:0:0:0:
64,192,182905,1,0,0:0:0:0:
320,192,182905,1,0,0:0:0:0:
192,192,182937,1,0,0:0:0:0:
448,192,182937,1,0,0:0:0:0:
64,192,182969,1,0,0:0:0:0:
320,192,182969,1,0,0:0:0:0:
192,192,183001,1,0,0:0:0:0:
448,192,183001,1,0,0:0:0:0:
64,192,183033,1,0,0:0:0:0:
320,192,183033,1,0,0:0:0:0:
192,192,183065,1,0,0:0:0:0:
448,192,183065,1,0,0:0:0:0:
64,192,183097,1,0,0:0:0:0:
320,192,183097,1,0,0:0:0:0:
192,192,183129,1,0,0:0:0:0:
448,192,183129,1,0,0:0:0:0:
64,192,183162,1,0,0:0:0:0:
320,192,183162,1,0,0:0:0:0:
192,192,183194,1,0,0:0:0:0:
448,192,183194,1,0,0:0:0:0:
64,192,183226,1,0,0:0:0:0:
320,192,183226,1,0,0:0:0:0:
192,192,183258,1,0,0:0:0:0:
448,192,183258,1,0,0:0:0:0:
64,192,183290,1,0,0:0:0:0:
320,192,183290,1,0,0:0:0:0:
192,192,183322,1,0,0:0:0:0:
448,192,183322,1,0,0:0:0:0:
64,192,183354,1,0,0:0:0:0:
320,192,183354,1,0,0:0:0:0:
192,192,183386,1,0,0:0:0:0:
448,192,183386,1,0,0:0:0:0:
64,192,183418,1,0,0:0:0:0:
320,192,183418,1,0,0:0:0:0:
192,192,183450,1,0,0:0:0:0:
448,192,183450,1,0,0:0:0:0:
64,192,183482,1,0,0:0:0:0:
320,192,183482,1,0,0:0:0:0:
192,192,183514,1,0,0:0:0:0:
448,192,183514,1,0,0:0:0:0:
64,192,183546,1,0,0:0:0:0:
320,192,183546,1,0,0:0:0:0:
192,192,183554,1,0,0:0:0:0:
448,192,183554,1,0,0:0:0:0:
64,192,183562,1,0,0:0:0:0:
320,192,183562,1,0,0:0:0:0:
192,192,183570,1,0,0:0:0:0:
448,192,183570,1,0,0:0:0:0:
64,192,183578,1,0,0:0:0:0:
320,192,183578,1,0,0:0:0:0:
192,192,183586,1,0,0:0:0:0:
448,192,183586,1,0,0:0:0:0:
64,192,183594,1,0,0:0:0:0:
320,192,183594,1,0,0:0:0:0:
192,192,183602,1,0,0:0:0:0:
448,192,183602,1,0,0:0:0:0:
64,192,183610,1,0,0:0:0:0:
320,192,183610,1,0,0:0:0:0:
448,192,183618,1,0,0:0:0:0:
192,192,183618,1,0,0:0:0:0:
64,192,183626,1,0,0:0:0:0:
320,192,183626,1,0,0:0:0:0:
448,192,183634,1,0,0:0:0:0:
192,192,183634,1,0,0:0:0:0:
64,192,183642,1,0,0:0:0:0:
320,192,183642,1,0,0:0:0:0:
448,192,183650,1,0,0:0:0:0:
192,192,183650,1,0,0:0:0:0:
64,192,183658,1,0,0:0:0:0:
320,192,183658,1,0,0:0:0:0:
448,192,183666,1,0,0:0:0:0:
192,192,183666,1,0,0:0:0:0:
320,192,183674,1,0,0:0:0:0:
64,192,183674,1,0,0:0:0:0:
192,192,183682,1,0,0:0:0:0:
448,192,183682,1,0,0:0:0:0:
320,192,183690,1,0,0:0:0:0:
64,192,183690,1,0,0:0:0:0:
192,192,183698,1,0,0:0:0:0:
448,192,183698,1,0,0:0:0:0:
320,192,183706,1,0,0:0:0:0:
64,192,183706,1,0,0:0:0:0:
192,192,183714,1,0,0:0:0:0:
448,192,183714,1,0,0:0:0:0:
320,192,183722,1,0,0:0:0:0:
64,192,183722,1,0,0:0:0:0:
192,192,183730,1,0,0:0:0:0:
448,192,183730,1,0,0:0:0:0:
64,192,183738,1,0,0:0:0:0:
320,192,183738,1,0,0:0:0:0:
448,192,183746,1,0,0:0:0:0:
192,192,183746,1,0,0:0:0:0:
64,192,183754,1,0,0:0:0:0:
320,192,183754,1,0,0:0:0:0:
448,192,183762,1,0,0:0:0:0:
192,192,183762,1,0,0:0:0:0:
64,192,183770,1,0,0:0:0:0:
320,192,183770,1,0,0:0:0:0:
448,192,183778,1,0,0:0:0:0:
192,192,183778,1,0,0:0:0:0:
64,192,183786,1,0,0:0:0:0:
320,192,183786,1,0,0:0:0:0:
448,192,183794,1,0,0:0:0:0:
192,192,183794,1,0,0:0:0:0:
320,192,183802,1,0,0:0:0:0:
64,192,183802,1,0,0:0:0:0:
192,192,183810,1,0,0:0:0:0:
448,192,183810,1,0,0:0:0:0:
320,192,183818,1,0,0:0:0:0:
64,192,183818,1,0,0:0:0:0:
192,192,183826,1,0,0:0:0:0:
448,192,183826,1,0,0:0:0:0:
320,192,183834,1,0,0:0:0:0:
64,192,183834,1,0,0:0:0:0:
192,192,183842,1,0,0:0:0:0:
448,192,183842,1,0,0:0:0:0:
320,192,183850,1,0,0:0:0:0:
64,192,183850,1,0,0:0:0:0:
192,192,183858,1,0,0:0:0:0:
448,192,183858,1,0,0:0:0:0:
64,192,183866,1,0,0:0:0:0:
320,192,183866,1,0,0:0:0:0:
448,192,183874,1,0,0:0:0:0:
192,192,183874,1,0,0:0:0:0:
64,192,183882,1,0,0:0:0:0:
320,192,183882,1,0,0:0:0:0:
448,192,183890,1,0,0:0:0:0:
192,192,183890,1,0,0:0:0:0:
64,192,183898,1,0,0:0:0:0:
320,192,183898,1,0,0:0:0:0:
448,192,183906,1,0,0:0:0:0:
192,192,183906,1,0,0:0:0:0:
64,192,183914,1,0,0:0:0:0:
320,192,183914,1,0,0:0:0:0:
448,192,183922,1,0,0:0:0:0:
192,192,183922,1,0,0:0:0:0:
320,192,183930,1,0,0:0:0:0:
64,192,183930,1,0,0:0:0:0:
192,192,183938,1,0,0:0:0:0:
448,192,183938,1,0,0:0:0:0:
320,192,183946,1,0,0:0:0:0:
64,192,183946,1,0,0:0:0:0:
192,192,183954,1,0,0:0:0:0:
448,192,183954,1,0,0:0:0:0:
320,192,183962,1,0,0:0:0:0:
64,192,183962,1,0,0:0:0:0:
192,192,183970,1,0,0:0:0:0:
448,192,183970,1,0,0:0:0:0:
320,192,183978,1,0,0:0:0:0:
64,192,183978,1,0,0:0:0:0:
192,192,183986,1,0,0:0:0:0:
448,192,183986,1,0,0:0:0:0:
64,192,183994,1,0,0:0:0:0:
320,192,183994,1,0,0:0:0:0:
448,192,184002,1,0,0:0:0:0:
192,192,184002,1,0,0:0:0:0:
64,192,184010,1,0,0:0:0:0:
320,192,184010,1,0,0:0:0:0:
448,192,184018,1,0,0:0:0:0:
192,192,184018,1,0,0:0:0:0:
64,192,184026,1,0,0:0:0:0:
320,192,184026,1,0,0:0:0:0:
448,192,184034,1,0,0:0:0:0:
192,192,184034,1,0,0:0:0:0:
64,192,184042,1,0,0:0:0:0:
320,192,184042,1,0,0:0:0:0:
448,192,184050,1,0,0:0:0:0:
192,192,184050,1,0,0:0:0:0:
320,192,184058,1,0,0:0:0:0:
64,192,184058,1,0,0:0:0:0:
192,192,184066,1,0,0:0:0:0:
448,192,184066,1,0,0:0:0:0:
320,192,184074,1,0,0:0:0:0:
64,192,184074,1,0,0:0:0:0:
192,192,184082,1,0,0:0:0:0:
448,192,184082,1,0,0:0:0:0:
320,192,184090,1,0,0:0:0:0:
64,192,184090,1,0,0:0:0:0:
192,192,184098,1,0,0:0:0:0:
448,192,184098,1,0,0:0:0:0:
320,192,184106,1,0,0:0:0:0:
64,192,184106,1,0,0:0:0:0:
192,192,184114,1,0,0:0:0:0:
448,192,184114,1,0,0:0:0:0:
64,192,184122,1,0,0:0:0:0:
320,192,184122,1,0,0:0:0:0:
448,192,184130,1,0,0:0:0:0:
192,192,184130,1,0,0:0:0:0:
64,192,184138,1,0,0:0:0:0:
320,192,184138,1,0,0:0:0:0:
448,192,184146,1,0,0:0:0:0:
192,192,184146,1,0,0:0:0:0:
64,192,184154,1,0,0:0:0:0:
320,192,184154,1,0,0:0:0:0:
448,192,184162,1,0,0:0:0:0:
192,192,184162,1,0,0:0:0:0:
64,192,184171,1,0,0:0:0:0:
320,192,184171,1,0,0:0:0:0:
448,192,184177,1,0,0:0:0:0:
192,192,184177,1,0,0:0:0:0:
320,192,184187,1,0,0:0:0:0:
64,192,184187,1,0,0:0:0:0:
192,192,184195,1,0,0:0:0:0:
448,192,184195,1,0,0:0:0:0:
320,192,184203,1,0,0:0:0:0:
64,192,184203,1,0,0:0:0:0:
192,192,184211,1,0,0:0:0:0:
448,192,184211,1,0,0:0:0:0:
320,192,184219,1,0,0:0:0:0:
64,192,184219,1,0,0:0:0:0:
192,192,184227,1,0,0:0:0:0:
448,192,184227,1,0,0:0:0:0:
320,192,184235,1,0,0:0:0:0:
64,192,184235,1,0,0:0:0:0:
192,192,184243,1,0,0:0:0:0:
448,192,184243,1,0,0:0:0:0:
64,192,184251,1,0,0:0:0:0:
320,192,184251,1,0,0:0:0:0:
448,192,184259,1,0,0:0:0:0:
192,192,184259,1,0,0:0:0:0:
64,192,184267,1,0,0:0:0:0:
320,192,184267,1,0,0:0:0:0:
448,192,184275,1,0,0:0:0:0:
192,192,184275,1,0,0:0:0:0:
64,192,184283,1,0,0:0:0:0:
320,192,184283,1,0,0:0:0:0:
448,192,184291,1,0,0:0:0:0:
192,192,184291,1,0,0:0:0:0:
64,192,184299,1,0,0:0:0:0:
320,192,184299,1,0,0:0:0:0:
448,192,184307,1,0,0:0:0:0:
192,192,184307,1,0,0:0:0:0:
320,192,184315,1,0,0:0:0:0:
64,192,184315,1,0,0:0:0:0:
64,192,184317,1,0,0:0:0:0:
320,192,184317,1,0,0:0:0:0:
320,192,184319,1,0,0:0:0:0:
64,192,184319,1,0,0:0:0:0:
64,192,184321,1,0,0:0:0:0:
320,192,184321,1,0,0:0:0:0:
192,192,184323,1,0,0:0:0:0:
448,192,184323,1,0,0:0:0:0:
320,192,184323,1,0,0:0:0:0:
64,192,184323,1,0,0:0:0:0:
448,192,184325,1,0,0:0:0:0:
192,192,184325,1,0,0:0:0:0:
192,192,184327,1,0,0:0:0:0:
448,192,184327,1,0,0:0:0:0:
448,192,184329,1,0,0:0:0:0:
192,192,184329,1,0,0:0:0:0:
320,192,184331,1,0,0:0:0:0:
64,192,184331,1,0,0:0:0:0:
192,192,184331,1,0,0:0:0:0:
448,192,184331,1,0,0:0:0:0:
64,192,184333,1,0,0:0:0:0:
320,192,184333,1,0,0:0:0:0:
320,192,184335,1,0,0:0:0:0:
64,192,184335,1,0,0:0:0:0:
64,192,184337,1,0,0:0:0:0:
320,192,184337,1,0,0:0:0:0:
192,192,184339,1,0,0:0:0:0:
448,192,184339,1,0,0:0:0:0:
320,192,184339,1,0,0:0:0:0:
64,192,184339,1,0,0:0:0:0:
448,192,184341,1,0,0:0:0:0:
192,192,184341,1,0,0:0:0:0:
192,192,184343,1,0,0:0:0:0:
448,192,184343,1,0,0:0:0:0:
448,192,184345,1,0,0:0:0:0:
192,192,184345,1,0,0:0:0:0:
320,192,184347,1,0,0:0:0:0:
64,192,184347,1,0,0:0:0:0:
192,192,184347,1,0,0:0:0:0:
448,192,184347,1,0,0:0:0:0:
64,192,184349,1,0,0:0:0:0:
320,192,184349,1,0,0:0:0:0:
320,192,184351,1,0,0:0:0:0:
64,192,184351,1,0,0:0:0:0:
64,192,184353,1,0,0:0:0:0:
320,192,184353,1,0,0:0:0:0:
192,192,184355,1,0,0:0:0:0:
448,192,184355,1,0,0:0:0:0:
320,192,184355,1,0,0:0:0:0:
64,192,184355,1,0,0:0:0:0:
448,192,184357,1,0,0:0:0:0:
192,192,184357,1,0,0:0:0:0:
192,192,184359,1,0,0:0:0:0:
448,192,184359,1,0,0:0:0:0:
448,192,184361,1,0,0:0:0:0:
192,192,184361,1,0,0:0:0:0:
320,192,184363,1,0,0:0:0:0:
64,192,184363,1,0,0:0:0:0:
192,192,184363,1,0,0:0:0:0:
448,192,184363,1,0,0:0:0:0:
64,192,184365,1,0,0:0:0:0:
320,192,184365,1,0,0:0:0:0:
320,192,184367,1,0,0:0:0:0:
64,192,184367,1,0,0:0:0:0:
64,192,184369,1,0,0:0:0:0:
320,192,184369,1,0,0:0:0:0:
192,192,184371,1,0,0:0:0:0:
448,192,184371,1,0,0:0:0:0:
320,192,184371,1,0,0:0:0:0:
64,192,184371,1,0,0:0:0:0:
448,192,184373,1,0,0:0:0:0:
192,192,184373,1,0,0:0:0:0:
192,192,184375,1,0,0:0:0:0:
448,192,184375,1,0,0:0:0:0:
448,192,184377,1,0,0:0:0:0:
192,192,184377,1,0,0:0:0:0:
192,192,184379,1,0,0:0:0:0:
448,192,184379,1,0,0:0:0:0:
320,192,184379,1,0,0:0:0:0:
64,192,184379,1,0,0:0:0:0:
320,192,184381,1,0,0:0:0:0:
64,192,184381,1,0,0:0:0:0:
320,192,184383,1,0,0:0:0:0:
64,192,184383,1,0,0:0:0:0:
320,192,184385,1,0,0:0:0:0:
64,192,184385,1,0,0:0:0:0:
64,192,184387,1,0,0:0:0:0:
320,192,184387,1,0,0:0:0:0:
448,192,184387,1,0,0:0:0:0:
192,192,184387,1,0,0:0:0:0:
448,192,184389,1,0,0:0:0:0:
192,192,184389,1,0,0:0:0:0:
192,192,184391,1,0,0:0:0:0:
448,192,184391,1,0,0:0:0:0:
192,192,184393,1,0,0:0:0:0:
448,192,184393,1,0,0:0:0:0:
320,192,184395,1,0,0:0:0:0:
64,192,184395,1,0,0:0:0:0:
192,192,184395,1,0,0:0:0:0:
448,192,184395,1,0,0:0:0:0:
320,192,184397,1,0,0:0:0:0:
64,192,184397,1,0,0:0:0:0:
320,192,184399,1,0,0:0:0:0:
64,192,184399,1,0,0:0:0:0:
64,192,184401,1,0,0:0:0:0:
320,192,184401,1,0,0:0:0:0:
320,192,184403,1,0,0:0:0:0:
448,192,184403,1,0,0:0:0:0:
64,192,184403,1,0,0:0:0:0:
192,192,184403,1,0,0:0:0:0:
192,192,184405,1,0,0:0:0:0:
448,192,184405,1,0,0:0:0:0:
448,192,184407,1,0,0:0:0:0:
192,192,184407,1,0,0:0:0:0:
192,192,184409,1,0,0:0:0:0:
448,192,184409,1,0,0:0:0:0:
64,192,184411,1,0,0:0:0:0:
192,192,184411,1,0,0:0:0:0:
320,192,184411,1,0,0:0:0:0:
448,192,184411,1,0,0:0:0:0:
64,192,184413,1,0,0:0:0:0:
320,192,184413,1,0,0:0:0:0:
320,192,184415,1,0,0:0:0:0:
64,192,184415,1,0,0:0:0:0:
64,192,184417,1,0,0:0:0:0:
320,192,184417,1,0,0:0:0:0:
192,192,184419,1,0,0:0:0:0:
320,192,184419,1,0,0:0:0:0:
64,192,184419,1,0,0:0:0:0:
448,192,184419,1,0,0:0:0:0:
192,192,184421,1,0,0:0:0:0:
448,192,184421,1,0,0:0:0:0:
448,192,184423,1,0,0:0:0:0:
192,192,184423,1,0,0:0:0:0:
448,192,184425,1,0,0:0:0:0:
192,192,184425,1,0,0:0:0:0:
64,192,184427,1,0,0:0:0:0:
448,192,184427,1,0,0:0:0:0:
192,192,184427,1,0,0:0:0:0:
320,192,184427,1,0,0:0:0:0:
64,192,184429,1,0,0:0:0:0:
320,192,184429,1,0,0:0:0:0:
64,192,184431,1,0,0:0:0:0:
320,192,184431,1,0,0:0:0:0:
64,192,184433,1,0,0:0:0:0:
320,192,184433,1,0,0:0:0:0:
64,192,184435,1,0,0:0:0:0:
448,192,184435,1,0,0:0:0:0:
320,192,184435,1,0,0:0:0:0:
192,192,184435,1,0,0:0:0:0:
192,192,184437,1,0,0:0:0:0:
448,192,184437,1,0,0:0:0:0:
192,192,184439,1,0,0:0:0:0:
448,192,184439,1,0,0:0:0:0:
448,192,184441,1,0,0:0:0:0:
192,192,184441,1,0,0:0:0:0:
448,192,184443,1,0,0:0:0:0:
192,192,184443,1,0,0:0:0:0:
64,192,184443,1,0,0:0:0:0:
320,192,184443,1,0,0:0:0:0:
64,192,184445,1,0,0:0:0:0:
320,192,184445,1,0,0:0:0:0:
64,192,184447,1,0,0:0:0:0:
320,192,184447,1,0,0:0:0:0:
64,192,184449,1,0,0:0:0:0:
320,192,184449,1,0,0:0:0:0:
448,192,184451,1,0,0:0:0:0:
192,192,184451,1,0,0:0:0:0:
64,192,184451,1,0,0:0:0:0:
320,192,184451,1,0,0:0:0:0:
192,192,184453,1,0,0:0:0:0:
448,192,184453,1,0,0:0:0:0:
448,192,184455,1,0,0:0:0:0:
192,192,184455,1,0,0:0:0:0:
448,192,184457,1,0,0:0:0:0:
192,192,184457,1,0,0:0:0:0:
192,192,184459,1,0,0:0:0:0:
448,192,184459,1,0,0:0:0:0:
320,192,184459,1,0,0:0:0:0:
64,192,184459,1,0,0:0:0:0:
64,192,184461,1,0,0:0:0:0:
320,192,184461,1,0,0:0:0:0:
64,192,184463,1,0,0:0:0:0:
320,192,184463,1,0,0:0:0:0:
320,192,184465,1,0,0:0:0:0:
64,192,184465,1,0,0:0:0:0:
64,192,184467,1,0,0:0:0:0:
192,192,184467,1,0,0:0:0:0:
320,192,184467,1,0,0:0:0:0:
448,192,184467,1,0,0:0:0:0:
448,192,184469,1,0,0:0:0:0:
192,192,184469,1,0,0:0:0:0:
192,192,184471,1,0,0:0:0:0:
448,192,184471,1,0,0:0:0:0:
448,192,184473,1,0,0:0:0:0:
192,192,184473,1,0,0:0:0:0:
320,192,184475,1,0,0:0:0:0:
448,192,184475,1,0,0:0:0:0:
64,192,184475,1,0,0:0:0:0:
192,192,184475,1,0,0:0:0:0:
320,192,184477,1,0,0:0:0:0:
64,192,184477,1,0,0:0:0:0:
64,192,184479,1,0,0:0:0:0:
320,192,184479,1,0,0:0:0:0:
320,192,184481,1,0,0:0:0:0:
64,192,184481,1,0,0:0:0:0:
64,192,184483,1,0,0:0:0:0:
448,192,184483,1,0,0:0:0:0:
192,192,184483,1,0,0:0:0:0:
320,192,184483,1,0,0:0:0:0:
448,192,184485,1,0,0:0:0:0:
192,192,184485,1,0,0:0:0:0:
192,192,184487,1,0,0:0:0:0:
448,192,184487,1,0,0:0:0:0:
192,192,184489,1,0,0:0:0:0:
448,192,184489,1,0,0:0:0:0:
192,192,184491,1,0,0:0:0:0:
320,192,184491,1,0,0:0:0:0:
64,192,184491,1,0,0:0:0:0:
448,192,184491,1,0,0:0:0:0:
320,192,184493,1,0,0:0:0:0:
64,192,184493,1,0,0:0:0:0:
320,192,184495,1,0,0:0:0:0:
64,192,184495,1,0,0:0:0:0:
320,192,184497,1,0,0:0:0:0:
64,192,184497,1,0,0:0:0:0:
320,192,184499,1,0,0:0:0:0:
192,192,184499,1,0,0:0:0:0:
64,192,184499,1,0,0:0:0:0:
448,192,184499,1,0,0:0:0:0:
448,192,184501,1,0,0:0:0:0:
192,192,184501,1,0,0:0:0:0:
448,192,184503,1,0,0:0:0:0:
192,192,184503,1,0,0:0:0:0:
192,192,184505,1,0,0:0:0:0:
448,192,184505,1,0,0:0:0:0:
192,192,184507,1,0,0:0:0:0:
448,192,184507,1,0,0:0:0:0:
320,192,184507,1,0,0:0:0:0:
64,192,184507,1,0,0:0:0:0:
320,192,184509,1,0,0:0:0:0:
64,192,184509,1,0,0:0:0:0:
320,192,184511,1,0,0:0:0:0:
64,192,184511,1,0,0:0:0:0:
320,192,184513,1,0,0:0:0:0:
64,192,184513,1,0,0:0:0:0:
64,192,184515,1,0,0:0:0:0:
320,192,184515,1,0,0:0:0:0:
448,192,184515,1,0,0:0:0:0:
192,192,184515,1,0,0:0:0:0:
448,192,184517,1,0,0:0:0:0:
192,192,184517,1,0,0:0:0:0:
192,192,184519,1,0,0:0:0:0:
448,192,184519,1,0,0:0:0:0:
192,192,184521,1,0,0:0:0:0:
448,192,184521,1,0,0:0:0:0:
320,192,184523,1,0,0:0:0:0:
64,192,184523,1,0,0:0:0:0:
192,192,184523,1,0,0:0:0:0:
448,192,184523,1,0,0:0:0:0:
320,192,184525,1,0,0:0:0:0:
64,192,184525,1,0,0:0:0:0:
320,192,184527,1,0,0:0:0:0:
64,192,184527,1,0,0:0:0:0:
64,192,184529,1,0,0:0:0:0:
320,192,184529,1,0,0:0:0:0:
320,192,184531,1,0,0:0:0:0:
448,192,184531,1,0,0:0:0:0:
64,192,184531,1,0,0:0:0:0:
192,192,184531,1,0,0:0:0:0:
192,192,184533,1,0,0:0:0:0:
448,192,184533,1,0,0:0:0:0:
448,192,184535,1,0,0:0:0:0:
192,192,184535,1,0,0:0:0:0:
192,192,184537,1,0,0:0:0:0:
448,192,184537,1,0,0:0:0:0:
64,192,184539,1,0,0:0:0:0:
192,192,184539,1,0,0:0:0:0:
320,192,184539,1,0,0:0:0:0:
448,192,184539,1,0,0:0:0:0:
64,192,184541,1,0,0:0:0:0:
320,192,184541,1,0,0:0:0:0:
320,192,184543,1,0,0:0:0:0:
64,192,184543,1,0,0:0:0:0:
64,192,184545,1,0,0:0:0:0:
320,192,184545,1,0,0:0:0:0:
192,192,184547,1,0,0:0:0:0:
320,192,184547,1,0,0:0:0:0:
64,192,184547,1,0,0:0:0:0:
448,192,184547,1,0,0:0:0:0:
192,192,184549,1,0,0:0:0:0:
448,192,184549,1,0,0:0:0:0:
448,192,184551,1,0,0:0:0:0:
192,192,184551,1,0,0:0:0:0:
448,192,184553,1,0,0:0:0:0:
192,192,184553,1,0,0:0:0:0:
64,192,184555,1,0,0:0:0:0:
448,192,184555,1,0,0:0:0:0:
192,192,184555,1,0,0:0:0:0:
320,192,184555,1,0,0:0:0:0:
64,192,184557,1,0,0:0:0:0:
320,192,184557,1,0,0:0:0:0:
64,192,184559,1,0,0:0:0:0:
320,192,184559,1,0,0:0:0:0:
64,192,184561,1,0,0:0:0:0:
320,192,184561,1,0,0:0:0:0:
64,192,184563,1,0,0:0:0:0:
448,192,184563,1,0,0:0:0:0:
320,192,184563,1,0,0:0:0:0:
192,192,184563,1,0,0:0:0:0:
192,192,184565,1,0,0:0:0:0:
448,192,184565,1,0,0:0:0:0:
192,192,184567,1,0,0:0:0:0:
448,192,184567,1,0,0:0:0:0:
448,192,184569,1,0,0:0:0:0:
192,192,184569,1,0,0:0:0:0:
448,192,184571,1,0,0:0:0:0:
192,192,184571,1,0,0:0:0:0:
64,192,184571,1,0,0:0:0:0:
320,192,184571,1,0,0:0:0:0:
64,192,184573,1,0,0:0:0:0:
320,192,184573,1,0,0:0:0:0:
64,192,184575,1,0,0:0:0:0:
320,192,184575,1,0,0:0:0:0:
64,192,184577,1,0,0:0:0:0:
320,192,184577,1,0,0:0:0:0:
448,192,184579,1,0,0:0:0:0:
192,192,184579,1,0,0:0:0:0:
64,192,184579,1,0,0:0:0:0:
320,192,184579,1,0,0:0:0:0:
192,192,184581,1,0,0:0:0:0:
448,192,184581,1,0,0:0:0:0:
448,192,184583,1,0,0:0:0:0:
192,192,184583,1,0,0:0:0:0:
448,192,184585,1,0,0:0:0:0:
192,192,184585,1,0,0:0:0:0:
192,192,184587,1,0,0:0:0:0:
448,192,184587,1,0,0:0:0:0:
320,192,184587,1,0,0:0:0:0:
64,192,184587,1,0,0:0:0:0:
64,192,184589,1,0,0:0:0:0:
320,192,184589,1,0,0:0:0:0:
64,192,184591,1,0,0:0:0:0:
320,192,184591,1,0,0:0:0:0:
320,192,184593,1,0,0:0:0:0:
64,192,184593,1,0,0:0:0:0:
64,192,184595,1,0,0:0:0:0:
192,192,184595,1,0,0:0:0:0:
320,192,184595,1,0,0:0:0:0:
448,192,184595,1,0,0:0:0:0:
448,192,184597,1,0,0:0:0:0:
192,192,184597,1,0,0:0:0:0:
192,192,184599,1,0,0:0:0:0:
448,192,184599,1,0,0:0:0:0:
448,192,184601,1,0,0:0:0:0:
192,192,184601,1,0,0:0:0:0:
320,192,184603,1,0,0:0:0:0:
448,192,184603,1,0,0:0:0:0:
64,192,184603,1,0,0:0:0:0:
192,192,184603,1,0,0:0:0:0:
320,192,184605,1,0,0:0:0:0:
64,192,184605,1,0,0:0:0:0:
64,192,184607,1,0,0:0:0:0:
320,192,184607,1,0,0:0:0:0:
320,192,184609,1,0,0:0:0:0:
64,192,184609,1,0,0:0:0:0:
64,192,184611,1,0,0:0:0:0:
448,192,184611,1,0,0:0:0:0:
192,192,184611,1,0,0:0:0:0:
320,192,184611,1,0,0:0:0:0:
448,192,184613,1,0,0:0:0:0:
192,192,184613,1,0,0:0:0:0:
192,192,184615,1,0,0:0:0:0:
448,192,184615,1,0,0:0:0:0:
192,192,184617,1,0,0:0:0:0:
448,192,184617,1,0,0:0:0:0:
192,192,184619,1,0,0:0:0:0:
320,192,184619,1,0,0:0:0:0:
64,192,184619,1,0,0:0:0:0:
448,192,184619,1,0,0:0:0:0:
320,192,184621,1,0,0:0:0:0:
64,192,184621,1,0,0:0:0:0:
320,192,184623,1,0,0:0:0:0:
64,192,184623,1,0,0:0:0:0:
320,192,184625,1,0,0:0:0:0:
64,192,184625,1,0,0:0:0:0:
320,192,184627,1,0,0:0:0:0:
192,192,184627,1,0,0:0:0:0:
64,192,184627,1,0,0:0:0:0:
448,192,184627,1,0,0:0:0:0:
448,192,184629,1,0,0:0:0:0:
192,192,184629,1,0,0:0:0:0:
448,192,184631,1,0,0:0:0:0:
192,192,184631,1,0,0:0:0:0:
192,192,184633,1,0,0:0:0:0:
448,192,184633,1,0,0:0:0:0:
192,192,184635,1,0,0:0:0:0:
448,192,184635,1,0,0:0:0:0:
320,192,184635,1,0,0:0:0:0:
64,192,184635,1,0,0:0:0:0:
320,192,184637,1,0,0:0:0:0:
64,192,184637,1,0,0:0:0:0:
320,192,184639,1,0,0:0:0:0:
64,192,184639,1,0,0:0:0:0:
320,192,184641,1,0,0:0:0:0:
64,192,184641,1,0,0:0:0:0:
64,192,184643,1,0,0:0:0:0:
320,192,184643,1,0,0:0:0:0:
448,192,184643,1,0,0:0:0:0:
192,192,184643,1,0,0:0:0:0:
448,192,184645,1,0,0:0:0:0:
192,192,184645,1,0,0:0:0:0:
192,192,184647,1,0,0:0:0:0:
448,192,184647,1,0,0:0:0:0:
192,192,184649,1,0,0:0:0:0:
448,192,184649,1,0,0:0:0:0:
320,192,184651,1,0,0:0:0:0:
64,192,184651,1,0,0:0:0:0:
192,192,184651,1,0,0:0:0:0:
448,192,184651,1,0,0:0:0:0:
320,192,184653,1,0,0:0:0:0:
64,192,184653,1,0,0:0:0:0:
320,192,184655,1,0,0:0:0:0:
64,192,184655,1,0,0:0:0:0:
64,192,184657,1,0,0:0:0:0:
320,192,184657,1,0,0:0:0:0:
320,192,184659,1,0,0:0:0:0:
448,192,184659,1,0,0:0:0:0:
64,192,184659,1,0,0:0:0:0:
192,192,184659,1,0,0:0:0:0:
192,192,184661,1,0,0:0:0:0:
448,192,184661,1,0,0:0:0:0:
448,192,184663,1,0,0:0:0:0:
192,192,184663,1,0,0:0:0:0:
192,192,184665,1,0,0:0:0:0:
448,192,184665,1,0,0:0:0:0:
64,192,184667,1,0,0:0:0:0:
192,192,184667,1,0,0:0:0:0:
320,192,184667,1,0,0:0:0:0:
448,192,184667,1,0,0:0:0:0:
64,192,184669,1,0,0:0:0:0:
320,192,184669,1,0,0:0:0:0:
320,192,184671,1,0,0:0:0:0:
64,192,184671,1,0,0:0:0:0:
64,192,184673,1,0,0:0:0:0:
320,192,184673,1,0,0:0:0:0:
192,192,184675,1,0,0:0:0:0:
320,192,184675,1,0,0:0:0:0:
64,192,184675,1,0,0:0:0:0:
448,192,184675,1,0,0:0:0:0:
192,192,184677,1,0,0:0:0:0:
448,192,184677,1,0,0:0:0:0:
448,192,184679,1,0,0:0:0:0:
192,192,184679,1,0,0:0:0:0:
448,192,184681,1,0,0:0:0:0:
192,192,184681,1,0,0:0:0:0:
64,192,184683,1,0,0:0:0:0:
448,192,184683,1,0,0:0:0:0:
192,192,184683,1,0,0:0:0:0:
320,192,184683,1,0,0:0:0:0:
64,192,184685,1,0,0:0:0:0:
320,192,184685,1,0,0:0:0:0:
64,192,184687,1,0,0:0:0:0:
320,192,184687,1,0,0:0:0:0:
64,192,184689,1,0,0:0:0:0:
320,192,184689,1,0,0:0:0:0:
64,192,184691,1,0,0:0:0:0:
448,192,184691,1,0,0:0:0:0:
320,192,184691,1,0,0:0:0:0:
192,192,184691,1,0,0:0:0:0:
192,192,184693,1,0,0:0:0:0:
448,192,184693,1,0,0:0:0:0:
192,192,184695,1,0,0:0:0:0:
448,192,184695,1,0,0:0:0:0:
448,192,184697,1,0,0:0:0:0:
192,192,184697,1,0,0:0:0:0:
448,192,184699,1,0,0:0:0:0:
192,192,184699,1,0,0:0:0:0:
64,192,184699,1,0,0:0:0:0:
320,192,184699,1,0,0:0:0:0:
64,192,184701,1,0,0:0:0:0:
320,192,184701,1,0,0:0:0:0:
64,192,184703,1,0,0:0:0:0:
320,192,184703,1,0,0:0:0:0:
64,192,184705,1,0,0:0:0:0:
320,192,184705,1,0,0:0:0:0:
448,192,184707,1,0,0:0:0:0:
192,192,184707,1,0,0:0:0:0:
64,192,184707,1,0,0:0:0:0:
320,192,184707,1,0,0:0:0:0:
192,192,184709,1,0,0:0:0:0:
448,192,184709,1,0,0:0:0:0:
448,192,184711,1,0,0:0:0:0:
192,192,184711,1,0,0:0:0:0:
448,192,184713,1,0,0:0:0:0:
192,192,184713,1,0,0:0:0:0:
192,192,184715,1,0,0:0:0:0:
448,192,184715,1,0,0:0:0:0:
320,192,184715,1,0,0:0:0:0:
64,192,184715,1,0,0:0:0:0:
64,192,184717,1,0,0:0:0:0:
320,192,184717,1,0,0:0:0:0:
64,192,184719,1,0,0:0:0:0:
320,192,184719,1,0,0:0:0:0:
320,192,184721,1,0,0:0:0:0:
64,192,184721,1,0,0:0:0:0:
64,192,184723,1,0,0:0:0:0:
192,192,184723,1,0,0:0:0:0:
320,192,184723,1,0,0:0:0:0:
448,192,184723,1,0,0:0:0:0:
448,192,184725,1,0,0:0:0:0:
192,192,184725,1,0,0:0:0:0:
192,192,184727,1,0,0:0:0:0:
448,192,184727,1,0,0:0:0:0:
448,192,184729,1,0,0:0:0:0:
192,192,184729,1,0,0:0:0:0:
320,192,184731,1,0,0:0:0:0:
448,192,184731,1,0,0:0:0:0:
64,192,184731,1,0,0:0:0:0:
192,192,184731,1,0,0:0:0:0:
320,192,184733,1,0,0:0:0:0:
64,192,184733,1,0,0:0:0:0:
64,192,184735,1,0,0:0:0:0:
320,192,184735,1,0,0:0:0:0:
320,192,184737,1,0,0:0:0:0:
64,192,184737,1,0,0:0:0:0:
64,192,184739,1,0,0:0:0:0:
448,192,184739,1,0,0:0:0:0:
192,192,184739,1,0,0:0:0:0:
320,192,184739,1,0,0:0:0:0:
448,192,184741,1,0,0:0:0:0:
192,192,184741,1,0,0:0:0:0:
192,192,184743,1,0,0:0:0:0:
448,192,184743,1,0,0:0:0:0:
192,192,184745,1,0,0:0:0:0:
448,192,184745,1,0,0:0:0:0:
192,192,184747,1,0,0:0:0:0:
320,192,184747,1,0,0:0:0:0:
64,192,184747,1,0,0:0:0:0:
448,192,184747,1,0,0:0:0:0:
320,192,184749,1,0,0:0:0:0:
64,192,184749,1,0,0:0:0:0:
320,192,184751,1,0,0:0:0:0:
64,192,184751,1,0,0:0:0:0:
320,192,184753,1,0,0:0:0:0:
64,192,184753,1,0,0:0:0:0:
320,192,184755,1,0,0:0:0:0:
192,192,184755,1,0,0:0:0:0:
64,192,184755,1,0,0:0:0:0:
448,192,184755,1,0,0:0:0:0:
448,192,184757,1,0,0:0:0:0:
192,192,184757,1,0,0:0:0:0:
448,192,184759,1,0,0:0:0:0:
192,192,184759,1,0,0:0:0:0:
192,192,184761,1,0,0:0:0:0:
448,192,184761,1,0,0:0:0:0:
192,192,184763,1,0,0:0:0:0:
448,192,184763,1,0,0:0:0:0:
320,192,184763,1,0,0:0:0:0:
64,192,184763,1,0,0:0:0:0:
320,192,184765,1,0,0:0:0:0:
64,192,184765,1,0,0:0:0:0:
320,192,184767,1,0,0:0:0:0:
64,192,184767,1,0,0:0:0:0:
320,192,184769,1,0,0:0:0:0:
64,192,184769,1,0,0:0:0:0:
64,192,184771,1,0,0:0:0:0:
320,192,184771,1,0,0:0:0:0:
448,192,184771,1,0,0:0:0:0:
192,192,184771,1,0,0:0:0:0:
448,192,184773,1,0,0:0:0:0:
192,192,184773,1,0,0:0:0:0:
192,192,184775,1,0,0:0:0:0:
448,192,184775,1,0,0:0:0:0:
192,192,184777,1,0,0:0:0:0:
448,192,184777,1,0,0:0:0:0:
320,192,184779,1,0,0:0:0:0:
64,192,184779,1,0,0:0:0:0:
192,192,184779,1,0,0:0:0:0:
448,192,184779,1,0,0:0:0:0:
320,192,184781,1,0,0:0:0:0:
64,192,184781,1,0,0:0:0:0:
320,192,184783,1,0,0:0:0:0:
64,192,184783,1,0,0:0:0:0:
64,192,184785,1,0,0:0:0:0:
320,192,184785,1,0,0:0:0:0:
320,192,184787,1,0,0:0:0:0:
448,192,184787,1,0,0:0:0:0:
64,192,184787,1,0,0:0:0:0:
192,192,184787,1,0,0:0:0:0:
192,192,184789,1,0,0:0:0:0:
448,192,184789,1,0,0:0:0:0:
448,192,184791,1,0,0:0:0:0:
192,192,184791,1,0,0:0:0:0:
192,192,184793,1,0,0:0:0:0:
448,192,184793,1,0,0:0:0:0:
64,192,184795,1,0,0:0:0:0:
192,192,184795,1,0,0:0:0:0:
320,192,184795,1,0,0:0:0:0:
448,192,184795,1,0,0:0:0:0:
64,192,184797,1,0,0:0:0:0:
320,192,184797,1,0,0:0:0:0:
320,192,184799,1,0,0:0:0:0:
64,192,184799,1,0,0:0:0:0:
64,192,184801,1,0,0:0:0:0:
320,192,184801,1,0,0:0:0:0:
192,192,184803,1,0,0:0:0:0:
320,192,184803,1,0,0:0:0:0:
64,192,184803,1,0,0:0:0:0:
448,192,184803,1,0,0:0:0:0:
192,192,184805,1,0,0:0:0:0:
448,192,184805,1,0,0:0:0:0:
448,192,184807,1,0,0:0:0:0:
192,192,184807,1,0,0:0:0:0:
448,192,184809,1,0,0:0:0:0:
192,192,184809,1,0,0:0:0:0:
64,192,184811,1,0,0:0:0:0:
448,192,184811,1,0,0:0:0:0:
192,192,184811,1,0,0:0:0:0:
320,192,184811,1,0,0:0:0:0:
64,192,184813,1,0,0:0:0:0:
320,192,184813,1,0,0:0:0:0:
64,192,184815,1,0,0:0:0:0:
320,192,184815,1,0,0:0:0:0:
64,192,184817,1,0,0:0:0:0:
320,192,184817,1,0,0:0:0:0:
64,192,184819,1,0,0:0:0:0:
448,192,184819,1,0,0:0:0:0:
320,192,184819,1,0,0:0:0:0:
192,192,184819,1,0,0:0:0:0:
192,192,184821,1,0,0:0:0:0:
448,192,184821,1,0,0:0:0:0:
192,192,184823,1,0,0:0:0:0:
448,192,184823,1,0,0:0:0:0:
448,192,184825,1,0,0:0:0:0:
192,192,184825,1,0,0:0:0:0:
448,192,184827,1,0,0:0:0:0:
192,192,184827,1,0,0:0:0:0:
64,192,184827,1,0,0:0:0:0:
320,192,184827,1,0,0:0:0:0:
64,192,184829,1,0,0:0:0:0:
320,192,184829,1,0,0:0:0:0:
64,192,184831,1,0,0:0:0:0:
320,192,184831,1,0,0:0:0:0:
64,192,184833,1,0,0:0:0:0:
320,192,184833,1,0,0:0:0:0:
448,192,184835,1,0,0:0:0:0:
192,192,184835,1,0,0:0:0:0:
64,192,184835,1,0,0:0:0:0:
320,192,184835,1,0,0:0:0:0:
192,192,184837,1,0,0:0:0:0:
448,192,184837,1,0,0:0:0:0:
448,192,184839,1,0,0:0:0:0:
192,192,184839,1,0,0:0:0:0:
448,192,184841,1,0,0:0:0:0:
192,192,184841,1,0,0:0:0:0:
192,192,184843,1,0,0:0:0:0:
448,192,184843,1,0,0:0:0:0:
320,192,184843,1,0,0:0:0:0:
64,192,184843,1,0,0:0:0:0:
64,192,184845,1,0,0:0:0:0:
320,192,184845,1,0,0:0:0:0:
64,192,184847,1,0,0:0:0:0:
320,192,184847,1,0,0:0:0:0:
320,192,184849,1,0,0:0:0:0:
64,192,184849,1,0,0:0:0:0:
64,192,184851,1,0,0:0:0:0:
192,192,184851,1,0,0:0:0:0:
320,192,184851,1,0,0:0:0:0:
448,192,184851,1,0,0:0:0:0:
448,192,184853,1,0,0:0:0:0:
192,192,184853,1,0,0:0:0:0:
192,192,184855,1,0,0:0:0:0:
448,192,184855,1,0,0:0:0:0:
448,192,184857,1,0,0:0:0:0:
192,192,184857,1,0,0:0:0:0:
320,192,184859,1,0,0:0:0:0:
448,192,184859,1,0,0:0:0:0:
64,192,184859,1,0,0:0:0:0:
192,192,184859,1,0,0:0:0:0:
320,192,184861,1,0,0:0:0:0:
64,192,184861,1,0,0:0:0:0:
64,192,184863,1,0,0:0:0:0:
320,192,184863,1,0,0:0:0:0:
320,192,184865,1,0,0:0:0:0:
64,192,184865,1,0,0:0:0:0:
64,192,184867,1,0,0:0:0:0:
448,192,184867,1,0,0:0:0:0:
192,192,184867,1,0,0:0:0:0:
320,192,184867,1,0,0:0:0:0:
448,192,184869,1,0,0:0:0:0:
192,192,184869,1,0,0:0:0:0:
192,192,184871,1,0,0:0:0:0:
448,192,184871,1,0,0:0:0:0:
192,192,184873,1,0,0:0:0:0:
448,192,184873,1,0,0:0:0:0:
192,192,184875,1,0,0:0:0:0:
320,192,184875,1,0,0:0:0:0:
64,192,184875,1,0,0:0:0:0:
448,192,184875,1,0,0:0:0:0:
320,192,184877,1,0,0:0:0:0:
64,192,184877,1,0,0:0:0:0:
320,192,184879,1,0,0:0:0:0:
64,192,184879,1,0,0:0:0:0:
320,192,184881,1,0,0:0:0:0:
64,192,184881,1,0,0:0:0:0:
320,192,184883,1,0,0:0:0:0:
192,192,184883,1,0,0:0:0:0:
64,192,184883,1,0,0:0:0:0:
448,192,184883,1,0,0:0:0:0:
448,192,184885,1,0,0:0:0:0:
192,192,184885,1,0,0:0:0:0:
448,192,184887,1,0,0:0:0:0:
192,192,184887,1,0,0:0:0:0:
192,192,184889,1,0,0:0:0:0:
448,192,184889,1,0,0:0:0:0:
192,192,184891,1,0,0:0:0:0:
448,192,184891,1,0,0:0:0:0:
320,192,184891,1,0,0:0:0:0:
64,192,184891,1,0,0:0:0:0:
320,192,184893,1,0,0:0:0:0:
64,192,184893,1,0,0:0:0:0:
320,192,184895,1,0,0:0:0:0:
64,192,184895,1,0,0:0:0:0:
320,192,184897,1,0,0:0:0:0:
64,192,184897,1,0,0:0:0:0:
64,192,184899,1,0,0:0:0:0:
320,192,184899,1,0,0:0:0:0:
448,192,184899,1,0,0:0:0:0:
192,192,184899,1,0,0:0:0:0:
448,192,184901,1,0,0:0:0:0:
192,192,184901,1,0,0:0:0:0:
192,192,184903,1,0,0:0:0:0:
448,192,184903,1,0,0:0:0:0:
192,192,184905,1,0,0:0:0:0:
448,192,184905,1,0,0:0:0:0:
320,192,184907,1,0,0:0:0:0:
64,192,184907,1,0,0:0:0:0:
192,192,184907,1,0,0:0:0:0:
448,192,184907,1,0,0:0:0:0:
320,192,184909,1,0,0:0:0:0:
64,192,184909,1,0,0:0:0:0:
320,192,184911,1,0,0:0:0:0:
64,192,184911,1,0,0:0:0:0:
64,192,184913,1,0,0:0:0:0:
320,192,184913,1,0,0:0:0:0:
320,192,184915,1,0,0:0:0:0:
448,192,184915,1,0,0:0:0:0:
64,192,184915,1,0,0:0:0:0:
192,192,184915,1,0,0:0:0:0:
192,192,184917,1,0,0:0:0:0:
448,192,184917,1,0,0:0:0:0:
448,192,184919,1,0,0:0:0:0:
192,192,184919,1,0,0:0:0:0:
192,192,184921,1,0,0:0:0:0:
448,192,184921,1,0,0:0:0:0:
64,192,184923,1,0,0:0:0:0:
192,192,184923,1,0,0:0:0:0:
320,192,184923,1,0,0:0:0:0:
448,192,184923,1,0,0:0:0:0:
64,192,184925,1,0,0:0:0:0:
320,192,184925,1,0,0:0:0:0:
320,192,184927,1,0,0:0:0:0:
64,192,184927,1,0,0:0:0:0:
64,192,184929,1,0,0:0:0:0:
320,192,184929,1,0,0:0:0:0:
192,192,184931,1,0,0:0:0:0:
320,192,184931,1,0,0:0:0:0:
64,192,184931,1,0,0:0:0:0:
448,192,184931,1,0,0:0:0:0:
192,192,184933,1,0,0:0:0:0:
448,192,184933,1,0,0:0:0:0:
448,192,184935,1,0,0:0:0:0:
192,192,184935,1,0,0:0:0:0:
448,192,184937,1,0,0:0:0:0:
192,192,184937,1,0,0:0:0:0:
64,192,184940,1,0,0:0:0:0:
448,192,184940,1,0,0:0:0:0:
192,192,184940,1,0,0:0:0:0:
320,192,184940,1,0,0:0:0:0:
64,192,184941,1,0,0:0:0:0:
320,192,184941,1,0,0:0:0:0:
64,192,184943,1,0,0:0:0:0:
320,192,184943,1,0,0:0:0:0:
64,192,184946,1,0,0:0:0:0:
320,192,184946,1,0,0:0:0:0:
64,192,184947,1,0,0:0:0:0:
448,192,184947,1,0,0:0:0:0:
320,192,184947,1,0,0:0:0:0:
192,192,184947,1,0,0:0:0:0:
192,192,184949,1,0,0:0:0:0:
448,192,184949,1,0,0:0:0:0:
192,192,184952,1,0,0:0:0:0:
448,192,184952,1,0,0:0:0:0:
448,192,184953,1,0,0:0:0:0:
192,192,184953,1,0,0:0:0:0:
64,192,184954,1,0,0:0:0:0:
320,192,184954,1,0,0:0:0:0:
448,192,184955,1,0,0:0:0:0:
192,192,184955,1,0,0:0:0:0:
64,192,184956,1,0,0:0:0:0:
320,192,184956,1,0,0:0:0:0:
64,192,184958,1,0,0:0:0:0:
320,192,184958,1,0,0:0:0:0:
64,192,184960,1,0,0:0:0:0:
320,192,184960,1,0,0:0:0:0:
448,192,184962,1,0,0:0:0:0:
192,192,184962,1,0,0:0:0:0:
64,192,184962,1,0,0:0:0:0:
320,192,184962,1,0,0:0:0:0:
192,192,184964,1,0,0:0:0:0:
448,192,184964,1,0,0:0:0:0:
448,192,184966,1,0,0:0:0:0:
192,192,184966,1,0,0:0:0:0:
448,192,184968,1,0,0:0:0:0:
192,192,184968,1,0,0:0:0:0:
192,192,184970,1,0,0:0:0:0:
448,192,184970,1,0,0:0:0:0:
320,192,184970,1,0,0:0:0:0:
64,192,184970,1,0,0:0:0:0:
64,192,184972,1,0,0:0:0:0:
320,192,184972,1,0,0:0:0:0:
64,192,184974,1,0,0:0:0:0:
320,192,184974,1,0,0:0:0:0:
320,192,184976,1,0,0:0:0:0:
64,192,184976,1,0,0:0:0:0:
64,192,184978,1,0,0:0:0:0:
192,192,184978,1,0,0:0:0:0:
320,192,184978,1,0,0:0:0:0:
448,192,184978,1,0,0:0:0:0:
448,192,184980,1,0,0:0:0:0:
192,192,184980,1,0,0:0:0:0:
192,192,184982,1,0,0:0:0:0:
448,192,184982,1,0,0:0:0:0:
448,192,184984,1,0,0:0:0:0:
192,192,184984,1,0,0:0:0:0:
320,192,184986,1,0,0:0:0:0:
448,192,184986,1,0,0:0:0:0:
64,192,184986,1,0,0:0:0:0:
192,192,184986,1,0,0:0:0:0:
320,192,184988,1,0,0:0:0:0:
64,192,184988,1,0,0:0:0:0:
64,192,184990,1,0,0:0:0:0:
320,192,184990,1,0,0:0:0:0:
320,192,184992,1,0,0:0:0:0:
64,192,184992,1,0,0:0:0:0:
64,192,184994,1,0,0:0:0:0:
448,192,184994,1,0,0:0:0:0:
192,192,184994,1,0,0:0:0:0:
320,192,184994,1,0,0:0:0:0:
448,192,184996,1,0,0:0:0:0:
192,192,184996,1,0,0:0:0:0:
192,192,184998,1,0,0:0:0:0:
448,192,184998,1,0,0:0:0:0:
192,192,185000,1,0,0:0:0:0:
448,192,185000,1,0,0:0:0:0:
192,192,185002,1,0,0:0:0:0:
320,192,185002,1,0,0:0:0:0:
64,192,185002,1,0,0:0:0:0:
448,192,185002,1,0,0:0:0:0:
320,192,185004,1,0,0:0:0:0:
64,192,185004,1,0,0:0:0:0:
320,192,185006,1,0,0:0:0:0:
64,192,185006,1,0,0:0:0:0:
320,192,185008,1,0,0:0:0:0:
64,192,185008,1,0,0:0:0:0:
320,192,185010,1,0,0:0:0:0:
192,192,185010,1,0,0:0:0:0:
64,192,185010,1,0,0:0:0:0:
448,192,185010,1,0,0:0:0:0:
448,192,185012,1,0,0:0:0:0:
192,192,185012,1,0,0:0:0:0:
448,192,185014,1,0,0:0:0:0:
192,192,185014,1,0,0:0:0:0:
192,192,185016,1,0,0:0:0:0:
448,192,185016,1,0,0:0:0:0:
192,192,185018,1,0,0:0:0:0:
448,192,185018,1,0,0:0:0:0:
320,192,185018,1,0,0:0:0:0:
64,192,185018,1,0,0:0:0:0:
320,192,185020,1,0,0:0:0:0:
64,192,185020,1,0,0:0:0:0:
320,192,185022,1,0,0:0:0:0:
64,192,185022,1,0,0:0:0:0:
320,192,185024,1,0,0:0:0:0:
64,192,185024,1,0,0:0:0:0:
64,192,185026,1,0,0:0:0:0:
320,192,185026,1,0,0:0:0:0:
448,192,185026,1,0,0:0:0:0:
192,192,185026,1,0,0:0:0:0:
448,192,185028,1,0,0:0:0:0:
192,192,185028,1,0,0:0:0:0:
192,192,185030,1,0,0:0:0:0:
448,192,185030,1,0,0:0:0:0:
192,192,185032,1,0,0:0:0:0:
448,192,185032,1,0,0:0:0:0:
320,192,185034,1,0,0:0:0:0:
64,192,185034,1,0,0:0:0:0:
192,192,185034,1,0,0:0:0:0:
448,192,185034,1,0,0:0:0:0:
320,192,185036,1,0,0:0:0:0:
64,192,185036,1,0,0:0:0:0:
320,192,185038,1,0,0:0:0:0:
64,192,185038,1,0,0:0:0:0:
64,192,185040,1,0,0:0:0:0:
320,192,185040,1,0,0:0:0:0:
320,192,185042,1,0,0:0:0:0:
448,192,185042,1,0,0:0:0:0:
64,192,185042,1,0,0:0:0:0:
192,192,185042,1,0,0:0:0:0:
192,192,185044,1,0,0:0:0:0:
448,192,185044,1,0,0:0:0:0:
448,192,185046,1,0,0:0:0:0:
192,192,185046,1,0,0:0:0:0:
192,192,185048,1,0,0:0:0:0:
448,192,185048,1,0,0:0:0:0:
64,192,185050,1,0,0:0:0:0:
192,192,185050,1,0,0:0:0:0:
320,192,185050,1,0,0:0:0:0:
448,192,185050,1,0,0:0:0:0:
64,192,185052,1,0,0:0:0:0:
320,192,185052,1,0,0:0:0:0:
320,192,185054,1,0,0:0:0:0:
64,192,185054,1,0,0:0:0:0:
64,192,185056,1,0,0:0:0:0:
320,192,185056,1,0,0:0:0:0:
192,192,185058,1,0,0:0:0:0:
320,192,185058,1,0,0:0:0:0:
64,192,185058,1,0,0:0:0:0:
448,192,185058,1,0,0:0:0:0:
192,192,185060,1,0,0:0:0:0:
448,192,185060,1,0,0:0:0:0:
448,192,185062,1,0,0:0:0:0:
192,192,185062,1,0,0:0:0:0:
448,192,185064,1,0,0:0:0:0:
192,192,185064,1,0,0:0:0:0:
64,192,185066,1,0,0:0:0:0:
448,192,185066,1,0,0:0:0:0:
192,192,185066,1,0,0:0:0:0:
320,192,185066,1,0,0:0:0:0:
64,192,185068,1,0,0:0:0:0:
320,192,185068,1,0,0:0:0:0:
64,192,185070,1,0,0:0:0:0:
320,192,185070,1,0,0:0:0:0:
64,192,185072,1,0,0:0:0:0:
320,192,185072,1,0,0:0:0:0:
64,192,185074,1,0,0:0:0:0:
448,192,185074,1,0,0:0:0:0:
320,192,185074,1,0,0:0:0:0:
192,192,185074,1,0,0:0:0:0:
192,192,185076,1,0,0:0:0:0:
448,192,185076,1,0,0:0:0:0:
192,192,185078,1,0,0:0:0:0:
448,192,185078,1,0,0:0:0:0:
448,192,185080,1,0,0:0:0:0:
192,192,185080,1,0,0:0:0:0:
448,192,185082,1,0,0:0:0:0:
192,192,185082,1,0,0:0:0:0:
64,192,185085,1,0,0:0:0:0:
64,192,185469,1,0,0:0:0:0:
64,192,185854,1,0,0:0:0:0:
64,192,186238,1,0,0:0:0:0:
192,192,186238,128,0,186559:0:0:0:0:
64,192,186623,1,0,0:0:0:0:
320,192,186623,1,0,0:0:0:0:
192,192,186655,1,0,0:0:0:0:
448,192,186655,1,0,0:0:0:0:
64,192,186751,1,0,0:0:0:0:
192,192,186751,1,0,0:0:0:0:
320,192,186783,1,0,0:0:0:0:
448,192,186783,1,0,0:0:0:0:
64,192,186879,1,0,0:0:0:0:
320,192,186879,1,0,0:0:0:0:
192,192,186912,1,0,0:0:0:0:
448,192,186912,1,0,0:0:0:0:
192,192,187008,1,0,0:0:0:0:
64,192,187008,1,0,0:0:0:0:
320,192,187040,1,0,0:0:0:0:
448,192,187040,1,0,0:0:0:0:
192,192,187136,1,0,0:0:0:0:
320,192,187136,1,0,0:0:0:0:
64,192,187168,1,0,0:0:0:0:
448,192,187168,1,0,0:0:0:0:
64,192,187264,1,0,0:0:0:0:
192,192,187264,1,0,0:0:0:0:
320,192,187264,1,0,0:0:0:0:
448,192,187296,1,0,0:0:0:0:
64,192,187392,1,0,0:0:0:0:
448,192,187392,1,0,0:0:0:0:
192,192,187392,1,0,0:0:0:0:
320,192,187424,1,0,0:0:0:0:
64,192,187520,1,0,0:0:0:0:
192,192,187520,1,0,0:0:0:0:
448,192,187520,1,0,0:0:0:0:
320,192,187553,1,0,0:0:0:0:
448,192,187649,1,0,0:0:0:0:
320,192,187649,1,0,0:0:0:0:
192,192,187649,1,0,0:0:0:0:
64,192,187681,1,0,0:0:0:0:
448,192,187777,1,0,0:0:0:0:
320,192,187777,1,0,0:0:0:0:
64,192,187809,1,0,0:0:0:0:
192,192,187809,1,0,0:0:0:0:
448,192,188065,128,0,188162:0:0:0:0:
320,192,188097,128,0,188162:0:0:0:0:
192,192,188129,128,0,188162:0:0:0:0:
64,192,188162,1,0,0:0:0:0:
64,192,188194,128,0,188290:0:0:0:0:
192,192,188226,128,0,188290:0:0:0:0:
320,192,188226,128,0,188290:0:0:0:0:
448,192,188258,128,0,188290:0:0:0:0:
64,192,188322,128,0,188418:0:0:0:0:
320,192,188322,128,0,188418:0:0:0:0:
448,192,188354,128,0,188418:0:0:0:0:
192,192,188386,128,0,188418:0:0:0:0:
192,192,188450,128,0,188546:0:0:0:0:
64,192,188482,128,0,188546:0:0:0:0:
320,192,188482,128,0,188546:0:0:0:0:
448,192,188514,128,0,188546:0:0:0:0:
448,192,188578,128,0,188674:0:0:0:0:
320,192,188610,128,0,188674:0:0:0:0:
192,192,188642,128,0,188674:0:0:0:0:
64,192,188674,1,0,0:0:0:0:
64,192,188706,128,0,188803:0:0:0:0:
192,192,188738,128,0,188803:0:0:0:0:
320,192,188738,128,0,188803:0:0:0:0:
448,192,188770,128,0,188803:0:0:0:0:
64,192,188835,128,0,188931:0:0:0:0:
320,192,188835,128,0,188931:0:0:0:0:
448,192,188867,128,0,188931:0:0:0:0:
192,192,188899,128,0,188931:0:0:0:0:
192,192,188963,128,0,189059:0:0:0:0:
64,192,188995,128,0,189059:0:0:0:0:
320,192,188995,128,0,189059:0:0:0:0:
448,192,189027,128,0,189059:0:0:0:0:
64,192,189091,128,0,189187:0:0:0:0:
192,192,189091,128,0,189187:0:0:0:0:
320,192,189091,128,0,189187:0:0:0:0:
448,192,189155,128,0,189187:0:0:0:0:
192,192,189219,128,0,189315:0:0:0:0:
448,192,189251,128,0,189315:0:0:0:0:
64,192,189283,128,0,189315:0:0:0:0:
320,192,189283,128,0,189315:0:0:0:0:
64,192,189700,1,0,0:0:0:0:
192,192,189708,1,0,0:0:0:0:
320,192,189716,1,0,0:0:0:0:
448,192,189724,1,0,0:0:0:0:
448,192,189828,1,0,0:0:0:0:
320,192,189836,1,0,0:0:0:0:
192,192,189844,1,0,0:0:0:0:
64,192,189852,1,0,0:0:0:0:
64,192,189956,1,0,0:0:0:0:
192,192,189964,1,0,0:0:0:0:
320,192,189972,1,0,0:0:0:0:
448,192,189980,1,0,0:0:0:0:
448,192,190085,1,0,0:0:0:0:
320,192,190092,1,0,0:0:0:0:
192,192,190100,1,0,0:0:0:0:
64,192,190109,1,0,0:0:0:0:
64,192,190213,1,0,0:0:0:0:
192,192,190221,1,0,0:0:0:0:
320,192,190229,1,0,0:0:0:0:
448,192,190237,1,0,0:0:0:0:
448,192,190341,1,0,0:0:0:0:
320,192,190349,1,0,0:0:0:0:
192,192,190357,1,0,0:0:0:0:
64,192,190365,1,0,0:0:0:0:
64,192,190469,1,0,0:0:0:0:
192,192,190477,1,0,0:0:0:0:
320,192,190485,1,0,0:0:0:0:
448,192,190493,1,0,0:0:0:0:
64,192,190597,1,0,0:0:0:0:
192,192,190605,1,0,0:0:0:0:
320,192,190613,1,0,0:0:0:0:
448,192,190621,1,0,0:0:0:0:
64,192,190758,1,0,0:0:0:0:
192,192,190766,1,0,0:0:0:0:
320,192,190774,1,0,0:0:0:0:
448,192,190782,1,0,0:0:0:0:
64,192,190886,1,0,0:0:0:0:
192,192,190894,1,0,0:0:0:0:
320,192,190902,1,0,0:0:0:0:
448,192,190910,1,0,0:0:0:0:
64,192,191014,1,0,0:0:0:0:
192,192,191022,1,0,0:0:0:0:
320,192,191030,1,0,0:0:0:0:
448,192,191038,1,0,0:0:0:0:
64,192,191142,1,0,0:0:0:0:
192,192,191150,1,0,0:0:0:0:
320,192,191158,1,0,0:0:0:0:
448,192,191166,1,0,0:0:0:0:
448,192,191238,1,0,0:0:0:0:
320,192,191246,1,0,0:0:0:0:
192,192,191253,1,0,0:0:0:0:
64,192,191262,1,0,0:0:0:0:
448,192,191367,1,0,0:0:0:0:
320,192,191373,1,0,0:0:0:0:
192,192,191383,1,0,0:0:0:0:
64,192,191389,1,0,0:0:0:0:
448,192,191495,1,0,0:0:0:0:
320,192,191503,1,0,0:0:0:0:
192,192,191510,1,0,0:0:0:0:
64,192,191518,1,0,0:0:0:0:
448,192,191623,1,0,0:0:0:0:
320,192,191631,1,0,0:0:0:0:
192,192,191638,1,0,0:0:0:0:
64,192,191647,1,0,0:0:0:0:
448,192,191751,1,0,0:0:0:0:
320,192,191758,1,0,0:0:0:0:
192,192,191767,1,0,0:0:0:0:
64,192,191774,1,0,0:0:0:0:
448,192,191879,1,0,0:0:0:0:
320,192,191887,1,0,0:0:0:0:
192,192,191895,1,0,0:0:0:0:
64,192,191903,1,0,0:0:0:0:
64,192,192008,1,0,0:0:0:0:
192,192,192008,1,0,0:0:0:0:
320,192,192008,1,0,0:0:0:0:
448,192,192008,1,0,0:0:0:0:
64,192,192392,1,0,0:0:0:0:
320,192,192392,1,0,0:0:0:0:
192,192,192424,1,0,0:0:0:0:
448,192,192424,1,0,0:0:0:0:
64,192,192456,1,0,0:0:0:0:
320,192,192456,1,0,0:0:0:0:
192,192,192488,1,0,0:0:0:0:
448,192,192488,1,0,0:0:0:0:
64,192,192520,1,0,0:0:0:0:
320,192,192520,1,0,0:0:0:0:
192,192,192553,1,0,0:0:0:0:
448,192,192553,1,0,0:0:0:0:
64,192,192585,1,0,0:0:0:0:
320,192,192585,1,0,0:0:0:0:
192,192,192617,1,0,0:0:0:0:
448,192,192617,1,0,0:0:0:0:
64,192,192649,1,0,0:0:0:0:
320,192,192649,1,0,0:0:0:0:
192,192,192681,1,0,0:0:0:0:
448,192,192681,1,0,0:0:0:0:
64,192,192713,1,0,0:0:0:0:
320,192,192713,1,0,0:0:0:0:
192,192,192745,1,0,0:0:0:0:
448,192,192745,1,0,0:0:0:0:
64,192,192777,128,0,192785:0:0:0:0:
320,192,192777,128,0,192785:0:0:0:0:
448,192,192793,128,0,192801:0:0:0:0:
192,192,192793,128,0,192801:0:0:0:0:
320,192,192809,128,0,192817:0:0:0:0:
64,192,192809,128,0,192817:0:0:0:0:
192,192,192825,128,0,192833:0:0:0:0:
448,192,192825,128,0,192833:0:0:0:0:
64,192,192841,128,0,192849:0:0:0:0:
320,192,192841,128,0,192849:0:0:0:0:
448,192,192857,128,0,192865:0:0:0:0:
192,192,192857,128,0,192865:0:0:0:0:
320,192,192873,128,0,192881:0:0:0:0:
64,192,192873,128,0,192881:0:0:0:0:
192,192,192889,128,0,192897:0:0:0:0:
448,192,192889,128,0,192897:0:0:0:0:
64,192,192905,128,0,192913:0:0:0:0:
320,192,192905,128,0,192913:0:0:0:0:
192,192,192921,128,0,192929:0:0:0:0:
448,192,192921,128,0,192929:0:0:0:0:
64,192,192937,128,0,192945:0:0:0:0:
320,192,192937,128,0,192945:0:0:0:0:
448,192,192953,128,0,192961:0:0:0:0:
192,192,192953,128,0,192961:0:0:0:0:
64,192,192969,128,0,192977:0:0:0:0:
320,192,192969,128,0,192977:0:0:0:0:
192,192,192985,128,0,192993:0:0:0:0:
448,192,192985,128,0,192993:0:0:0:0:
64,192,193001,128,0,193009:0:0:0:0:
320,192,193001,128,0,193009:0:0:0:0:
448,192,193017,128,0,193025:0:0:0:0:
192,192,193017,128,0,193025:0:0:0:0:
320,192,193033,128,0,193041:0:0:0:0:
64,192,193033,128,0,193041:0:0:0:0:
448,192,193049,128,0,193057:0:0:0:0:
192,192,193049,128,0,193057:0:0:0:0:
320,192,193065,128,0,193073:0:0:0:0:
64,192,193065,128,0,193073:0:0:0:0:
192,192,193081,128,0,193089:0:0:0:0:
448,192,193081,128,0,193089:0:0:0:0:
320,192,193097,128,0,193105:0:0:0:0:
64,192,193097,128,0,193105:0:0:0:0:
448,192,193113,128,0,193121:0:0:0:0:
192,192,193113,128,0,193121:0:0:0:0:
320,192,193129,128,0,193137:0:0:0:0:
64,192,193129,128,0,193137:0:0:0:0:
192,192,193145,128,0,193153:0:0:0:0:
448,192,193145,128,0,193153:0:0:0:0:
64,192,193161,128,0,193169:0:0:0:0:
320,192,193161,128,0,193169:0:0:0:0:
192,192,193177,128,0,193185:0:0:0:0:
448,192,193177,128,0,193185:0:0:0:0:
64,192,193193,128,0,193201:0:0:0:0:
320,192,193193,128,0,193201:0:0:0:0:
448,192,193209,128,0,193217:0:0:0:0:
192,192,193209,128,0,193217:0:0:0:0:
64,192,193225,128,0,193233:0:0:0:0:
320,192,193225,128,0,193233:0:0:0:0:
192,192,193241,128,0,193249:0:0:0:0:
448,192,193241,128,0,193249:0:0:0:0:
64,192,193257,128,0,193265:0:0:0:0:
320,192,193257,128,0,193265:0:0:0:0:
448,192,193273,128,0,193281:0:0:0:0:
192,192,193273,128,0,193281:0:0:0:0:
320,192,193289,128,0,193297:0:0:0:0:
64,192,193289,128,0,193297:0:0:0:0:
448,192,193305,128,0,193313:0:0:0:0:
192,192,193305,128,0,193313:0:0:0:0:
320,192,193321,128,0,193329:0:0:0:0:
64,192,193321,128,0,193329:0:0:0:0:
192,192,193337,128,0,193345:0:0:0:0:
448,192,193337,128,0,193345:0:0:0:0:
320,192,193353,128,0,193361:0:0:0:0:
64,192,193353,128,0,193361:0:0:0:0:
448,192,193369,128,0,193377:0:0:0:0:
192,192,193369,128,0,193377:0:0:0:0:
320,192,193385,128,0,193393:0:0:0:0:
64,192,193385,128,0,193393:0:0:0:0:
192,192,193402,128,0,193408:0:0:0:0:
448,192,193402,128,0,193408:0:0:0:0:
64,192,193418,128,0,193426:0:0:0:0:
320,192,193418,128,0,193426:0:0:0:0:
192,192,193434,128,0,193442:0:0:0:0:
448,192,193434,128,0,193442:0:0:0:0:
64,192,193450,128,0,193458:0:0:0:0:
320,192,193450,128,0,193458:0:0:0:0:
448,192,193466,128,0,193474:0:0:0:0:
192,192,193466,128,0,193474:0:0:0:0:
64,192,193482,128,0,193490:0:0:0:0:
320,192,193482,128,0,193490:0:0:0:0:
192,192,193498,128,0,193506:0:0:0:0:
448,192,193498,128,0,193506:0:0:0:0:
64,192,193514,128,0,193522:0:0:0:0:
320,192,193514,128,0,193522:0:0:0:0:
448,192,193530,128,0,193538:0:0:0:0:
192,192,193530,128,0,193538:0:0:0:0:
64,192,193546,128,0,193554:0:0:0:0:
192,192,193554,128,0,193562:0:0:0:0:
320,192,193562,128,0,193570:0:0:0:0:
448,192,193570,128,0,193578:0:0:0:0:
64,192,193586,128,0,193594:0:0:0:0:
192,192,193594,128,0,193602:0:0:0:0:
320,192,193602,128,0,193610:0:0:0:0:
448,192,193610,128,0,193618:0:0:0:0:
64,192,193626,128,0,193634:0:0:0:0:
192,192,193634,128,0,193642:0:0:0:0:
320,192,193642,128,0,193650:0:0:0:0:
448,192,193650,128,0,193658:0:0:0:0:
64,192,193666,128,0,193674:0:0:0:0:
192,192,193674,128,0,193682:0:0:0:0:
320,192,193682,128,0,193690:0:0:0:0:
448,192,193690,128,0,193698:0:0:0:0:
64,192,193706,128,0,193714:0:0:0:0:
192,192,193714,128,0,193722:0:0:0:0:
320,192,193722,128,0,193730:0:0:0:0:
448,192,193730,128,0,193738:0:0:0:0:
64,192,193746,128,0,193754:0:0:0:0:
192,192,193754,128,0,193762:0:0:0:0:
320,192,193762,128,0,193770:0:0:0:0:
448,192,193770,128,0,193778:0:0:0:0:
64,192,193786,128,0,193794:0:0:0:0:
192,192,193794,128,0,193802:0:0:0:0:
320,192,193802,128,0,193810:0:0:0:0:
448,192,193810,128,0,193818:0:0:0:0:
64,192,193826,128,0,193834:0:0:0:0:
192,192,193834,128,0,193842:0:0:0:0:
320,192,193842,128,0,193850:0:0:0:0:
448,192,193850,128,0,193858:0:0:0:0:
64,192,193866,128,0,193874:0:0:0:0:
192,192,193874,128,0,193882:0:0:0:0:
320,192,193882,128,0,193890:0:0:0:0:
448,192,193890,128,0,193898:0:0:0:0:
64,192,193906,128,0,193914:0:0:0:0:
192,192,193914,128,0,193922:0:0:0:0:
320,192,193922,128,0,193930:0:0:0:0:
448,192,193930,128,0,193938:0:0:0:0:
64,192,193946,128,0,193954:0:0:0:0:
192,192,193954,128,0,193962:0:0:0:0:
320,192,193962,128,0,193970:0:0:0:0:
448,192,193970,128,0,193978:0:0:0:0:
64,192,193986,128,0,193994:0:0:0:0:
192,192,193994,128,0,194002:0:0:0:0:
320,192,194002,128,0,194010:0:0:0:0:
448,192,194010,128,0,194018:0:0:0:0:
64,192,194027,128,0,194035:0:0:0:0:
192,192,194035,128,0,194043:0:0:0:0:
320,192,194043,128,0,194051:0:0:0:0:
448,192,194051,128,0,194059:0:0:0:0:
64,192,194067,128,0,194075:0:0:0:0:
192,192,194075,128,0,194083:0:0:0:0:
320,192,194083,128,0,194091:0:0:0:0:
448,192,194091,128,0,194099:0:0:0:0:
64,192,194107,128,0,194115:0:0:0:0:
192,192,194115,128,0,194123:0:0:0:0:
320,192,194123,128,0,194131:0:0:0:0:
448,192,194131,128,0,194139:0:0:0:0:
64,192,194147,128,0,194155:0:0:0:0:
192,192,194155,128,0,194163:0:0:0:0:
320,192,194163,128,0,194171:0:0:0:0:
448,192,194171,128,0,194179:0:0:0:0:
64,192,194187,128,0,194195:0:0:0:0:
192,192,194195,128,0,194203:0:0:0:0:
320,192,194203,128,0,194211:0:0:0:0:
448,192,194211,128,0,194219:0:0:0:0:
64,192,194227,128,0,194235:0:0:0:0:
192,192,194235,128,0,194243:0:0:0:0:
320,192,194243,128,0,194251:0:0:0:0:
448,192,194251,128,0,194259:0:0:0:0:
64,192,194267,128,0,194275:0:0:0:0:
192,192,194275,128,0,194283:0:0:0:0:
320,192,194283,128,0,194291:0:0:0:0:
448,192,194291,128,0,194299:0:0:0:0:
64,192,194315,128,0,194700:0:0:0:0:
192,192,194315,128,0,194323:0:0:0:0:
320,192,194323,128,0,194331:0:0:0:0:
448,192,194331,128,0,194339:0:0:0:0:
192,192,194339,128,0,194347:0:0:0:0:
320,192,194347,128,0,194355:0:0:0:0:
448,192,194355,128,0,194363:0:0:0:0:
192,192,194363,128,0,194371:0:0:0:0:
320,192,194371,128,0,194379:0:0:0:0:
448,192,194379,128,0,194387:0:0:0:0:
192,192,194387,128,0,194395:0:0:0:0:
320,192,194395,128,0,194403:0:0:0:0:
448,192,194403,128,0,194411:0:0:0:0:
192,192,194411,128,0,194419:0:0:0:0:
320,192,194419,128,0,194427:0:0:0:0:
448,192,194427,128,0,194435:0:0:0:0:
192,192,194435,128,0,194443:0:0:0:0:
320,192,194443,128,0,194451:0:0:0:0:
448,192,194451,128,0,194459:0:0:0:0:
192,192,194459,128,0,194467:0:0:0:0:
320,192,194467,128,0,194475:0:0:0:0:
448,192,194475,128,0,194483:0:0:0:0:
192,192,194483,128,0,194491:0:0:0:0:
320,192,194491,128,0,194499:0:0:0:0:
448,192,194499,128,0,194507:0:0:0:0:
192,192,194507,128,0,194515:0:0:0:0:
320,192,194515,128,0,194523:0:0:0:0:
448,192,194523,128,0,194531:0:0:0:0:
192,192,194531,128,0,194539:0:0:0:0:
320,192,194539,128,0,194547:0:0:0:0:
448,192,194547,128,0,194555:0:0:0:0:
192,192,194555,128,0,194563:0:0:0:0:
320,192,194563,128,0,194571:0:0:0:0:
448,192,194571,128,0,194579:0:0:0:0:
192,192,194579,128,0,194587:0:0:0:0:
320,192,194587,128,0,194595:0:0:0:0:
448,192,194595,128,0,194603:0:0:0:0:
192,192,194603,128,0,194611:0:0:0:0:
320,192,194611,128,0,194619:0:0:0:0:
448,192,194619,128,0,194627:0:0:0:0:
192,192,194627,128,0,194635:0:0:0:0:
320,192,194635,128,0,194643:0:0:0:0:
448,192,194643,128,0,194652:0:0:0:0:
192,192,194652,128,0,194660:0:0:0:0:
320,192,194660,128,0,194668:0:0:0:0:
448,192,194668,128,0,194676:0:0:0:0:
192,192,194676,128,0,194684:0:0:0:0:
320,192,194684,128,0,194692:0:0:0:0:
448,192,194692,128,0,194700:0:0:0:0:
192,192,194700,128,0,195084:0:0:0:0:
320,192,194700,128,0,194708:0:0:0:0:
64,192,194708,128,0,194716:0:0:0:0:
448,192,194716,128,0,194724:0:0:0:0:
320,192,194716,128,0,194724:0:0:0:0:
64,192,194724,128,0,194732:0:0:0:0:
448,192,194732,128,0,194740:0:0:0:0:
320,192,194732,128,0,194740:0:0:0:0:
64,192,194740,128,0,194748:0:0:0:0:
448,192,194748,128,0,194756:0:0:0:0:
320,192,194748,128,0,194756:0:0:0:0:
64,192,194756,128,0,194764:0:0:0:0:
448,192,194764,128,0,194772:0:0:0:0:
320,192,194764,128,0,194772:0:0:0:0:
64,192,194772,128,0,194780:0:0:0:0:
448,192,194780,128,0,194788:0:0:0:0:
320,192,194780,128,0,194788:0:0:0:0:
64,192,194788,128,0,194796:0:0:0:0:
448,192,194796,128,0,194804:0:0:0:0:
320,192,194796,128,0,194804:0:0:0:0:
64,192,194804,128,0,194812:0:0:0:0:
448,192,194812,128,0,194820:0:0:0:0:
320,192,194812,128,0,194820:0:0:0:0:
64,192,194820,128,0,194828:0:0:0:0:
448,192,194828,128,0,194836:0:0:0:0:
320,192,194828,128,0,194836:0:0:0:0:
64,192,194836,128,0,194844:0:0:0:0:
448,192,194844,128,0,194852:0:0:0:0:
320,192,194844,128,0,194852:0:0:0:0:
64,192,194852,128,0,194860:0:0:0:0:
448,192,194860,128,0,194868:0:0:0:0:
320,192,194860,128,0,194868:0:0:0:0:
64,192,194868,128,0,194876:0:0:0:0:
448,192,194876,128,0,194884:0:0:0:0:
320,192,194876,128,0,194884:0:0:0:0:
64,192,194884,128,0,194892:0:0:0:0:
448,192,194892,128,0,194900:0:0:0:0:
320,192,194892,128,0,194900:0:0:0:0:
64,192,194900,128,0,194908:0:0:0:0:
448,192,194908,128,0,194916:0:0:0:0:
320,192,194908,128,0,194916:0:0:0:0:
64,192,194916,128,0,194924:0:0:0:0:
448,192,194924,128,0,194932:0:0:0:0:
320,192,194924,128,0,194932:0:0:0:0:
64,192,194932,128,0,194940:0:0:0:0:
448,192,194940,128,0,194948:0:0:0:0:
320,192,194940,128,0,194948:0:0:0:0:
64,192,194948,128,0,194956:0:0:0:0:
448,192,194956,128,0,194964:0:0:0:0:
320,192,194956,128,0,194964:0:0:0:0:
64,192,194964,128,0,194972:0:0:0:0:
448,192,194972,128,0,194980:0:0:0:0:
320,192,194972,128,0,194980:0:0:0:0:
64,192,194980,128,0,194988:0:0:0:0:
448,192,194988,128,0,194996:0:0:0:0:
320,192,194988,128,0,194996:0:0:0:0:
64,192,194996,128,0,195004:0:0:0:0:
448,192,195004,128,0,195012:0:0:0:0:
320,192,195004,128,0,195012:0:0:0:0:
64,192,195012,128,0,195020:0:0:0:0:
448,192,195020,128,0,195028:0:0:0:0:
320,192,195020,128,0,195028:0:0:0:0:
64,192,195028,128,0,195036:0:0:0:0:
448,192,195036,128,0,195044:0:0:0:0:
320,192,195036,128,0,195044:0:0:0:0:
64,192,195044,128,0,195052:0:0:0:0:
448,192,195052,128,0,195060:0:0:0:0:
320,192,195052,128,0,195060:0:0:0:0:
64,192,195060,128,0,195068:0:0:0:0:
448,192,195068,128,0,195076:0:0:0:0:
448,192,195084,128,0,195469:0:0:0:0:
320,192,195084,128,0,195092:0:0:0:0:
64,192,195092,128,0,195100:0:0:0:0:
192,192,195100,128,0,195108:0:0:0:0:
320,192,195108,128,0,195116:0:0:0:0:
64,192,195116,128,0,195124:0:0:0:0:
192,192,195124,128,0,195132:0:0:0:0:
320,192,195132,128,0,195140:0:0:0:0:
64,192,195140,128,0,195148:0:0:0:0:
192,192,195148,128,0,195156:0:0:0:0:
320,192,195156,128,0,195164:0:0:0:0:
64,192,195164,128,0,195172:0:0:0:0:
192,192,195172,128,0,195180:0:0:0:0:
320,192,195180,128,0,195188:0:0:0:0:
64,192,195188,128,0,195196:0:0:0:0:
192,192,195196,128,0,195204:0:0:0:0:
320,192,195204,128,0,195212:0:0:0:0:
64,192,195212,128,0,195220:0:0:0:0:
192,192,195220,128,0,195228:0:0:0:0:
320,192,195228,128,0,195236:0:0:0:0:
64,192,195236,128,0,195244:0:0:0:0:
192,192,195244,128,0,195252:0:0:0:0:
320,192,195252,128,0,195260:0:0:0:0:
64,192,195260,128,0,195268:0:0:0:0:
192,192,195268,128,0,195277:0:0:0:0:
320,192,195277,128,0,195285:0:0:0:0:
64,192,195285,128,0,195293:0:0:0:0:
192,192,195293,128,0,195301:0:0:0:0:
320,192,195301,128,0,195309:0:0:0:0:
64,192,195309,128,0,195317:0:0:0:0:
192,192,195317,128,0,195325:0:0:0:0:
320,192,195325,128,0,195333:0:0:0:0:
64,192,195333,128,0,195341:0:0:0:0:
192,192,195341,128,0,195349:0:0:0:0:
320,192,195349,128,0,195357:0:0:0:0:
64,192,195357,128,0,195365:0:0:0:0:
192,192,195365,128,0,195373:0:0:0:0:
320,192,195373,128,0,195381:0:0:0:0:
64,192,195381,128,0,195389:0:0:0:0:
192,192,195389,128,0,195397:0:0:0:0:
320,192,195397,128,0,195405:0:0:0:0:
64,192,195405,128,0,195413:0:0:0:0:
192,192,195413,128,0,195421:0:0:0:0:
320,192,195421,128,0,195429:0:0:0:0:
64,192,195429,128,0,195437:0:0:0:0:
192,192,195437,128,0,195445:0:0:0:0:
320,192,195445,128,0,195453:0:0:0:0:
64,192,195453,128,0,195461:0:0:0:0:
192,192,195461,128,0,195469:0:0:0:0:
320,192,195469,128,0,195853:0:0:0:0:
64,192,195477,128,0,195485:0:0:0:0:
192,192,195485,128,0,195493:0:0:0:0:
448,192,195493,128,0,195501:0:0:0:0:
64,192,195501,128,0,195509:0:0:0:0:
192,192,195509,128,0,195517:0:0:0:0:
448,192,195517,128,0,195525:0:0:0:0:
64,192,195525,128,0,195533:0:0:0:0:
192,192,195533,128,0,195541:0:0:0:0:
448,192,195541,128,0,195549:0:0:0:0:
64,192,195549,128,0,195557:0:0:0:0:
192,192,195557,128,0,195565:0:0:0:0:
448,192,195565,128,0,195573:0:0:0:0:
64,192,195573,128,0,195581:0:0:0:0:
192,192,195581,128,0,195589:0:0:0:0:
448,192,195589,128,0,195597:0:0:0:0:
64,192,195597,128,0,195605:0:0:0:0:
192,192,195605,128,0,195613:0:0:0:0:
448,192,195613,128,0,195621:0:0:0:0:
64,192,195621,128,0,195629:0:0:0:0:
192,192,195629,128,0,195637:0:0:0:0:
448,192,195637,128,0,195645:0:0:0:0:
64,192,195645,128,0,195653:0:0:0:0:
192,192,195653,128,0,195661:0:0:0:0:
448,192,195661,128,0,195669:0:0:0:0:
64,192,195669,128,0,195677:0:0:0:0:
192,192,195677,128,0,195685:0:0:0:0:
448,192,195685,128,0,195693:0:0:0:0:
64,192,195693,128,0,195701:0:0:0:0:
192,192,195701,128,0,195709:0:0:0:0:
448,192,195709,128,0,195717:0:0:0:0:
64,192,195717,128,0,195725:0:0:0:0:
192,192,195725,128,0,195733:0:0:0:0:
448,192,195733,128,0,195741:0:0:0:0:
64,192,195741,128,0,195749:0:0:0:0:
192,192,195749,128,0,195757:0:0:0:0:
448,192,195757,128,0,195765:0:0:0:0:
64,192,195765,128,0,195773:0:0:0:0:
192,192,195773,128,0,195781:0:0:0:0:
448,192,195781,128,0,195789:0:0:0:0:
64,192,195789,128,0,195797:0:0:0:0:
192,192,195797,128,0,195805:0:0:0:0:
448,192,195805,128,0,195813:0:0:0:0:
64,192,195813,128,0,195821:0:0:0:0:
192,192,195821,128,0,195829:0:0:0:0:
448,192,195829,128,0,195837:0:0:0:0:
64,192,195837,128,0,195845:0:0:0:0:
192,192,195845,128,0,195853:0:0:0:0:
64,192,195854,1,0,0:0:0:0:
448,192,195854,1,0,0:0:0:0:
64,192,195982,1,0,0:0:0:0:
192,192,195982,1,0,0:0:0:0:
320,192,195982,1,0,0:0:0:0:
448,192,195982,1,0,0:0:0:0:
64,192,196110,1,0,0:0:0:0:
192,192,196110,1,0,0:0:0:0:
320,192,196110,1,0,0:0:0:0:
448,192,196110,1,0,0:0:0:0:
64,192,196238,1,0,0:0:0:0:
192,192,196238,1,0,0:0:0:0:
320,192,196238,1,0,0:0:0:0:
448,192,196238,1,0,0:0:0:0:
64,192,196367,1,0,0:0:0:0:
192,192,196367,1,0,0:0:0:0:
320,192,196367,1,0,0:0:0:0:
448,192,196367,1,0,0:0:0:0:
64,192,196495,1,0,0:0:0:0:
192,192,196495,1,0,0:0:0:0:
320,192,196495,1,0,0:0:0:0:
448,192,196495,1,0,0:0:0:0:
64,192,196623,1,0,0:0:0:0:
192,192,196623,1,0,0:0:0:0:
320,192,196623,1,0,0:0:0:0:
448,192,196623,1,0,0:0:0:0:
64,192,196751,128,0,196783:0:0:0:0:
192,192,196751,1,0,0:0:0:0:
320,192,196751,128,0,196783:0:0:0:0:
448,192,196751,1,0,0:0:0:0:
320,192,196879,128,0,196912:0:0:0:0:
64,192,196879,128,0,196912:0:0:0:0:
448,192,196879,1,0,0:0:0:0:
192,192,196879,1,0,0:0:0:0:
448,192,197008,1,0,0:0:0:0:
192,192,197008,1,0,0:0:0:0:
320,192,197008,128,0,197040:0:0:0:0:
64,192,197008,128,0,197040:0:0:0:0:
320,192,197136,128,0,197168:0:0:0:0:
64,192,197136,128,0,197168:0:0:0:0:
448,192,197136,1,0,0:0:0:0:
192,192,197136,1,0,0:0:0:0:
448,192,197264,1,0,0:0:0:0:
192,192,197264,1,0,0:0:0:0:
320,192,197264,128,0,197296:0:0:0:0:
64,192,197264,128,0,197296:0:0:0:0:
64,192,197392,1,0,0:0:0:0:
192,192,197392,1,0,0:0:0:0:
320,192,197392,1,0,0:0:0:0:
192,192,197456,1,0,0:0:0:0:
320,192,197456,1,0,0:0:0:0:
448,192,197456,1,0,0:0:0:0:
64,192,197520,1,0,0:0:0:0:
192,192,197520,1,0,0:0:0:0:
320,192,197520,1,0,0:0:0:0:
192,192,197585,1,0,0:0:0:0:
320,192,197585,1,0,0:0:0:0:
448,192,197585,1,0,0:0:0:0:
320,192,197649,1,0,0:0:0:0:
192,192,197649,1,0,0:0:0:0:
64,192,197649,1,0,0:0:0:0:
320,192,197713,1,0,0:0:0:0:
448,192,197713,1,0,0:0:0:0:
192,192,197713,1,0,0:0:0:0:
320,192,197777,1,0,0:0:0:0:
192,192,197777,1,0,0:0:0:0:
64,192,197777,1,0,0:0:0:0:
192,192,197841,1,0,0:0:0:0:
320,192,197841,1,0,0:0:0:0:
448,192,197841,1,0,0:0:0:0:
64,192,197905,1,0,0:0:0:0:
192,192,197905,1,0,0:0:0:0:
320,192,197905,1,0,0:0:0:0:
192,192,197969,1,0,0:0:0:0:
448,192,197969,1,0,0:0:0:0:
320,192,197969,1,0,0:0:0:0:
64,192,198033,1,0,0:0:0:0:
192,192,198033,1,0,0:0:0:0:
320,192,198033,1,0,0:0:0:0:
448,192,198097,1,0,0:0:0:0:
320,192,198097,1,0,0:0:0:0:
192,192,198097,1,0,0:0:0:0:
64,192,198162,128,0,198899:0:0:0:0:
320,192,198162,1,0,0:0:0:0:
448,192,198162,1,0,0:0:0:0:
320,192,198290,1,0,0:0:0:0:
448,192,198290,1,0,0:0:0:0:
320,192,198418,1,0,0:0:0:0:
448,192,198418,1,0,0:0:0:0:
320,192,198546,128,0,198899:0:0:0:0:
192,192,198546,1,0,0:0:0:0:
448,192,198546,1,0,0:0:0:0:
192,192,198674,1,0,0:0:0:0:
448,192,198674,1,0,0:0:0:0:
192,192,198803,1,0,0:0:0:0:
448,192,198803,1,0,0:0:0:0:
64,192,198931,128,0,200469:0:0:0:0:
192,192,198931,128,0,200469:0:0:0:0:
448,192,198931,128,0,200469:0:0:0:0:
320,192,198931,128,0,200469:0:0:0:0:
64,192,200597,1,0,0:0:0:0:
192,192,200597,1,0,0:0:0:0:
320,192,200597,1,0,0:0:0:0:
448,192,200597,1,0,0:0:0:0:
64,192,200726,1,0,0:0:0:0:
192,192,200726,1,0,0:0:0:0:
320,192,200726,1,0,0:0:0:0:
448,192,200726,1,0,0:0:0:0:
64,192,200854,1,0,0:0:0:0:
192,192,200854,1,0,0:0:0:0:
320,192,200854,1,0,0:0:0:0:
448,192,200854,1,0,0:0:0:0:
64,192,200982,1,0,0:0:0:0:
192,192,200982,1,0,0:0:0:0:
320,192,200982,1,0,0:0:0:0:
448,192,200982,1,0,0:0:0:0:
64,192,201110,1,0,0:0:0:0:
192,192,201110,1,0,0:0:0:0:
320,192,201110,1,0,0:0:0:0:
448,192,201110,1,0,0:0:0:0:
64,192,201238,1,0,0:0:0:0:
320,192,201238,1,0,0:0:0:0:
192,192,201270,1,0,0:0:0:0:
448,192,201270,1,0,0:0:0:0:
64,192,201367,1,0,0:0:0:0:
320,192,201367,1,0,0:0:0:0:
448,192,201399,1,0,0:0:0:0:
192,192,201399,1,0,0:0:0:0:
320,192,201495,1,0,0:0:0:0:
64,192,201495,1,0,0:0:0:0:
192,192,201527,1,0,0:0:0:0:
448,192,201527,1,0,0:0:0:0:
64,192,201623,1,0,0:0:0:0:
320,192,201623,1,0,0:0:0:0:
448,192,201655,1,0,0:0:0:0:
192,192,201655,1,0,0:0:0:0:
320,192,201751,1,0,0:0:0:0:
64,192,201751,1,0,0:0:0:0:
192,192,201783,1,0,0:0:0:0:
448,192,201783,1,0,0:0:0:0:
64,192,201879,1,0,0:0:0:0:
320,192,201879,1,0,0:0:0:0:
448,192,201912,1,0,0:0:0:0:
192,192,201912,1,0,0:0:0:0:
64,192,202008,1,0,0:0:0:0:
192,192,202008,1,0,0:0:0:0:
320,192,202040,1,0,0:0:0:0:
448,192,202040,1,0,0:0:0:0:
192,192,202136,1,0,0:0:0:0:
320,192,202136,1,0,0:0:0:0:
64,192,202168,1,0,0:0:0:0:
448,192,202168,1,0,0:0:0:0:
448,192,202264,1,0,0:0:0:0:
192,192,202264,1,0,0:0:0:0:
64,192,202264,1,0,0:0:0:0:
320,192,202296,1,0,0:0:0:0:
192,192,202392,1,0,0:0:0:0:
64,192,202424,1,0,0:0:0:0:
320,192,202424,1,0,0:0:0:0:
448,192,202424,1,0,0:0:0:0:
64,192,202520,1,0,0:0:0:0:
192,192,202520,1,0,0:0:0:0:
320,192,202553,1,0,0:0:0:0:
448,192,202553,1,0,0:0:0:0:
192,192,202649,1,0,0:0:0:0:
320,192,202649,1,0,0:0:0:0:
64,192,202681,1,0,0:0:0:0:
448,192,202681,1,0,0:0:0:0:
448,192,202777,1,0,0:0:0:0:
192,192,202777,1,0,0:0:0:0:
64,192,202777,1,0,0:0:0:0:
320,192,202809,1,0,0:0:0:0:
192,192,202905,1,0,0:0:0:0:
64,192,202937,1,0,0:0:0:0:
320,192,202937,1,0,0:0:0:0:
448,192,202937,1,0,0:0:0:0:
192,192,203033,1,0,0:0:0:0:
64,192,203033,1,0,0:0:0:0:
448,192,203065,1,0,0:0:0:0:
320,192,203065,1,0,0:0:0:0:
320,192,203162,1,0,0:0:0:0:
192,192,203162,1,0,0:0:0:0:
448,192,203194,1,0,0:0:0:0:
64,192,203194,1,0,0:0:0:0:
64,192,203290,1,0,0:0:0:0:
192,192,203290,1,0,0:0:0:0:
448,192,203290,1,0,0:0:0:0:
320,192,203322,1,0,0:0:0:0:
192,192,203418,1,0,0:0:0:0:
448,192,203450,1,0,0:0:0:0:
320,192,203450,1,0,0:0:0:0:
64,192,203450,1,0,0:0:0:0:
64,192,203546,128,0,203578:0:0:0:0:
192,192,203546,128,0,203578:0:0:0:0:
320,192,203546,128,0,203578:0:0:0:0:
448,192,203546,128,0,203610:0:0:0:0:
64,192,203674,128,0,203738:0:0:0:0:
192,192,203674,128,0,203706:0:0:0:0:
320,192,203674,128,0,203770:0:0:0:0:
448,192,203674,128,0,203706:0:0:0:0:
64,192,203803,128,0,203835:0:0:0:0:
192,192,203803,128,0,203867:0:0:0:0:
320,192,203803,128,0,203835:0:0:0:0:
448,192,203803,128,0,203835:0:0:0:0:
64,192,203931,128,0,203963:0:0:0:0:
192,192,203931,128,0,203995:0:0:0:0:
320,192,203931,128,0,204027:0:0:0:0:
448,192,203931,128,0,203995:0:0:0:0:
64,192,204059,128,0,204091:0:0:0:0:
192,192,204059,128,0,204123:0:0:0:0:
320,192,204059,128,0,204091:0:0:0:0:
448,192,204059,128,0,204155:0:0:0:0:
64,192,204187,128,0,204219:0:0:0:0:
192,192,204187,128,0,204251:0:0:0:0:
320,192,204187,128,0,204219:0:0:0:0:
448,192,204187,128,0,204219:0:0:0:0:
320,192,204315,128,0,204347:0:0:0:0:
448,192,204315,128,0,204347:0:0:0:0:
192,192,204315,128,0,204412:0:0:0:0:
64,192,204315,128,0,204347:0:0:0:0:
64,192,204444,128,0,204540:0:0:0:0:
192,192,204444,128,0,204508:0:0:0:0:
320,192,204444,128,0,204508:0:0:0:0:
448,192,204444,1,0,0:0:0:0:
64,192,204572,128,0,204604:0:0:0:0:
192,192,204572,128,0,204636:0:0:0:0:
320,192,204572,128,0,204604:0:0:0:0:
448,192,204572,128,0,204668:0:0:0:0:
64,192,204700,128,0,204732:0:0:0:0:
192,192,204700,128,0,204732:0:0:0:0:
320,192,204700,128,0,204732:0:0:0:0:
448,192,204700,128,0,204796:0:0:0:0:
320,192,204828,128,0,204860:0:0:0:0:
448,192,204828,128,0,204860:0:0:0:0:
192,192,204828,128,0,204892:0:0:0:0:
64,192,204828,128,0,204924:0:0:0:0:
64,192,204956,128,0,204988:0:0:0:0:
192,192,204956,128,0,204988:0:0:0:0:
320,192,204956,128,0,205053:0:0:0:0:
448,192,204956,128,0,205053:0:0:0:0:
448,192,205085,128,0,208162:0:0:0:0:
64,192,205085,128,0,208162:0:0:0:0:
192,192,205085,128,0,205117:0:0:0:0:
320,192,205213,128,0,205245:0:0:0:0:
192,192,205341,128,0,205373:0:0:0:0:
320,192,205469,128,0,205501:0:0:0:0:
192,192,205597,128,0,205629:0:0:0:0:
320,192,205726,128,0,205758:0:0:0:0:
192,192,205854,128,0,205886:0:0:0:0:
320,192,205982,128,0,206014:0:0:0:0:
192,192,206110,128,0,206142:0:0:0:0:
320,192,206238,128,0,206270:0:0:0:0:
192,192,206367,128,0,206399:0:0:0:0:
320,192,206495,128,0,206527:0:0:0:0:
192,192,206623,128,0,206719:0:0:0:0:
320,192,206751,128,0,206783:0:0:0:0:
192,192,206879,128,0,206976:0:0:0:0:
320,192,207008,128,0,207040:0:0:0:0:
192,192,207136,128,0,207232:0:0:0:0:
320,192,207264,128,0,207296:0:0:0:0:
192,192,207392,128,0,207488:0:0:0:0:
320,192,207520,128,0,207553:0:0:0:0:
192,192,207649,128,0,207745:0:0:0:0:
320,192,207777,128,0,207809:0:0:0:0:
192,192,207905,128,0,208001:0:0:0:0:
320,192,208033,128,0,208065:0:0:0:0:
192,192,208162,1,0,0:0:0:0:
320,192,208162,1,0,0:0:0:0:
64,192,208290,1,0,0:0:0:0:
448,192,208290,1,0,0:0:0:0:
192,192,208418,1,0,0:0:0:0:
320,192,208418,1,0,0:0:0:0:
64,192,208546,1,0,0:0:0:0:
448,192,208546,1,0,0:0:0:0:
64,192,208931,1,0,0:0:0:0:
192,192,208931,1,0,0:0:0:0:
448,192,208931,1,0,0:0:0:0:
448,192,209059,1,0,0:0:0:0:
320,192,209059,1,0,0:0:0:0:
64,192,209059,1,0,0:0:0:0:
64,192,209187,1,0,0:0:0:0:
192,192,209187,1,0,0:0:0:0:
448,192,209187,1,0,0:0:0:0:
320,192,209315,1,0,0:0:0:0:
448,192,209315,1,0,0:0:0:0:
64,192,209315,1,0,0:0:0:0:
64,192,209700,128,0,209828:0:0:0:0:
192,192,209700,128,0,209828:0:0:0:0:
320,192,209700,128,0,209828:0:0:0:0:
448,192,209700,128,0,209828:0:0:0:0:
448,192,209828,128,0,209956:0:0:0:0:
320,192,209828,128,0,209956:0:0:0:0:
192,192,209828,128,0,209956:0:0:0:0:
64,192,209828,128,0,209956:0:0:0:0:
192,192,209956,128,0,210085:0:0:0:0:
64,192,209956,128,0,210085:0:0:0:0:
448,192,209956,128,0,210085:0:0:0:0:
320,192,209956,128,0,210085:0:0:0:0:
448,192,210085,128,0,210213:0:0:0:0:
320,192,210085,128,0,210213:0:0:0:0:
192,192,210085,128,0,210213:0:0:0:0:
64,192,210085,128,0,210213:0:0:0:0:
192,192,210213,128,0,210341:0:0:0:0:
448,192,210213,128,0,210341:0:0:0:0:
320,192,210213,128,0,210341:0:0:0:0:
64,192,210213,128,0,210341:0:0:0:0:
64,192,210469,1,0,0:0:0:0:
192,192,210469,1,0,0:0:0:0:
320,192,210469,1,0,0:0:0:0:
448,192,210469,1,0,0:0:0:0:
64,192,210854,1,0,0:0:0:0:
192,192,210886,1,0,0:0:0:0:
320,192,210918,1,0,0:0:0:0:
448,192,210950,1,0,0:0:0:0:
64,192,210982,1,0,0:0:0:0:
192,192,211014,1,0,0:0:0:0:
320,192,211046,1,0,0:0:0:0:
448,192,211078,1,0,0:0:0:0:
64,192,211110,1,0,0:0:0:0:
192,192,211142,1,0,0:0:0:0:
320,192,211174,1,0,0:0:0:0:
448,192,211206,1,0,0:0:0:0:
64,192,211238,1,0,0:0:0:0:
192,192,211238,1,0,0:0:0:0:
320,192,211367,1,0,0:0:0:0:
448,192,211367,1,0,0:0:0:0:
64,192,211495,1,0,0:0:0:0:
192,192,211495,1,0,0:0:0:0:
320,192,211623,1,0,0:0:0:0:
448,192,211623,1,0,0:0:0:0:
64,192,212008,1,0,0:0:0:0:
192,192,212008,1,0,0:0:0:0:
320,192,212008,1,0,0:0:0:0:
192,192,212136,1,0,0:0:0:0:
320,192,212136,1,0,0:0:0:0:
448,192,212136,1,0,0:0:0:0:
64,192,212264,1,0,0:0:0:0:
192,192,212264,1,0,0:0:0:0:
320,192,212264,1,0,0:0:0:0:
192,192,212392,1,0,0:0:0:0:
320,192,212392,1,0,0:0:0:0:
448,192,212392,1,0,0:0:0:0:
64,192,212777,1,0,0:0:0:0:
192,192,212777,1,0,0:0:0:0:
320,192,212777,1,0,0:0:0:0:
448,192,212777,1,0,0:0:0:0:
64,192,212905,1,0,0:0:0:0:
192,192,212905,128,0,212937:0:0:0:0:
320,192,212905,1,0,0:0:0:0:
448,192,212905,128,0,212937:0:0:0:0:
64,192,213033,128,0,213065:0:0:0:0:
192,192,213033,128,0,213097:0:0:0:0:
320,192,213033,128,0,213065:0:0:0:0:
448,192,213033,128,0,213097:0:0:0:0:
64,192,213162,128,0,213226:0:0:0:0:
192,192,213162,128,0,213258:0:0:0:0:
320,192,213162,128,0,213226:0:0:0:0:
448,192,213162,128,0,213258:0:0:0:0:
64,192,213290,128,0,213322:0:0:0:0:
192,192,213290,128,0,213322:0:0:0:0:
320,192,213290,128,0,213386:0:0:0:0:
448,192,213290,128,0,213386:0:0:0:0:
64,192,213354,1,0,0:0:0:0:
192,192,213354,1,0,0:0:0:0:
64,192,213418,1,0,0:0:0:0:
192,192,213418,1,0,0:0:0:0:
64,192,213546,1,0,0:0:0:0:
192,192,213546,1,0,0:0:0:0:
320,192,213546,1,0,0:0:0:0:
448,192,213546,1,0,0:0:0:0:
64,192,213931,1,0,0:0:0:0:
192,192,213935,1,0,0:0:0:0:
320,192,213939,1,0,0:0:0:0:
448,192,213943,1,0,0:0:0:0:
64,192,214315,128,0,214347:0:0:0:0:
192,192,214315,128,0,214379:0:0:0:0:
320,192,214315,128,0,214444:0:0:0:0:
448,192,214315,128,0,214604:0:0:0:0:
