osu file format v14

[General]
AudioFilename: UkigumoforAR11.mp3
AudioLeadIn: 0
PreviewTime: 137464
Countdown: 0
SampleSet: Soft
StackLeniency: 0.3
Mode: 0
LetterboxInBreaks: 1
WidescreenStoryboard: 1

[Editor]
DistanceSpacing: 1.2
BeatDivisor: 4
GridSize: 4
TimelineZoom: 2.384

[Metadata]
Title:ukigumo
TitleUnicode:ukigumo
Artist:Hige Driver
ArtistUnicode:ヒゲドライバー
Creator:DsG
Version:DDDot AR10.33 +DT
Source:
Tags:DDDot electronic instrumental
BeatmapID:659794
BeatmapSetID:74115

[Difficulty]
HPDrainRate:2
CircleSize:4
OverallDifficulty:6
ApproachRate:9
SliderMultiplier:1.8
SliderTickRate:1

[Events]
//Background and Video events
0,0,"ddd.png",0,0
//Break Periods
//Storyboard Layer 0 (Background)
//Storyboard Layer 1 (Fail)
//Storyboard Layer 2 (Pass)
//Storyboard Layer 3 (Foreground)
//Storyboard Layer 4 (Overlay)
//Storyboard Sound Samples

[TimingPoints]
4074,505.265613001012,4,2,0,40,1,0
32368,-100,4,1,0,37,0,0
48536,-100,4,1,0,60,0,1
64705,-100,4,2,0,55,0,0
80114,-100,4,1,0,65,0,0
80874,-100,4,1,0,60,0,1
97042,-100,4,2,0,60,0,0
112452,-100,4,1,0,60,0,0
113210,-76.9230769230769,4,1,0,60,0,0
129379,-133.333333333333,4,2,0,60,0,0
129631,-133.333333333333,4,2,0,5,0,0
130136,-133.333333333333,4,2,0,60,0,0
130642,-133.333333333333,4,2,0,5,0,0
131148,-133.333333333333,4,2,0,60,0,0
131653,-133.333333333333,4,2,0,5,0,0
132157,-133.333333333333,4,2,0,60,0,0
132410,-100,4,2,0,60,0,0
133042,-100,4,2,0,5,0,0
133168,-100,4,2,0,60,0,0
133294,-100,4,2,0,5,0,0
133420,-133.333333333333,4,2,0,60,0,0
133674,-133.333333333333,4,2,0,5,0,0
134179,-133.333333333333,4,2,0,60,0,0
134684,-133.333333333333,4,2,0,5,0,0
135188,-133.333333333333,4,2,0,60,0,0
135442,-100,4,1,0,60,0,0
137462,-66.6666666666667,4,1,0,60,0,1
165631,-66.6666666666667,4,1,0,60,0,0
165757,-50,4,1,0,60,0,1
190010,-66.6666666666667,4,1,0,60,0,0
194053,-100,4,2,0,50,0,0
194305,-100,4,2,0,5,0,0
194810,-100,4,2,0,45,0,0
195316,-100,4,2,0,5,0,0
195822,-100,4,2,0,40,0,0
196327,-100,4,2,0,5,0,0
196831,-100,4,2,0,50,0,0
197084,-76.9230769230769,4,2,0,50,0,0
197716,-76.9230769230769,4,2,0,5,0,0
197842,-76.9230769230769,4,2,0,45,0,0
197968,-76.9230769230769,4,2,0,5,0,0
198094,-100,4,2,0,40,0,0
198348,-100,4,2,0,5,0,0
198853,-100,4,2,0,35,0,0
199358,-100,4,2,0,5,0,0
199862,-100,4,2,0,30,0,0
200368,-100,4,2,0,5,0,0
200874,-100,4,2,0,40,0,0
201127,-76.9230769230769,4,2,0,45,0,0
201758,-76.9230769230769,4,2,0,5,0,0
201884,-76.9230769230769,4,2,0,40,0,0
202010,-76.9230769230769,4,2,0,5,0,0
202136,-100,4,2,0,35,0,0
202390,-100,4,2,0,5,0,0
202896,-100,4,2,0,30,0,0
203400,-100,4,2,0,5,0,0
203905,-100,4,2,0,25,0,0
204410,-100,4,2,0,5,0,0
204916,-100,4,2,0,20,0,0
205168,-76.9230769230769,4,2,0,35,0,0
205800,-76.9230769230769,4,2,0,5,0,0
205927,-76.9230769230769,4,2,0,30,0,0
206053,-76.9230769230769,4,2,0,5,0,0
206179,-133.333333333333,4,2,0,25,0,0
206431,-133.333333333333,4,2,0,5,0,0
206936,-133.333333333333,4,2,0,23,0,0
207190,-200,4,2,0,16,0,0
207442,-200,4,2,0,5,0,0
207948,-200,4,2,0,8,0,0
208200,-200,4,2,0,5,0,0

[Colours]
Combo1 : 255,255,128
Combo2 : 3,165,252
Combo3 : 253,149,151
Combo4 : 164,255,164

[HitObjects]
168,248,4074,6,0,P|160:288|144:344,2,90,0|2|0,0:0|0:0|0:0,0:0:0:0:
88,176,4831,1,2,0:0:0:0:
16,256,5084,1,0,0:0:0:0:
120,264,5337,1,2,0:0:0:0:
216,216,5589,1,0,0:0:0:0:
320,248,5842,1,2,0:0:0:0:
240,320,6095,5,0,0:0:0:0:
288,168,6347,1,2,0:0:0:0:
400,288,6600,1,0,0:0:0:0:
240,320,6852,1,2,0:0:0:0:
128,208,7105,1,0,0:0:0:0:
240,320,7358,1,2,0:0:0:0:
288,168,7610,1,0,0:0:0:0:
128,208,7863,1,2,0:0:0:0:
40,152,8116,6,0,P|24:104|16:56,2,90,0|2|0,0:0|0:0|0:0,0:0:0:0:
136,104,8874,1,2,0:0:0:0:
240,64,9126,2,0,P|256:112|264:160,1,90,0|2,0:0|0:0,0:0:0:0:
152,296,9631,2,0,P|136:248|128:200,1,90,0|2,0:0|0:0,0:0:0:0:
184,120,10137,5,0,0:0:0:0:
336,168,10389,1,2,0:0:0:0:
184,208,10642,1,0,0:0:0:0:
336,256,10895,1,2,0:0:0:0:
184,304,11147,5,0,0:0:0:0:
280,352,11400,1,2,0:0:0:0:
336,256,11652,1,0,0:0:0:0:
240,208,11905,1,2,0:0:0:0:
184,304,12158,5,0,0:0:0:0:
104,232,12410,2,0,P|88:192|80:136,1,90,2|0,0:0|0:0,0:0:0:0:
136,56,12916,1,2,0:0:0:0:
176,152,13168,2,0,P|208:176|256:192,2,90,0|2|0,0:0|0:0|0:0,0:0:0:0:
256,80,13926,1,2,0:0:0:0:
352,136,14179,5,0,0:0:0:0:
336,296,14431,1,2,0:0:0:0:
176,328,14684,1,0,0:0:0:0:
336,296,14937,1,2,0:0:0:0:
208,200,15189,5,0,0:0:0:0:
208,40,15442,1,2,0:0:0:0:
64,120,15695,1,0,0:0:0:0:
72,280,15947,1,2,0:0:0:0:
216,352,16200,6,0,P|240:320|256:272,1,90,0|2,0:0|0:0,0:0:0:0:
320,120,16705,1,0,0:0:0:0:
424,72,16958,1,2,0:0:0:0:
416,192,17210,1,0,0:0:0:0:
288,272,17463,1,2,0:0:0:0:
320,120,17716,1,0,0:0:0:0:
416,192,17968,1,2,0:0:0:0:
472,296,18221,6,0,P|440:328|400:352,1,90,0|2,0:0|0:0,0:0:0:0:
304,232,18726,2,0,P|336:200|376:176,1,90,0|2,0:0|0:0,0:0:0:0:
400,296,19231,1,0,0:0:0:0:
256,344,19484,1,2,0:0:0:0:
152,232,19737,1,0,0:0:0:0:
248,168,19989,1,2,0:0:0:0:
248,288,20242,6,0,P|224:328|192:360,2,90,0|2|0,0:0|0:0|0:0,0:0:0:0:
192,184,21000,1,2,0:0:0:0:
48,128,21253,1,0,0:0:0:0:
72,280,21505,1,2,0:0:0:0:
184,304,21758,1,0,0:0:0:0:
112,208,22010,1,2,0:0:0:0:
16,272,22263,6,0,P|40:304|88:328,2,90,0|2|0,0:0|0:0|0:0,0:0:0:0:
112,208,23021,1,2,0:0:0:0:
152,96,23274,2,0,P|195:118|219:150,1,90,0|2,0:0|0:0,0:0:0:0:
216,264,23779,2,0,B|256:256|256:256|288:216,1,90,0|2,0:0|0:0,0:0:0:0:
320,104,24284,5,0,0:0:0:0:
416,32,24537,1,2,0:0:0:0:
424,152,24789,1,0,0:0:0:0:
320,104,25042,1,2,0:0:0:0:
176,48,25295,1,0,0:0:0:0:
32,104,25547,1,2,0:0:0:0:
152,200,25800,1,0,0:0:0:0:
112,88,26053,1,2,0:0:0:0:
32,168,26305,6,0,L|48:264,1,90,0|2,0:0|0:0,0:0:0:0:
128,344,26810,2,0,L|144:240,1,90,0|2,0:0|0:0,0:0:0:0:
240,192,27316,2,0,L|256:288,1,90,0|2,0:0|0:0,0:0:0:0:
336,368,27821,2,0,L|352:264,1,90,0|2,0:0|0:0,0:0:0:0:
368,160,28326,5,0,0:0:0:0:
472,216,28579,1,2,0:0:0:0:
368,280,28832,1,0,0:0:0:0:
216,248,29084,1,2,0:0:0:0:
160,104,29337,1,0,0:0:0:0:
272,144,29589,1,2,0:0:0:0:
216,248,29842,1,0,0:0:0:0:
72,200,30095,1,2,0:0:0:0:
112,56,30347,6,0,P|119:99|136:160,1,90,0|2,0:0|0:0,0:0:0:0:
264,216,30853,2,0,P|224:200|168:200,1,90,0|2,0:0|0:0,0:0:0:0:
40,264,31358,2,0,P|80:240|120:200,1,90,0|2,0:0|0:0,0:0:0:0:
200,88,31863,2,0,P|232:104|272:144,1,90,0|2,0:0|0:0,0:0:0:0:
200,232,32368,6,0,L|160:264,2,45,0|0|2,0:0|0:0|0:0,0:0:0:0:
296,296,32874,2,0,L|288:344,2,45,0|0|2,0:0|0:0|0:0,0:0:0:0:
416,304,33379,2,0,L|440:360,2,45,0|0|2,0:0|0:0|0:0,0:0:0:0:
352,208,33884,1,0,0:0:0:0:
352,208,34137,1,0,0:0:0:0:
384,96,34389,6,0,L|400:40,2,45,0|0|2,0:0|0:0|0:0,0:0:0:0:
272,128,34895,2,0,L|208:152,2,45,0|0|2,0:0|0:0|0:0,0:0:0:0:
352,208,35400,2,0,L|400:248,2,45,0|0|2,0:0|0:0|0:0,0:0:0:0:
272,128,35905,1,0,0:0:0:0:
272,128,36158,1,0,0:0:0:0:
176,64,36410,6,0,L|160:16,2,45,0|0|2,0:0|0:0|0:0,0:0:0:0:
56,136,36916,2,0,L|16:112,2,45,0|0|2,0:0|0:0|0:0,0:0:0:0:
48,272,37421,2,0,L|0:280,2,45,0|0|2,0:0|0:0|0:0,0:0:0:0:
160,296,37926,1,0,0:0:0:0:
160,296,38179,1,0,0:0:0:0:
256,368,38432,5,0,0:0:0:0:
292,216,38684,1,2,0:0:0:0:
432,144,38937,1,0,0:0:0:0:
392,284,39189,1,2,0:0:0:0:
280,332,39442,1,0,0:0:0:0:
48,272,39695,1,2,0:0:0:0:
192,148,39947,1,0,0:0:0:0:
292,216,40200,1,2,0:0:0:0:
232,320,40453,6,0,L|200:368,2,45,0|0|2,0:0|0:0|0:0,0:0:0:0:
128,264,40958,2,0,L|80:240,2,45,0|0|2,0:0|0:0|0:0,0:0:0:0:
128,144,41463,2,0,L|136:96,2,45,0|0|2,0:0|0:0|0:0,0:0:0:0:
24,208,41968,1,0,0:0:0:0:
128,264,42221,1,0,0:0:0:0:
232,208,42474,6,0,L|240:144,2,45,0|0|2,0:0|0:0|0:0,0:0:0:0:
349,139,42979,2,0,L|344:184,2,45,0|0|2,0:0|0:0|0:0,0:0:0:0:
464,152,43484,2,0,L|472:88,2,45,0|0|2,0:0|0:0|0:0,0:0:0:0:
480,272,43989,1,0,0:0:0:0:
392,352,44242,1,0,0:0:0:0:
288,296,44495,6,0,L|272:240,2,45,0|0|2,0:0|0:0|0:0,0:0:0:0:
176,178,45000,2,0,L|152:216,2,45,0|0|2,0:0|0:0|0:0,0:0:0:0:
120,64,45505,2,0,L|192:72,2,45,0|0|2,0:0|0:0|0:0,0:0:0:0:
32,144,46011,1,0,0:0:0:0:
144,176,46263,1,0,0:0:0:0:
232,104,46516,5,0,0:0:0:0:
368,40,46768,1,0,0:0:0:0:
496,128,47021,1,0,0:0:0:0:
352,192,47274,1,0,0:0:0:0:
256,264,47526,1,0,0:0:0:0:
64,32,47779,5,12,0:0:0:0:
80,240,48032,1,12,0:0:0:0:
256,104,48284,1,8,0:0:0:0:
256,104,48411,1,8,0:0:0:0:
256,104,48537,5,4,0:0:0:0:
80,240,48790,1,0,0:0:0:0:
184,80,49042,1,8,0:0:0:0:
152,280,49295,1,0,0:0:0:0:
104,104,49547,1,0,0:0:0:0:
224,304,49800,1,0,0:0:0:0:
328,96,50053,1,8,0:0:0:0:
216,176,50305,1,0,0:0:0:0:
208,40,50558,5,0,0:0:0:0:
344,232,50811,1,0,0:0:0:0:
328,96,51063,1,8,0:0:0:0:
224,304,51316,1,0,0:0:0:0:
104,104,51568,1,0,0:0:0:0:
224,304,51821,1,0,0:0:0:0:
104,248,52074,1,8,0:0:0:0:
328,96,52326,1,8,0:0:0:0:
328,96,52453,1,8,0:0:0:0:
328,96,52579,5,0,0:0:0:0:
104,104,52832,1,0,0:0:0:0:
104,368,53084,1,8,0:0:0:0:
344,232,53337,1,0,0:0:0:0:
224,304,53590,1,0,0:0:0:0:
328,96,53842,1,0,0:0:0:0:
216,176,54095,1,8,0:0:0:0:
440,16,54347,1,0,0:0:0:0:
344,232,54600,5,0,0:0:0:0:
216,32,54853,1,0,0:0:0:0:
104,248,55105,1,8,0:0:0:0:
224,304,55358,1,0,0:0:0:0:
448,152,55611,1,0,0:0:0:0:
216,32,55863,1,0,0:0:0:0:
104,104,56116,1,8,0:0:0:0:
216,168,56368,1,8,0:0:0:0:
216,168,56495,1,8,0:0:0:0:
216,168,56621,5,6,0:0:0:0:
328,96,56874,1,0,0:0:0:0:
448,152,57126,1,8,0:0:0:0:
328,296,57379,1,0,0:0:0:0:
96,232,57632,1,0,0:0:0:0:
344,152,57884,1,0,0:0:0:0:
216,32,58137,1,8,0:0:0:0:
176,304,58390,1,0,0:0:0:0:
128,136,58642,5,0,0:0:0:0:
296,208,58895,1,0,0:0:0:0:
208,176,59147,1,8,0:0:0:0:
376,248,59400,1,0,0:0:0:0:
336,120,59653,1,0,0:0:0:0:
128,224,59905,1,0,0:0:0:0:
320,352,60158,1,8,0:0:0:0:
256,232,60411,1,8,0:0:0:0:
256,232,60537,1,8,0:0:0:0:
256,232,60663,5,0,0:0:0:0:
152,320,60916,1,0,0:0:0:0:
0,216,61169,1,8,0:0:0:0:
64,48,61421,1,0,0:0:0:0:
48,308,61674,1,0,0:0:0:0:
0,216,61926,1,0,0:0:0:0:
152,320,62179,1,8,0:0:0:0:
232,80,62432,1,0,0:0:0:0:
408,48,62684,6,8,L|392:120,1,45
376,176,62937,1,10,0:0:0:0:
320,64,63190,6,8,L|304:136,1,45,0|8,0:0|0:0,0:0:0:0:
288,192,63442,1,10,0:0:0:0:
232,80,63695,6,8,L|216:152,1,45
200,208,63947,6,0,L|240:264,2,45,10|8|0,0:0|0:0|0:0,0:0:0:0:
108,168,64453,1,10,0:0:0:0:
88,192,64579,1,8,0:0:0:0:
80,224,64705,6,0,P|100:304|188:328,1,180
256,192,65463,1,0,0:0:0:0:
432,224,65716,2,0,P|412:304|324:328,1,180
216,368,66474,1,0,0:0:0:0:
192,232,66726,2,0,P|100:233|36:289,1,180
128,320,67484,2,0,P|112:240|96:128,1,180
176,56,68242,1,0,0:0:0:0:
288,40,68495,1,0,0:0:0:0:
376,120,68747,6,0,B|320:184|256:72|208:136,1,180
104,72,69505,1,0,0:0:0:0:
64,224,69758,2,0,B|96:304|96:304|184:336,1,180
304,352,70516,1,0,0:0:0:0:
200,280,70769,2,0,P|264:220|352:232,1,180
360,124,71526,2,0,P|432:176|448:268,1,180,0|2,0:0|0:0,0:0:0:0:
352,304,72284,1,0,0:0:0:0:
252,264,72537,1,2,0:0:0:0:
304,128,72790,6,0,P|216:120|144:192,1,180
72,272,73548,1,0,0:0:0:0:
168,336,73800,2,0,L|256:336|352:336,1,180
440,264,74558,1,0,0:0:0:0:
392,152,74811,2,0,P|336:88|240:104,1,180
264,248,75569,2,0,P|176:257|120:193,1,180,0|2,0:0|0:0,0:0:0:0:
144,80,76326,1,0,0:0:0:0:
144,80,76579,1,2,0:0:0:0:
384,56,77084,6,0,P|440:136|440:224,1,180,2|0,0:0|0:0,0:0:0:0:
352,288,77842,1,2,0:0:0:0:
280,192,78095,2,0,P|192:176|112:224,1,180,0|2,0:0|0:0,0:0:0:0:
188,300,78853,2,0,L|220:116,1,180,0|2,0:0|0:0,0:0:0:0:
344,56,79611,2,0,L|312:240,1,180,0|8,0:0|0:0,0:0:0:0:
280,344,80369,1,8,0:0:0:0:
184,368,80621,1,8,0:0:0:0:
176,372,80748,1,8,0:0:0:0:
168,376,80874,5,4,0:0:0:0:
240,208,81127,1,0,0:0:0:0:
88,104,81379,1,8,0:0:0:0:
48,232,81632,1,0,0:0:0:0:
176,280,81884,1,0,0:0:0:0:
336,104,82137,1,0,0:0:0:0:
136,176,82390,1,8,0:0:0:0:
304,240,82642,1,0,0:0:0:0:
200,40,82895,5,0,0:0:0:0:
312,344,83148,1,0,0:0:0:0:
80,168,83400,1,8,0:0:0:0:
432,216,83653,1,0,0:0:0:0:
136,320,83905,1,0,0:0:0:0:
376,64,84158,1,0,0:0:0:0:
224,272,84411,1,8,0:0:0:0:
288,112,84663,1,8,0:0:0:0:
272,152,84790,1,8,0:0:0:0:
256,192,84916,5,0,0:0:0:0:
128,240,85169,1,0,0:0:0:0:
240,384,85421,1,8,0:0:0:0:
384,144,85674,1,0,0:0:0:0:
224,272,85927,1,0,0:0:0:0:
136,168,86179,1,0,0:0:0:0:
56,328,86432,1,8,0:0:0:0:
112,48,86684,1,0,0:0:0:0:
328,264,86937,5,0,0:0:0:0:
256,88,87190,1,0,0:0:0:0:
224,304,87442,1,8,0:0:0:0:
144,184,87695,1,0,0:0:0:0:
96,312,87948,1,0,0:0:0:0:
352,152,88200,1,0,0:0:0:0:
112,48,88453,1,8,0:0:0:0:
208,328,88705,1,8,0:0:0:0:
240,336,88832,1,8,0:0:0:0:
272,344,88958,5,6,0:0:0:0:
416,168,89211,1,0,0:0:0:0:
192,232,89463,1,8,0:0:0:0:
408,304,89716,1,0,0:0:0:0:
272,112,89969,1,0,0:0:0:0:
272,344,90221,1,0,0:0:0:0:
312,232,90474,1,8,0:0:0:0:
144,352,90727,1,0,0:0:0:0:
96,96,90979,5,0,0:0:0:0:
24,248,91232,1,0,0:0:0:0:
160,216,91484,1,8,0:0:0:0:
144,352,91737,1,0,0:0:0:0:
272,112,91990,1,0,0:0:0:0:
312,288,92242,1,0,0:0:0:0:
160,216,92495,1,8,0:0:0:0:
384,88,92748,1,8,0:0:0:0:
384,88,92874,1,8,0:0:0:0:
384,88,93000,5,0,0:0:0:0:
256,192,93253,1,0,0:0:0:0:
96,160,93506,1,8,0:0:0:0:
216,40,93758,1,0,0:0:0:0:
296,344,94011,1,0,0:0:0:0:
96,160,94263,1,0,0:0:0:0:
128,296,94516,1,8,0:0:0:0:
384,88,94769,1,0,0:0:0:0:
416,224,95021,6,8,L|400:280,1,45
328,312,95274,1,10,0:0:0:0:
328,160,95527,6,8,L|312:216,1,45
240,248,95779,1,10,0:0:0:0:
240,96,96032,6,8,L|224:152,1,45
152,184,96284,6,8,L|120:224,2,45,10|8|8,0:0|0:0|0:0,0:0:0:0:
232,32,96790,1,10,0:0:0:0:
192,48,96916,1,8,0:0:0:0:
152,64,97042,6,0,B|80:104|80:104|48:200,1,180
160,232,97800,1,0,0:0:0:0:
256,168,98053,2,0,P|336:136|424:168,1,180
512,240,98811,1,0,0:0:0:0:
424,320,99063,2,0,L|336:320|240:320,1,180
88,232,99821,2,0,P|56:152|88:56,1,180
192,32,100579,1,0,0:0:0:0:
296,88,100832,1,0,0:0:0:0:
200,152,101084,6,0,P|272:200|360:184,1,180
428,68,101842,1,0,0:0:0:0:
296,88,102095,2,0,L|256:264,1,180
152,320,102853,1,0,0:0:0:0:
184,208,103106,2,0,P|272:200|344:252,1,180
444,96,103863,2,0,P|348:92|276:156,1,180,0|2,0:0|0:0,0:0:0:0:
184,208,104621,1,0,0:0:0:0:
288,260,104874,1,2,0:0:0:0:
152,320,105127,6,0,B|72:280|72:280|48:184,1,180
152,200,105885,1,0,0:0:0:0:
264,168,106137,2,0,B|344:128|344:128|368:32,1,180
256,72,106895,1,0,0:0:0:0:
400,128,107148,2,0,P|440:200|432:296,1,180
328,240,107906,2,0,P|264:192|160:200,1,180,2|2,0:0|0:0,0:0:0:0:
64,256,108663,1,0,0:0:0:0:
168,312,108916,1,2,0:0:0:0:
184,32,109421,6,0,B|144:64|96:64|96:64|72:144,1,180,2|0,0:0|0:0,0:0:0:0:
176,208,110179,1,2,0:0:0:0:
328,112,110432,2,0,P|400:152|432:248,1,180,0|2,0:0|0:0,0:0:0:0:
344,320,111190,2,0,B|280:320|256:304|256:304|232:320|160:320,1,180,0|2,0:0|0:0,0:0:0:0:
184,112,111948,2,0,P|112:152|80:248,1,180,0|8,0:0|0:0,0:0:0:0:
79,240,112706,1,8,0:0:0:0:
168,312,112958,1,8,0:0:0:0:
168,312,113085,1,8,0:0:0:0:
168,312,113211,5,4,0:0:0:0:
282,75,113464,1,0,0:0:0:0:
280,320,113716,1,8,0:0:0:0:
176,112,113969,1,0,0:0:0:0:
352,248,114221,1,0,0:0:0:0:
136,208,114474,1,0,0:0:0:0:
328,152,114727,1,8,0:0:0:0:
192,288,114979,1,0,0:0:0:0:
216,144,115232,6,0,P|168:120|104:112,1,116.999994644165,0|0,0:0|0:0,0:0:0:0:
296,240,115737,2,0,P|344:264|408:272,1,116.999994644165,8|0,0:0|0:0,0:0:0:0:
376,176,116242,2,0,L|408:64,1,116.999994644165
136,208,116748,2,8,L|104:320,1,116.999994644165,8|8,0:0|0:0,0:0:0:0:
160,336,117127,1,8,0:0:0:0:
216,312,117253,6,0,P|264:288|328:288,1,116.999994644165,0|0,0:0|0:0,0:0:0:0:
440,320,117758,1,8,0:0:0:0:
368,96,118011,1,0,0:0:0:0:
280,248,118264,1,0,0:0:0:0:
392,224,118516,1,0,0:0:0:0:
296,160,118769,1,8,0:0:0:0:
216,312,119021,1,0,0:0:0:0:
336,304,119274,5,0,0:0:0:0:
152,56,119527,1,0,0:0:0:0:
40,160,119779,1,8,0:0:0:0:
64,276,120032,1,0,0:0:0:0:
200,344,120285,1,0,0:0:0:0:
152,200,120537,2,0,L|136:128,2,58.4999973220826,10|8|0,0:0|0:0|0:0,0:0:0:0:
372,142,121042,1,10,0:0:0:0:
366,171,121169,1,8,0:0:0:0:
360,200,121295,5,4,0:0:0:0:
256,312,121548,1,0,0:0:0:0:
368,280,121800,1,8,0:0:0:0:
256,312,122053,1,0,0:0:0:0:
296,168,122306,1,0,0:0:0:0:
256,312,122558,1,0,0:0:0:0:
184,144,122811,1,8,0:0:0:0:
256,312,123064,1,0,0:0:0:0:
72,184,123316,6,0,B|96:232|96:232|152:264,1,116.999994644165,0|0,0:0|0:0,0:0:0:0:
440,200,123821,2,0,B|416:152|416:152|360:120,1,116.999994644165,8|0,0:0|0:0,0:0:0:0:
232,88,124327,2,0,B|184:112|184:112|152:168,1,116.999994644165
280,296,124832,2,8,B|328:272|328:272|360:216,1,116.999994644165,8|8,0:0|0:0,0:0:0:0:
312,176,125211,1,8,0:0:0:0:
288,232,125337,6,0,P|320:280|368:312,1,116.999994644165,0|0,0:0|0:0,0:0:0:0:
408,200,125843,1,8,0:0:0:0:
288,16,126095,1,0,0:0:0:0:
104,248,126348,1,0,0:0:0:0:
264,152,126600,1,0,0:0:0:0:
280,296,126853,1,8,0:0:0:0:
128,88,127106,1,0,0:0:0:0:
408,96,127358,5,8,0:0:0:0:
416,128,127485,1,8,0:0:0:0:
424,160,127611,1,10,0:0:0:0:
216,160,127864,5,8,0:0:0:0:
256,192,127990,1,8,0:0:0:0:
288,224,128116,1,10,0:0:0:0:
96,312,128369,5,8,0:0:0:0:
160,328,128495,1,8,0:0:0:0:
224,344,128621,1,2,0:0:0:0:
288,360,128748,1,8,0:0:0:0:
352,376,128874,1,8,0:0:0:0:
480,288,129127,5,10,0:0:0:0:
424,272,129253,1,8,0:0:0:0:
384,232,129379,6,0,L|352:160,1,67.5000025749208,2|0,0:0|0:0,0:0:0:0:
272,136,130137,1,0,0:0:0:0:
312,272,130390,6,0,L|280:200,1,67.5000025749208,2|0,0:0|0:0,0:0:0:0:
200,176,131148,1,0,0:0:0:0:
240,312,131400,6,0,L|208:240,1,67.5000025749208,2|0,0:0|0:0,0:0:0:0:
128,216,132158,1,0,0:0:0:0:
168,352,132411,6,2,P|120:352|80:320,1,90,2|0,0:0|0:0,0:0:0:0:
144,288,132790,1,0,0:0:0:0:
216,304,132916,2,0,L|280:328,1,45,2|0,0:0|0:0,0:0:0:0:
304,264,133169,2,0,L|240:240,1,45
192,232,133421,6,0,L|224:160,1,67.5000025749208,2|0,0:0|0:0,0:0:0:0:
304,136,134179,1,0,0:0:0:0:
264,280,134432,6,0,L|296:208,1,67.5000025749208,2|0,0:0|0:0,0:0:0:0:
376,184,135190,1,0,0:0:0:0:
344,328,135443,5,0,0:0:0:0:
464,264,135695,5,10,0:0:0:0:
432,320,135822,1,0,0:0:0:0:
392,192,136074,5,0,0:0:0:0:
328,208,136200,1,10,0:0:0:0:
344,72,136453,5,0,0:0:0:0:
280,48,136579,1,0,0:0:0:0:
216,24,136706,2,2,L|168:64,1,45,10|0,0:0|0:0,0:0:0:0:
112,32,136958,5,10,0:0:0:0:
32,64,137085,1,8,0:0:0:0:
8,152,137211,1,8,0:0:0:0:
56,224,137337,1,8,0:0:0:0:
136,256,137464,6,2,P|192:240|288:256,1,135.000005149842,2|0,0:0|0:0,0:0:0:0:
352,304,137843,1,0,0:0:0:0:
448,336,137969,2,2,L|480:200,1,135.000005149842,10|0,0:0|0:0,0:0:0:0:
408,128,138348,1,0,0:0:0:0:
352,208,138474,2,2,B|296:176|296:176|280:96,1,135.000005149842,0|2,0:0|0:0,0:0:0:0:
408,128,138979,1,8,0:0:0:0:
336,8,139232,2,2,B|256:-8|152:80|176:184,1,270.000010299683,2|0,0:0|0:0,0:0:0:0:
328,304,139990,6,2,P|280:344|208:336,1,135.000005149842,10|0,0:0|0:0,0:0:0:0:
256,248,140369,1,0,0:0:0:0:
296,152,140495,2,2,P|227:145|179:185,1,135.000005149842,0|2,0:0|0:0,0:0:0:0:
128,272,140874,1,0,0:0:0:0:
40,320,141000,2,0,L|0:248,1,67.5000025749208,8|0,0:0|0:0,0:0:0:0:
72,184,141253,2,8,L|88:104,1,67.5000025749208
160,48,141506,6,2,P|288:32|400:112,1,270.000010299683,2|8,0:0|0:0,0:0:0:0:
472,296,142264,2,2,B|376:248|344:280|344:280|312:312|216:248,1,270.000010299683,2|0,0:0|0:0,0:0:0:0:
120,160,143022,1,8,0:0:0:0:
120,160,143274,1,2,0:0:0:0:
288,48,143527,6,2,B|352:72|352:72|384:136,1,135.000005149842,0|2,0:0|0:0,0:0:0:0:
384,208,143906,1,0,0:0:0:0:
320,176,144032,1,8,0:0:0:0:
192,120,144285,2,2,B|136:120|72:176|72:176|136:232|192:232,1,270.000010299683,2|0,0:0|0:0,0:0:0:0:
328,248,145043,1,10,0:0:0:0:
408,144,145295,1,8,0:0:0:0:
456,200,145422,1,8,0:0:0:0:
456,272,145548,6,2,L|328:336,1,135.000005149842,2|0,0:0|0:0,0:0:0:0:
248,288,145927,1,0,0:0:0:0:
256,184,146053,2,2,L|128:248,1,135.000005149842,10|0,0:0|0:0,0:0:0:0:
48,200,146432,1,0,0:0:0:0:
136,152,146558,2,2,P|160:88|136:24,1,135.000005149842,0|2,0:0|0:0,0:0:0:0:
32,88,147064,1,8,0:0:0:0:
4,292,147316,2,2,B|68:380|156:196|252:292,1,270.000010299683,2|0,0:0|0:0,0:0:0:0:
432,376,148074,6,2,P|368:360|304:320,1,135.000005149842,10|0,0:0|0:0,0:0:0:0:
280,224,148453,1,0,0:0:0:0:
368,168,148579,2,2,P|432:184|496:224,1,135.000005149842,0|2,0:0|0:0,0:0:0:0:
400,272,148958,1,0,0:0:0:0:
304,304,149085,2,8,L|224:344,1,67.5000025749208,8|0,0:0|0:0,0:0:0:0:
184,208,149337,2,10,L|248:176,1,67.5000025749208,8|8,0:0|0:0,0:0:0:0:
264,48,149590,6,2,P|125:49|32:144,1,270.000010299683,2|8,0:0|0:0,0:0:0:0:
104,328,150348,2,2,P|242:326|336:232,1,270.000010299683,2|0,0:0|0:0,0:0:0:0:
440,64,151106,2,0,P|376:72|320:128,1,135.000005149842,8|2,0:0|0:0,0:0:0:0:
256,192,151485,1,0,0:0:0:0:
352,224,151611,6,2,L|488:272,1,135.000005149842,0|2,0:0|0:0,0:0:0:0:
464,208,151990,1,0,0:0:0:0:
448,152,152116,1,8,0:0:0:0:
272,280,152369,2,2,B|208:240|144:248|144:248|80:200|88:128,1,270.000010299683,2|0,0:0|0:0,0:0:0:0:
152,96,153001,1,8,0:0:0:0:
216,64,153127,1,10,0:0:0:0:
400,24,153379,5,8,0:0:0:0:
412,28,153506,1,8,0:0:0:0:
424,32,153632,6,2,B|464:56|464:56|472:104|424:136,1,135.000005149842,2|0,0:0|0:0,0:0:0:0:
336,176,154011,1,0,0:0:0:0:
296,88,154137,2,2,P|240:56|168:80,1,135.000005149842,10|0,0:0|0:0,0:0:0:0:
120,160,154516,1,0,0:0:0:0:
104,264,154643,2,2,B|144:256|168:264|168:264|180:241|224:216,1,135.000005149842,0|2,0:0|0:0,0:0:0:0:
336,176,155148,1,8,0:0:0:0:
160,32,155401,2,2,P|48:56|8:208,1,270.000010299683,2|0,0:0|0:0,0:0:0:0:
112,360,156158,6,2,B|152:368|176:352|176:352|200:368|248:360,2,135.000005149842,10|0|0,0:0|0:0|0:0,0:0:0:0:
216,264,156916,1,2,0:0:0:0:
296,264,157043,1,0,0:0:0:0:
336,328,157169,2,2,L|264:352,1,67.5000025749208,8|0,0:0|0:0,0:0:0:0:
216,264,157422,2,10,L|240:192,1,67.5000025749208,8|8,0:0|0:0,0:0:0:0:
336,176,157674,6,2,P|400:160|440:104,1,135.000005149842,2|0,0:0|0:0,0:0:0:0:
344,72,158053,1,0,0:0:0:0:
256,128,158180,2,2,L|240:200,1,67.5000025749208,10|0,0:0|0:0,0:0:0:0:
128,240,158432,2,2,L|144:168,1,67.5000025749208,0|0,0:0|0:0,0:0:0:0:
256,128,158685,1,0,0:0:0:0:
128,240,158937,2,2,B|112:296|144:344|144:344|216:376|296:304,1,270.000010299683
408,240,159695,1,0,0:0:0:0:
360,40,159948,6,2,P|328:96|328:168,1,135.000005149842,2|8,0:0|0:0,0:0:0:0:
512,256,160453,1,0,0:0:0:0:
328,168,160706,2,0,P|256:168|200:208,1,135.000005149842,0|2,0:0|0:0,0:0:0:0:
128,264,161085,1,8,0:0:0:0:
184,168,161211,2,0,P|256:168|312:208,1,135.000005149842,8|10,0:0|0:0,0:0:0:0:
384,264,161590,1,8,0:0:0:0:
256,280,161716,6,2,B|248:232|248:232|264:208|264:208|256:152,1,135.000005149842,2|0,0:0|0:0,0:0:0:0:
200,64,162095,1,0,0:0:0:0:
96,80,162222,2,2,L|48:128,1,67.5000025749208,10|0,0:0|0:0,0:0:0:0:
0,232,162474,2,2,L|72:248,1,67.5000025749208,0|0,0:0|0:0,0:0:0:0:
184,296,162727,2,0,B|240:264|240:264|256:192,1,135.000005149842,0|2,0:0|0:0,0:0:0:0:
144,176,163232,1,8,0:0:0:0:
360,24,163485,6,2,P|416:48|456:112,1,135.000005149842,2|0,0:0|0:0,0:0:0:0:
464,256,163990,6,8,L|448:336,1,67.5000025749208,10|8,0:0|0:0,0:0:0:0:
408,352,164243,1,0,0:0:0:0:
368,144,164495,6,8,L|352:224,1,67.5000025749208,10|8,0:0|0:0,0:0:0:0:
296,264,164748,1,0,0:0:0:0:
272,0,165001,6,8,L|256:80,1,67.5000025749208,10|8,0:0|0:0,0:0:0:0:
192,144,165253,1,8,0:0:0:0:
168,48,165380,1,8,0:0:0:0:
96,112,165506,1,10,0:0:0:0:
112,208,165632,1,8,0:0:0:0:
208,240,165758,6,0,L|304:192,1,90,4|0,0:0|0:0,0:0:0:0:
312,88,166011,2,0,L|216:136,1,90
200,256,166264,2,0,L|288:208,1,90,8|0,0:0|0:0,0:0:0:0:
360,160,166516,5,0,0:0:0:0:
456,168,166643,1,8,0:0:0:0:
504,256,166769,1,0,0:0:0:0:
456,344,166895,1,8,0:0:0:0:
360,352,167022,2,0,B|320:328|272:328|272:328|240:240,2,180,0|8|0,0:0|0:0|0:0,0:0:0:0:
176,160,167780,6,0,L|264:120,1,90
336,224,168032,2,0,L|248:264,1,90
160,152,168285,2,0,L|248:112,1,90,8|0,0:0|0:0,0:0:0:0:
344,112,168537,5,0,0:0:0:0:
288,32,168664,1,8,0:0:0:0:
192,16,168790,1,0,0:0:0:0:
104,56,168916,1,8,0:0:0:0:
72,152,169043,2,0,P|61:193|56:248,1,90
88,336,169295,2,0,P|176:360|248:312,1,180,8|0,0:0|0:0,0:0:0:0:
216,224,169674,1,8,0:0:0:0:
184,304,169801,6,0,L|280:328,1,90
344,224,170053,2,0,L|248:200,1,90
144,168,170306,2,0,P|112:96|160:8,1,180,8|0,0:0|0:0,0:0:0:0:
256,16,170685,5,8,0:0:0:0:
304,104,170811,1,0,0:0:0:0:
256,192,170937,1,8,0:0:0:0:
208,280,171064,1,0,0:0:0:0:
256,368,171190,1,0,0:0:0:0:
360,360,171316,2,0,B|440:336|440:336|464:240,2,180,8|0|0,0:0|0:0|0:0,0:0:0:0:
176,288,172074,6,0,B|136:264|136:264|120:216,2,90,8|0|0,0:0|0:0|0:0,0:0:0:0:
368,240,172580,2,0,B|376:200|376:200|344:152,1,90,0|8,0:0|0:0,0:0:0:0:
256,192,172832,2,0,B|248:224|248:224|264:248|264:248|256:280,2,90,0|8|0,0:0|0:0|0:0,0:0:0:0:
220,140,173337,5,8,0:0:0:0:
312,160,173464,1,8,0:0:0:0:
204,228,173590,1,8,0:0:0:0:
296,248,173716,1,8,0:0:0:0:
392,220,173843,6,0,L|416:108,1,90
120,164,174095,2,0,L|96:276,1,90
360,160,174348,2,0,L|320:72,1,90,8|0,0:0|0:0,0:0:0:0:
152,224,174601,5,0,0:0:0:0:
200,312,174727,1,8,0:0:0:0:
296,336,174853,1,0,0:0:0:0:
392,312,174980,1,8,0:0:0:0:
456,232,175106,2,0,B|480:184|480:184|464:128|464:128|488:64,2,180,0|8|0,0:0|0:0|0:0,0:0:0:0:
96,224,175864,6,0,L|72:112,1,90
416,160,176116,2,0,L|440:272,1,90
152,160,176369,2,0,L|192:72,1,90,8|0,0:0|0:0,0:0:0:0:
360,224,176622,5,0,0:0:0:0:
312,312,176748,1,8,0:0:0:0:
216,336,176874,1,0,0:0:0:0:
120,312,177001,1,8,0:0:0:0:
56,232,177127,2,0,B|44:192|44:192|56:136,1,90
144,56,177380,2,0,P|158:142|176:240,1,180,8|0,0:0|0:0,0:0:0:0:
264,272,177759,1,8,0:0:0:0:
328,200,177885,6,0,L|376:120,1,90
184,184,178138,2,0,L|136:264,1,90
384,176,178390,2,0,L|472:152,1,90,8|0,0:0|0:0,0:0:0:0:
128,208,178643,2,0,L|40:232,1,90,0|8,0:0|0:0,0:0:0:0:
424,216,178895,2,0,L|512:240,1,90,0|8,0:0|0:0,0:0:0:0:
88,168,179148,2,0,L|0:144,1,90
448,272,179401,2,0,L|488:360,1,90,8|0,0:0|0:0,0:0:0:0:
64,112,179653,2,0,L|24:24,1,90
256,192,179906,5,0,0:0:0:0:
128,64,180159,2,0,B|192:0|328:80|256:192|256:192|320:144|384:224|432:176,1,450
420,96,180916,5,0,0:0:0:0:
316,120,181043,1,0,0:0:0:0:
212,144,181169,2,8,L|180:92,2,45
68,204,181422,5,0,0:0:0:0:
172,228,181548,1,0,0:0:0:0:
276,252,181674,2,8,L|308:304,2,45
400,344,181927,6,2,P|476:308|484:220,1,180,2|0,0:0|0:0,0:0:0:0:
464,112,182306,1,0,0:0:0:0:
368,64,182432,2,2,P|328:72|260:92,1,90,2|0,0:0|0:0,0:0:0:0:
120,172,182685,2,2,P|164:180|228:196,1,90,2|0,0:0|0:0,0:0:0:0:
408,256,182938,2,2,P|368:264|308:284,1,90,0|0,0:0|0:0,0:0:0:0:
144,336,183190,2,2,B|64:308|64:308|28:212,1,180,2|8,0:0|0:0,0:0:0:0:
360,24,183695,6,2,P|488:128|408:288,1,360,2|0,0:0|0:0,0:0:0:0:
192,352,184453,2,2,L|96:312,1,90,8|0,0:0|0:0,0:0:0:0:
48,240,184706,5,0,0:0:0:0:
80,144,184832,1,8,0:0:0:0:
176,112,184959,1,0,0:0:0:0:
272,144,185085,1,8,0:0:0:0:
336,216,185211,2,0,P|424:248|520:224,2,180,0|8|0,0:0|0:0|0:0,0:0:0:0:
368,120,185843,1,8,0:0:0:0:
296,48,185969,6,2,B|216:88|216:88|184:176,1,180,2|0,0:0|0:0,0:0:0:0:
280,248,186348,1,0,0:0:0:0:
168,280,186474,2,2,B|88:240|88:240|56:152,1,180,10|0,0:0|0:0,0:0:0:0:
40,40,186853,1,8,0:0:0:0:
144,88,186980,1,0,0:0:0:0:
320,96,187232,6,2,B|280:136|240:120|240:120|224:168|168:176,1,180,2|8,0:0|0:0,0:0:0:0:
4,176,187738,2,2,P|156:120|280:248,1,360,2|0,0:0|0:0,0:0:0:0:
148,368,188495,2,0,L|132:324|116:272,1,90,8|0,0:0|0:0,0:0:0:0:
168,196,188748,5,0,0:0:0:0:
264,160,188874,1,8,0:0:0:0:
364,200,189001,1,0,0:0:0:0:
420,292,189127,1,8,0:0:0:0:
324,320,189253,2,0,B|276:304|276:304|248:256,1,90
200,112,189506,5,8,0:0:0:0:
104,132,189632,1,8,0:0:0:0:
80,228,189759,1,8,0:0:0:0:
160,284,189885,1,8,0:0:0:0:
220,212,190011,6,2,B|188:212|164:196|164:196|132:208|96:268,1,135.000005149842,2|0,0:0|0:0,0:0:0:0:
96,320,190390,1,0,0:0:0:0:
172,336,190517,2,2,L|208:276,1,67.5000025749208,2|0,0:0|0:0,0:0:0:0:
288,272,190769,2,2,L|324:212,1,67.5000025749208,0|0,0:0|0:0,0:0:0:0:
400,192,191022,2,2,B|440:172|456:168|456:168|460:148|480:96,1,135.000005149842,0|2,0:0|0:0,0:0:0:0:
312,64,191780,6,2,B|240:48|184:8|184:8|120:40|112:112,1,270.000010299683,2|0,0:0|0:0,0:0:0:0:
184,152,192411,5,0,0:0:0:0:
112,192,192538,2,0,L|80:256,1,67.5000025749208,14|0,0:0|0:0,0:0:0:0:
160,272,192790,2,0,L|176:352,1,67.5000025749208
248,304,193043,2,0,L|312:344,1,67.5000025749208,12|0,0:0|0:0,0:0:0:0:
368,288,193295,6,8,L|416:280,2,33.7500012874604,10|8|8,0:0|0:0|0:0,0:0:0:0:
312,224,193548,2,8,L|264:208,2,33.7500012874604
376,176,193801,2,8,L|416:152,2,33.7500012874604,10|8|8,0:0|0:0|0:0,0:0:0:0:
296,144,194053,6,0,L|208:104,1,90,2|0,0:0|0:0,0:0:0:0:
112,168,194811,1,0,0:0:0:0:
240,184,195064,6,0,L|152:144,1,90,2|0,0:0|0:0,0:0:0:0:
56,208,195822,1,0,0:0:0:0:
184,224,196074,6,0,L|96:184,1,90,2|0,0:0|0:0,0:0:0:0:
0,248,196832,1,0,0:0:0:0:
128,264,197085,6,0,L|8:208,1,116.999994644165,2|0,0:0|0:0,0:0:0:0:
80,152,197464,1,0,0:0:0:0:
152,192,197590,2,0,L|128:256,1,58.4999973220826,2|0,0:0|0:0,0:0:0:0:
144,104,197843,2,0,L|104:48,1,58.4999973220826
216,144,198095,6,0,L|304:104,1,90,2|0,0:0|0:0,0:0:0:0:
400,168,198853,1,0,0:0:0:0:
272,184,199106,6,0,L|360:144,1,90,2|0,0:0|0:0,0:0:0:0:
456,208,199864,1,0,0:0:0:0:
328,224,200117,6,0,L|416:184,1,90,2|0,0:0|0:0,0:0:0:0:
512,248,200874,1,0,0:0:0:0:
384,264,201127,6,0,L|504:208,1,116.999994644165,2|0,0:0|0:0,0:0:0:0:
432,152,201506,1,0,0:0:0:0:
360,192,201632,2,0,L|384:256,1,58.4999973220826,2|0,0:0|0:0,0:0:0:0:
368,104,201885,2,0,L|408:48,1,58.4999973220826
296,144,202138,6,0,L|200:120,1,90,2|0,0:0|0:0,0:0:0:0:
96,144,202896,1,0,0:0:0:0:
216,208,203148,6,0,L|312:184,1,90,2|0,0:0|0:0,0:0:0:0:
416,208,203906,1,0,0:0:0:0:
296,288,204159,6,0,L|200:264,1,90,2|0,0:0|0:0,0:0:0:0:
96,288,204917,1,0,0:0:0:0:
216,352,205169,6,0,L|336:320,1,116.999994644165,2|0,0:0|0:0,0:0:0:0:
360,240,205548,1,0,0:0:0:0:
296,176,205674,2,0,L|272:248,1,58.4999973220826,2|0,0:0|0:0,0:0:0:0:
384,152,205927,2,0,L|408:80,1,58.4999973220826
328,56,206180,6,0,L|232:32,1,67.5000025749208,2|0,0:0|0:0,0:0:0:0:
184,80,206938,1,0,0:0:0:0:
272,104,207190,6,0,L|216:88,1,45,2|0,0:0|0:0,0:0:0:0:
200,128,207948,1,0,0:0:0:0:
200,128,208201,5,0,0:0:0:0:
