osu file format v14

[General]
AudioFilename: audio.mp3
AudioLeadIn: 0
PreviewTime: 224508
Countdown: 0
SampleSet: Soft
StackLeniency: 0.3
Mode: 0
LetterboxInBreaks: 0
WidescreenStoryboard: 0

[Editor]
Bookmarks: 36151,72151,88484,112484,184818,218651
DistanceSpacing: 0.4
BeatDivisor: 8
GridSize: 4
TimelineZoom: 4.199999

[Metadata]
Title:Palette
TitleUnicode:Palette
Artist:Hige Driver
ArtistUnicode:ヒゲドライバー
Creator:Jounzan
Version:Insane
Source:
Tags:ゆよゆっぺ yuyoyuppe featured artist MOtOLOiD Delis pishifat Nyquill vocaloid EvilElvis
BeatmapID:1443057
BeatmapSetID:682416

[Difficulty]
HPDrainRate:6.5
CircleSize:4
OverallDifficulty:7
ApproachRate:9
SliderMultiplier:1.9
SliderTickRate:1

[Events]
//Background and Video events
0,0,"palette.jpg",0,0
//Break Periods
//Storyboard Layer 0 (Background)
//Storyboard Layer 1 (Fail)
//Storyboard Layer 2 (Pass)
//Storyboard Layer 3 (Foreground)
//Storyboard Sound Samples

[TimingPoints]
509,333.333333333333,4,2,1,60,1,0
107175,-76.9230769230769,4,2,1,60,0,1
128675,-100,4,2,1,60,0,0
203175,-76.9230769230769,4,2,1,60,0,1
246175,-133.333333333333,4,2,1,60,0,0
247842,-133.333333333333,4,2,1,30,0,0
247925,-133.333333333333,4,2,1,60,0,0
253175,-133.333333333333,4,2,1,30,0,0
253258,-133.333333333333,4,2,1,60,0,0
256508,-133.333333333333,4,2,1,20,0,0

[Colours]
Combo1 : 168,0,168
Combo2 : 151,47,255
Combo3 : 119,119,255
Combo4 : 137,137,197

[HitObjects]
101,54,21842,6,0,P|108:104|105:157,1,95,6|0,1:0|0:0,0:0:0:0:
183,34,22175,1,8,1:0:0:0:
205,102,22342,1,2,0:1:0:0:
113,233,22508,1,2,0:1:0:0:
46,273,22675,1,0,3:0:0:0:
122,257,22842,1,10,1:0:0:0:
47,263,23008,1,0,0:0:0:0:
223,210,23175,5,2,1:0:0:0:
297,231,23342,1,2,0:1:0:0:
384,97,23508,1,8,1:0:0:0:
463,77,23675,1,2,0:1:0:0:
463,77,23758,1,2,0:0:0:0:
463,77,23842,2,0,P|472:128|475:194,1,95,0|0,1:0|3:0,0:0:0:0:
282,116,24175,1,4,1:2:0:0:
282,116,24508,5,6,1:0:0:0:
256,340,24675,1,0,0:0:0:0:
282,116,24842,2,0,L|293:271,1,142.5,10|0,1:0|0:1,0:0:0:0:
292,258,25175,1,2,0:1:0:0:
189,104,25342,1,0,3:0:0:0:
378,81,25508,1,8,1:0:0:0:
282,112,25675,1,2,0:1:0:0:
132,17,25842,5,2,1:0:0:0:
208,31,26008,1,0,0:0:0:0:
139,217,26175,1,10,1:0:0:0:
215,203,26341,1,2,0:0:0:0:
160,115,26508,1,2,1:0:0:0:
84,101,26675,1,0,3:0:0:0:
81,119,26758,1,0,3:0:0:0:
76,101,26842,1,8,1:0:0:0:
73,119,26925,1,0,3:0:0:0:
68,97,27008,1,8,1:0:0:0:
65,115,27091,1,0,0:0:0:0:
57,101,27175,6,0,L|61:162,1,47.5,6|0,1:0|0:0,0:0:0:0:
57,222,27342,1,2,1:0:0:0:
57,222,27675,1,2,0:1:0:0:
43,292,27842,1,2,0:1:0:0:
215,222,28008,1,0,3:0:0:0:
229,292,28175,1,10,1:0:0:0:
199,226,28342,1,0,0:0:0:0:
254,39,28508,5,2,1:0:0:0:
274,115,28675,1,2,0:1:0:0:
359,262,28842,1,8,1:0:0:0:
379,186,29009,1,0,0:0:0:0:
271,270,29175,1,2,0:1:0:0:
437,311,29342,1,0,3:0:0:0:
396,103,29508,1,8,1:0:0:0:
396,103,29842,6,0,L|263:135,1,95,2|0,1:0|0:0,0:0:0:0:
296,202,30175,1,10,1:0:0:0:
232,161,30342,1,0,0:0:0:0:
236,359,30508,1,2,0:1:0:0:
300,318,30675,1,0,3:0:0:0:
136,228,30842,1,8,1:0:0:0:
138,300,31008,1,2,0:1:0:0:
224,253,31175,5,2,1:0:0:0:
213,174,31342,1,0,0:0:0:0:
35,216,31508,1,10,1:0:0:0:
55,143,31675,1,8,1:0:0:0:
234,36,31842,5,2,1:0:0:0:
237,54,31925,1,0,3:0:0:0:
242,36,32009,1,0,1:0:0:0:
245,54,32092,1,0,3:0:0:0:
250,32,32175,1,8,1:0:0:0:
253,50,32258,1,0,0:0:0:0:
263,37,32342,2,0,L|318:41,1,47.5,2|2,3:2|3:2,0:0:0:0:
492,16,32508,6,0,B|396:6|416:85|297:74,1,190,6|8,1:0|1:0,0:0:0:0:
311,193,33008,1,2,0:1:0:0:
378,151,33175,1,2,0:1:0:0:
165,159,33342,1,0,3:0:0:0:
232,201,33509,1,10,1:0:0:0:
160,183,33675,1,0,0:0:0:0:
251,44,33842,5,2,1:0:0:0:
270,121,34008,1,2,0:1:0:0:
271,283,34175,1,8,1:0:0:0:
252,360,34341,1,0,0:0:0:0:
252,360,34425,1,0,0:0:0:0:
252,360,34508,2,0,P|180:364|132:376,1,95,2|0,0:1|3:0,0:0:0:0:
319,210,34842,1,4,1:2:0:0:
319,210,35175,5,2,1:0:0:0:
464,194,35342,1,0,0:0:0:0:
318,183,35508,2,0,L|165:192,1,142.5,10|0,1:0|0:0,0:0:0:0:
175,191,35842,1,2,0:1:0:0:
107,170,36008,1,0,3:0:0:0:
223,60,36175,1,8,1:0:0:0:
154,38,36341,1,2,0:1:0:0:
169,121,36508,5,2,1:0:0:0:
214,269,36675,1,0,0:0:0:0:
287,167,36842,1,10,1:0:0:0:
94,222,37008,1,0,0:0:0:0:
240,348,37175,1,2,0:1:0:0:
304,306,37342,1,0,3:0:0:0:
307,288,37425,1,0,3:0:0:0:
312,306,37509,1,8,1:0:0:0:
315,288,37592,1,0,0:0:0:0:
320,310,37675,1,8,1:0:0:0:
323,292,37758,1,0,3:0:0:0:
331,306,37842,6,0,L|327:245,1,47.5,6|0,1:0|3:0,0:0:0:0:
240,236,38008,2,0,L|236:175,1,47.5,2|0,3:1|3:0,0:0:0:0:
322,177,38175,5,8,1:0:0:0:
322,177,38342,1,2,0:1:0:0:
427,55,38508,1,2,0:1:0:0:
412,132,38675,1,0,3:0:0:0:
208,102,38842,1,10,1:0:0:0:
222,179,39009,1,0,0:0:0:0:
421,210,39175,5,2,1:0:0:0:
494,241,39342,1,0,0:0:0:0:
320,256,39508,1,10,1:0:0:0:
245,272,39675,1,0,0:0:0:0:
173,297,39842,1,2,0:1:0:0:
173,297,39925,1,0,0:0:0:0:
173,297,40008,1,0,3:0:0:0:
179,205,40175,5,8,1:0:0:0:
297,332,40342,1,8,3:1:0:0:
442,122,40508,6,0,B|331:115|369:189|246:172,1,190,6|8,1:0|1:0,0:0:0:0:
87,154,41008,1,10,3:1:0:0:
87,154,41342,1,8,3:1:0:0:
212,248,41508,1,10,1:0:0:0:
162,91,41675,1,0,3:0:0:0:
15,225,41842,6,0,P|12:276|18:333,1,95,6|0,1:0|0:0,0:0:0:0:
300,352,42175,2,0,B|310:303|296:236,1,95,8|8,1:0|3:1,0:0:0:0:
159,176,42508,2,0,L|164:287,1,95,2|8,1:0|3:1,0:0:0:0:
148,96,42842,1,8,1:0:0:0:
151,78,42925,1,0,3:0:0:0:
156,96,43009,1,2,3:2:0:0:
159,78,43092,1,2,3:2:0:0:
168,104,43175,6,0,L|87:107,1,47.5,6|0,1:0|0:0,0:0:0:0:
290,95,43342,2,0,L|242:93,1,47.5,2|0,1:0|0:0,0:0:0:0:
94,172,43508,6,0,P|42:169|-12:176,1,95,8|0,1:0|0:0,0:0:0:0:
223,205,43842,1,2,1:0:0:0:
292,179,44008,1,0,3:0:0:0:
249,286,44175,1,8,1:0:0:0:
330,261,44342,6,0,P|414:281|494:360,1,190,2|0,1:0|1:0,0:0:0:0:
443,150,44842,2,0,P|404:173|324:186,1,95,10|0,1:0|0:0,0:0:0:0:
510,216,45175,1,0,0:0:0:0:
510,216,45342,1,0,3:0:0:0:
255,220,45508,2,0,L|139:235,1,95,10|0,1:0|0:0,0:0:0:0:
156,94,45842,6,0,P|87:90|6:175,1,190,6|8,1:0|1:0,0:0:0:0:
218,53,46342,1,2,1:0:0:0:
285,82,46508,1,0,0:0:0:0:
437,25,46675,1,0,3:0:0:0:
491,81,46842,2,0,P|492:129|502:189,1,95,10|0,1:0|0:0,0:0:0:0:
338,201,47175,6,0,B|235:186|258:246|142:233,1,190,4|8,1:2|1:0,0:0:0:0:
25,244,47675,1,4,1:2:0:0:
95,274,47842,1,0,0:0:0:0:
176,143,48008,1,0,3:0:0:0:
145,129,48091,1,0,3:0:0:0:
117,148,48175,1,8,1:0:0:0:
85,138,48258,1,0,3:0:0:0:
54,151,48342,1,8,1:0:0:0:
22,139,48425,1,0,0:0:0:0:
22,139,48508,6,0,L|81:125,1,47.5,6|0,1:0|3:0,0:0:0:0:
100,60,48675,1,2,1:0:0:0:
267,117,48842,2,0,P|314:136|352:171,1,95,8|0,1:0|0:0,0:0:0:0:
214,238,49175,1,2,1:0:0:0:
200,163,49342,1,0,3:0:0:0:
320,246,49508,2,0,P|332:292|334:358,1,95,8|2,1:0|1:0,0:0:0:0:
161,307,49842,5,0,1:0:0:0:
93,334,50008,1,0,0:0:0:0:
30,285,50175,2,0,P|31:210|54:95,1,190,10|0,1:0|0:0,0:0:0:0:
172,37,50675,1,0,3:0:0:0:
271,123,50842,1,10,1:0:0:0:
155,175,51008,1,0,0:0:0:0:
340,27,51175,6,0,P|351:83|356:143,1,95,2|0,1:0|0:0,0:0:0:0:
456,189,51508,1,8,1:0:0:0:
397,230,51675,1,2,1:0:0:0:
300,314,51842,1,0,0:0:0:0:
230,283,52008,1,0,3:0:0:0:
170,333,52175,2,0,P|118:347|72:371,1,95,10|0,1:0|0:0,0:0:0:0:
170,218,52508,6,0,P|176:157|162:2,1,190,4|8,1:2|1:0,0:0:0:0:
244,15,53008,1,4,1:2:0:0:
254,93,53175,1,0,1:0:0:0:
261,105,53258,1,0,1:0:0:0:
247,109,53342,1,0,3:0:0:0:
258,117,53425,1,0,0:0:0:0:
248,127,53508,1,8,1:0:0:0:
259,135,53592,1,0,1:0:0:0:
254,148,53675,2,0,L|257:198,1,47.5,8|0,1:0|0:0,0:0:0:0:
359,252,53842,6,0,L|300:237,1,47.5,6|0,1:0|0:0,0:0:0:0:
154,253,54008,2,0,L|200:241,1,47.5,2|0,1:0|0:0,0:0:0:0:
259,283,54175,1,8,1:0:0:0:
366,173,54342,1,0,0:0:0:0:
430,211,54508,1,2,1:0:0:0:
439,41,54675,1,0,3:0:0:0:
502,83,54842,1,8,1:0:0:0:
434,122,55008,1,2,1:0:0:0:
319,44,55175,5,0,1:0:0:0:
250,77,55342,1,0,0:0:0:0:
120,31,55508,2,0,P|124:95|118:153,1,95,10|0,1:0|0:0,0:0:0:0:
295,196,55842,1,0,0:0:0:0:
364,163,56009,1,2,1:0:0:0:
483,243,56175,2,0,P|434:239|367:243,1,95,8|0,1:0|0:0,0:0:0:0:
258,318,56508,6,0,P|259:232|254:104,1,190,6|8,1:0|1:0,0:0:0:0:
160,204,57008,1,2,1:0:0:0:
90,170,57175,1,0,0:0:0:0:
29,216,57342,1,0,3:0:0:0:
159,122,57508,2,0,P|159:60|153:3,1,95,10|0,1:0|0:0,0:0:0:0:
363,16,57842,6,0,P|363:88|370:216,1,190,4|8,1:2|1:0,0:0:0:0:
469,272,58342,1,4,1:2:0:0:
397,366,58508,1,0,1:0:0:0:
295,301,58675,1,0,3:0:0:0:
91,335,58842,1,8,1:0:0:0:
118,330,58925,1,0,3:0:0:0:
140,341,59008,1,8,1:0:0:0:
169,336,59092,1,0,3:0:0:0:
169,336,59175,6,0,P|168:291|171:249,1,47.5,6|0,1:0|0:0,0:0:0:0:
112,175,59342,2,0,P|112:198|111:222,1,47.5,2|0,1:0|3:0,0:0:0:0:
182,138,59508,1,8,1:0:0:0:
29,47,59675,2,0,P|36:139|37:242,1,190,2|0,1:0|0:0,0:0:0:0:
237,196,60175,1,10,1:0:0:0:
288,252,60342,1,0,0:0:0:0:
440,247,60508,5,0,1:0:0:0:
483,187,60675,1,2,1:0:0:0:
360,191,60842,2,0,P|361:261|362:302,1,95,8|0,1:0|0:0,0:0:0:0:
361,361,61175,1,2,1:0:0:0:
462,241,61342,1,0,3:0:0:0:
356,117,61508,1,8,1:0:0:0:
267,245,61675,1,8,3:1:0:0:
461,81,61842,6,0,P|360:86|264:82,1,190,6|8,1:0|1:0,0:0:0:0:
4,129,62342,2,0,P|105:134|201:130,1,190,10|8,3:1|3:1,0:0:0:0:
261,255,62842,1,10,1:0:0:0:
251,177,63008,1,0,0:0:0:0:
512,210,63175,6,0,P|411:215|315:211,1,190,6|8,1:0|1:0,0:0:0:0:
161,272,63675,1,8,1:0:0:0:
276,363,63842,1,2,1:0:0:0:
256,271,64008,1,0,3:0:0:0:
235,227,64092,1,8,1:0:0:0:
245,180,64175,1,0,1:0:0:0:
277,145,64258,1,8,1:0:0:0:
284,97,64342,1,0,1:0:0:0:
265,53,64425,1,0,0:0:0:0:
265,53,64675,5,2,1:0:0:0:
182,76,64842,1,10,1:0:0:0:
101,49,65008,1,0,0:0:0:0:
181,176,65175,2,0,P|186:265|181:348,1,142.5,2|0,3:1|0:0,0:0:0:0:
185,364,65508,1,8,1:0:0:0:
91,271,65675,1,0,0:0:0:0:
272,274,65842,5,2,1:0:0:0:
185,364,66008,1,2,1:0:0:0:
102,183,66175,1,10,1:0:0:0:
342,165,66425,1,0,3:0:0:0:
342,165,66508,2,0,P|390:169|440:179,1,95,0|2,3:0|3:1,0:0:0:0:
335,281,66842,1,8,1:0:0:0:
315,68,67008,1,0,1:0:0:0:
315,68,67092,1,0,1:0:0:0:
315,68,67175,6,0,P|243:103|217:192,1,142.5,2|0,1:0|0:0,0:0:0:0:
230,195,67508,1,10,1:0:0:0:
326,336,67675,1,0,0:0:0:0:
166,273,67842,1,2,3:1:0:0:
166,273,68092,1,0,3:0:0:0:
166,273,68175,1,10,1:0:0:0:
318,251,68342,1,2,1:0:0:0:
220,362,68508,5,2,1:0:0:0:
144,345,68675,1,2,1:0:0:0:
62,368,68842,1,10,1:0:0:0:
243,212,69092,1,0,3:0:0:0:
243,212,69175,2,0,P|241:153|235:98,1,95,2|0,3:1|3:0,0:0:0:0:
313,23,69508,1,8,1:0:0:0:
315,70,69592,1,2,0:0:0:0:
319,117,69675,1,0,3:0:0:0:
323,164,69758,1,2,0:0:0:0:
323,164,70008,5,2,1:0:0:0:
444,150,70175,1,10,1:0:0:0:
462,273,70342,1,0,0:0:0:0:
343,290,70508,1,2,3:1:0:0:
327,55,70758,1,0,3:0:0:0:
327,55,70842,2,0,P|385:51|439:51,1,95,10|0,1:0|0:0,0:0:0:0:
177,72,71175,1,2,1:0:0:0:
312,152,71342,1,2,1:0:0:0:
246,18,71508,1,10,1:0:0:0:
89,125,71675,5,0,3:0:0:0:
96,166,71758,1,0,3:0:0:0:
96,209,71842,1,0,3:0:0:0:
47,296,72008,1,2,3:1:0:0:
152,339,72175,1,10,1:0:0:0:
215,249,72342,1,0,1:0:0:0:
209,206,72426,1,0,1:0:0:0:
213,163,72509,5,2,1:0:0:0:
346,202,72675,1,2,1:0:0:0:
493,172,72842,1,10,1:0:0:0:
380,278,73008,1,0,0:0:0:0:
418,142,73175,1,2,3:1:0:0:
204,34,73425,1,0,3:0:0:0:
204,34,73508,2,0,P|208:92|205:143,1,95,10|0,1:0|0:0,0:0:0:0:
38,196,73842,1,2,1:0:0:0:
207,242,74008,1,2,1:0:0:0:
105,119,74175,1,10,1:0:0:0:
117,335,74342,5,0,3:0:0:0:
117,335,74425,1,0,3:0:0:0:
117,335,74508,1,8,3:1:0:0:
164,357,74592,1,0,3:0:0:0:
215,354,74675,1,8,3:1:0:0:
259,327,74758,1,0,0:0:0:0:
297,290,74842,5,8,1:0:0:0:
353,268,74925,1,0,1:0:0:0:
412,272,75008,1,0,1:0:0:0:
468,296,75092,1,0,1:0:0:0:
468,296,75342,6,0,L|462:239,1,47.5,10|0,1:0|0:0,0:0:0:0:
425,89,75508,1,10,1:0:0:0:
431,113,75592,1,0,0:0:0:0:
438,95,75675,2,0,L|432:154,1,47.5,0|0,3:0|0:0,0:0:0:0:
356,196,75842,1,6,3:1:0:0:
322,198,75925,1,0,3:0:0:0:
189,291,76092,1,0,3:0:0:0:
223,293,76175,2,0,P|224:237|211:137,1,142.5,10|0,1:0|0:0,0:0:0:0:
232,71,76508,5,2,1:0:0:0:
255,207,76675,1,2,1:0:0:0:
243,375,76842,1,8,1:0:0:0:
339,325,77008,1,0,3:0:0:0:
339,325,77092,1,0,3:0:0:0:
339,325,77175,1,4,3:2:0:0:
170,294,77342,1,2,3:1:0:0:
37,352,77508,1,10,1:0:0:0:
37,352,77592,1,0,3:0:0:0:
37,352,77675,1,0,1:0:0:0:
37,352,77758,1,0,1:0:0:0:
87,46,78008,5,10,1:0:0:0:
161,25,78175,2,0,P|160:90|167:195,1,142.5,6|0,1:2|0:0,0:0:0:0:
147,197,78508,2,0,L|226:187,1,47.5,2|0,1:0|3:0,0:0:0:0:
278,212,78675,1,0,3:0:0:0:
278,212,78758,2,0,P|287:288|288:380,1,142.5,4|0,1:2|0:0,0:0:0:0:
359,180,79175,5,6,1:0:0:0:
205,274,79342,1,2,1:0:0:0:
445,294,79508,5,10,1:0:0:0:
264,143,79675,1,0,0:0:0:0:
245,374,79842,5,2,1:0:0:0:
245,374,79925,1,0,0:0:0:0:
441,202,80092,1,0,3:0:0:0:
439,178,80175,1,8,1:0:0:0:
425,200,80258,1,0,3:0:0:0:
426,178,80342,1,0,1:0:0:0:
412,200,80425,1,0,1:0:0:0:
141,61,80675,5,6,1:0:0:0:
217,59,80842,2,0,L|284:64,1,47.5,4|0,1:2|0:0,0:0:0:0:
386,85,81008,2,0,L|339:89,1,47.5,2|0,1:0|0:0,0:0:0:0:
280,140,81175,1,2,3:1:0:0:
277,177,81258,1,0,3:0:0:0:
285,214,81342,1,0,3:0:0:0:
184,358,81508,2,0,P|187:279|176:201,1,142.5,10|0,1:0|0:0,0:0:0:0:
201,182,81842,6,0,L|128:192,1,47.5,2|0,1:0|0:0,0:0:0:0:
32,180,82008,2,0,L|105:190,1,47.5,2|0,1:0|0:0,0:0:0:0:
173,105,82175,1,8,1:0:0:0:
135,100,82258,1,0,0:0:0:0:
99,114,82342,1,0,1:0:0:0:
61,106,82425,1,0,3:0:0:0:
61,106,82508,2,0,P|62:73|62:49,1,47.5,2|0,1:0|0:0,0:0:0:0:
120,15,82675,1,0,3:0:0:0:
212,201,82842,1,10,1:0:0:0:
215,275,83008,1,0,1:0:0:0:
213,313,83092,1,0,1:0:0:0:
218,350,83175,1,0,1:0:0:0:
313,245,83342,5,0,0:0:0:0:
313,245,83425,1,0,0:0:0:0:
313,245,83508,2,0,P|344:241|376:240,2,63.3333333333333,4|0|0,0:0|3:0|3:0,0:0:0:0:
476,168,83842,2,0,P|444:162|401:161,2,63.3333333333333,4|0|0,3:2|0:0|0:0,0:0:0:0:
502,211,84175,2,0,P|503:177|501:64,1,126.666666666667,10|0,1:0|0:0,0:0:0:0:
413,34,84508,5,6,1:0:0:0:
426,46,85175,1,6,1:0:0:0:
426,46,85258,1,0,3:0:0:0:
426,46,85342,1,0,1:0:0:0:
426,46,85425,1,0,3:0:0:0:
383,41,85508,1,8,1:0:0:0:
340,49,85592,1,0,1:0:0:0:
307,76,85675,1,0,1:0:0:0:
283,111,85758,1,0,1:0:0:0:
279,153,85842,6,0,P|279:217|286:270,1,95,4|0,1:0|0:0,0:0:0:0:
222,294,86175,1,8,1:0:0:0:
204,181,86342,1,0,3:0:0:0:
231,62,86508,1,8,1:0:0:0:
231,62,86675,1,2,0:0:0:0:
231,62,87008,1,2,0:0:0:0:
157,20,87175,6,0,P|155:72|159:122,1,95,0|0,1:0|0:0,0:0:0:0:
113,22,87508,1,8,1:0:0:0:
87,139,87675,1,0,3:0:0:0:
118,241,87842,1,8,1:0:0:0:
118,241,88008,1,2,0:0:0:0:
118,241,88342,1,0,3:0:0:0:
191,358,88508,6,0,P|189:306|193:256,1,95,4|0,1:0|0:0,0:0:0:0:
126,225,88842,1,8,1:0:0:0:
299,250,89008,1,0,3:0:0:0:
445,237,89175,2,0,P|450:165|443:37,1,190,8|0,1:0|0:0,0:0:0:0:
512,31,89675,5,0,0:0:0:0:
379,5,89842,1,0,1:0:0:0:
266,29,90008,1,0,0:0:0:0:
47,92,90175,5,8,1:0:0:0:
208,126,90342,1,0,3:0:0:0:
366,97,90508,1,8,1:0:0:0:
173,49,90675,5,0,1:0:0:0:
140,40,90758,1,0,3:0:0:0:
110,56,90842,1,0,1:0:0:0:
78,46,90925,1,0,3:0:0:0:
48,60,91008,1,0,1:0:0:0:
16,48,91092,1,0,3:0:0:0:
16,48,91175,6,0,P|18:82|18:117,1,47.5,4|0,1:0|0:0,0:0:0:0:
11,170,91342,1,0,0:0:0:0:
11,170,91508,1,8,1:0:0:0:
101,195,91675,1,0,3:0:0:0:
188,180,91842,1,8,1:0:0:0:
188,180,92008,1,0,0:0:0:0:
270,215,92175,2,0,P|269:279|273:321,1,95,0|0,0:0|0:0,0:0:0:0:
112,364,92508,6,0,P|113:300|109:258,1,95,0|0,1:0|0:0,0:0:0:0:
189,294,92842,1,8,1:0:0:0:
197,167,93008,1,0,3:0:0:0:
174,40,93175,1,8,1:0:0:0:
174,40,93342,1,2,0:0:0:0:
174,40,93675,1,0,3:0:0:0:
252,13,93842,6,0,P|250:72|253:128,1,95,4|0,1:0|0:0,0:0:0:0:
176,117,94175,1,8,1:0:0:0:
223,237,94342,1,0,3:0:0:0:
168,372,94508,2,0,P|166:313|169:257,1,95,8|0,1:0|0:0,0:0:0:0:
101,246,94842,1,0,0:0:0:0:
249,333,95008,1,0,0:0:0:0:
257,150,95175,6,0,P|178:157|50:159,1,190,0|8,1:0|1:0,0:0:0:0:
186,190,95675,1,0,3:0:0:0:
344,167,95842,1,8,1:0:0:0:
502,209,96008,1,2,0:0:0:0:
464,202,96092,1,2,0:0:0:0:
430,219,96175,1,0,1:0:0:0:
405,248,96258,1,0,3:0:0:0:
369,262,96342,1,0,1:0:0:0:
331,259,96425,1,0,3:0:0:0:
294,250,96508,5,4,1:0:0:0:
294,250,96842,1,8,1:0:0:0:
232,290,97008,1,0,1:0:0:0:
185,276,97092,1,0,1:0:0:0:
137,278,97175,1,8,1:0:0:0:
66,309,97342,1,2,0:0:0:0:
46,232,97508,2,0,P|48:176|47:115,1,95,0|0,0:0|0:0,0:0:0:0:
41,30,97842,5,0,1:0:0:0:
41,30,98175,1,8,1:0:0:0:
65,133,98342,1,0,3:0:0:0:
58,242,98508,1,8,1:0:0:0:
56,285,98592,1,0,3:0:0:0:
62,326,98675,1,0,3:0:0:0:
130,361,98842,1,0,0:0:0:0:
197,332,99008,1,2,0:0:0:0:
340,363,99175,5,4,1:0:0:0:
340,363,99508,1,8,1:0:0:0:
404,330,99675,1,0,1:0:0:0:
449,331,99758,1,0,1:0:0:0:
492,345,99842,2,0,P|491:278|483:227,1,95,8|2,1:0|0:0,0:0:0:0:
448,185,100175,1,0,0:0:0:0:
479,112,100342,1,0,0:0:0:0:
351,17,100508,5,0,1:0:0:0:
351,17,100842,1,8,1:0:0:0:
324,177,101008,1,0,3:0:0:0:
371,348,101175,1,8,1:0:0:0:
405,276,101342,1,0,1:0:0:0:
402,257,101425,1,0,3:0:0:0:
386,268,101508,1,0,1:0:0:0:
387,248,101592,1,0,3:0:0:0:
371,275,101675,1,0,1:0:0:0:
370,255,101758,1,0,0:0:0:0:
353,270,101842,6,0,L|291:269,1,47.5,4|0,1:0|0:0,0:0:0:0:
274,298,102008,2,0,L|164:304,1,95,0|8,1:0|1:0,0:0:0:0:
83,283,102342,1,0,1:0:0:0:
83,249,102425,1,0,1:0:0:0:
74,216,102508,1,8,1:0:0:0:
129,162,102675,1,2,0:0:0:0:
154,238,102842,1,0,0:0:0:0:
56,144,103008,1,0,0:0:0:0:
207,38,103175,5,0,1:0:0:0:
207,38,103508,1,8,1:0:0:0:
233,201,103675,1,0,3:0:0:0:
201,366,103842,1,8,1:0:0:0:
192,324,103925,1,0,3:0:0:0:
195,281,104008,1,0,3:0:0:0:
160,211,104175,1,0,1:0:0:0:
183,136,104342,1,0,1:0:0:0:
77,29,104508,5,4,1:0:0:0:
77,29,104842,1,8,1:0:0:0:
234,56,105008,1,0,1:0:0:0:
234,56,105092,1,0,1:0:0:0:
234,56,105175,1,8,1:0:0:0:
382,16,105342,1,0,0:0:0:0:
445,61,105508,2,0,P|445:126|454:202,1,142.5,0|0,1:0|0:0,0:0:0:0:
485,227,105842,5,0,1:0:0:0:
246,173,106008,5,0,1:0:0:0:
30,220,106175,5,8,1:0:0:0:
255,273,106342,5,8,1:0:0:0:
255,273,107175,6,0,P|255:201|248:75,1,185.249991519928,6|0,1:0|0:0,0:0:0:0:
264,49,107508,1,10,1:0:0:0:
278,153,107675,1,0,0:0:0:0:
168,116,107842,1,0,0:0:0:0:
376,95,108008,1,0,3:0:0:0:
290,267,108175,1,10,1:0:0:0:
184,344,108342,6,0,P|104:336|-1:336,1,185.249991519928,2|0,1:0|0:0,0:0:0:0:
35,306,108675,1,2,1:0:0:0:
149,236,108842,1,8,1:0:0:0:
61,184,109008,1,0,0:0:0:0:
159,137,109175,2,0,P|163:51|154:-9,1,123.499994346619,2|0,1:0|3:0,0:0:0:0:
90,33,109508,1,8,1:0:0:0:
18,18,109675,1,4,0:0:0:0:
11,236,109842,6,0,P|102:231|221:241,1,185.249991519928,2|0,1:0|0:0,0:0:0:0:
180,200,110175,1,10,1:0:0:0:
256,349,110342,1,2,1:0:0:0:
269,250,110508,1,0,1:0:0:0:
249,149,110675,1,0,3:0:0:0:
271,14,110842,2,0,P|270:80|274:152,1,123.499994346619,8|2,1:0|1:0,0:0:0:0:
479,175,111175,6,0,L|321:184,1,123.499994346619,2|0,1:0|0:0,0:0:0:0:
471,255,111508,1,10,1:0:0:0:
487,96,111675,1,2,1:0:0:0:
278,161,111842,5,8,1:0:0:0:
292,309,112009,1,0,3:0:0:0:
214,368,112175,5,8,1:0:0:0:
218,325,112258,1,0,3:0:0:0:
213,281,112342,1,8,1:0:0:0:
215,237,112425,1,0,3:0:0:0:
215,237,112508,6,0,L|138:232,1,61.7499971733095,6|0,1:0|0:0,0:0:0:0:
106,108,112675,2,0,P|110:208|106:322,1,185.249991519928,2|0,1:0|0:0,0:0:0:0:
103,333,113008,1,2,1:0:0:0:
76,207,113175,1,2,1:0:0:0:
183,103,113342,1,0,3:0:0:0:
169,29,113508,2,0,P|101:34|39:34,1,123.499994346619,10|2,1:0|1:0,0:0:0:0:
276,125,113842,5,2,1:0:0:0:
253,196,114008,2,0,P|163:206|55:207,1,185.249991519928,2|0,1:0|0:0,0:0:0:0:
100,239,114342,1,2,1:0:0:0:
213,274,114508,1,2,1:0:0:0:
104,322,114675,1,0,3:0:0:0:
1,291,114842,1,10,1:0:0:0:
70,281,115008,1,0,0:0:0:0:
242,351,115175,5,6,1:0:0:0:
318,368,115342,2,0,P|318:279|308:98,1,246.999988693238,2|2,1:0|1:0,0:0:0:0:
394,258,115842,1,0,0:0:0:0:
226,248,116008,1,2,1:0:0:0:
461,155,116175,2,0,P|463:235|470:361,1,185.249991519928,10|0,1:0|0:0,0:0:0:0:
447,363,116508,5,6,1:0:0:0:
385,179,116675,1,8,1:0:0:0:
386,135,116758,1,8,1:0:0:0:
388,91,116842,1,0,0:0:0:0:
378,255,117008,5,8,3:1:0:0:
291,23,117175,1,10,1:0:0:0:
295,65,117258,1,0,1:0:0:0:
296,108,117342,1,0,1:0:0:0:
296,151,117425,1,0,1:0:0:0:
297,194,117508,5,8,1:0:0:0:
277,176,117592,1,0,3:0:0:0:
319,176,117675,1,0,1:0:0:0:
305,207,117758,1,0,3:0:0:0:
289,206,117842,6,0,P|286:125|285:15,1,185.249991519928,6|0,1:0|0:0,0:0:0:0:
257,11,118175,1,8,1:0:0:0:
257,120,118342,1,0,0:0:0:0:
151,72,118508,1,0,3:0:0:0:
365,74,118675,1,0,3:0:0:0:
259,212,118842,2,0,P|261:288|257:353,1,123.499994346619,10|0,1:0|0:0,0:0:0:0:
145,250,119175,5,2,1:0:0:0:
80,285,119342,1,0,3:0:0:0:
140,151,119508,1,8,1:0:0:0:
69,126,119675,1,0,0:0:0:0:
20,207,119842,5,2,1:0:0:0:
205,201,120008,2,0,B|331:171|290:302|423:286,1,246.999988693238,4|4,3:2|2:0,0:0:0:0:
351,152,120508,6,0,P|352:78|349:15,1,123.499994346619,6|0,1:0|0:0,0:0:0:0:
278,43,120842,1,10,1:0:0:0:
466,62,121008,2,0,P|463:123|464:185,2,123.499994346619,2|0|0,1:0|0:0|3:0,0:0:0:0:
392,220,121508,1,8,1:0:0:0:
467,342,121675,1,2,1:0:0:0:
464,255,121842,5,2,1:0:0:0:
395,305,122008,1,0,0:0:0:0:
255,250,122175,1,10,1:0:0:0:
154,215,122341,1,0,0:0:0:0:
188,303,122508,1,10,1:0:0:0:
188,303,122592,1,0,0:0:0:0:
188,303,122675,1,0,3:0:0:0:
225,172,122842,1,10,1:0:0:0:
221,153,122925,1,0,3:0:0:0:
236,163,123008,1,8,1:0:0:0:
232,144,123092,1,0,3:0:0:0:
254,163,123175,6,0,P|250:102|251:36,1,123.499994346619,6|2,1:0|1:0,0:0:0:0:
85,143,123508,1,8,1:0:0:0:
28,96,123675,1,0,0:0:0:0:
104,122,123842,1,2,1:0:0:0:
26,216,124008,1,0,3:0:0:0:
98,241,124175,1,10,1:0:0:0:
22,238,124342,1,0,0:0:0:0:
163,175,124508,5,2,1:0:0:0:
254,242,124675,2,0,P|386:242|513:232,1,246.999988693238,2|4,1:0|0:0,0:0:0:0:
423,319,125175,1,2,1:0:0:0:
349,322,125342,1,0,3:0:0:0:
340,157,125508,1,10,1:0:0:0:
414,160,125675,1,0,0:0:0:0:
174,233,125842,6,0,P|174:173|168:87,1,123.499994346619,6|0,1:0|0:0,0:0:0:0:
193,305,126175,1,8,1:0:0:0:
193,305,126342,1,8,3:1:0:0:
37,112,126508,2,0,P|33:173|33:235,1,123.499994346619,2|0,1:0|3:0,0:0:0:0:
36,38,126842,1,8,1:0:0:0:
36,38,127008,1,2,1:0:0:0:
268,27,127175,6,0,P|359:35|530:30,1,246.999988693238,6|10,1:0|1:0,0:0:0:0:
419,70,127675,1,0,0:0:0:0:
505,110,127842,1,0,1:0:0:0:
432,149,128008,1,0,3:0:0:0:
440,165,128092,1,0,1:0:0:0:
429,180,128175,1,10,1:0:0:0:
440,194,128258,1,0,3:0:0:0:
430,210,128342,1,8,1:0:0:0:
441,224,128425,1,0,0:0:0:0:
441,225,128675,6,0,L|433:272,1,47.5,6|0,1:0|0:0,0:0:0:0:
331,355,128842,2,0,L|317:198,1,142.5,6|0,1:0|0:0,0:0:0:0:
327,183,129175,1,0,1:0:0:0:
299,187,129258,1,0,0:0:0:0:
270,190,129342,1,0,3:0:0:0:
223,58,129508,2,0,L|292:53,1,47.5,10|0,1:0|0:0,0:0:0:0:
342,43,129675,1,0,0:0:0:0:
193,147,129842,5,2,1:0:0:0:
98,116,130008,1,2,1:0:0:0:
69,210,130175,2,0,P|74:290|87:377,1,142.5,10|0,1:0|0:0,0:0:0:0:
82,351,130508,2,0,L|137:339,1,47.5,2|0,1:0|0:0,0:0:0:0:
200,317,130675,1,0,3:0:0:0:
280,201,130842,1,10,1:0:0:0:
307,195,130925,1,0,3:0:0:0:
334,200,131008,1,2,1:0:0:0:
362,194,131092,1,0,3:0:0:0:
362,194,131342,5,10,1:0:0:0:
488,101,131508,2,0,P|420:105|314:103,1,142.5,4|0,1:2|0:0,0:0:0:0:
305,87,131842,1,2,3:1:0:0:
265,102,131925,1,0,3:0:0:0:
224,87,132008,1,0,1:0:0:0:
181,95,132092,1,0,1:0:0:0:
181,95,132175,2,0,L|186:172,1,47.5,10|0,1:0|0:0,0:0:0:0:
129,194,132342,2,0,L|125:241,1,47.5,2|0,1:0|0:0,0:0:0:0:
145,313,132508,5,6,1:0:0:0:
301,259,132675,1,0,0:0:0:0:
475,318,132842,1,10,1:0:0:0:
403,347,133008,1,0,3:0:0:0:
403,347,133092,2,0,L|398:280,1,47.5,0|2,0:0|3:1,0:0:0:0:
403,265,133258,1,0,3:0:0:0:
394,222,133342,1,0,3:0:0:0:
398,179,133425,1,0,0:0:0:0:
403,136,133508,2,0,L|392:25,1,95,10|10,1:0|1:0,0:0:0:0:
393,41,133758,1,8,1:0:0:0:
257,290,134008,5,12,1:0:0:0:
245,217,134175,2,0,P|247:152|240:68,1,142.5,4|0,1:2|0:0,0:0:0:0:
257,50,134508,2,0,L|196:57,1,47.5,2|0,1:0|0:0,0:0:0:0:
135,73,134675,2,0,L|87:67,1,47.5,2|0,1:0|0:0,0:0:0:0:
209,44,134842,6,0,L|270:51,1,47.5,4|0,1:2|0:0,0:0:0:0:
331,67,135009,2,0,L|378:61,1,47.5,2|0,1:0|0:0,0:0:0:0:
446,94,135175,1,2,1:0:0:0:
392,178,135342,1,2,1:0:0:0:
466,117,135508,2,0,P|475:193|469:294,1,142.5,10|0,1:0|0:0,0:0:0:0:
497,286,135842,2,0,L|494:227,1,47.5,2|0,1:0|0:0,0:0:0:0:
394,327,136008,2,0,L|449:347,1,47.5,0|0,3:0|0:0,0:0:0:0:
401,197,136175,1,10,1:0:0:0:
354,259,136342,1,8,1:0:0:0:
354,259,136425,1,8,1:0:0:0:
354,259,136675,5,10,1:0:0:0:
240,156,136842,2,0,L|121:162,2,63.3333333333333,4|0|0,1:2|3:0|3:0,0:0:0:0:
239,231,137175,1,10,1:0:0:0:
285,287,137286,1,0,3:0:0:0:
238,343,137397,1,0,3:0:0:0:
303,370,137508,2,0,L|402:372,2,63.3333333333333,8|2|2,1:0|1:0|1:0,0:0:0:0:
177,287,137842,6,2,B|65:265|106:342|-17:331,1,190,6|8,1:0|1:0,0:0:0:0:
179,345,138342,5,0,1:0:0:0:
161,306,138425,1,0,1:0:0:0:
181,268,138508,2,2,B|69:246|110:323|-13:312,1,190,6|8,1:0|1:0,0:0:0:0:
21,227,139008,2,0,L|15:175,1,47.5,4|0,1:2|1:0,0:0:0:0:
166,41,139342,6,0,L|226:33,1,47.5,12|0,1:0|0:0,0:0:0:0:
282,30,139508,2,0,P|298:115|303:243,1,190,4|2,1:2|1:0,0:0:0:0:
312,190,139925,1,0,0:0:0:0:
327,166,140008,1,0,0:0:0:0:
459,184,140175,1,10,1:0:0:0:
468,210,140258,1,0,0:0:0:0:
471,238,140342,1,0,3:0:0:0:
395,139,140508,6,0,L|402:82,1,47.5,6|0,1:0|0:0,0:0:0:0:
391,44,140675,2,0,L|383:90,1,47.5,2|0,1:0|0:0,0:0:0:0:
388,219,140842,2,0,P|389:275|407:365,1,142.5,8|0,1:0|0:0,0:0:0:0:
381,354,141175,1,2,1:0:0:0:
296,231,141342,1,0,3:0:0:0:
216,282,141508,1,2,1:0:0:0:
177,278,141592,1,0,3:0:0:0:
141,291,141675,1,8,1:0:0:0:
103,284,141758,1,0,1:0:0:0:
103,284,141842,6,0,P|104:239|100:178,1,95,0|10,3:0|1:0,0:0:0:0:
100,361,142175,1,4,1:2:0:0:
109,197,142342,1,2,1:0:0:0:
109,197,142425,1,0,0:0:0:0:
109,197,142508,2,0,P|109:151|112:118,1,47.5,2|0,1:0|1:0,0:0:0:0:
102,33,142675,2,0,P|102:56|102:80,1,47.5,0|0,3:0|0:0,0:0:0:0:
174,107,142842,2,0,P|226:107|281:112,1,95,10|0,1:0|0:0,0:0:0:0:
239,27,143175,5,6,1:0:0:0:
312,32,143342,1,2,1:0:0:0:
312,186,143508,1,10,1:0:0:0:
238,200,143675,2,0,P|240:222|240:274,1,47.5,0|0,1:0|0:0,0:0:0:0:
241,325,143842,6,0,L|324:319,2,63.3333333333333,4|0|0,1:2|3:0|3:0,0:0:0:0:
166,313,144175,5,8,1:0:0:0:
133,331,144258,1,0,1:0:0:0:
97,317,144342,1,0,1:0:0:0:
59,321,144425,1,8,1:0:0:0:
59,321,144675,6,0,L|53:258,1,47.5,10|0,1:0|0:0,0:0:0:0:
124,109,144842,2,0,P|123:227|128:276,1,142.5,4|0,1:2|0:0,0:0:0:0:
125,251,145175,2,0,L|194:245,1,47.5,2|0,1:0|1:0,0:0:0:0:
243,260,145342,1,2,1:0:0:0:
458,217,145508,2,2,B|373:204|392:251|292:233,1,142.5,4|0,1:2|0:0,0:0:0:0:
302,205,145842,5,0,1:0:0:0:
302,99,146008,1,2,1:0:0:0:
282,24,146175,2,0,L|287:92,1,47.5,8|0,1:0|0:0,0:0:0:0:
228,161,146342,2,0,L|223:93,1,47.5,0|0,1:0|0:0,0:0:0:0:
170,61,146508,2,0,L|47:70,1,95,2|0,1:0|3:0,0:0:0:0:
146,156,146842,1,8,1:0:0:0:
53,209,147008,1,0,1:0:0:0:
53,209,147092,1,0,1:0:0:0:
53,209,147342,6,0,L|58:283,3,71.25,0|0|0|0,3:0|3:0|3:0|3:0,0:0:0:0:
24,186,147842,6,0,P|78:187|128:179,1,95,4|0,1:2|0:0,0:0:0:0:
204,135,148120,6,0,L|202:41,3,63.3333333333333,2|2|2|0,0:0|0:0|0:0|0:0,0:0:0:0:
225,32,148508,6,0,L|227:201,1,158.333333333333,6|0,1:0|0:0,0:0:0:0:
240,224,148842,1,4,1:2:0:0:
244,229,149120,5,0,3:0:0:0:
244,229,149175,2,0,B|335:207|305:269|415:259,1,158.333333333333,0|0,1:0|0:0,0:0:0:0:
405,271,149508,6,0,L|471:266,3,47.5,0|0|0|0,1:0|3:0|1:1|0:0,0:0:0:0:
500,215,149842,6,0,P|498:149|503:15,1,190,4|8,1:0|1:0,0:0:0:0:
502,25,150675,1,0,3:0:0:0:
396,23,150842,2,0,P|399:83|397:133,1,95,8|2,1:0|0:0,0:0:0:0:
262,47,151175,6,0,P|170:51|51:50,1,190,0|8,1:0|1:0,0:0:0:0:
122,131,151675,1,0,1:0:0:0:
122,131,151758,1,0,1:0:0:0:
122,131,151842,2,0,P|54:134|18:141,1,95,0|0,0:0|3:0,0:0:0:0:
229,163,152175,1,8,1:0:0:0:
345,142,152342,1,2,0:0:0:0:
239,277,152508,6,0,P|310:275|464:296,1,190,0|8,1:0|1:0,0:0:0:0:
435,297,153175,1,2,0:0:0:0:
435,297,153258,1,2,0:0:0:0:
435,297,153342,1,0,3:0:0:0:
462,205,153508,2,0,L|498:209,4,23.75,8|0|0|0|0,1:0|0:0|0:0|0:0|0:0,0:0:0:0:
285,153,153842,6,0,P|280:91|279:54,1,95,0|2,1:0|0:0,0:0:0:0:
225,216,154175,1,8,1:0:0:0:
288,279,154342,1,0,0:0:0:0:
288,279,154425,1,0,1:0:0:0:
288,279,154508,1,0,0:0:0:0:
242,343,154675,1,0,3:0:0:0:
199,347,154758,1,0,3:0:0:0:
156,350,154842,1,8,1:0:0:0:
113,354,154925,1,0,0:0:0:0:
70,356,155008,1,4,0:0:0:0:
18,203,155175,6,0,P|87:205|230:202,1,190,4|8,1:0|1:0,0:0:0:0:
207,203,156008,1,0,3:0:0:0:
413,200,156175,2,0,P|330:204|302:205,1,95,8|2,1:0|0:0,0:0:0:0:
497,119,156508,6,0,P|499:180|495:288,1,142.5,0|0,1:0|0:0,0:0:0:0:
489,298,156842,1,8,1:0:0:0:
359,283,157008,1,0,1:0:0:0:
359,283,157092,1,0,1:0:0:0:
359,283,157175,1,0,0:0:0:0:
230,315,157342,1,0,3:0:0:0:
130,279,157508,1,8,1:0:0:0:
57,301,157675,1,2,0:0:0:0:
216,224,157842,6,0,P|220:153|214:2,1,190,0|8,1:0|1:0,0:0:0:0:
139,124,158342,1,2,0:0:0:0:
57,46,158508,2,0,P|57:113|63:177,1,95,0|0,1:0|3:0,0:0:0:0:
58,140,158758,1,2,0:0:0:0:
58,140,158842,1,8,1:0:0:0:
78,178,158925,1,2,0:0:0:0:
65,218,159008,1,2,0:0:0:0:
74,260,159092,1,2,0:0:0:0:
58,299,159175,6,0,L|174:300,1,95,0|2,1:0|0:0,0:0:0:0:
234,241,159508,1,8,1:0:0:0:
274,255,159592,1,0,0:0:0:0:
316,252,159675,1,2,3:0:0:0:
356,237,159758,1,0,0:0:0:0:
395,219,159842,1,0,0:0:0:0:
437,219,159925,1,2,3:0:0:0:
477,232,160008,1,0,3:0:0:0:
490,159,160175,2,0,P|488:93|496:7,1,142.5,4|0,1:2|0:0,0:0:0:0:
494,16,160508,6,0,L|288:15,1,190,0|8,1:0|1:0,0:0:0:0:
238,81,161008,1,0,0:0:0:0:
301,150,161175,2,0,L|336:150,7,23.75,0|0|0|0|0|0|0|0,1:0|0:0|0:0|0:0|3:0|0:0|0:0|0:0,0:0:0:0:
301,150,161508,2,0,L|185:166,1,95,8|0,1:0|0:0,0:0:0:0:
221,306,161842,6,0,P|135:301|11:257,1,190,0|0,1:0|0:0,0:0:0:0:
100,196,162342,1,0,1:0:0:0:
34,122,162508,1,0,0:0:0:0:
34,122,162592,1,2,0:0:0:0:
34,122,162675,2,0,L|30:62,1,47.5,0|2,3:0|0:0,0:0:0:0:
19,43,162842,2,0,L|187:31,1,142.5,4|0,1:2|0:0,0:0:0:0:
161,32,163175,6,0,P|165:114|157:260,1,190,0|8,1:0|1:0,0:0:0:0:
259,205,163675,1,0,0:0:0:0:
294,295,163842,2,0,P|348:293|415:295,1,95,0|0,0:0|3:0,0:0:0:0:
484,230,164175,2,0,L|442:225,7,23.75,8|0|0|0|0|0|0|0,1:0|0:0|0:0|0:0|0:0|0:0|0:0|0:0,0:0:0:0:
484,230,164508,6,0,P|490:175|485:29,1,190,0|8,1:0|1:0,0:0:0:0:
348,24,165008,1,0,0:0:0:0:
343,66,165092,1,2,3:0:0:0:
346,108,165175,1,0,0:0:0:0:
354,149,165258,1,0,0:0:0:0:
357,191,165342,1,2,3:0:0:0:
320,263,165508,2,0,P|218:263|168:258,1,142.5,4|0,1:2|0:0,0:0:0:0:
177,259,165842,6,0,L|42:262,1,95,0|0,1:0|0:0,0:0:0:0:
189,105,166175,2,0,P|127:108|-4:106,1,190,8|0,1:0|0:0,0:0:0:0:
140,184,166675,1,0,3:0:0:0:
239,180,166842,2,0,P|299:182|348:179,1,95,8|2,1:0|0:0,0:0:0:0:
507,287,167175,6,0,P|436:289|357:293,1,142.5,0|0,1:0|0:0,0:0:0:0:
331,303,167508,1,8,1:0:0:0:
99,332,167675,2,0,P|170:334|249:338,1,142.5,0|0,1:0|0:0,0:0:0:0:
259,359,168008,1,0,3:0:0:0:
240,216,168175,1,8,1:0:0:0:
260,83,168342,1,2,0:0:0:0:
127,25,168508,6,0,P|133:99|129:234,1,190,0|8,1:0|1:0,0:0:0:0:
208,142,169008,1,0,0:0:0:0:
46,144,169175,1,0,0:0:0:0:
207,185,169342,1,0,3:0:0:0:
46,144,169508,2,0,P|51:213|51:296,1,142.5,8|0,1:0|0:0,0:0:0:0:
78,269,169842,5,0,1:0:0:0:
174,313,170008,1,0,0:0:0:0:
271,270,170175,1,8,1:0:0:0:
376,303,170342,1,0,0:0:0:0:
404,299,170425,1,2,3:0:0:0:
384,319,170508,1,0,0:0:0:0:
412,316,170592,1,0,0:0:0:0:
394,338,170675,2,0,L|455:322,1,47.5,8|0,1:0|0:0,0:0:0:0:
500,278,170842,2,0,P|499:223|502:122,1,142.5,4|0,1:2|0:0,0:0:0:0:
501,135,171175,6,0,L|396:129,1,95,4|0,1:0|0:0,0:0:0:0:
376,54,171508,1,8,1:0:0:0:
376,27,171675,1,2,0:0:0:0:
318,100,171842,1,0,0:0:0:0:
247,118,172008,1,2,3:2:0:0:
176,95,172175,1,8,1:0:0:0:
178,67,172342,1,2,0:0:0:0:
40,209,172508,5,0,1:0:0:0:
111,227,172674,1,2,0:0:0:0:
182,204,172841,1,8,1:0:0:0:
180,176,173008,1,2,0:0:0:0:
179,145,173175,2,0,P|185:229|179:370,1,190,0|4,0:0|1:2,0:0:0:0:
182,334,173842,6,0,L|285:337,1,95,0|2,1:0|0:0,0:0:0:0:
412,340,174175,1,8,1:0:0:0:
412,340,174508,1,4,0:0:0:0:
449,342,174675,1,2,3:3:0:0:
350,298,174842,1,8,1:0:0:0:
283,270,175008,2,0,L|245:274,2,31.6666666666667,0|2|0,3:0|0:0|0:0,0:0:0:0:
283,270,175175,6,0,P|282:222|274:171,1,95,0|2,1:0|0:0,0:0:0:0:
355,173,175508,1,8,1:0:0:0:
426,138,175675,1,2,0:0:0:0:
491,178,175842,1,0,0:0:0:0:
425,224,176008,2,0,L|426:284,1,47.5,0|0,3:0|0:0,0:0:0:0:
417,226,176175,2,0,L|418:286,1,47.5,8|0,1:0|0:0,0:0:0:0:
411,230,176342,2,0,L|412:290,1,47.5,4|0,1:2|0:0,0:0:0:0:
404,241,176508,6,0,L|342:240,1,47.5,4|0,1:0|0:0,0:0:0:0:
280,244,176675,1,0,1:0:0:0:
280,244,177008,1,0,1:0:0:0:
203,241,177175,1,0,0:0:0:0:
170,253,177342,1,2,3:2:0:0:
93,261,177508,1,8,1:0:0:0:
16,250,177675,1,2,0:0:0:0:
233,351,177842,5,0,1:0:0:0:
266,339,178009,1,2,0:0:0:0:
343,331,178175,1,8,1:0:0:0:
420,347,178342,2,0,P|422:293|409:142,1,190,0|0,1:0|3:0,0:0:0:0:
240,31,178842,2,0,L|135:36,1,95,8|2,1:0|0:0,0:0:0:0:
12,126,179175,6,0,L|163:119,1,142.5,0|0,1:0|0:0,0:0:0:0:
192,115,179508,1,8,1:0:0:0:
193,146,179675,1,2,0:0:0:0:
266,115,179842,1,0,0:0:0:0:
265,185,180008,1,2,3:2:0:0:
267,258,180175,1,8,1:0:0:0:
270,293,180342,1,2,0:0:0:0:
348,59,180508,5,0,1:0:0:0:
347,129,180674,1,2,0:0:0:0:
349,202,180841,1,8,1:0:0:0:
352,237,181008,1,2,0:0:0:0:
354,315,181175,1,0,0:0:0:0:
280,352,181342,2,0,L|281:292,1,47.5,0|0,3:0|0:0,0:0:0:0:
272,350,181509,2,0,L|273:290,1,47.5,4|0,1:2|0:0,0:0:0:0:
266,346,181676,2,0,L|267:286,1,47.5,0|0,1:0|0:0,0:0:0:0:
259,343,181842,6,0,L|197:340,1,47.5,4|0,1:0|0:0,0:0:0:0:
133,337,182008,1,0,1:0:0:0:
133,337,182342,1,2,0:0:0:0:
57,344,182508,1,0,0:0:0:0:
126,309,182675,1,2,3:2:0:0:
62,268,182842,1,8,1:0:0:0:
58,245,183008,1,2,0:0:0:0:
153,192,183175,5,0,1:0:0:0:
229,199,183341,1,2,0:0:0:0:
160,164,183508,1,8,1:0:0:0:
224,123,183675,1,2,0:0:0:0:
151,135,183842,1,0,0:0:0:0:
170,68,184008,1,2,3:2:0:0:
46,24,184175,2,0,P|43:98|53:193,1,142.5,4|0,1:2|0:0,0:0:0:0:
39,204,184508,6,0,L|153:215,1,95,4|2,1:0|0:0,0:0:0:0:
282,269,184842,2,0,L|187:278,1,95,8|2,1:0|0:0,0:0:0:0:
343,317,185175,1,0,0:0:0:0:
363,309,185342,1,2,3:2:0:0:
433,285,185508,1,8,1:0:0:0:
503,251,185675,1,2,0:0:0:0:
431,234,185842,5,0,0:0:0:0:
397,227,186008,1,2,0:0:0:0:
322,212,186175,1,8,1:0:0:0:
393,179,186342,1,0,1:0:0:0:
393,179,186425,1,0,1:0:0:0:
393,179,186508,1,0,0:0:0:0:
460,144,186675,2,0,L|453:89,1,47.5,0|0,3:0|0:0,0:0:0:0:
469,141,186842,2,0,L|462:86,1,47.5,4|0,1:2|0:0,0:0:0:0:
477,139,187008,2,0,L|470:84,1,47.5,0|0,1:0|0:0,0:0:0:0:
484,140,187175,6,0,B|373:112|428:222|281:203,1,190,4|8,1:0|1:0,0:0:0:0:
317,205,187842,1,0,0:0:0:0:
265,146,188008,1,2,3:2:0:0:
276,68,188175,1,8,1:0:0:0:
271,51,188342,1,2,0:0:0:0:
251,136,188508,5,0,1:0:0:0:
185,171,188675,1,2,0:0:0:0:
112,191,188842,1,8,1:0:0:0:
118,209,189008,1,2,0:0:0:0:
189,247,189175,2,0,P|186:302|189:360,1,95,0|0,0:0|3:0,0:0:0:0:
19,321,189508,1,8,1:0:0:0:
19,321,189842,6,0,L|122:318,1,95,4|2,1:0|0:0,0:0:0:0:
118,209,190175,2,0,L|15:206,1,95,8|2,1:0|0:0,0:0:0:0:
119,133,190508,1,0,0:0:0:0:
114,108,190675,1,2,3:2:0:0:
190,109,190842,1,8,1:0:0:0:
235,49,191008,1,2,0:0:0:0:
384,206,191175,5,0,1:0:0:0:
389,181,191342,1,2,0:0:0:0:
313,182,191509,1,4,1:2:0:0:
252,136,191675,1,0,1:0:0:0:
242,63,191842,1,8,1:0:0:0:
193,197,192008,6,0,L|197:252,1,47.5,0|0,3:2|0:0,0:0:0:0:
185,196,192175,2,0,L|189:251,1,47.5,4|0,1:2|0:0,0:0:0:0:
177,195,192342,2,0,L|181:250,1,47.5,0|0,0:0|0:0,0:0:0:0:
150,312,192508,5,4,1:0:0:0:
150,312,192842,1,0,1:0:0:0:
150,312,193175,1,0,1:0:0:0:
150,312,193508,1,0,1:0:0:0:
150,312,193842,5,0,1:0:0:0:
225,307,194008,1,0,1:0:0:0:
301,302,194175,1,0,1:0:0:0:
490,204,194508,1,0,1:0:0:0:
415,199,194674,1,0,1:0:0:0:
339,194,194841,1,0,1:0:0:0:
413,183,195008,1,0,1:0:0:0:
268,130,195175,5,0,1:0:0:0:
268,130,195508,1,0,1:0:0:0:
268,130,195842,1,0,1:0:0:0:
268,130,196175,1,0,1:0:0:0:
268,130,196508,5,0,1:0:0:0:
192,140,196675,1,0,1:0:0:0:
116,149,196842,1,0,1:0:0:0:
292,230,197092,1,0,1:0:0:0:
292,230,197175,1,0,1:0:0:0:
292,230,197508,1,0,1:0:0:0:
475,41,197842,5,0,1:0:0:0:
475,41,198008,1,0,1:0:0:0:
475,41,198175,1,0,1:0:0:0:
475,41,198342,1,0,1:0:0:0:
411,82,198508,5,0,1:0:0:0:
335,72,198675,1,0,1:0:0:0:
271,30,198842,1,0,1:0:0:0:
195,32,199008,1,0,1:0:0:0:
136,81,199175,5,0,1:0:0:0:
130,156,199342,1,0,1:0:0:0:
179,213,199508,1,0,0:0:0:0:
253,227,199675,1,0,1:0:0:0:
322,195,199842,5,0,1:0:0:0:
397,190,200008,1,0,1:0:0:0:
465,224,200175,1,0,1:0:0:0:
472,299,200342,1,0,1:0:0:0:
418,352,200508,6,0,L|364:346,3,47.5,0|0|0|0,1:0|1:0|1:0|1:0,0:0:0:0:
300,316,200842,6,0,L|252:321,3,47.5,0|0|0|0,1:0|1:0|1:0|1:0,0:0:0:0:
181,351,201175,5,0,1:0:0:0:
171,331,201258,1,0,1:0:0:0:
183,306,201342,1,0,1:0:0:0:
174,274,201425,1,0,1:0:0:0:
187,243,201508,1,0,1:0:0:0:
172,198,201592,1,0,1:0:0:0:
188,151,201675,1,0,1:0:0:0:
170,105,201758,1,0,1:0:0:0:
170,105,203175,6,0,L|380:120,1,185.249991519928,6|0,1:0|0:0,0:0:0:0:
376,96,203508,1,10,1:0:0:0:
296,200,203675,1,0,0:0:0:0:
408,272,203842,1,0,0:0:0:0:
488,176,204008,1,0,3:0:0:0:
392,176,204175,1,10,1:0:0:0:
200,128,204342,6,0,P|200:196|208:336,1,185.249991519928,2|0,1:0|0:0,0:0:0:0:
184,344,204675,1,2,1:0:0:0:
328,264,204842,2,0,L|448:292,1,123.499994346619,8|0,1:0|0:0,0:0:0:0:
312,184,205175,1,2,1:0:0:0:
472,84,205342,2,0,L|352:112,1,123.499994346619,0|8,3:0|1:0,0:0:0:0:
244,20,205675,1,4,0:0:0:0:
112,72,205842,6,0,P|120:136|120:288,1,185.249991519928,2|0,1:0|0:0,0:0:0:0:
144,232,206175,1,10,1:0:0:0:
272,208,206342,1,2,1:0:0:0:
416,240,206508,1,0,1:0:0:0:
272,292,206675,1,0,3:0:0:0:
348,188,206842,1,8,1:0:0:0:
484,80,207008,5,2,1:0:0:0:
420,36,207175,2,0,P|340:36|220:32,1,185.249991519928,2|0,1:0|0:0,0:0:0:0:
220,64,207508,1,10,1:0:0:0:
64,120,207675,1,2,1:0:0:0:
296,116,207842,5,8,1:0:0:0:
464,184,208008,1,0,3:0:0:0:
424,204,208092,1,0,0:0:0:0:
384,188,208175,1,8,1:0:0:0:
344,204,208258,1,0,3:0:0:0:
300,192,208342,1,8,1:0:0:0:
260,208,208425,1,0,3:0:0:0:
260,208,208508,6,0,L|176:200,1,61.7499971733095,6|0,1:0|0:0,0:0:0:0:
200,280,208675,2,0,P|108:276|48:360,1,185.249991519928,2|0,1:0|0:0,0:0:0:0:
38,313,209008,1,2,1:0:0:0:
156,356,209175,1,2,1:0:0:0:
272,316,209342,1,0,3:0:0:0:
344,348,209508,2,0,L|468:360,1,123.499994346619,10|0,1:0|1:0,0:0:0:0:
360,236,209842,5,2,1:0:0:0:
432,204,210008,2,0,P|436:120|416:0,1,185.249991519928,2|0,1:0|0:0,0:0:0:0:
400,28,210342,1,2,1:0:0:0:
508,104,210508,1,2,1:0:0:0:
348,140,210675,1,0,3:0:0:0:
504,248,210842,2,0,P|504:320|512:380,1,123.499994346619,10|0,1:0|0:0,0:0:0:0:
304,288,211175,5,6,1:0:0:0:
200,340,211342,1,2,1:0:0:0:
200,340,211425,1,0,0:0:0:0:
200,340,211508,2,0,L|76:364,1,123.499994346619,8|2,1:0|1:0,0:0:0:0:
140,256,211842,1,0,0:0:0:0:
44,192,212008,1,2,1:0:0:0:
152,128,212175,2,0,L|316:160,1,123.499994346619,10|0,1:0|0:0,0:0:0:0:
128,24,212508,5,6,1:0:0:0:
20,88,212675,1,8,1:0:0:0:
20,88,212758,1,8,1:0:0:0:
20,88,212842,1,0,0:0:0:0:
224,64,213008,5,8,3:1:0:0:
408,88,213175,1,10,1:0:0:0:
408,132,213258,1,0,1:0:0:0:
408,176,213342,1,0,1:0:0:0:
412,220,213425,1,0,1:0:0:0:
390,255,213508,5,8,1:0:0:0:
434,241,213592,1,0,3:0:0:0:
429,257,213675,1,0,1:0:0:0:
398,266,213758,1,0,3:0:0:0:
439,279,213842,6,0,P|351:283|251:299,1,185.249991519928,6|0,1:0|0:0,0:0:0:0:
268,260,214175,1,8,1:0:0:0:
244,104,214342,1,0,0:0:0:0:
132,224,214508,1,0,3:0:0:0:
252,180,214675,1,0,3:0:0:0:
392,196,214842,5,10,1:0:0:0:
344,132,215008,2,0,P|272:140|132:132,1,185.249991519928
148,164,215342,1,0,3:0:0:0:
196,260,215508,2,0,L|64:264,1,123.499994346619,8|0,1:0|0:0,0:0:0:0:
260,216,215842,1,2,1:0:0:0:
44,96,216008,2,0,P|52:180|40:368,1,246.999988693238,4|4,1:2|2:0,0:0:0:0:
288,312,216508,6,0,L|420:316,1,123.499994346619,6|0,1:0|0:0,0:0:0:0:
340,220,216842,1,10,1:0:0:0:
480,168,217008,2,0,P|484:104|476:32,2,123.499994346619,2|0|0,1:0|1:0|3:0,0:0:0:0:
340,104,217508,1,8,1:0:0:0:
216,168,217675,1,2,1:0:0:0:
296,316,217842,6,0,P|300:236|292:168,1,123.499994346619,2|0,1:0|0:0,0:0:0:0:
208,288,218175,1,10,1:0:0:0:
388,288,218342,1,0,0:0:0:0:
388,288,218425,1,0,0:0:0:0:
388,288,218508,2,0,L|472:296,1,61.7499971733095,10|0,1:0|0:0,0:0:0:0:
472,220,218675,1,0,3:0:0:0:
472,192,218758,1,0,0:0:0:0:
448,212,218842,1,10,1:0:0:0:
448,180,218925,1,0,3:0:0:0:
420,212,219008,1,8,1:0:0:0:
416,184,219092,1,0,3:0:0:0:
388,200,219175,6,0,L|384:120,1,61.7499971733095,6|0,1:0|0:0,0:0:0:0:
312,232,219342,2,0,P|312:160|304:32,1,185.249991519928,2|0,1:0|0:0,0:0:0:0:
328,24,219675,1,2,1:0:0:0:
216,116,219842,1,2,1:0:0:0:
148,76,220008,1,0,3:0:0:0:
12,144,220175,2,0,L|136:160,1,123.499994346619,10|0,1:0|0:0,0:0:0:0:
44,272,220508,5,2,1:0:0:0:
168,364,220675,2,0,P|232:344|324:191,1,246.999988693238,2|4,1:0|0:0,0:0:0:0:
226,233,221175,1,2,1:0:0:0:
400,264,221342,1,0,3:0:0:0:
338,104,221508,2,0,L|190:124,1,123.499994346619,10|0,1:0|0:0,0:0:0:0:
52,32,221842,6,0,P|60:96|60:236,1,185.249991519928,6|0,1:0|0:0,0:0:0:0:
80,188,222175,1,8,1:0:0:0:
328,368,222342,2,0,P|320:304|320:164,1,185.249991519928,2|0,1:0|0:0,0:0:0:0:
300,212,222675,1,0,3:0:0:0:
428,236,222842,1,8,1:0:0:0:
380,112,223008,1,2,1:0:0:0:
204,32,223175,5,6,1:0:0:0:
240,160,223342,1,0,1:0:0:0:
212,292,223508,2,0,P|136:308|8:304,1,185.249991519928,10|0,1:0|0:0,0:0:0:0:
48,336,223842,1,0,1:0:0:0:
284,356,224008,1,0,3:0:0:0:
328,356,224092,1,0,1:0:0:0:
368,336,224175,1,10,1:0:0:0:
396,304,224258,1,0,3:0:0:0:
400,260,224342,1,8,1:0:0:0:
388,220,224425,1,0,0:0:0:0:
388,220,224508,6,0,L|400:68,1,123.499994346619,6|2,1:0|1:0,0:0:0:0:
384,20,224842,1,8,1:0:0:0:
304,212,225008,2,0,P|308:120|208:44,1,185.249991519928,2|0,1:0|0:0,0:0:0:0:
212,28,225342,1,0,3:0:0:0:
128,88,225508,1,10,1:0:0:0:
52,44,225675,2,0,P|-4:116|28:292,1,246.999988693238,2|2,1:0|1:0,0:0:0:0:
136,220,226175,1,8,1:0:0:0:
208,260,226342,1,0,0:0:0:0:
208,260,226425,1,0,0:0:0:0:
208,260,226508,2,0,L|344:236,1,123.499994346619,2|0,1:0|3:0,0:0:0:0:
464,344,226842,2,0,L|432:112,1,185.249991519928,8|0,1:0|0:0,0:0:0:0:
464,132,227175,6,0,P|396:152|328:152,1,123.499994346619,2|2,1:0|1:0,0:0:0:0:
236,136,227508,1,8,1:0:0:0:
308,36,227675,1,2,1:0:0:0:
200,36,227842,1,0,1:0:0:0:
200,36,227925,1,0,0:0:0:0:
200,36,228008,1,0,3:0:0:0:
343,153,228175,1,8,1:0:0:0:
176,200,228342,1,2,1:0:0:0:
236,112,228508,5,2,1:0:0:0:
276,232,228675,1,0,0:0:0:0:
268,92,228842,2,0,P|256:192|272:356,1,246.999988693238,10|8,1:0|1:0,0:0:0:0:
296,324,229258,1,0,0:0:0:0:
292,356,229342,1,0,3:0:0:0:
383,330,229508,1,8,1:0:0:0:
411,326,229592,1,0,3:0:0:0:
411,354,229675,1,8,1:0:0:0:
447,338,229758,1,0,3:0:0:0:
443,310,229842,6,0,P|443:278|435:218,1,61.7499971733095,6|0,1:0|0:0,0:0:0:0:
496,188,230008,2,0,B|392:160|412:240|288:216,1,185.249991519928,2|0,1:0|0:0,0:0:0:0:
296,192,230342,1,2,1:0:0:0:
256,84,230508,1,2,1:0:0:0:
144,136,230675,1,0,3:0:0:0:
184,248,230842,2,0,P|188:324|184:396,1,123.499994346619,10|2,1:0|1:0,0:0:0:0:
268,312,231175,5,2,1:0:0:0:
8,216,231342,2,0,P|128:224|264:208,1,246.999988693238,2|2,1:0|1:0,0:0:0:0:
496,272,231842,1,2,1:0:0:0:
400,252,232008,1,0,3:0:0:0:
324,272,232175,2,0,P|324:176|312:56,1,185.249991519928,8|0,1:0|0:0,0:0:0:0:
328,56,232508,6,0,L|472:48,1,123.499994346619,6|2,1:0|1:0,0:0:0:0:
404,144,232842,1,8,1:0:0:0:
404,144,233008,1,2,1:0:0:0:
220,188,233175,2,0,L|76:180,1,123.499994346619,0|2,0:0|1:0,0:0:0:0:
308,280,233508,1,10,1:0:0:0:
308,280,233675,1,0,0:0:0:0:
140,352,233842,5,6,1:0:0:0:
4,260,234008,1,8,1:0:0:0:
36,260,234092,1,8,1:0:0:0:
68,260,234175,1,0,0:0:0:0:
232,272,234342,5,8,3:1:0:0:
368,180,234508,1,10,1:0:0:0:
328,192,234592,1,0,1:0:0:0:
284,192,234675,1,0,1:0:0:0:
244,176,234758,1,0,1:0:0:0:
208,156,234842,1,8,1:0:0:0:
164,148,234925,1,0,3:0:0:0:
120,148,235008,1,0,1:0:0:0:
80,160,235092,1,0,3:0:0:0:
80,160,235508,6,0,P|88:240|88:300,1,123.499994346619,8|0,1:0|0:0,0:0:0:0:
160,220,235842,1,2,1:0:0:0:
8,108,236008,1,0,3:0:0:0:
8,184,236175,1,10,1:0:0:0:
176,148,236342,1,0,0:0:0:0:
268,40,236508,6,0,L|132:56,1,123.499994346619,2|0,1:0|3:0,0:0:0:0:
344,12,236842,1,8,1:0:0:0:
456,80,237008,1,0,0:0:0:0:
456,80,237092,1,0,0:0:0:0:
456,80,237175,1,2,1:0:0:0:
332,104,237342,1,4,3:2:0:0:
392,152,237508,2,0,P|392:224|404:360,1,185.249991519928,4|0,1:2|0:0,0:0:0:0:
376,344,237842,5,6,1:0:0:0:
368,240,238008,1,0,0:0:0:0:
120,264,238175,2,0,B|232:244|192:320|312:304,1,185.249991519928,10|0,1:0|0:0,0:0:0:0:
272,268,238508,1,0,1:0:0:0:
136,352,238675,1,0,3:0:0:0:
276,232,238842,1,10,1:0:0:0:
100,348,239008,1,0,1:0:0:0:
256,376,239175,5,2,1:0:0:0:
116,216,239342,2,0,P|120:116|108:-28,1,185.249991519928,2|0,1:0|0:0,0:0:0:0:
152,24,239675,1,2,1:0:0:0:
40,140,239842,1,10,1:0:0:0:
32,156,239925,1,0,0:0:0:0:
212,192,240092,1,0,0:0:0:0:
224,216,240175,1,10,1:0:0:0:
236,236,240258,1,0,3:0:0:0:
248,260,240342,1,8,1:0:0:0:
260,280,240425,1,0,3:0:0:0:
272,300,240508,6,0,L|372:316,1,61.7499971733095,6|0,1:0|0:0,0:0:0:0:
360,344,240675,2,0,P|372:268|372:132,1,185.249991519928,2|0,1:0|0:0,0:0:0:0:
408,140,241008,1,0,0:0:0:0:
292,172,241175,1,2,1:0:0:0:
208,152,241342,1,0,3:0:0:0:
144,188,241508,2,0,L|8:196,1,123.499994346619,10|0,1:0|0:0,0:0:0:0:
132,76,241842,5,2,1:0:0:0:
144,188,242008,2,0,P|148:276|144:392,1,185.249991519928,2|0,1:0|0:0,0:0:0:0:
164,344,242342,1,2,1:0:0:0:
240,364,242508,1,2,1:0:0:0:
320,312,242675,1,0,3:0:0:0:
396,328,242842,1,8,1:0:0:0:
396,328,243175,6,0,P|400:280|388:192,1,123.499994346619,6|0,1:0|0:0,0:0:0:0:
232,88,243508,2,0,P|220:148|224:211,1,123.499994346619,8|8,1:0|3:1,0:0:0:0:
300,52,243842,1,2,1:0:0:0:
308,248,244008,2,0,B|156:220|224:348|52:332,1,246.999988693238,2|2,1:0|1:0,0:0:0:0:
240,356,244508,5,6,1:0:0:0:
112,252,244675,2,0,P|108:160|108:56,1,185.249991519928,2|0,1:0|0:0,0:0:0:0:
88,40,245008,1,2,1:0:0:0:
192,72,245175,1,0,1:0:0:0:
284,28,245342,1,0,3:0:0:0:
292,56,245425,1,0,1:0:0:0:
320,36,245508,1,0,1:0:0:0:
320,72,245592,1,0,3:0:0:0:
352,24,245675,1,0,1:0:0:0:
352,64,245758,1,0,0:0:0:0:
352,64,246342,6,0,P|352:104|360:168,1,71.2500027179719,8|0,0:3|0:0,0:0:0:0:
412,188,246675,1,0,0:0:0:0:
492,184,246842,1,8,0:3:0:0:
348,236,247008,6,0,P|348:276|340:340,1,71.2500027179719,0|0,0:0|0:0,0:0:0:0:
288,360,247341,1,8,0:3:0:0:
224,312,247508,2,0,P|221:276|221:240,1,71.2500027179719,0|0,0:0|0:0,0:0:0:0:
216,32,247842,5,4,0:0:0:0:
216,32,248175,1,8,0:3:0:0:
216,32,248508,5,8,0:3:0:0:
176,100,248675,2,0,P|120:104|80:100,1,71.2500027179719,0|0,0:0|0:0,0:0:0:0:
105,103,249175,2,0,P|105:183|109:279,1,142.500005435944,0|8,0:0|0:3,0:0:0:0:
180,216,249675,1,0,0:0:0:0:
252,324,249842,6,0,P|254:252|254:181,1,142.500005435944,0|8,0:0|0:3,0:0:0:0:
260,104,250342,1,0,0:0:0:0:
340,24,250508,5,8,0:3:0:0:
436,28,250675,1,0,0:0:0:0:
434,36,250758,1,2,0:0:0:0:
433,45,250842,1,0,0:0:0:0:
432,54,250925,1,2,0:0:0:0:
431,63,251008,1,0,0:0:0:0:
430,72,251092,1,2,0:0:0:0:
429,81,251175,5,8,0:3:0:0:
424,196,251342,1,8,0:3:0:0:
424,196,251675,2,0,P|372:200|348:200,1,71.2500027179719,0|0,0:0|0:0,0:0:0:0:
276,196,252008,1,0,0:0:0:0:
200,208,252175,1,8,0:3:0:0:
28,296,252342,6,0,P|80:300|104:300,1,71.2500027179719,0|0,0:0|0:0,0:0:0:0:
176,296,252675,1,8,0:3:0:0:
256,304,252842,2,0,P|291:303|327:299,1,71.2500027179719,0|0,0:0|0:0,0:0:0:0:
484,132,253175,5,4,0:2:0:0:
484,132,253508,1,8,0:3:0:0:
484,132,253842,5,8,0:3:0:0:
409,109,254008,2,0,L|327:120,1,71.2500027179719,0|0,0:0|0:0,0:0:0:0:
338,118,254508,1,0,0:0:0:0:
263,102,254675,1,0,0:0:0:0:
191,125,254842,2,0,P|189:163|201:205,1,71.2500027179719,8|0,0:3|0:0,0:0:0:0:
124,213,255175,5,0,0:0:0:0:
50,201,255342,1,8,0:3:0:0:
30,277,255508,2,0,L|34:365,1,71.2500027179719,0|0,0:0|0:0,0:0:0:0:
104,323,255842,1,8,0:3:0:0:
203,361,256008,5,0,0:0:0:0:
204,343,256092,1,2,0:0:0:0:
205,325,256175,1,8,0:3:0:0:
205,307,256258,1,2,0:0:0:0:
207,289,256342,1,0,0:0:0:0:
208,271,256425,1,2,0:0:0:0:
208,271,257008,5,2,0:0:0:0:
285,279,257175,1,0,0:0:0:0:
356,245,257342,1,0,0:0:0:0:
352,240,257508,1,0,0:0:0:0:
401,184,257675,1,0,0:0:0:0:
396,112,257842,1,2,0:0:0:0:
353,50,258008,1,0,0:0:0:0:
348,54,258175,1,0,0:0:0:0:
283,23,258342,1,2,0:0:0:0:
22,246,259175,5,2,0:0:0:0:
22,246,259842,1,2,0:0:0:0:
96,263,260008,1,0,0:0:0:0:
164,232,260175,1,0,0:0:0:0:
171,241,260342,1,0,0:0:0:0:
241,219,260508,1,2,0:0:0:0:
315,202,260674,1,0,0:0:0:0:
383,233,260841,1,0,0:0:0:0:
390,224,261008,1,2,0:0:0:0:
438,283,261175,1,0,0:0:0:0:
439,359,261342,1,2,0:0:0:0:
424,360,261425,1,2,0:0:0:0:
409,360,261508,1,0,0:0:0:0:
394,361,261592,1,2,0:0:0:0:
379,362,261675,1,0,0:0:0:0:
364,363,261758,1,2,0:0:0:0:
364,363,262342,5,2,0:0:0:0:
289,365,262508,1,0,0:0:0:0:
240,317,262675,1,0,0:0:0:0:
244,309,262842,1,0,0:0:0:0:
194,257,263008,1,0,0:0:0:0:
126,229,263174,1,2,0:0:0:0:
55,245,263341,1,0,0:0:0:0:
44,248,263508,1,0,0:0:0:0:
0,303,263675,1,2,0:0:0:0:
491,225,264508,5,2,0:0:0:0:
491,225,265175,1,2,0:0:0:0:
427,259,265342,1,0,0:0:0:0:
357,240,265508,1,0,0:0:0:0:
352,230,265675,1,0,0:0:0:0:
275,224,265842,1,2,0:0:0:0:
211,190,266009,1,0,0:0:0:0:
141,209,266175,1,0,0:0:0:0:
136,219,266342,1,2,0:0:0:0:
65,251,266508,1,0,0:0:0:0:
3,203,266675,1,2,0:0:0:0:
7,189,266758,1,2,0:0:0:0:
10,175,266842,1,2,0:0:0:0:
13,161,266925,1,8,0:3:0:0:
16,147,267008,1,8,0:3:0:0:
19,133,267092,1,8,0:3:0:0:
