osu file format v14

[General]
AudioFilename: audio.mp3
AudioLeadIn: 0
PreviewTime: 224508
Countdown: 0
SampleSet: Soft
StackLeniency: 0.7
Mode: 0
LetterboxInBreaks: 0
WidescreenStoryboard: 1

[Editor]
Bookmarks: 21818,36151,88484,109151,184818,218651
DistanceSpacing: 1
BeatDivisor: 4
GridSize: 4
TimelineZoom: 1.3

[Metadata]
Title:Palette
TitleUnicode:Palette
Artist:Hige Driver
ArtistUnicode:ヒゲドライバー
Creator:Jounzan
Version:Easy
Source:
Tags:ゆよゆっぺ yuyoyuppe featured artist MOtOLOiD Delis pishifat Nyquill vocaloid EvilElvis
BeatmapID:1443056
BeatmapSetID:682416

[Difficulty]
HPDrainRate:2
CircleSize:3
OverallDifficulty:3
ApproachRate:3
SliderMultiplier:0.8
SliderTickRate:1

[Events]
//Background and Video events
0,0,"palette.jpg",0,0
//Break Periods
2,192484,196402
//Storyboard Layer 0 (Background)
//Storyboard Layer 1 (Fail)
//Storyboard Layer 2 (Pass)
//Storyboard Layer 3 (Foreground)
//Storyboard Sound Samples

[TimingPoints]
509,333.333333333333,4,2,1,60,1,0
107175,-100,4,2,1,60,0,1
128675,-100,4,2,1,60,0,0
203175,-100,4,2,1,60,0,1
245842,-100,4,2,1,60,0,0
246176,-100,4,2,1,60,0,0
247843,-100,4,2,1,30,0,0
247926,-100,4,2,1,60,0,0
253176,-100,4,2,1,30,0,0
253259,-100,4,2,1,60,0,0
256509,-100,4,2,1,20,0,0
257843,-100,4,2,1,20,0,0
257926,-100,4,2,1,20,0,0

[Colours]
Combo1 : 168,0,168
Combo2 : 151,47,255
Combo3 : 119,119,255
Combo4 : 137,137,197

[HitObjects]
254,312,21842,6,0,P|252:245|257:216,1,80,6|8,1:0|1:0,0:0:0:0:
194,83,22842,1,10,1:0:0:0:
161,156,23175,1,2,1:0:0:0:
89,120,23509,2,0,P|83:179|83:295,1,160,8|4,1:0|1:2,0:0:0:0:
146,327,24509,6,0,L|231:340,1,80,6|10,1:0|1:0,0:0:0:0:
374,280,25509,1,8,1:0:0:0:
453,290,25842,2,0,P|452:240|430:126,2,160,2|2|6,1:0|1:0|1:0,0:0:0:0:
390,339,27509,5,8,1:0:0:0:
261,244,28175,1,10,1:0:0:0:
182,261,28509,1,2,1:0:0:0:
119,210,28842,2,0,P|116:155|122:42,1,160,8|8,1:0|1:0,0:0:0:0:
199,35,29842,6,0,L|297:41,1,80,2|10,1:0|1:0,0:0:0:0:
358,33,30509,1,2,0:1:0:0:
416,87,30842,2,0,P|423:144|421:263,1,160,8|10,1:0|1:0,0:0:0:0:
356,292,31842,2,0,L|277:305,1,80,2|8,1:0|1:0,0:0:0:0:
212,260,32508,6,0,P|152:252|128:264,1,80,6|8,1:0|1:0,0:0:0:0:
28,140,33508,1,10,1:0:0:0:
104,160,33842,1,2,1:0:0:0:
172,116,34175,2,0,L|336:148,1,160,8|4,1:0|1:2,0:0:0:0:
396,192,35175,6,0,P|404:228|396:280,1,80,2|10,1:0|1:0,0:0:0:0:
248,324,36175,1,8,1:0:0:0:
180,280,36508,2,0,B|92:264|104:320|12:316,2,160,2|2|6,1:0|0:1|1:0,0:0:0:0:
224,212,38175,5,8,1:0:0:0:
292,68,38842,1,10,1:0:0:0:
368,92,39175,1,2,1:0:0:0:
444,68,39508,2,0,P|452:112|448:232,1,160,10|8,1:0|1:0,0:0:0:0:
392,284,40508,6,0,L|228:296,1,160,6|0,1:0|0:0,0:0:0:0:
160,260,41508,1,10,1:0:0:0:
84,284,41842,2,0,P|76:232|84:120,1,160,6|2,1:0|1:0,0:0:0:0:
160,148,42842,1,8,1:0:0:0:
232,116,43175,6,0,L|240:28,1,80,6|8,1:0|1:0,0:0:0:0:
384,104,44175,1,8,1:0:0:0:
452,144,44508,2,0,L|464:240,1,80,0|10,1:0|1:0,0:0:0:0:
352,328,45508,1,10,1:0:0:0:
284,288,45842,6,0,P|232:296|108:288,1,160,6|0,1:0|0:0,0:0:0:0:
52,324,46842,1,10,1:0:0:0:
60,244,47175,2,0,P|60:204|48:80,2,160,4|0|6,1:2|0:0|1:0,0:0:0:0:
140,248,48842,5,8,1:0:0:0:
296,204,49508,1,8,1:0:0:0:
372,224,49842,2,0,L|460:236,1,80,0|10,1:0|1:0,0:0:0:0:
288,300,50842,1,10,1:0:0:0:
212,320,51175,6,0,L|124:332,1,80,2|8,1:0|1:0,0:0:0:0:
72,276,51842,1,0,0:0:0:0:
128,220,52175,2,0,P|124:132|124:44,1,160,10|8,1:0|1:0,0:0:0:0:
204,64,53175,2,0,L|292:48,1,80,0|8,1:0|1:0,0:0:0:0:
352,88,53842,5,6,1:0:0:0:
428,68,54175,2,0,P|440:140|440:232,1,160,8|8,1:0|1:0,0:0:0:0:
384,284,55175,2,0,L|288:280,1,80,0|10,1:0|1:0,0:0:0:0:
144,292,56175,1,8,1:0:0:0:
68,268,56508,6,0,P|68:236|72:180,1,80,6|8,1:0|1:0,0:0:0:0:
172,64,57508,1,10,1:0:0:0:
236,112,57842,2,0,B|324:96|308:152|404:136,2,160,4|0|6,1:2|1:0|1:0,0:0:0:0:
172,161,59508,5,8,1:0:0:0:
137,317,60175,1,10,1:0:0:0:
212,340,60508,2,0,P|268:336|300:336,1,80,0|8,1:0|1:0,0:0:0:0:
177,224,61508,1,8,1:0:0:0:
96,220,61842,6,0,P|96:184|104:44,1,160,6|0,1:0|0:0,0:0:0:0:
170,18,62842,1,10,1:0:0:0:
239,57,63175,2,0,P|246:136|243:217,2,160,6|2|0,1:0|1:0|0:0,0:0:0:0:
320,32,64842,5,10,1:0:0:0:
464,104,65508,2,0,P|464:184|472:276,1,160,8|10,1:0|1:0,0:0:0:0:
408,316,66508,2,0,P|368:316|312:320,1,80,0|8,3:0|1:0,0:0:0:0:
168,272,67508,1,10,1:0:0:0:
248,144,68175,2,0,P|244:196|252:320,1,160,10|10,1:0|1:0,0:0:0:0:
184,352,69175,2,0,P|140:352|88:356,1,80,2|8,3:1|1:0,0:0:0:0:
32,224,70175,5,10,1:0:0:0:
136,100,70842,2,0,L|220:104,1,80,10|2,1:0|1:0,0:0:0:0:
292,80,71508,1,10,1:0:0:0:
368,100,71842,1,0,3:0:0:0:
448,92,72175,1,10,1:0:0:0:
304,192,72842,1,10,1:0:0:0:
124,168,73508,2,0,P|128:220|128:332,1,160,10|10,1:0|1:0,0:0:0:0:
212,344,74508,2,0,P|208:300|212:248,1,80,8|8,3:1|1:0,0:0:0:0:
276,120,75508,6,0,B|356:112|336:168|436:164,2,160,10|10|8,1:0|1:0|1:0,0:0:0:0:
216,68,77175,2,0,L|132:64,1,80,4|10,3:2|1:0,0:0:0:0:
32,188,78175,1,6,1:2:0:0:
192,208,78842,1,0,0:0:0:0:
268,180,79175,2,0,P|272:216|272:268,1,80,6|10,1:0|1:0,0:0:0:0:
336,308,79842,1,2,1:0:0:0:
400,260,80175,1,8,1:0:0:0:
352,108,80842,6,0,L|344:20,1,80,4|2,1:2|3:1,0:0:0:0:
424,16,81508,2,0,P|436:64|428:188,1,160,10|8,1:0|1:0,0:0:0:0:
432,253,82508,1,2,1:0:0:0:
362,293,82842,1,10,1:0:0:0:
360,208,83175,6,0,B|200:176|272:356|76:328,1,320,0|6,1:0|1:0,0:0:0:0:
44,264,84842,2,0,P|44:216|40:172,1,80,0|6,0:0|1:0,0:0:0:0:
76,112,85508,1,8,1:0:0:0:
216,32,86175,6,0,L|312:44,1,80,8|8,1:0|1:0,0:0:0:0:
440,108,87175,1,0,1:0:0:0:
364,128,87508,2,0,L|280:144,1,80,8|8,1:0|1:0,0:0:0:0:
128,168,88508,6,0,P|132:252|144:340,2,160,4|8|0,1:0|1:0|1:0,0:0:0:0:
208,176,90175,2,0,L|288:184,1,80,8|8,1:0|1:0,0:0:0:0:
392,60,91175,5,4,1:0:0:0:
464,96,91508,2,0,P|468:176|460:300,1,160,8|8,1:0|1:0,0:0:0:0:
384,244,92508,1,0,1:0:0:0:
312,276,92842,2,0,L|200:292,1,80,8|8,1:0|1:0,0:0:0:0:
80,332,93842,5,4,1:0:0:0:
152,364,94176,2,0,L|264:380,1,80,8|0,1:0|0:0,0:0:0:0:
148,240,95175,2,0,P|148:152|144:48,2,160,0|8|4,1:0|1:0|1:0,0:0:0:0:
228,256,96842,6,0,P|227:307|232:360,1,80,8|8,1:0|1:0,0:0:0:0:
356,236,97842,1,0,1:0:0:0:
424,280,98175,2,0,P|424:331|420:384,1,80,8|8,1:0|1:0,0:0:0:0:
472,208,99175,6,0,P|472:116|468:20,1,160,4|8,1:0|1:0,0:0:0:0:
392,64,100175,1,0,0:0:0:0:
316,40,100508,1,0,1:0:0:0:
240,60,100842,2,0,P|240:104|244:156,1,80,8|8,1:0|1:0,0:0:0:0:
104,216,101842,6,0,L|200:212,1,80,4|8,1:0|1:0,0:0:0:0:
256,248,102508,1,8,1:0:0:0:
404,184,103175,1,0,1:0:0:0:
476,216,103508,2,0,P|480:256|476:316,1,80,8|8,1:0|1:0,0:0:0:0:
324,328,104508,6,0,B|192:280|220:396|72:352,1,240,4|0,1:0|1:0,0:0:0:0:
112,280,105842,1,0,1:0:0:0:
100,200,106175,1,8,1:0:0:0:
276,40,107175,6,0,P|276:140|280:236,1,160,6|0,1:0|0:0,0:0:0:0:
360,204,108175,1,10,1:0:0:0:
352,284,108508,2,0,P|308:284|244:288,1,80,0|8,0:0|1:0,0:0:0:0:
208,336,109175,2,0,P|168:334|128:334,1,80,2|8,1:0|1:0,0:0:0:0:
84,268,109842,5,2,1:0:0:0:
152,224,110175,2,0,P|152:128|148:12,2,160,10|8|10,1:0|1:0|1:0,0:0:0:0:
232,244,111842,2,0,L|328:248,1,80,8|8,1:0|1:0,0:0:0:0:
388,272,112508,5,6,1:0:0:0:
464,252,112842,2,0,P|468:176|452:60,1,160,8|10,1:0|1:0,0:0:0:0:
384,64,113842,2,0,L|272:68,1,80,2|8,1:0|1:0,0:0:0:0:
228,88,114508,2,0,L|148:85,1,80,2|10,1:0|1:0,0:0:0:0:
80,128,115175,5,6,1:0:0:0:
228,192,115842,1,0,3:0:0:0:
304,164,116175,1,10,1:0:0:0:
376,196,116508,2,0,P|384:276|376:364,1,160,6|10,1:0|1:0,0:0:0:0:
300,336,117508,1,8,1:0:0:0:
224,360,117842,6,0,P|217:280|225:200,1,160,6|0,1:0|3:0,0:0:0:0:
176,136,118842,1,10,1:0:0:0:
186,56,119175,2,0,P|144:56|84:52,1,80,2|8,1:0|1:0,0:0:0:0:
96,137,119842,2,0,P|135:134|175:135,1,80,2|8,1:0|1:0,0:0:0:0:
252,116,120508,5,6,1:0:0:0:
328,144,120842,2,0,B|408:112|396:192|512:156,2,160,10|8|10,1:0|1:0|1:0,0:0:0:0:
292,216,122508,2,0,P|296:260|292:332,1,80,10|10,1:0|1:0,0:0:0:0:
236,348,123175,5,6,1:0:0:0:
176,292,123508,2,0,L|-24:312,1,160,8|10,1:0|1:0,0:0:0:0:
24,228,124508,2,0,L|128:216,1,80,2|8,1:0|1:0,0:0:0:0:
176,180,125175,2,0,L|255:189,1,80,2|10,1:0|1:0,0:0:0:0:
332,164,125842,5,6,1:0:0:0:
400,204,126175,1,8,1:0:0:0:
344,356,126842,1,8,1:0:0:0:
268,328,127175,2,0,B|180:352|192:280|88:316,2,160,6|0|0,1:0|1:0|0:0,0:0:0:0:
332,280,128842,6,0,P|332:184|324:96,1,160,2|10,1:0|1:0,0:0:0:0:
268,64,129842,2,0,L|180:76,1,80,2|10,1:0|1:0,0:0:0:0:
108,64,130508,1,2,1:0:0:0:
44,116,130842,6,0,P|44:208|48:316,2,160,10|4|10,1:0|1:2|1:0,0:0:0:0:
120,92,132508,1,6,1:0:0:0:
136,172,132842,1,10,1:0:0:0:
128,252,133175,2,0,P|130:286|134:341,1,80,2|8,3:1|1:0,0:0:0:0:
280,260,134175,6,0,P|280:172|272:64,1,160,4|4,1:2|1:2,0:0:0:0:
344,60,135175,2,0,P|384:56|452:60,1,80,2|10,1:0|1:0,0:0:0:0:
472,120,135842,1,2,1:0:0:0:
460,200,136175,1,10,1:0:0:0:
232,304,136842,6,0,B|152:272|160:348|48:316,1,160,4|8,1:2|1:0,0:0:0:0:
52,248,137842,2,0,P|52:168|64:60,1,160,6|6,1:0|1:0,0:0:0:0:
124,40,138842,1,8,1:0:0:0:
256,136,139508,6,0,P|300:136|368:132,1,80,4|2,1:2|1:0,0:0:0:0:
328,216,140175,2,0,P|428:236|456:328,1,160,10|8,1:0|1:0,0:0:0:0:
404,344,141175,1,2,1:0:0:0:
328,316,141508,6,0,L|144:336,1,160,2|4,1:0|1:2,0:0:0:0:
148,256,142508,1,2,1:0:0:0:
228,236,142842,2,0,P|224:140|196:20,2,160,10|10|8,1:0|1:0|1:0,0:0:0:0:
72,198,144842,5,4,1:2:0:0:
54,120,145175,1,2,1:0:0:0:
61,40,145508,2,0,P|163:49|231:38,1,160,4|8,1:2|1:0,0:0:0:0:
280,93,146508,2,0,L|396:99,1,80,2|8,1:0|1:0,0:0:0:0:
439,100,148508,5,6,1:0:0:0:
439,100,149175,2,0,P|437:146|441:195,1,80,0|0,1:0|1:0,0:0:0:0:
371,223,149842,5,4,1:0:0:0:
295,197,150175,1,8,1:0:0:0:
202,66,150842,1,8,1:0:0:0:
123,50,151175,1,0,1:0:0:0:
45,68,151508,2,0,P|40:134|51:239,1,160,8|8,1:0|1:0,0:0:0:0:
120,260,152508,6,0,L|220:248,1,80,0|8,1:0|1:0,0:0:0:0:
352,304,153508,1,8,1:0:0:0:
432,312,153842,1,0,1:0:0:0:
480,248,154175,1,8,1:0:0:0:
468,168,154508,2,0,L|472:56,1,80,0|8,0:0|1:0,0:0:0:0:
400,52,155175,5,4,1:0:0:0:
320,64,155508,1,8,1:0:0:0:
168,116,156175,1,8,1:0:0:0:
88,132,156508,1,0,1:0:0:0:
8,124,156842,2,0,P|8:216|24:308,1,160,8|8,1:0|1:0,0:0:0:0:
100,288,157842,5,0,1:0:0:0:
176,260,158175,1,0,0:0:0:0:
248,292,158508,2,0,L|360:300,1,80,0|8,1:0|1:0,0:0:0:0:
392,248,159175,1,0,1:0:0:0:
472,260,159508,2,0,P|476:196|460:64,1,160,8|4,1:0|1:2,0:0:0:0:
396,68,160508,6,0,L|300:80,1,80,0|8,1:0|1:0,0:0:0:0:
160,40,161508,1,8,1:0:0:0:
160,120,161842,2,0,P|160:164|164:212,1,80,0|0,1:0|0:0,0:0:0:0:
24,120,162842,1,4,1:2:0:0:
20,200,163175,5,0,1:0:0:0:
36,280,163508,1,8,1:0:0:0:
192,308,164175,2,0,B|284:288|256:356|368:344,1,160,8|8,1:0|1:0,0:0:0:0:
396,284,165175,2,0,P|400:240|396:180,1,80,0|4,0:0|1:2,0:0:0:0:
448,140,165842,5,0,1:0:0:0:
432,60,166175,1,8,1:0:0:0:
324,180,166842,1,8,1:0:0:0:
300,104,167175,2,0,P|300:72|304:-16,1,80,0|8,1:0|1:0,0:0:0:0:
196,144,168175,1,8,1:0:0:0:
180,64,168508,6,0,L|80:76,1,80,0|8,1:0|1:0,0:0:0:0:
28,108,169175,1,0,0:0:0:0:
92,160,169508,2,0,P|108:252|100:332,2,160,8|8|4,1:0|1:0|1:2,0:0:0:0:
28,112,171175,5,4,1:0:0:0:
68,44,171508,1,8,1:0:0:0:
220,100,172175,2,0,P|328:108|404:72,2,160,8|8|4,1:0|1:0|1:2,0:0:0:0:
152,140,173842,5,0,1:0:0:0:
184,212,174175,1,8,1:0:0:0:
276,344,174842,2,0,L|468:332,1,160,8|8,1:0|1:0,0:0:0:0:
460,256,175842,1,0,0:0:0:0:
400,204,176175,1,8,1:0:0:0:
456,148,176508,6,0,P|456:120|448:44,1,80,4|0,1:0|0:0,0:0:0:0:
292,44,177508,2,0,P|288:132|296:224,2,160,8|8|8,1:0|1:0|1:0,0:0:0:0:
212,56,179175,1,0,1:0:0:0:
136,28,179508,1,8,1:0:0:0:
32,152,180175,2,0,P|32:256|44:360,1,160,8|8,1:0|1:0,0:0:0:0:
112,284,181175,1,0,0:0:0:0:
184,316,181508,1,4,1:2:0:0:
256,280,181842,6,0,L|368:292,1,80,4|8,1:0|1:0,0:0:0:0:
472,204,182842,2,0,P|472:128|456:24,2,160,8|8|4,1:0|1:0|1:2,0:0:0:0:
400,236,184508,5,4,1:0:0:0:
328,204,184842,1,0,0:0:0:0:
204,104,185508,1,8,1:0:0:0:
132,140,185842,1,0,0:0:0:0:
52,124,186175,2,0,P|48:224|64:312,1,160,8|4,1:0|1:2,0:0:0:0:
104,348,187175,6,0,L|204:332,1,80,4|8,1:0|1:0,0:0:0:0:
280,208,188175,1,8,1:0:0:0:
356,228,188508,1,0,1:0:0:0:
424,184,188842,2,0,P|440:260|428:352,1,160,8|8,1:0|1:0,0:0:0:0:
352,328,189842,5,4,1:0:0:0:
276,356,190175,1,8,1:0:0:0:
128,292,190842,2,0,L|300:272,1,160,8|4,1:0|1:2,0:0:0:0:
332,208,191842,1,8,1:0:0:0:
304,132,192175,1,4,1:2:0:0:
324,60,197842,6,0,P|324:104|336:252,2,160,0|0|0,1:0|1:0|1:0,0:0:0:0:
244,56,199508,2,0,L|124:52,1,80,0|0,0:0|1:0,0:0:0:0:
88,76,200175,1,0,1:0:0:0:
256,192,200508,12,0,201842,0:0:0:0:
236,40,203175,6,0,P|236:140|232:236,1,160,6|0,1:0|3:0,0:0:0:0:
316,200,204175,1,10,1:0:0:0:
320,280,204508,2,0,P|364:280|428:284,1,80,0|8,0:0|1:0,0:0:0:0:
428,208,205175,2,0,P|468:206|508:206,1,80,2|8,1:0|1:0,0:0:0:0:
496,128,205842,5,2,1:0:0:0:
416,120,206175,2,0,P|328:124|232:124,2,160,10|8|10,1:0|1:0|1:0,0:0:0:0:
428,40,207842,2,0,L|332:44,1,80,8|8,1:0|1:0,0:0:0:0:
268,28,208508,5,6,1:0:0:0:
188,20,208842,2,0,P|179:99|183:179,1,160,0|10,0:0|1:0,0:0:0:0:
196,260,209842,2,0,L|308:264,1,80,2|8,1:0|1:0,0:0:0:0:
300,340,210508,2,0,L|380:343,1,80,2|10,1:0|1:0,0:0:0:0:
444,296,211175,5,6,1:0:0:0:
364,156,211842,1,0,0:0:0:0:
292,124,212175,1,10,1:0:0:0:
220,160,212508,2,0,P|148:156|48:168,1,160,6|10,1:0|1:0,0:0:0:0:
56,84,213508,1,8,1:0:0:0:
120,36,213842,6,0,P|192:40|292:28,1,160,6|0,1:0|3:0,0:0:0:0:
312,104,214842,1,10,1:0:0:0:
392,92,215175,2,0,P|434:92|494:88,1,80,0|8,0:0|1:0,0:0:0:0:
480,168,215842,2,0,L|484:248,1,80,2|0,1:0|0:0,0:0:0:0:
404,244,216508,5,6,1:0:0:0:
344,296,216842,2,0,B|264:264|276:344|160:308,2,160,10|8|10,1:0|1:0|1:0,0:0:0:0:
352,216,218508,2,0,P|352:176|348:136,1,80,10|10,1:0|1:0,0:0:0:0:
296,76,219175,5,6,1:0:0:0:
224,40,219508,2,0,L|24:60,1,160,8|10,1:0|1:0,0:0:0:0:
68,136,220508,2,0,P|64:176|72:232,1,80,2|8,1:0|1:0,0:0:0:0:
80,296,221175,2,0,L|159:305,1,80,2|10,1:0|1:0,0:0:0:0:
216,248,221842,5,6,1:0:0:0:
192,172,222175,1,8,1:0:0:0:
336,240,222842,1,8,1:0:0:0:
348,160,223175,2,0,B|432:148|420:196|502:187,2,160,6|0|6,1:0|1:0|1:0,0:0:0:0:
308,92,224842,5,8,1:0:0:0:
152,52,225508,1,10,1:0:0:0:
80,88,225841,1,0,1:0:0:0:
128,152,226175,2,0,P|122:211|122:327,1,160,8|8,1:0|1:0,0:0:0:0:
196,340,227175,6,0,L|284:336,1,80,2|8,1:0|1:0,0:0:0:0:
396,228,228175,1,8,1:0:0:0:
320,200,228508,2,0,P|312:136|316:16,2,160,2|8|6,1:0|1:0|1:0,0:0:0:0:
316,280,230175,5,8,1:0:0:0:
224,148,230841,1,10,1:0:0:0:
212,228,231175,1,2,1:0:0:0:
192,304,231508,2,0,B|104:276|120:344|8:324,1,160,8|8,1:0|1:0,0:0:0:0:
48,248,232508,6,0,L|40:152,1,80,6|8,1:0|1:0,0:0:0:0:
36,88,233175,1,0,3:0:0:0:
108,52,233508,2,0,P|184:56|280:44,1,160,10|8,1:0|1:0,0:0:0:0:
308,116,234508,2,0,L|387:129,1,80,10|8,1:0|1:0,0:0:0:0:
464,148,235175,6,0,P|464:200|452:248,1,80,4|8,1:0|1:0,0:0:0:0:
312,292,236174,1,10,1:0:0:0:
232,304,236508,1,2,1:0:0:0:
176,248,236841,2,0,P|160:184|180:68,1,160,8|4,1:0|1:2,0:0:0:0:
116,32,237841,6,0,L|24:36,1,80,6|10,1:0|1:0,0:0:0:0:
194,14,238841,1,10,1:0:0:0:
271,58,239175,2,0,B|355:54|339:106|431:102,2,160,2|10|6,1:0|1:0|1:0,0:0:0:0:
240,132,240842,5,8,1:0:0:0:
328,268,241508,1,10,1:0:0:0:
256,232,241841,1,2,1:0:0:0:
180,260,242175,2,0,L|0:284,1,160,8|8,1:0|1:0,0:0:0:0:
16,200,243175,6,0,P|20:160|12:108,1,80,6|8,1:0|1:0,0:0:0:0:
78,69,243842,1,2,1:0:0:0:
154,104,244175,1,8,1:0:0:0:
224,64,244508,2,0,L|344:56,1,80,6|8,1:0|1:0,0:0:0:0:
376,20,245175,2,0,P|404:108|368:192,1,160,0|0,1:0|0:0,0:0:0:0:
240,236,246508,5,0,0:0:0:0:
8,176,247508,1,0,0:0:0:0:
84,144,247842,2,0,L|204:132,1,80,4|8,0:0|0:3,0:0:0:0:
240,156,248508,5,8,0:3:0:0:
392,204,249175,1,0,0:0:0:0:
176,308,250175,1,8,0:3:0:0:
100,336,250508,2,0,P|88:248|104:136,1,160,8|8,0:3|0:3,0:0:0:0:
204,60,251842,5,0,0:0:0:0:
440,92,252842,1,0,0:0:0:0:
472,164,253175,2,0,P|476:208|472:256,1,80,4|8,0:2|0:3,0:0:0:0:
452,320,253842,5,8,0:3:0:0:
304,260,254508,1,0,0:0:0:0:
68,300,255508,1,0,0:0:0:0:
44,224,255842,2,0,P|40:136|52:44,1,160,8|0,0:3|0:0,0:0:0:0:
204,36,257175,6,0,B|340:0|284:120|464:88,1,240,0|0,0:0|0:0,0:0:0:0:
200,176,259175,5,2,0:0:0:0:
60,100,259842,2,0,P|56:268|64:368,1,240,2|0,0:0|0:0,0:0:0:0:
140,332,261175,1,0,0:0:0:0:
288,268,261842,5,0,0:0:0:0:
444,300,262508,2,0,P|452:192|264:88,1,320,0|0,0:0|0:0,0:0:0:0:
140,40,264508,5,2,0:0:0:0:
20,144,265175,2,0,L|280:180,1,240,2|0,0:0|0:0,0:0:0:0:
284,252,266508,2,0,P|288:296|272:356,1,80,0|2,0:0|0:0,0:0:0:0:
