osu file format v14

[General]
AudioFilename: audio.mp3
AudioLeadIn: 0
PreviewTime: 224508
Countdown: 0
SampleSet: Soft
StackLeniency: 0.9
Mode: 0
LetterboxInBreaks: 0
WidescreenStoryboard: 1

[Editor]
Bookmarks: 21734,43068,64401,85734,107068,128401,149734,171068,192401,203068,224401,245734
DistanceSpacing: 0.8
BeatDivisor: 4
GridSize: 4
TimelineZoom: 1.4

[Metadata]
Title:Palette
TitleUnicode:Palette
Artist:Hige Driver
ArtistUnicode:ヒゲドライバー
Creator:Jounzan
Version:Collab Normal
Source:
Tags:ゆよゆっぺ yuyoyuppe featured artist MOtOLOiD Delis pishifat Nyquill vocaloid EvilElvis
BeatmapID:1443055
BeatmapSetID:682416

[Difficulty]
HPDrainRate:4
CircleSize:4
OverallDifficulty:4
ApproachRate:5
SliderMultiplier:1.3
SliderTickRate:1

[Events]
//Background and Video events
0,0,"palette.jpg",0,0
0,0,"palette.jpg",0,0
//Break Periods
2,192508,196508
//Storyboard Layer 0 (Background)
//Storyboard Layer 1 (Fail)
//Storyboard Layer 2 (Pass)
//Storyboard Layer 3 (Foreground)
//Storyboard Sound Samples

[TimingPoints]
509,333.333333333333,4,2,1,60,1,0
43175,-100,4,2,1,60,0,0
64508,-100,4,2,1,60,0,0
107175,-100,4,2,1,60,0,1
128508,-100,4,2,1,60,0,0
203175,-100,4,2,1,60,0,1
245842,-125,4,2,1,60,0,0
247842,-125,4,2,1,30,0,0
247925,-125,4,2,1,60,0,0
253175,-125,4,2,1,30,0,0
253258,-125,4,2,1,60,0,0
256508,-125,4,2,1,20,0,0

[Colours]
Combo1 : 168,0,168
Combo2 : 151,47,255
Combo3 : 119,119,255
Combo4 : 137,137,197

[HitObjects]
76,268,21842,6,0,L|148:256,1,65,6|0,1:0|0:0,0:0:0:0:
176,220,22175,2,0,P|240:244|312:224,1,130,8|2,1:0|0:1,0:0:0:0:
344,204,22675,1,0,3:0:0:0:
336,152,22842,1,10,1:0:0:0:
317,49,23175,2,0,L|157:57,1,130,2|8,1:0|1:0,0:0:0:0:
121,136,23842,2,0,L|281:128,1,130,0|4,1:0|1:2,0:0:0:0:
332,204,24508,6,0,P|264:232|188:216,2,130,6|10|2,1:0|1:0|0:1,0:0:0:0:
368,168,25342,1,0,3:0:0:0:
415,146,25508,1,8,1:0:0:0:
401,42,25842,2,0,P|473:54|513:118,1,130,2|10,1:0|1:0,0:0:0:0:
492,198,26508,2,0,P|424:218|384:278,1,130,2|8,1:0|1:0,0:0:0:0:
378,304,27008,5,8,1:0:0:0:
378,304,27175,2,0,P|310:296|226:300,1,130,6|0,1:0|0:0,0:0:0:0:
201,319,27675,1,2,0:1:0:0:
97,321,28008,1,0,3:0:0:0:
46,307,28175,1,10,1:0:0:0:
70,205,28508,2,0,P|86:141|50:77,1,130,2|8,1:0|1:0,0:0:0:0:
152,38,29175,2,0,P|212:74|292:58,1,130,2|8,0:1|1:0,0:0:0:0:
366,108,29842,6,0,L|386:244,1,130,2|10,1:0|1:0,0:0:0:0:
416,280,30342,2,0,P|332:256|276:284,1,130,0|0,1:0|3:0,0:0:0:0:
264,312,30842,1,8,1:0:0:0:
162,288,31175,2,0,B|158:232|158:232|162:216|162:216|158:140,2,130,2|10|2,1:0|1:0|1:0,0:0:0:0:
72,342,32175,2,0,P|68:298|72:258,1,65,8|2,1:0|3:2,0:0:0:0:
67,225,32508,6,0,L|51:89,1,130,6|8,1:0|1:0,0:0:0:0:
31,47,33008,2,0,P|95:79|167:71,1,130,2|0,0:1|3:0,0:0:0:0:
200,64,33508,1,10,1:0:0:0:
280,128,33842,2,0,P|352:88|420:104,1,130,2|8,1:0|1:0,0:0:0:0:
448,92,34342,1,0,0:0:0:0:
492,185,34675,2,0,L|499:260,1,65,0|4,3:0|1:2,0:0:0:0:
410,306,35175,6,0,P|346:278|270:290,1,130,2|10,1:0|1:0,0:0:0:0:
247,316,35675,2,0,P|183:328|107:300,1,130,0|0,0:0|3:0,0:0:0:0:
77,282,36175,1,8,1:0:0:0:
41,184,36508,2,0,P|105:176|165:216,1,130,2|10,1:0|1:0,0:0:0:0:
210,200,37008,1,0,0:0:0:0:
210,200,37175,2,0,P|262:204|326:164,1,130,2|8,0:1|1:0,0:0:0:0:
408,100,37842,5,6,1:0:0:0:
445,136,38008,2,0,P|454:201|444:277,1,130,2|2,3:1|0:1,0:0:0:0:
443,316,38508,2,0,L|520:325,2,65,2|0|10,0:1|3:0|1:0,0:0:0:0:
340,336,39175,2,0,P|278:339|200:362,1,130,2|10,1:0|1:0,0:0:0:0:
171,324,39675,1,0,0:0:0:0:
70,350,40008,2,0,P|56:297|51:274,1,65,0|8,3:0|1:0,0:0:0:0:
39,236,40342,1,8,3:1:0:0:
34,184,40508,6,0,L|62:40,2,130,6|8|0,1:0|1:0|0:0,0:0:0:0:
88,184,41342,1,8,3:1:0:0:
88,184,41508,2,0,P|156:172|180:168,1,65,10|0,1:0|3:0,0:0:0:0:
196,140,41842,2,0,P|256:180|328:168,1,130,6|8,1:0|1:0,0:0:0:0:
344,76,42508,2,0,P|284:36|212:48,1,130,2|8,1:0|1:0,0:0:0:0:
179,56,43008,5,2,3:2:0:0:
128,44,43175,2,0,B|51:33|67:82|-14:69,1,130,6|8,1:0|1:0,0:0:0:0:
74,147,43842,2,0,P|78:190|74:237,1,65,2|0,1:0|3:0,0:0:0:0:
78,263,44175,1,8,1:0:0:0:
173,222,44508,2,0,P|173:302|181:380,1,130,0|10,0:0|1:0,0:0:0:0:
224,329,45008,1,0,0:0:0:0:
319,286,45342,2,0,L|389:295,1,65,0|10,3:0|1:0,0:0:0:0:
473,346,45842,6,0,P|477:281|477:216,1,130,6|8,1:0|1:0,0:0:0:0:
464,165,46342,1,2,1:0:0:0:
373,114,46675,2,0,P|371:87|371:45,1,65,0|10,3:0|1:0,0:0:0:0:
270,22,47175,2,0,P|272:92|273:170,1,130,4|8,1:2|1:0,0:0:0:0:
256,201,47675,1,4,1:2:0:0:
171,144,48008,2,0,L|79:150,1,65,0|8,3:0|1:0,0:0:0:0:
58,241,48509,6,0,B|126:230|108:273|194:276,1,130,6|8,1:0|1:0,0:0:0:0:
261,209,49176,2,0,P|299:211|334:206,1,65,2|0,1:0|3:0,0:0:0:0:
377,200,49509,1,8,1:0:0:0:
476,228,49842,2,0,P|476:308|468:386,1,130,0|10,1:0|1:0,0:0:0:0:
421,344,50342,1,0,0:0:0:0:
319,321,50675,2,0,L|251:338,1,65,0|10,3:0|1:0,0:0:0:0:
153,358,51175,6,0,P|149:293|149:228,1,130,2|8,1:0|1:0,0:0:0:0:
97,218,51676,1,2,1:0:0:0:
42,129,52008,2,0,L|114:115,1,65,0|10,3:0|1:0,0:0:0:0:
172,36,52509,2,0,L|311:61,1,130,4|8,1:2|1:0,0:0:0:0:
341,90,53009,1,4,1:2:0:0:
392,85,53175,2,0,L|484:69,2,65,0|0|8,1:0|3:0|1:0,0:0:0:0:
453,169,53842,6,0,P|439:260|395:269,1,130,6|8,1:0|1:0,0:0:0:0:
334,202,54508,2,0,P|286:199|262:212,1,65,2|0,1:0|3:0,0:0:0:0:
226,231,54842,1,8,1:0:0:0:
126,263,55175,2,0,P|129:211|120:132,1,130,0|10,1:0|1:0,0:0:0:0:
135,83,55675,1,0,0:0:0:0:
237,102,56008,2,0,L|227:22,1,65,2|8,1:0|1:0,0:0:0:0:
333,33,56508,6,0,P|330:98|339:166,1,130,6|8,1:0|1:0,0:0:0:0:
326,213,57008,1,2,1:0:0:0:
238,270,57342,2,0,P|238:314|239:338,1,65,0|10,3:0|1:0,0:0:0:0:
141,296,57842,2,0,L|4:304,1,130,4|8,1:2|1:0,0:0:0:0:
45,209,58508,2,0,L|111:206,1,65,0|0,1:0|3:0,0:0:0:0:
154,178,58842,2,0,P|153:138|147:104,1,65,8|8,1:0|1:0,0:0:0:0:
176,69,59175,6,0,L|247:64,1,65,6|2,1:0|1:0,0:0:0:0:
281,32,59508,2,0,P|338:45|378:112,1,130,8|0,1:0|0:0,0:0:0:0:
320,189,60175,2,0,P|319:223|325:258,1,65,10|0,1:0|0:0,0:0:0:0:
295,297,60508,2,0,B|358:279|356:330|428:319,1,130,0|8,1:0|1:0,0:0:0:0:
425,268,61008,1,0,0:0:0:0:
478,178,61342,2,0,P|478:131|473:94,1,65,0|8,3:0|1:0,0:0:0:0:
400,42,61842,6,0,L|268:60,1,130,6|8,1:0|1:0,0:0:0:0:
231,92,62342,2,0,P|175:104|143:193,1,130,10|8,3:1|3:1,0:0:0:0:
145,215,62842,1,10,1:0:0:0:
248,212,63175,2,0,P|324:246|320:361,1,195,6|8,1:0|1:0,0:0:0:0:
277,353,63842,2,0,L|146:373,1,130,2|0,1:0|3:0,0:0:0:0:
75,234,64675,5,2,1:0:0:0:
30,207,64842,2,0,P|30:131|38:55,1,130,10|2,1:0|3:1,0:0:0:0:
151,94,65508,2,0,L|219:80,1,65,8|0,1:0|0:0,0:0:0:0:
318,126,66008,1,2,1:0:0:0:
318,126,66175,2,0,P|350:186|330:262,1,130,10|0,1:0|3:0,0:0:0:0:
309,286,66675,2,0,P|269:282|225:282,1,65,2|8,3:1|1:0,0:0:0:0:
193,294,67008,1,0,1:0:0:0:
102,241,67342,5,0,0:0:0:0:
68,201,67508,2,0,P|60:137|104:65,2,130,10|2|10,1:0|3:1|1:0,0:0:0:0:
19,221,68342,1,2,1:0:0:0:
18,324,68675,1,2,1:0:0:0:
58,356,68842,2,0,P|122:328|198:340,1,130,10|2,1:0|3:1,0:0:0:0:
227,311,69342,2,0,P|279:303|307:295,2,65,0|8|0,3:0|1:0|3:0,0:0:0:0:
164,227,70008,5,2,1:0:0:0:
164,227,70175,2,0,P|160:155|168:83,1,130,10|2,1:0|3:1,0:0:0:0:
258,50,70842,2,0,L|262:134,1,65,10|0,1:0|0:0,0:0:0:0:
288,216,71342,1,2,1:0:0:0:
340,212,71508,2,0,P|364:156|344:88,1,130,10|0,1:0|3:0,0:0:0:0:
400,92,72008,1,2,3:1:0:0:
400,92,72175,2,0,L|472:104,1,65,10|0,1:0|1:0,0:0:0:0:
500,200,72675,5,2,1:0:0:0:
500,200,72842,2,0,P|452:244|432:320,1,130,10|2,1:0|3:1,0:0:0:0:
348,240,73508,2,0,P|304:248|264:248,1,65,10|0,1:0|0:0,0:0:0:0:
232,240,73842,2,0,P|180:228|96:248,1,130,2|10,1:0|1:0,0:0:0:0:
20,300,74508,2,0,P|12:244|12:212,1,65,8|8,3:1|3:1,0:0:0:0:
32,188,74842,2,0,P|28:132|20:100,1,65,8|0,1:0|1:0,0:0:0:0:
76,32,75342,5,10,1:0:0:0:
128,40,75508,2,0,P|208:44|276:40,1,130,10|6,1:0|3:1,0:0:0:0:
356,72,76175,2,0,P|416:52|496:72,2,130,10|2|8,1:0|1:0|1:0,0:0:0:0:
280,144,77175,2,0,L|272:280,1,130,4|10,3:2|1:0,0:0:0:0:
268,324,77675,1,0,1:0:0:0:
368,296,78008,5,10,1:0:0:0:
368,296,78175,2,0,P|444:280|512:304,1,130,6|2,1:2|1:0,0:0:0:0:
440,204,78842,1,0,0:0:0:0:
336,220,79175,2,0,L|200:204,1,130,6|10,1:0|1:0,0:0:0:0:
148,120,79842,2,0,P|216:132|288:104,1,130,2|8,1:0|1:0,0:0:0:0:
312,80,80342,1,0,1:0:0:0:
384,156,80675,5,6,1:0:0:0:
424,120,80842,2,0,P|444:204|424:264,1,130,4|2,1:2|3:1,0:0:0:0:
340,292,81508,1,10,1:0:0:0:
264,220,81842,2,0,L|104:232,1,130,2|8,1:0|1:0,0:0:0:0:
56,296,82508,2,0,P|32:224|60:160,1,130,2|10,1:0|1:0,0:0:0:0:
88,140,83008,1,0,1:0:0:0:
188,108,83342,6,0,B|248:102|248:102|254:98|254:98|259:101|259:101|326:95,1,130,4|0,0:0|3:0,0:0:0:0:
368,92,83842,2,0,P|400:156|380:228,1,130,4|10,3:2|1:0,0:0:0:0:
288,228,84508,2,0,P|228:268|152:256,1,130,6|0,1:0|0:0,0:0:0:0:
132,168,85175,2,0,P|72:128|56:64,1,130,6|8,1:0|1:0,0:0:0:0:
160,64,85842,5,4,1:0:0:0:
260,88,86175,2,0,L|337:78,2,65,8|0|8,1:0|3:0|1:0,0:0:0:0:
93,213,87175,1,0,1:0:0:0:
26,293,87508,2,0,P|25:331|27:376,2,65,8|0|8,1:0|3:0|1:0,0:0:0:0:
210,195,88508,6,0,P|262:203|358:185,1,130,4|8,1:0|1:0,0:0:0:0:
395,105,89175,2,0,P|343:97|247:115,1,130,8|0,1:0|0:0,0:0:0:0:
172,62,89842,1,0,1:0:0:0:
79,109,90175,2,0,P|78:150|86:181,2,65,8|0|8,1:0|3:0|1:0,0:0:0:0:
250,227,91175,6,0,L|323:220,1,65,4|0,1:0|0:0,0:0:0:0:
405,169,91675,1,0,3:0:0:0:
452,190,91842,2,0,P|465:240|459:334,1,130,8|0,1:0|0:0,0:0:0:0:
360,337,92508,1,0,1:0:0:0:
257,320,92842,2,0,L|185:337,2,65,8|0|8,1:0|3:0|1:0,0:0:0:0:
83,205,93842,5,4,1:0:0:0:
123,109,94175,2,0,P|124:62|119:34,2,65,8|0|8,1:0|3:0|1:0,0:0:0:0:
331,113,95175,2,0,P|330:153|334:186,1,65,0|0,1:0|0:0,0:0:0:0:
302,220,95508,2,0,B|366:206|359:250|442:237,2,130,8|8|0,1:0|1:0|1:0,0:0:0:0:
209,270,96508,5,4,1:0:0:0:
116,222,96842,2,0,P|116:183|113:139,2,65,8|0|8,1:0|1:0|1:0,0:0:0:0:
253,65,97842,1,0,1:0:0:0:
346,113,98176,2,0,P|346:152|349:196,2,65,8|0|0,1:0|3:0|0:0,0:0:0:0:
152,37,99175,6,0,P|154:94|150:180,1,130,4|8,1:0|1:0,0:0:0:0:
158,270,99842,1,0,0:0:0:0:
266,92,100508,1,0,1:0:0:0:
370,91,100842,2,0,L|450:81,2,65,8|0|8,1:0|3:0|1:0,0:0:0:0:
218,233,101842,6,0,P|220:296|224:324,1,65,4|0,1:0|1:0,0:0:0:0:
319,329,102342,1,0,1:0:0:0:
366,350,102508,2,0,P|367:289|359:197,1,130,8|0,1:0|0:0,0:0:0:0:
292,143,103175,1,0,1:0:0:0:
190,165,103508,2,0,L|104:174,2,65,8|0|0,1:0|3:0|0:0,0:0:0:0:
225,67,104175,1,0,1:0:0:0:
122,50,104508,6,0,P|58:75|24:208,1,195,4|0,1:0|1:0,0:0:0:0:
38,234,105175,2,0,L|45:299,1,65,8|0,1:0|0:0,0:0:0:0:
42,350,105508,1,0,1:0:0:0:
144,331,105842,2,0,P|169:329|208:347,1,65,0|0,1:0|1:0,0:0:0:0:
251,320,106175,2,0,L|321:311,1,65,8|8,1:0|1:0,0:0:0:0:
420,84,107175,6,0,P|384:80|336:84,1,65,6|0,1:0|0:0,0:0:0:0:
308,104,107508,2,0,P|232:96|200:36,2,130,10|0|10,1:0|0:0|1:0,0:0:0:0:
328,152,108342,2,0,P|364:212|352:284,1,130,2|2,1:0|1:0,0:0:0:0:
332,312,108842,2,0,L|192:280,1,130,8|2,1:0|1:0,0:0:0:0:
148,196,109508,2,0,P|96:200|72:208,1,65,8|4,1:0|0:0,0:0:0:0:
36,228,109842,5,2,1:0:0:0:
8,128,110175,1,10,1:0:0:0:
8,128,110342,2,0,L|98:106,1,65,2|0,1:0|1:0,0:0:0:0:
97,67,110675,2,0,P|157:99|233:83,1,130,0|2,3:0|1:0,0:0:0:0:
264,60,111175,1,2,1:0:0:0:
348,120,111508,1,10,1:0:0:0:
348,120,111675,2,0,P|351:193|358:270,1,130,2|0,1:0|3:0,0:0:0:0:
332,296,112175,1,8,1:0:0:0:
228,316,112508,6,0,P|172:348|100:332,2,130,6|8|2,1:0|1:0|1:0,0:0:0:0:
155,249,113508,2,0,L|150:156,1,65,10|2,1:0|1:0,0:0:0:0:
193,153,113842,1,2,1:0:0:0:
193,153,114008,2,0,P|191:84|146:46,1,130,2|2,1:0|1:0,0:0:0:0:
95,47,114508,1,2,1:0:0:0:
45,138,114842,2,0,P|44:183|50:218,1,65,10|0,1:0|0:0,0:0:0:0:
57,253,115175,5,6,1:0:0:0:
142,311,115508,2,0,L|158:247,2,65,8|2|0,1:0|1:0|0:0,0:0:0:0:
246,313,116175,1,10,1:0:0:0:
346,288,116508,2,0,L|362:352,2,65,0|2|8,1:0|1:0|1:0,0:0:0:0:
343,235,117008,2,0,P|319:171|355:99,1,130,8|0,3:1|1:0,0:0:0:0:
382,86,117508,1,8,1:0:0:0:
484,105,117842,6,0,L|504:253,1,130,6|8,1:0|1:0,0:0:0:0:
456,328,118508,2,0,P|400:312|368:316,1,65,0|0,3:0|3:0,0:0:0:0:
341,313,118842,2,0,P|300:322|276:342,1,65,10|0,1:0|3:0,0:0:0:0:
183,300,119342,1,0,3:0:0:0:
192,248,119508,2,0,L|176:100,2,130,8|2|8,1:0|1:0|1:0,0:0:0:0:
276,184,120508,6,0,B|344:160|336:212|424:176,1,130,6|10,1:0|1:0,0:0:0:0:
452,164,121008,1,2,1:0:0:0:
452,164,121175,2,0,P|464:96|464:84,1,65,0|0,0:0|3:0,0:0:0:0:
472,48,121508,1,8,1:0:0:0:
368,32,121842,2,0,P|304:28|216:36,1,130,2|10,1:0|1:0,0:0:0:0:
200,64,122342,2,0,P|196:120|200:155,1,65,0|0,0:0|3:0,0:0:0:0:
300,160,122842,1,8,1:0:0:0:
300,160,123008,1,8,1:0:0:0:
300,160,123175,6,0,P|297:199|311:308,1,130,6|8,1:0|1:0,0:0:0:0:
360,363,123842,1,2,1:0:0:0:
459,332,124175,2,0,P|459:286|460:255,1,65,10|0,1:0|0:0,0:0:0:0:
436,220,124508,2,0,P|436:152|432:68,1,130,2|8,1:0|1:0,0:0:0:0:
456,44,125008,2,0,P|380:100|268:76,1,195,4|10,0:0|1:0,0:0:0:0:
192,44,125842,2,0,L|56:64,1,130,6|8,1:0|1:0,0:0:0:0:
76,164,126508,2,0,L|212:144,1,130,2|8,1:0|1:0,0:0:0:0:
304,180,127175,6,0,P|336:244|312:316,1,130,6|10,1:0|1:0,0:0:0:0:
272,288,127675,1,0,0:0:0:0:
272,288,127842,2,0,B|130:253|183:382|41:376,1,260,0|0,1:0|0:0,0:0:0:0:
38,324,128675,5,6,1:0:0:0:
38,324,128842,2,0,P|39:290|31:185,1,130,2|0,1:0|1:0,0:0:0:0:
20,91,129508,2,0,P|72:97|177:89,1,130,10|2,1:0|1:0,0:0:0:0:
250,119,130175,1,10,1:0:0:0:
331,51,130508,2,0,L|462:65,1,130,2|10,1:0|1:0,0:0:0:0:
495,102,131008,1,2,1:0:0:0:
402,149,131342,5,10,1:0:0:0:
350,141,131508,2,0,P|346:221|348:293,2,130,4|2|10,1:2|3:1|1:0,0:0:0:0:
265,80,132508,2,0,P|207:76|121:87,1,130,6|10,1:0|1:0,0:0:0:0:
91,177,133175,2,0,P|149:173|235:184,1,130,2|10,3:1|1:0,0:0:0:0:
244,226,133675,1,10,1:0:0:0:
331,282,134008,5,12,1:0:0:0:
381,296,134175,2,0,P|387:233|375:156,1,130,4|2,1:2|1:0,0:0:0:0:
330,74,134842,2,0,L|263:84,1,65,4|2,1:2|1:0,0:0:0:0:
220,56,135175,2,0,P|185:57|129:141,1,130,2|10,1:0|1:0,0:0:0:0:
58,202,135842,2,0,P|66:266|62:331,1,130,2|10,1:0|1:0,0:0:0:0:
110,351,136342,1,8,1:0:0:0:
211,371,136675,5,10,1:0:0:0:
207,320,136842,2,0,P|203:256|212:191,2,130,4|10|8,1:2|1:0|1:0,0:0:0:0:
310,308,137842,2,0,L|403:318,1,65,6|0,1:0|0:0,0:0:0:0:
425,300,138175,1,8,1:0:0:0:
361,217,138508,1,6,1:0:0:0:
463,236,138842,2,0,P|469:171|455:108,1,130,8|0,1:0|0:0,0:0:0:0:
468,57,139342,5,12,1:0:0:0:
468,57,139508,2,0,L|327:64,1,130,4|2,1:2|1:0,0:0:0:0:
237,36,140175,2,0,L|96:30,1,130,10|6,1:0|1:0,0:0:0:0:
9,67,140842,1,8,1:0:0:0:
29,168,141175,2,0,B|97:152|89:204|175:197,1,130,2|2,1:0|1:0,0:0:0:0:
199,218,141675,1,8,1:0:0:0:
259,138,142008,5,10,1:0:0:0:
289,95,142175,2,0,P|344:105|432:99,1,130,4|2,1:2|1:0,0:0:0:0:
478,186,142842,2,0,P|478:226|469:265,1,65,10|0,1:0|0:0,0:0:0:0:
469,302,143175,2,0,L|328:300,1,130,6|10,1:0|1:0,0:0:0:0:
251,356,143842,2,0,L|121:357,1,130,4|8,1:2|1:0,0:0:0:0:
74,334,144342,1,0,1:0:0:0:
121,241,144675,1,10,1:0:0:0:
81,207,144842,2,0,P|78:152|88:66,1,130,4|2,1:2|1:0,0:0:0:0:
176,26,145508,1,4,1:2:0:0:
279,32,145842,6,0,P|290:91|290:173,1,130,0|8,1:0|1:0,0:0:0:0:
214,230,146508,2,0,P|214:285|217:309,1,65,2|0,1:0|3:0,0:0:0:0:
247,332,146842,2,0,L|321:337,1,65,8|0,1:0|1:0,0:0:0:0:
256,192,147342,12,0,149175,1:0:0:0:
220,236,149842,5,4,1:0:0:0:
304,176,150175,2,0,P|368:164|444:180,2,130,8|0|8,1:0|0:0|1:0,0:0:0:0:
244,88,151175,2,0,L|100:44,1,130,0|8,1:0|1:0,0:0:0:0:
144,152,151842,2,0,L|4:112,1,130,0|8,0:0|1:0,0:0:0:0:
0,224,152508,6,0,L|140:260,1,130,0|8,1:0|1:0,0:0:0:0:
44,324,153175,2,0,L|184:360,1,130,2|8,0:0|1:0,0:0:0:0:
252,296,153842,2,0,P|316:276|392:292,1,130,0|8,1:0|1:0,0:0:0:0:
420,316,154342,1,0,0:0:0:0:
420,316,154508,2,0,L|400:176,1,130,0|8,0:0|1:0,0:0:0:0:
448,92,155175,6,0,P|364:100|308:64,1,130,4|8,1:0|1:0,0:0:0:0:
244,144,155842,2,0,P|180:120|108:140,1,130,0|8,0:0|1:0,0:0:0:0:
64,220,156508,2,0,P|56:296|100:352,1,130,0|8,1:0|1:0,0:0:0:0:
132,356,157008,1,0,1:0:0:0:
132,356,157175,2,0,L|280:380,1,130,0|8,0:0|1:0,0:0:0:0:
332,304,157842,6,0,P|240:284|216:248,1,130,0|0,1:0|0:0,0:0:0:0:
224,156,158508,2,0,P|276:104|340:100,1,130,0|8,1:0|1:0,0:0:0:0:
420,152,159175,2,0,L|440:284,1,130,0|8,1:0|1:0,0:0:0:0:
408,324,159675,1,2,3:0:0:0:
408,324,159842,2,0,P|336:300|276:312,1,130,0|4,0:0|1:2,0:0:0:0:
192,360,160508,5,0,1:0:0:0:
96,324,160842,2,0,P|52:212|96:144,1,195,8|0,1:0|3:0,0:0:0:0:
128,128,161508,1,8,1:0:0:0:
232,96,161842,1,0,1:0:0:0:
320,148,162175,2,0,P|389:145|456:140,2,130,0|0|4,0:0|0:0|1:2,0:0:0:0:
232,204,163175,5,0,1:0:0:0:
256,304,163508,2,0,P|336:352|432:312,1,195,8|0,1:0|3:0,0:0:0:0:
460,280,164175,1,8,1:0:0:0:
400,196,164508,1,0,1:0:0:0:
452,104,164842,2,0,P|364:92|252:100,1,195,8|2,1:0|3:0,0:0:0:0:
208,116,165508,1,4,1:2:0:0:
124,56,165842,5,0,1:0:0:0:
112,160,166175,2,0,P|128:252|116:352,1,195,8|0,1:0|3:0,0:0:0:0:
64,344,166842,1,8,1:0:0:0:
52,240,167175,1,0,1:0:0:0:
156,240,167508,2,0,P|292:252|360:232,1,195,8|0,1:0|3:0,0:0:0:0:
392,216,168175,1,8,1:0:0:0:
448,128,168508,6,0,P|396:116|320:140,1,130,0|8,1:0|1:0,0:0:0:0:
228,100,169175,2,0,L|196:32,2,65,0|0|8,0:0|3:0|1:0,0:0:0:0:
220,204,169842,2,0,P|168:244|100:240,1,130,0|8,1:0|1:0,0:0:0:0:
24,180,170508,2,0,L|-8:112,2,65,0|8|4,0:0|1:0|1:2,0:0:0:0:
100,109,171175,5,4,1:0:0:0:
100,109,171342,2,0,L|251:121,1,130,0|2,1:0|0:0,0:0:0:0:
280,110,171842,1,0,0:0:0:0:
382,94,172175,1,8,1:0:0:0:
452,170,172508,2,0,P|461:237|449:314,1,130,0|8,1:0|1:0,0:0:0:0:
443,349,173008,1,2,0:0:0:0:
344,315,173342,2,0,L|261:328,1,65,0|4,0:0|1:2,0:0:0:0:
173,338,173842,5,0,1:0:0:0:
173,338,174008,2,0,P|162:291|165:201,1,130,2|0,0:0|0:0,0:0:0:0:
164,157,174508,1,4,0:0:0:0:
267,142,174842,2,0,L|408:134,1,130,8|0,1:0|1:0,0:0:0:0:
337,50,175508,2,0,L|246:45,1,65,8|2,1:0|0:0,0:0:0:0:
174,79,176008,2,0,L|91:89,1,65,0|8,3:0|1:0,0:0:0:0:
10,53,176508,6,0,P|5:131|20:200,1,130,4|0,1:0|0:0,0:0:0:0:
116,199,177175,1,0,0:0:0:0:
217,179,177508,1,8,1:0:0:0:
320,189,177842,2,0,P|328:230|326:337,1,130,0|8,1:0|1:0,0:0:0:0:
311,367,178342,1,0,1:0:0:0:
219,317,178675,2,0,L|152:328,1,65,0|8,3:0|1:0,0:0:0:0:
81,253,179175,6,0,L|214:232,1,130,0|8,1:0|1:0,0:0:0:0:
289,165,179842,2,0,L|369:174,1,65,0|2,0:0|3:2,0:0:0:0:
403,156,180175,1,8,1:0:0:0:
352,56,180508,2,0,P|305:46|229:88,1,130,0|8,1:0|1:0,0:0:0:0:
184,97,181008,2,0,L|38:126,1,130,2|0,0:0|3:0,0:0:0:0:
6,137,181508,1,4,1:2:0:0:
93,194,181842,5,4,1:0:0:0:
93,194,182008,2,0,L|243:229,1,130,0|2,1:0|0:0,0:0:0:0:
271,225,182508,1,0,0:0:0:0:
293,326,182842,1,8,1:0:0:0:
388,326,183175,2,0,P|390:268|381:187,1,130,0|8,1:0|1:0,0:0:0:0:
426,168,183675,1,2,0:0:0:0:
357,90,184008,2,0,P|358:47|361:22,1,65,2|4,3:2|1:2,0:0:0:0:
262,61,184508,5,4,1:0:0:0:
262,61,184675,2,0,B|192:51|199:95|122:93,1,130,2|2,0:0|0:0,0:0:0:0:
109,135,185175,1,0,0:0:0:0:
30,202,185508,1,8,1:0:0:0:
128,235,185842,2,0,P|191:253|210:319,1,130,0|8,0:0|1:0,0:0:0:0:
220,360,186342,1,0,1:0:0:0:
323,355,186675,1,0,3:0:0:0:
323,355,186842,2,0,P|321:322|327:290,1,65,4|0,1:2|1:0,0:0:0:0:
309,241,187175,6,0,L|466:252,1,130,4|8,1:0|1:0,0:0:0:0:
491,160,187842,1,0,0:0:0:0:
463,63,188175,1,8,1:0:0:0:
360,76,188508,2,0,L|206:58,1,130,0|8,1:0|1:0,0:0:0:0:
179,68,189008,1,2,0:0:0:0:
92,126,189342,2,0,P|100:168|99:194,1,65,0|8,3:0|1:0,0:0:0:0:
67,289,189842,6,0,B|133:274|124:323|199:314,1,130,4|8,1:0|1:0,0:0:0:0:
288,278,190508,1,0,0:0:0:0:
391,290,190842,1,8,1:0:0:0:
477,232,191175,2,0,P|480:187|466:95,1,130,0|4,1:0|1:2,0:0:0:0:
457,52,191675,1,0,1:0:0:0:
354,35,192008,2,0,L|282:49,1,65,0|4,3:2|1:2,0:0:0:0:
101,59,197842,6,0,P|105:113|106:210,2,130,0|0|0,1:0|1:0|1:0,0:0:0:0:
200,90,198842,1,0,1:0:0:0:
299,60,199175,2,0,L|443:46,1,130,0|0,1:0|0:0,0:0:0:0:
489,131,199842,2,0,P|496:187|491:269,1,130,0|0,1:0|1:0,0:0:0:0:
256,192,200508,12,0,201842,0:0:0:0:
39,97,203175,6,0,P|48:168|220:176,1,260,6|0,1:0|0:0,0:0:0:0:
232,92,204175,1,10,1:0:0:0:
232,92,204342,2,0,P|300:84|376:72,1,130,2|2,1:0|1:0,0:0:0:0:
400,40,204842,2,0,P|388:104|420:172,2,130,8|2|8,1:0|1:0|1:0,0:0:0:0:
488,92,205842,5,2,1:0:0:0:
504,196,206175,1,10,1:0:0:0:
504,196,206342,2,0,B|476:252|500:300|500:300|456:284|404:316,1,195,2|8,1:0|1:0,0:0:0:0:
368,328,207008,1,2,1:0:0:0:
368,328,207175,2,0,P|316:288|244:288,1,130,2|10,1:0|1:0,0:0:0:0:
208,312,207675,1,2,1:0:0:0:
112,276,208008,1,0,1:0:0:0:
180,196,208342,5,8,1:0:0:0:
180,196,208508,2,0,L|328:208,1,130,6|8,1:0|1:0,0:0:0:0:
408,172,209175,2,0,P|428:116|404:48,1,130,2|10,1:0|1:0,0:0:0:0:
364,80,209675,1,0,1:0:0:0:
364,80,209842,2,0,B|264:100|280:28|160:56,2,195,2|2|10,1:0|1:0|1:0,0:0:0:0:
408,172,211175,6,0,P|340:184|264:168,1,130,6|8,1:0|1:0,0:0:0:0:
236,152,211675,1,2,1:0:0:0:
188,136,211842,2,0,P|120:124|40:144,1,130,0|10,0:0|1:0,0:0:0:0:
104,228,212508,2,0,L|80:304,1,65,6|8,1:0|1:0,0:0:0:0:
76,340,212842,2,0,P|140:312|212:328,1,130,0|10,0:0|1:0,0:0:0:0:
300,348,213508,1,8,1:0:0:0:
400,324,213842,6,0,P|424:248|280:168,1,260,6|0,1:0|3:0,0:0:0:0:
192,180,214842,1,10,1:0:0:0:
192,180,215008,2,0,P|104:192|64:168,1,130,0|0,0:0|3:0,0:0:0:0:
40,132,215508,1,8,1:0:0:0:
20,232,215842,1,2,1:0:0:0:
108,284,216175,2,0,L|252:264,1,130,0|6,0:0|1:0,0:0:0:0:
340,288,216842,5,10,1:0:0:0:
340,288,217008,2,0,P|404:278|484:268,1,130,2|0,1:0|3:0,0:0:0:0:
496,224,217508,2,0,P|504:184|504:148,1,65,8|2,1:0|1:0,0:0:0:0:
484,112,217842,1,2,1:0:0:0:
404,48,218175,1,10,1:0:0:0:
404,48,218342,2,0,P|312:84|292:136,1,130,0|0,0:0|3:0,0:0:0:0:
300,160,218842,2,0,P|232:116|172:124,1,130,10|6,1:0|1:0,0:0:0:0:
104,184,219508,5,8,1:0:0:0:
36,260,219842,2,0,P|128:284|172:260,1,130,2|10,1:0|1:0,0:0:0:0:
200,244,220342,1,0,0:0:0:0:
200,244,220508,2,0,B|252:196|328:224|328:224|360:160,2,195,2|4|10,1:0|0:0|1:0,0:0:0:0:
280,312,221842,6,0,P|368:320|412:280,1,130,6|8,1:0|1:0,0:0:0:0:
432,260,222342,1,2,1:0:0:0:
432,260,222508,2,0,L|440:172,2,65,0|0|8,1:0|3:0|1:0,0:0:0:0:
328,240,223175,2,0,P|240:232|196:272,1,130,6|10,1:0|1:0,0:0:0:0:
120,308,223842,2,0,P|208:300|252:340,1,130,0|10,1:0|1:0,0:0:0:0:
337,355,224508,5,6,1:0:0:0:
337,355,224675,2,0,P|397:363|456:306,1,130,2|2,1:0|1:0,0:0:0:0:
474,221,225342,1,0,3:0:0:0:
385,166,225675,2,0,P|376:87|387:18,1,130,2|2,1:0|1:0,0:0:0:0:
273,67,226342,2,0,L|130:65,1,130,0|0,1:0|3:0,0:0:0:0:
99,37,226842,1,8,1:0:0:0:
62,134,227175,5,2,1:0:0:0:
62,134,227342,2,0,B|133:119|114:175|194:169,1,130,2|2,1:0|1:0,0:0:0:0:
285,164,228008,2,0,P|286:205|284:311,1,130,0|2,3:0|1:0,0:0:0:0:
302,343,228508,2,0,P|234:340|146:343,1,130,2|10,1:0|1:0,0:0:0:0:
67,341,229175,2,0,P|68:281|64:205,1,130,8|8,1:0|1:0,0:0:0:0:
166,185,229842,5,6,1:0:0:0:
166,185,230008,2,0,P|169:143|160:34,1,130,2|2,1:0|1:0,0:0:0:0:
264,30,230675,1,0,3:0:0:0:
286,131,231008,2,0,P|281:205|285:279,1,130,2|2,1:0|1:0,0:0:0:0:
302,309,231508,1,8,1:0:0:0:
403,331,231842,2,0,L|473:332,2,65,2|0|8,1:0|3:0|1:0,0:0:0:0:
423,229,232508,6,0,P|424:183|410:87,1,130,6|0,1:0|0:0,0:0:0:0:
318,56,233175,2,0,L|176:75,1,130,0|10,1:0|1:0,0:0:0:0:
85,60,233842,1,6,1:0:0:0:
85,60,234008,2,0,P|74:109|85:205,1,130,8|8,1:0|3:1,0:0:0:0:
58,235,234508,1,10,1:0:0:0:
161,247,234842,1,8,1:0:0:0:
337,357,235508,6,0,P|413:353|492:355,1,130,8|2,1:0|1:0,0:0:0:0:
445,252,236175,1,10,1:0:0:0:
445,252,236342,2,0,P|451:202|435:112,1,130,0|0,0:0|3:0,0:0:0:0:
449,72,236842,2,0,L|300:87,1,130,8|2,1:0|1:0,0:0:0:0:
222,48,237508,1,4,1:2:0:0:
134,96,237842,6,0,P|127:160|132:246,1,130,6|10,1:0|1:0,0:0:0:0:
233,222,238508,1,0,0:0:0:0:
327,265,238842,1,10,1:0:0:0:
327,265,239008,2,0,P|383:270|466:259,1,130,0|2,1:0|1:0,0:0:0:0:
481,307,239508,1,8,1:0:0:0:
384,346,239842,2,0,L|240:340,1,130,10|10,1:0|1:0,0:0:0:0:
151,356,240508,6,0,P|139:300|147:209,1,130,6|0,1:0|0:0,0:0:0:0:
233,176,241175,1,2,1:0:0:0:
140,129,241508,1,10,1:0:0:0:
92,149,241675,2,0,P|83:95|96:1,1,130,0|2,0:0|1:0,0:0:0:0:
140,35,242175,1,8,1:0:0:0:
230,85,242508,2,0,L|385:69,1,130,2|8,1:0|1:0,0:0:0:0:
454,114,243175,6,0,P|472:183|468:312,2,195,6|8|8,1:0|3:1|1:0,0:0:0:0:
368,172,244508,1,6,1:0:0:0:
368,172,244675,2,0,P|296:170|234:184,1,130,2|2,1:0|1:0,0:0:0:0:
194,156,245175,2,0,L|52:153,1,130,0|0,1:0|1:0,0:0:0:0:
12,64,245842,6,0,P|88:36|172:64,1,156,0|8,0:0|0:3,0:0:0:0:
284,44,246842,2,0,P|360:72|444:44,1,156,8|8,0:3|0:3,0:0:0:0:
496,160,247842,1,4,0:0:0:0:
492,164,248175,1,8,0:3:0:0:
424,212,248508,6,0,B|400:264|420:316|420:316|376:352,2,156,8|0|8,0:3|0:0|0:3,0:0:0:0:
320,140,250008,2,0,P|236:132|168:184,1,156,0|8,0:0|0:3,0:0:0:0:
136,240,250842,1,0,0:0:0:0:
220,248,251175,6,0,L|292:260,1,52,8|8,0:3|0:3,0:0:0:0:
352,272,251675,1,0,0:0:0:0:
352,272,251842,2,0,B|340:192|340:192|344:152|372:120,2,156,0|0|0,0:0|0:0|0:0,0:0:0:0:
420,320,253175,1,4,0:2:0:0:
420,320,253508,1,8,0:3:0:0:
496,356,253842,6,0,P|512:260|492:200,1,156,8|0,0:3|0:0,0:0:0:0:
392,132,254842,2,0,P|376:228|396:288,2,156,8|8|8,0:3|0:3|0:3,0:0:0:0:
436,60,256175,1,8,0:3:0:0:
352,64,256508,6,0,L|284:80,1,52,0|0,0:0|0:0,0:0:0:0:
220,76,257008,2,0,L|160:92,1,52,2|0,0:0|0:0,0:0:0:0:
88,76,257508,1,0,0:0:0:0:
112,156,257842,2,0,P|128:212|117:309,1,156,2|0,0:0|0:0,0:0:0:0:
364,204,259175,6,0,L|472:184,1,104,2|0,0:0|0:0,0:0:0:0:
472,100,259842,2,0,L|256:140,1,208,2|2,0:0|0:0,0:0:0:0:
192,176,260842,1,0,0:0:0:0:
116,144,261175,2,0,P|108:92|124:44,1,104,0|0,0:0|0:0,0:0:0:0:
196,84,261842,6,0,L|264:80,1,52,0|0,0:0|0:0,0:0:0:0:
324,48,262342,2,0,L|328:120,1,52,2|0,0:0|0:0,0:0:0:0:
304,180,262842,1,0,0:0:0:0:
352,248,263175,2,0,P|340:328|224:348,1,208,2|0,0:0|0:0,0:0:0:0:
208,188,264508,6,0,P|144:160|92:172,1,104,2|0,0:0|0:0,0:0:0:0:
40,120,265175,2,0,P|80:80|84:24,1,104,2|0,0:0|0:0,0:0:0:0:
160,72,265842,2,0,P|224:72|268:40,1,104,2|0,0:0|0:0,0:0:0:0:
308,120,266508,2,0,L|288:244,1,104,0|2,0:0|0:0,0:0:0:0:
256,244,267008,1,8,0:3:0:0:
