osu file format v14

[General]
AudioFilename: audio.mp3
AudioLeadIn: 0
PreviewTime: 224508
Countdown: 0
SampleSet: Soft
StackLeniency: 0.9
Mode: 0
LetterboxInBreaks: 0
WidescreenStoryboard: 1

[Editor]
Bookmarks: 21734,43068,64401,85734,107068,128401,149734,171068,192401,203068,224401,245734
DistanceSpacing: 1.1
BeatDivisor: 4
GridSize: 4
TimelineZoom: 1.3

[Metadata]
Title:Palette
TitleUnicode:Palette
Artist:Hige Driver
ArtistUnicode:ヒゲドライバー
Creator:Jounzan
Version:Collab Hard
Source:
Tags:ゆよゆっぺ yuyoyuppe featured artist MOtOLOiD Delis pishifat Nyquill vocaloid EvilElvis
BeatmapID:1443054
BeatmapSetID:682416

[Difficulty]
HPDrainRate:6
CircleSize:4
OverallDifficulty:6.5
ApproachRate:8
SliderMultiplier:0.999999999999999
SliderTickRate:1

[Events]
//Background and Video events
0,0,"palette.jpg",0,0
//Break Periods
2,192708,197092
//Storyboard Layer 0 (Background)
//Storyboard Layer 1 (Fail)
//Storyboard Layer 2 (Pass)
//Storyboard Layer 3 (Foreground)
//Storyboard Sound Samples

[TimingPoints]
509,333.333333333333,4,2,1,60,1,0
21842,-66.6666666666667,4,2,1,60,0,0
40508,-62.5,4,2,1,60,0,0
41842,-58.8235294117647,4,2,1,60,0,0
43175,-71.4285714285714,4,2,1,60,0,0
64842,-66.6666666666667,4,2,1,60,0,0
85842,-76.9230769230769,4,2,1,60,0,0
90842,-100,4,2,1,60,0,0
91175,-76.9230769230769,4,2,1,60,0,0
96175,-100,4,2,1,60,0,0
96508,-71.4285714285714,4,2,1,60,0,0
101508,-100,4,2,1,60,0,0
101842,-71.4285714285714,4,2,1,60,0,0
107175,-66.6666666666667,4,2,1,60,0,1
125842,-62.5,4,2,1,60,0,1
127175,-58.8235294117647,4,2,1,60,0,1
128675,-66.6666666666667,4,2,1,60,0,0
138842,-60.6060606060605,4,2,1,60,0,0
139175,-66.6666666666667,4,2,1,60,0,0
201842,-66.6666666666667,4,2,1,5,0,0
203175,-66.6666666666667,4,2,1,60,0,1
221842,-62.5,4,2,1,60,0,1
223175,-58.8235294117647,4,2,1,60,0,1
235175,-55.5555555555556,4,2,1,60,0,1
235508,-58.8235294117647,4,2,1,60,0,1
245842,-76.9230769230769,4,2,1,60,0,0

[Colours]
Combo1 : 168,0,168
Combo2 : 151,47,255
Combo3 : 119,119,255
Combo4 : 137,137,197

[HitObjects]
0,294,21842,6,0,P|60:286|88:262,1,75.000002861023,6|0,1:0|0:0,0:0:0:0:
118,199,22175,2,0,P|155:198|189:214,1,75.000002861023,8|2,1:0|0:1,0:0:0:0:
255,279,22508,2,0,L|248:371,2,75.000002861023,2|0|10,0:1|3:0|1:0,0:0:0:0:
342,255,23008,1,0,0:0:0:0:
412,307,23175,6,0,P|377:255|369:166,1,150.000005722046,2|8,1:0|1:0,0:0:0:0:
377,84,23675,2,0,P|349:140|276:190,1,150.000005722046,2|0,0:1|3:0,0:0:0:0:
199,146,24175,2,0,B|162:128|162:128|92:140,1,112.500004291534,4|0,1:2|0:0,0:0:0:0:
91,140,24508,5,6,1:0:0:0:
148,215,24675,1,0,0:0:0:0:
83,274,24842,2,0,L|0:264,1,75.000002861023,10|0,1:0|0:0,0:0:0:0:
50,356,25175,1,2,0:1:0:0:
137,343,25342,2,0,L|220:333,1,75.000002861023,0|8,3:0|1:0,0:0:0:0:
299,323,25675,1,2,0:1:0:0:
379,369,25842,6,0,P|458:350|509:282,1,150.000005722046,2|10,1:0|1:0,0:0:0:0:
472,217,26342,1,2,0:0:0:0:
472,217,26425,1,0,0:0:0:0:
472,217,26508,2,0,P|419:206|390:182,1,75.000002861023,2|0,1:0|3:0,0:0:0:0:
365,114,26842,2,0,L|357:55,3,37.5000014305115,8|0|8|0,1:0|3:0|1:0|0:0,0:0:0:0:
357,57,27175,6,0,P|298:33|265:42,1,75.000002861023,6|2,1:0|1:0,0:0:0:0:
225,95,27508,2,0,P|166:119|133:110,1,75.000002861023,0|2,0:0|0:1,0:0:0:0:
70,93,27842,1,2,0:1:0:0:
90,179,28008,2,0,L|85:269,1,75.000002861023,0|10,3:0|1:0,0:0:0:0:
80,342,28342,1,0,0:0:0:0:
5,298,28508,6,0,B|88:278|61:335|160:307,1,150.000005722046,2|8,1:0|1:0,0:0:0:0:
204,234,29008,2,0,P|246:182|344:169,1,150.000005722046,0|0,0:0|3:0,0:0:0:0:
432,217,29508,2,0,B|408:183|408:183|416:91,1,112.500004291534,8|0,1:0|0:0,0:0:0:0:
414,112,29842,6,0,P|405:53|372:25,1,75.000002861023,2|0,1:0|0:0,0:0:0:0:
312,8,30175,1,10,1:0:0:0:
250,71,30342,1,0,0:0:0:0:
167,34,30508,2,0,L|92:25,2,75.000002861023,2|0|10,0:1|3:3|1:1,0:0:0:0:
250,71,31008,1,2,0:1:0:0:
176,122,31175,6,0,P|132:181|125:255,1,150.000005722046,2|10,1:0|1:0,0:0:0:0:
41,327,31675,1,8,1:0:0:0:
41,327,31758,1,0,0:0:0:0:
41,327,31842,2,0,P|110:342|130:366,1,75.000002861023,2|0,1:0|1:0,0:0:0:0:
206,351,32175,2,0,L|194:292,3,37.5000014305115,8|0|2|2,1:0|0:0|3:2|3:2,0:0:0:0:
197,297,32508,6,0,P|256:269|296:277,1,75.000002861023,6|0,1:0|0:0,0:0:0:0:
346,302,32842,1,8,1:0:0:0:
417,250,33008,2,0,L|425:164,1,75.000002861023,2|2,0:1|0:1,0:0:0:0:
409,87,33342,1,0,3:0:0:0:
341,144,33508,2,0,P|304:137|274:116,1,75.000002861023,10|0,1:0|0:0,0:0:0:0:
180,86,33842,6,0,L|193:178,1,75.000002861023,2|2,1:0|0:1,0:0:0:0:
190,160,34092,1,0,0:0:0:0:
190,160,34175,1,8,1:0:0:0:
114,203,34342,2,0,P|182:197|240:253,1,150.000005722046,0|0,0:0|3:0,0:0:0:0:
275,339,34842,2,0,B|304:310|304:310|390:301,1,112.500004291534,4|0,1:2|0:0,0:0:0:0:
375,302,35175,5,2,1:0:0:0:
447,366,35342,1,0,0:0:0:0:
490,293,35508,1,10,1:0:0:0:
428,230,35675,2,0,P|434:156|440:147,1,75.000002861023,0|2,0:0|0:1,0:0:0:0:
491,92,36008,1,0,3:0:0:0:
430,32,36175,2,0,P|387:39|346:76,1,75.000002861023,8|2,1:0|0:1,0:0:0:0:
294,119,36508,6,0,L|199:106,1,75.000002861023,2|0,1:0|0:0,0:0:0:0:
219,108,36758,1,0,0:0:0:0:
219,108,36842,1,10,1:0:0:0:
248,206,37008,2,0,L|77:225,1,150.000005722046,0|0,0:0|3:0,0:0:0:0:
28,168,37508,2,0,L|22:119,3,37.5000014305115,8|0|8|0,1:0|0:0|1:0|3:0,0:0:0:0:
23,113,37842,6,0,P|43:66|70:47,1,75.000002861023,6|2,1:0|3:1,0:0:0:0:
146,68,38175,1,8,1:0:0:0:
226,25,38342,2,0,L|308:14,1,75.000002861023,2|2,0:1|0:1,0:0:0:0:
390,6,38675,1,0,3:0:0:0:
357,85,38842,2,0,P|377:132|404:151,1,75.000002861023,10|0,1:0|0:0,0:0:0:0:
457,232,39175,6,0,L|366:245,1,75.000002861023,2|0,1:0|0:0,0:0:0:0:
382,242,39425,1,0,0:0:0:0:
382,242,39508,1,10,1:0:0:0:
310,287,39675,2,0,P|385:285|439:354,1,150.000005722046,0|0,0:0|3:0,0:0:0:0:
349,369,40175,1,8,1:0:0:0:
260,359,40342,1,8,3:1:0:0:
169,349,40508,6,0,L|159:245,1,79.9999999999999,6|0,1:0|0:0,0:0:0:0:
151,172,40842,1,8,1:0:0:0:
59,196,41008,2,0,L|68:106,1,79.9999999999999,10|0,3:1|0:0,0:0:0:0:
82,16,41342,1,8,3:1:0:0:
162,79,41508,2,0,P|217:69|256:40,1,79.9999999999999,10|0,1:0|3:0,0:0:0:0:
332,11,41842,6,0,P|398:8|484:89,1,170.000003242493,6|8,1:0|1:0,0:0:0:0:
424,160,42342,1,8,3:1:0:0:
424,160,42425,1,0,0:0:0:0:
424,160,42508,1,2,1:0:0:0:
494,233,42675,1,8,3:1:0:0:
416,298,42842,2,0,L|358:310,3,42.5000008106231,8|0|2|2,1:0|3:0|3:2|3:2,0:0:0:0:
352,316,43175,6,0,B|268:296|296:351|208:327,1,139.999995727539,6|8,1:0|1:0,0:0:0:0:
217,330,43842,2,0,P|213:266|209:238,1,69.9999978637695,2|0,1:0|3:0,0:0:0:0:
164,132,44175,1,8,1:0:0:0:
104,176,44342,6,0,L|256:168,1,139.999995727539,2|0,1:0|1:0,0:0:0:0:
320,160,44842,2,0,P|312:216|304:232,1,69.9999978637695,10|0,1:0|0:0,0:0:0:0:
328,300,45175,2,0,P|288:300|240:280,1,69.9999978637695,0|0,0:0|3:0,0:0:0:0:
192,320,45508,2,0,B|148:308|148:308|64:320,1,104.999996795654,10|0,1:0|0:0,0:0:0:0:
80,320,45842,6,0,P|80:268|100:244,1,69.9999978637695,6|0,1:0|0:0,0:0:0:0:
216,196,46175,2,0,P|160:216|132:208,1,69.9999978637695,8|2,1:0|1:0,0:0:0:0:
84,180,46508,2,0,P|84:144|108:104,1,69.9999978637695,0|0,0:0|3:0,0:0:0:0:
108,36,46842,2,0,B|164:40|144:72|224:76,1,104.999996795654,10|0,1:0|0:0,0:0:0:0:
203,74,47175,6,0,P|263:71|279:55,1,69.9999978637695,4|0,1:2|0:0,0:0:0:0:
384,144,47508,2,0,P|344:112|336:76,1,69.9999978637695,8|4,1:0|1:2,0:0:0:0:
376,8,47842,2,0,P|420:4|452:16,1,69.9999978637695,0|0,0:0|3:0,0:0:0:0:
484,116,48175,2,0,L|476:160,3,34.9999989318848,8|0|8|0,1:0|3:0|1:0|0:0,0:0:0:0:
472,176,48508,6,0,B|460:208|460:208|464:320,1,139.999995727539,6|8,1:0|1:0,0:0:0:0:
463,313,49175,2,0,L|379:309,1,69.9999978637695,2|0,1:0|3:0,0:0:0:0:
300,256,49508,1,8,1:0:0:0:
280,332,49675,6,0,L|124:340,1,139.999995727539,2|0,1:0|0:0,0:0:0:0:
144,188,50175,2,0,P|220:196|252:260,1,139.999995727539,10|0,1:0|0:0,0:0:0:0:
136,264,50675,2,0,L|56:268,2,69.9999978637695,0|10|0,3:0|1:0|0:0,0:0:0:0:
250,245,51175,6,0,L|420:240,1,139.999995727539,2|8,1:0|1:0,0:0:0:0:
508,160,51675,2,0,P|468:188|424:184,1,69.9999978637695,2|0,1:0|0:0,0:0:0:0:
352,136,52008,1,0,3:0:0:0:
380,56,52175,2,0,P|416:80|432:120,1,69.9999978637695,10|0,1:0|0:0,0:0:0:0:
380,220,52508,6,0,B|288:228|316:172|220:188,1,139.999995727539,4|8,1:2|1:0,0:0:0:0:
132,224,53008,2,0,P|200:276|268:252,1,139.999995727539,4|0,1:2|3:0,0:0:0:0:
332,312,53508,2,0,L|392:308,3,34.9999989318848,8|0|8|0,1:0|1:0|1:0|0:0,0:0:0:0:
396,312,53842,6,0,L|404:160,1,139.999995727539,6|8,1:0|1:0,0:0:0:0:
403,172,54508,2,0,L|407:80,1,69.9999978637695,2|0,1:0|3:0,0:0:0:0:
312,156,54842,1,8,1:0:0:0:
332,72,55008,6,0,P|236:56|200:108,1,139.999995727539,2|0,1:0|0:0,0:0:0:0:
132,60,55508,2,0,P|128:100|136:128,1,69.9999978637695,10|0,1:0|0:0,0:0:0:0:
208,224,55842,2,0,P|220:172|212:148,1,69.9999978637695,0|2,0:0|1:0,0:0:0:0:
136,224,56175,2,0,P|156:288|208:308,1,104.999996795654,8|0,1:0|0:0,0:0:0:0:
186,305,56508,6,0,B|219:308|219:308|263:335,1,69.9999978637695,6|0,1:0|0:0,0:0:0:0:
376,260,56842,2,0,B|342:263|342:263|298:290,1,69.9999978637695,8|2,1:0|1:0,0:0:0:0:
452,368,57175,2,0,B|460:332|460:332|448:272,1,69.9999978637695,0|0,0:0|3:0,0:0:0:0:
488,216,57508,6,0,B|468:184|468:184|472:88,1,104.999996795654,10|0,1:0|0:0,0:0:0:0:
476,112,57842,2,0,L|392:120,1,69.9999978637695,4|0,1:2|0:0,0:0:0:0:
292,152,58175,1,8,1:0:0:0:
320,224,58342,2,0,L|412:232,1,69.9999978637695,4|0,1:2|1:0,0:0:0:0:
460,320,58675,1,0,3:0:0:0:
404,380,58842,2,0,L|360:384,3,34.9999989318848,8|0|8|0,1:0|3:0|1:0|3:0,0:0:0:0:
344,352,59175,6,0,P|284:352|212:384,1,139.999995727539,6|8,1:0|1:0,0:0:0:0:
120,368,59675,2,0,P|104:328|104:296,1,69.9999978637695,2|0,1:0|0:0,0:0:0:0:
92,216,60008,1,0,0:0:0:0:
220,204,60175,2,0,P|196:240|168:252,1,69.9999978637695,10|0,1:0|0:0,0:0:0:0:
92,216,60508,5,0,1:0:0:0:
196,124,60675,2,0,B|268:100|252:164|352:128,1,139.999995727539,2|0,1:0|0:0,0:0:0:0:
432,124,61175,2,0,P|428:168|404:208,2,69.9999978637695,2|0|8,1:0|3:0|1:0,0:0:0:0:
512,184,61675,1,8,3:1:0:0:
472,264,61842,6,0,P|384:276|324:224,1,139.999995727539,6|8,1:0|1:0,0:0:0:0:
248,136,62342,1,10,3:1:0:0:
172,192,62508,2,0,P|176:252|180:284,1,69.9999978637695,0|8,0:0|3:1,0:0:0:0:
12,352,62842,2,0,P|11:308|8:268,1,69.9999978637695,10|0,1:0|0:0,0:0:0:0:
88,144,63175,6,0,P|88:184|96:300,1,139.999995727539,6|8,1:0|1:0,0:0:0:0:
196,344,63675,1,8,1:0:0:0:
292,276,63842,2,0,L|376:272,1,69.9999978637695,2|0,1:0|3:0,0:0:0:0:
361,272,64092,1,8,1:0:0:0:
361,272,64175,2,0,L|353:340,3,34.9999989318848,0|8|0|0,1:0|1:0|1:0|0:0,0:0:0:0:
404,146,64675,5,2,1:0:0:0:
324,183,64842,2,0,B|254:174|254:174|206:125,1,112.500004291534,10|0,1:0|0:0,0:0:0:0:
224,144,65175,1,2,3:1:0:0:
140,188,65342,2,0,L|130:113,1,75.000002861023,0|8,0:0|1:0,0:0:0:0:
56,18,65675,6,0,B|123:26|123:26|140:16|140:16|202:24,1,150.000005722046,2|2,0:0|1:0,0:0:0:0:
281,70,66175,2,0,L|362:60,1,75.000002861023,10|0,1:0|0:0,0:0:0:0:
355,60,66425,1,0,3:0:0:0:
355,60,66508,1,0,3:0:0:0:
445,95,66675,1,2,3:1:0:0:
342,155,66842,2,0,B|379:156|379:156|424:187,1,75.000002861023,8|0,1:0|1:0,0:0:0:0:
411,176,67092,2,0,L|418:240,1,37.5000014305115,0|2,1:0|1:0,0:0:0:0:
425,320,67342,5,0,3:0:0:0:
349,274,67508,2,0,B|317:299|317:299|233:289,1,112.500004291534,10|0,1:0|0:0,0:0:0:0:
245,290,67842,2,0,L|152:300,1,75.000002861023,2|0,3:1|0:0,0:0:0:0:
84,309,68175,1,10,1:0:0:0:
156,209,68342,6,0,B|169:109|169:109|141:57,1,150.000005722046,2|2,1:0|1:0,0:0:0:0:
221,15,68842,2,0,B|249:40|249:40|308:48,1,75.000002861023,10|0,1:0|0:0,0:0:0:0:
286,45,69092,1,0,3:0:0:0:
286,45,69175,2,0,L|298:132,2,75.000002861023,2|0|8,3:1|3:0|1:0,0:0:0:0:
380,71,69675,1,0,3:0:0:0:
380,71,69758,2,0,L|439:81,1,37.5000014305115,2|0,0:0|0:0,0:0:0:0:
494,184,70008,5,2,1:0:0:0:
458,265,70175,2,0,B|424:239|424:239|339:249,1,112.500004291534,10|0,1:0|0:0,0:0:0:0:
354,247,70508,1,2,3:1:0:0:
286,303,70675,2,0,L|188:290,1,75.000002861023,0|10,0:0|1:0,0:0:0:0:
131,374,71008,6,0,B|125:314|125:314|108:301|108:301|99:218,1,150.000005722046,0|2,0:0|1:0,0:0:0:0:
94,144,71508,1,10,1:0:0:0:
184,116,71675,1,0,3:0:0:0:
184,116,71758,1,0,3:0:0:0:
184,116,71842,2,0,B|219:106|219:106|271:129,1,75.000002861023,0|2,3:0|3:1,0:0:0:0:
345,48,72175,2,0,B|310:58|310:58|274:42,1,75.000002861023,10|0,1:0|1:0,0:0:0:0:
274,42,72425,2,0,L|269:-6,1,37.5000014305115,0|2,1:0|1:0,0:0:0:0:
129,46,72675,5,2,1:0:0:0:
184,116,72842,2,0,B|141:135|141:135|60:120,1,112.500004291534,10|0,1:0|0:0,0:0:0:0:
76,123,73175,2,0,L|67:213,2,75.000002861023,2|0|10,3:1|0:0|1:0,0:0:0:0:
196,194,73675,5,0,0:0:0:0:
135,252,73842,2,0,P|173:276|221:272,1,75.000002861023,2|2,1:0|1:0,0:0:0:0:
298,340,74175,2,0,P|334:336|365:314,1,75.000002861023,10|0,1:0|3:0,0:0:0:0:
365,314,74425,1,0,3:0:0:0:
365,314,74508,1,8,3:1:0:0:
304,257,74675,1,8,3:1:0:0:
352,184,74842,2,0,L|357:127,3,37.5000014305115,8|0|0|0,1:0|1:0|1:0|1:0,0:0:0:0:
486,76,75342,5,10,1:0:0:0:
401,64,75508,2,0,B|354:57|354:57|335:63|335:63|285:55,1,112.500004291534,10|0,1:0|0:0,0:0:0:0:
290,56,75842,2,0,L|239:49,2,37.5000014305115,6|0|0,3:1|3:0|0:0,0:0:0:0:
215,144,76175,2,0,L|266:136,2,37.5000014305115,10|0|0,1:0|0:0|0:0,0:0:0:0:
108,189,76508,6,0,P|144:196|154:255,1,75.000002861023,2|2,1:0|1:0,0:0:0:0:
244,265,76842,2,0,P|196:264|188:335,1,112.500004291534,8|0,1:0|3:0,0:0:0:0:
177,317,77175,2,0,L|85:326,1,75.000002861023,4|2,3:2|3:1,0:0:0:0:
28,375,77508,1,10,1:0:0:0:
0,294,77675,1,0,1:0:0:0:
0,294,77758,2,0,L|7:244,1,37.5000014305115,0|0,1:0|0:0,0:0:0:0:
19,116,78008,5,10,1:0:0:0:
94,157,78175,2,0,B|162:169|162:169|218:134,1,112.500004291534,6|0,1:2|0:0,0:0:0:0:
198,145,78508,2,0,L|210:60,1,75.000002861023,2|0,1:0|3:0,0:0:0:0:
280,17,78842,1,0,0:0:0:0:
340,82,79008,1,0,0:0:0:0:
423,42,79175,6,0,P|475:44|490:94,1,112.500004291534,6|0,1:0|0:0,0:0:0:0:
490,94,79508,2,0,P|437:96|422:146,1,112.500004291534,10|0,1:0|0:0,0:0:0:0:
422,146,79842,1,2,1:0:0:0:
475,222,80008,1,0,0:0:0:0:
415,287,80175,2,0,L|358:280,3,37.5000014305115,8|0|0|0,1:0|3:0|1:0|1:0,0:0:0:0:
314,159,80675,5,6,1:0:0:0:
300,243,80842,2,0,B|293:289|293:289|299:308|299:308|292:353,1,112.500004291534,4|0,1:2|0:0,0:0:0:0:
292,353,81175,2,0,B|243:349|243:349|210:374,1,75.000002861023,2|0,3:1|3:0,0:0:0:0:
138,284,81508,2,0,B|187:288|187:288|220:263,1,75.000002861023,10|0,1:0|0:0,0:0:0:0:
234,183,81842,6,0,P|204:160|198:124,1,75.000002861023,2|2,1:0|1:0,0:0:0:0:
123,49,82175,2,0,L|111:171,1,112.500004291534,8|0,1:0|3:0,0:0:0:0:
111,160,82508,2,0,L|30:170,2,75.000002861023,2|0|10,1:0|3:0|1:0,0:0:0:0:
86,254,83008,1,0,1:0:0:0:
86,254,83092,2,0,L|32:263,1,37.5000014305115,0|0,1:0|1:0,0:0:0:0:
93,377,83342,6,0,P|77:302|176:357,1,225.000008583069,4|4,0:0|3:2,0:0:0:0:
300,135,84175,2,0,L|295:191,1,37.5000014305115,10|0,1:0|0:0,0:0:0:0:
360,313,84508,6,0,P|367:273|295:306,2,150.000005722046,6|0|6,1:0|0:0|1:0,0:0:0:0:
215,172,85508,2,0,L|212:135,3,37.5000014305115,8|0|0|0,1:0|1:0|1:0|1:0,0:0:0:0:
220,180,85842,6,0,L|212:264,1,64.9999970245362,4|0,1:0|0:0,0:0:0:0:
168,324,86175,1,8,1:0:0:0:
168,324,86342,1,0,3:0:0:0:
224,384,86508,1,8,1:0:0:0:
352,304,86842,1,0,0:0:0:0:
276,320,87008,1,2,0:0:0:0:
296,240,87175,6,0,L|300:160,1,64.9999970245362,0|0,1:0|0:0,0:0:0:0:
312,52,87508,1,8,1:0:0:0:
312,52,87675,1,0,3:0:0:0:
244,104,87842,1,8,1:0:0:0:
476,336,88508,6,0,L|400:332,1,64.9999970245362,4|0,1:0|0:0,0:0:0:0:
316,324,88842,1,8,1:0:0:0:
316,324,89008,1,0,3:0:0:0:
380,252,89175,2,0,B|400:216|384:164,1,64.9999970245362,8|0,1:0|0:0,0:0:0:0:
256,172,89508,2,0,P|296:208|324:212,1,64.9999970245362,0|0,0:0|0:0,0:0:0:0:
352,80,89842,6,0,L|280:96,1,64.9999970245362,0|0,1:0|0:0,0:0:0:0:
176,140,90175,1,8,1:0:0:0:
176,140,90342,1,0,3:0:0:0:
216,56,90508,1,8,1:0:0:0:
264,180,90675,1,0,1:0:0:0:
264,180,90758,1,0,3:0:0:0:
264,180,90842,2,0,L|260:224,3,25,0|0|0|0,1:0|3:0|1:0|3:0,0:0:0:0:
272,192,91175,6,0,L|356:184,1,64.9999970245362,4|0,1:0|0:0,0:0:0:0:
444,200,91508,1,8,1:0:0:0:
444,200,91675,1,0,3:0:0:0:
384,264,91842,1,8,1:0:0:0:
384,264,92508,5,0,1:0:0:0:
396,344,92675,1,0,0:0:0:0:
292,308,92842,1,8,1:0:0:0:
300,232,93008,1,0,3:0:0:0:
208,332,93175,1,8,1:0:0:0:
208,332,93842,6,0,L|120:340,1,64.9999970245362,4|0,1:0|0:0,0:0:0:0:
16,268,94175,1,8,1:0:0:0:
16,268,94342,1,0,3:0:0:0:
108,208,94508,2,0,P|112:252|96:280,1,64.9999970245362,8|0,1:0|0:0,0:0:0:0:
32,168,94842,2,0,P|28:124|44:96,1,64.9999970245362,0|0,0:0|0:0,0:0:0:0:
172,48,95175,6,0,L|96:44,1,64.9999970245362,0|0,1:0|0:0,0:0:0:0:
232,120,95508,1,8,1:0:0:0:
232,120,95675,1,0,3:0:0:0:
308,68,95842,1,8,1:0:0:0:
372,136,96008,1,2,0:0:0:0:
372,136,96092,1,2,0:0:0:0:
376,140,96175,2,0,L|380:188,3,25,0|0|0|0,1:0|3:0|1:0|3:0,0:0:0:0:
384,144,96508,6,0,L|472:136,1,69.9999978637695,4|0,1:0|0:0,0:0:0:0:
448,252,96842,2,0,L|364:248,1,69.9999978637695,8|0,1:0|1:0,0:0:0:0:
378,248,97092,1,0,1:0:0:0:
378,248,97175,2,0,L|386:328,1,69.9999978637695,8|2,1:0|0:0,0:0:0:0:
292,356,97508,2,0,L|281:216,1,139.999995727539,0|0,0:0|1:0,0:0:0:0:
272,80,98008,5,0,0:0:0:0:
192,152,98175,2,0,P|192:200|208:228,1,69.9999978637695,0|0,1:0|0:0,0:0:0:0:
332,152,98508,1,8,1:0:0:0:
332,152,98592,2,0,P|368:116|372:92,1,69.9999978637695,0|0,3:0|0:0,0:0:0:0:
372,92,98842,2,0,L|364:12,1,69.9999978637695,0|2,0:0|0:0,0:0:0:0:
480,124,99175,6,0,L|468:212,1,69.9999978637695,4|0,1:0|0:0,0:0:0:0:
452,348,99508,2,0,L|382:351,1,69.9999978637695
496,280,99842,1,0,0:0:0:0:
496,280,99925,2,0,B|464:268|464:268|400:276,1,69.9999978637695,0|0,0:0|0:0,0:0:0:0:
428,272,100175,2,0,L|344:268,1,69.9999978637695,0|0,0:0|0:0,0:0:0:0:
276,380,100508,5,0,1:0:0:0:
356,344,100675,1,0,0:0:0:0:
280,288,100842,1,8,1:0:0:0:
280,288,101008,1,0,3:0:0:0:
200,336,101175,2,0,L|112:344,1,69.9999978637695,8|0,1:0|1:0,0:0:0:0:
32,264,101508,2,0,L|8:268,3,25,0|0|0|0,1:0|3:0|1:0|0:0,0:0:0:0:
52,260,101842,6,0,P|60:208|40:168,1,69.9999978637695,4|0,1:0|1:0,0:0:0:0:
88,64,102175,2,0,P|104:108|132:128,1,69.9999978637695,8|0,1:0|1:0,0:0:0:0:
120,122,102425,1,0,1:0:0:0:
128,128,102508,2,0,L|220:124,1,69.9999978637695,8|2,1:0|0:0,0:0:0:0:
348,120,102842,1,0,0:0:0:0:
348,120,103008,1,0,0:0:0:0:
280,236,103175,6,0,B|268:200|268:200|276:156,1,69.9999978637695,0|0,1:0|0:0,0:0:0:0:
427,78,103508,2,0,L|419:210,1,104.999996795654,8|0,1:0|0:0,0:0:0:0:
421,204,103842,2,0,L|433:264,1,34.9999989318848,0|0,0:0|3:0,0:0:0:0:
506,355,104175,2,0,B|466:339|466:339|378:347,1,104.999996795654,0|0,1:0|0:0,0:0:0:0:
404,344,104508,6,0,P|354:343|322:367,1,69.9999978637695,4|0,1:0|0:0,0:0:0:0:
279,269,104842,1,8,1:0:0:0:
216,344,105008,1,0,1:0:0:0:
216,344,105092,1,0,1:0:0:0:
216,344,105175,2,0,P|172:332|148:304,1,69.9999978637695,8|0,1:0|0:0,0:0:0:0:
8,304,105508,2,0,P|52:292|76:264,1,69.9999978637695,0|0,1:0|0:0,0:0:0:0:
132,160,105842,5,0,1:0:0:0:
132,160,106008,1,0,1:0:0:0:
176,240,106175,1,8,1:0:0:0:
260,200,106342,1,8,1:0:0:0:
260,200,107175,6,0,P|325:177|388:180,1,112.500004291534,6|0,1:0|0:0,0:0:0:0:
382,184,107508,2,0,P|429:178|461:166,1,75.000002861023,10|0,1:0|0:0,0:0:0:0:
428,66,107842,1,0,0:0:0:0:
512,91,108008,2,0,P|465:85|433:73,1,75.000002861023,0|10,3:0|1:0,0:0:0:0:
350,20,108342,6,0,P|266:31|194:51,1,150.000005722046,2|2,1:0|1:0,0:0:0:0:
93,113,108842,2,0,P|155:126|182:138,1,75.000002861023,8|0,1:0|0:0,0:0:0:0:
234,186,109175,1,2,1:0:0:0:
202,269,109342,1,0,3:0:0:0:
241,362,109508,2,0,P|192:350|114:345,1,112.500004291534,8|0,1:0|0:0,0:0:0:0:
115,352,109842,5,2,1:0:0:0:
45,295,110008,2,0,P|32:243|33:198,1,75.000002861023,0|10,0:0|1:0,0:0:0:0:
96,159,110342,2,0,P|109:107|108:62,2,75.000002861023,2|0|0,1:0|1:0|3:0,0:0:0:0:
20,105,110842,1,8,1:0:0:0:
45,20,111008,1,2,1:0:0:0:
119,74,111175,6,0,P|181:65|206:56,1,75.000002861023,2|0,1:0|0:0,0:0:0:0:
276,23,111508,1,10,1:0:0:0:
343,81,111675,2,0,P|355:116|359:153,1,75.000002861023,2|8,1:0|1:0,0:0:0:0:
359,153,111925,1,0,0:0:0:0:
359,153,112008,1,0,3:0:0:0:
448,206,112175,2,0,P|459:179|477:156,3,37.5000014305115,8|0|8|0,1:0|3:0|1:0|3:0,0:0:0:0:
443,222,112508,6,0,P|452:300|483:375,1,150.000005722046,6|0,1:0|0:0,0:0:0:0:
374,347,113008,1,2,1:0:0:0:
291,371,113175,2,0,P|235:361|200:346,1,75.000002861023,2|0,1:0|3:0,0:0:0:0:
150,294,113508,1,10,1:0:0:0:
235,265,113675,1,2,1:0:0:0:
166,202,113842,5,2,1:0:0:0:
245,255,114008,2,0,P|301:245|336:230,1,75.000002861023,2|8,1:0|1:0,0:0:0:0:
362,119,114342,1,0,0:0:0:0:
276,142,114508,2,0,P|332:152|426:200,1,150.000005722046,2|10,1:0|1:0,0:0:0:0:
508,175,115008,1,0,0:0:0:0:
502,70,115175,6,0,P|435:104|362:120,1,150.000005722046,6|0,1:0|0:0,0:0:0:0:
297,54,115675,1,2,1:0:0:0:
202,111,115842,1,0,0:0:0:0:
197,25,116008,2,0,P|206:61|209:98,1,75.000002861023,2|10,1:0|1:0,0:0:0:0:
156,186,116342,6,0,P|146:222|143:259,1,75.000002861023,0|6,0:0|1:0,0:0:0:0:
213,334,116675,1,8,1:0:0:0:
213,334,116758,1,8,1:0:0:0:
213,334,116842,2,0,P|237:326|264:324,3,37.5000014305115,0|0|8|0,0:0|0:0|3:1|0:0,0:0:0:0:
284,300,117175,2,0,P|308:305|333:316,3,37.5000014305115,10|0|0|0,1:0|1:0|1:0|1:0,0:0:0:0:
364,302,117508,2,0,P|382:318|398:341,3,37.5000014305115,8|0|0|0,1:0|3:0|1:0|3:0,0:0:0:0:
426,356,117842,6,0,P|453:283|454:217,1,112.500004291534,6|0,1:0|0:0,0:0:0:0:
465,235,118175,2,0,P|453:177|435:146,1,75.000002861023,8|0,1:0|0:0,0:0:0:0:
365,85,118508,1,0,3:0:0:0:
451,64,118675,2,0,P|410:82|357:87,1,75.000002861023,0|10,3:0|1:0,0:0:0:0:
301,150,119008,6,0,P|234:136|133:82,1,150.000005722046,0|0,0:0|3:0,0:0:0:0:
58,101,119508,2,0,P|85:158|90:202,1,75.000002861023,8|0,1:0|0:0,0:0:0:0:
144,240,119842,2,0,P|117:297|112:341,1,75.000002861023,2|4,1:0|3:2,0:0:0:0:
178,371,120175,2,0,P|241:355|312:349,1,112.500004291534,0|0,0:0|0:0,0:0:0:0:
301,356,120508,5,6,1:0:0:0:
386,330,120675,2,0,P|399:274|401:238,1,75.000002861023,0|10,0:0|1:0,0:0:0:0:
476,184,121008,2,0,P|480:221|490:257,1,75.000002861023,2|0,1:0|0:0,0:0:0:0:
490,257,121258,1,0,0:0:0:0:
490,257,121342,1,0,3:0:0:0:
395,242,121508,2,0,P|339:229|303:227,1,75.000002861023,8|2,1:0|1:0,0:0:0:0:
188,214,121842,6,0,P|243:180|308:102,1,150.000005722046,2|10,1:0|1:0,0:0:0:0:
217,25,122342,2,0,P|204:75|170:122,1,75.000002861023,0|10,0:0|1:0,0:0:0:0:
192,95,122592,1,0,0:0:0:0:
192,95,122675,1,0,3:0:0:0:
87,134,122842,2,0,P|65:130|30:116,3,37.5000014305115,10|0|8|0,1:0|3:0|1:0|3:0,0:0:0:0:
35,117,123175,6,0,P|68:200|69:266,1,150.000005722046,6|8,1:0|1:0,0:0:0:0:
85,364,123675,1,0,0:0:0:0:
0,337,123842,2,0,P|37:342|72:354,1,75.000002861023,2|0,1:0|3:0,0:0:0:0:
160,327,124175,1,10,1:0:0:0:
227,384,124342,1,0,0:0:0:0:
319,326,124508,5,2,1:0:0:0:
250,276,124675,2,0,P|233:191|234:174,1,75.000002861023,2|8,1:0|1:0,0:0:0:0:
350,171,125008,2,0,P|348:257|327:326,1,150.000005722046,4|0,0:0|3:0,0:0:0:0:
395,373,125508,1,10,1:0:0:0:
459,307,125675,1,0,0:0:0:0:
512,384,125842,6,0,P|492:311|494:222,1,160,6|8,1:0|1:0,0:0:0:0:
434,146,126342,1,8,3:1:0:0:
501,74,126508,2,0,P|465:48|416:35,1,79.9999999999999,0|0,3:0|3:0,0:0:0:0:
342,79,126842,2,0,P|281:69|215:46,1,120,8|0,1:0|0:0,0:0:0:0:
212,44,127175,6,0,P|183:111|175:234,1,170.000003242493,6|10,1:0|1:0,0:0:0:0:
234,295,127675,2,0,P|259:302|288:302,2,42.5000008106231,0|0|0,0:0|0:0|1:0,0:0:0:0:
153,358,128008,1,0,3:0:0:0:
153,358,128092,1,0,1:0:0:0:
153,358,128175,2,0,P|115:368|97:369,3,42.5000008106231,10|0|8|0,1:0|3:0|1:0|0:0,0:0:0:0:
33,259,128675,5,6,1:0:0:0:
99,202,128842,2,0,B|131:193|131:193|156:144|109:88,1,112.500004291534,2|0,1:0|0:0,0:0:0:0:
128,116,129175,2,0,L|181:124,2,37.5000014305115,0|0|0,1:0|0:0|3:0,0:0:0:0:
204,25,129508,2,0,L|151:32,2,37.5000014305115,10|0|0,1:0|0:0|0:0,0:0:0:0:
303,82,129842,6,0,P|346:74|364:38,1,75.000002861023,2|2,1:0|1:0,0:0:0:0:
460,41,130175,2,0,P|414:40|430:120,1,150.000005722046,10|2,1:0|1:0,0:0:0:0:
512,144,130675,1,0,3:0:0:0:
482,228,130842,2,0,B|451:206|451:206|389:211,1,75.000002861023,10|2,1:0|1:0,0:0:0:0:
414,208,131092,2,0,L|348:217,1,37.5000014305115,0|0,3:0|0:0,0:0:0:0:
252,194,131342,5,10,1:0:0:0:
260,288,131508,2,0,B|217:269|217:269|151:280|145:357,1,150.000005722046,4|2,1:2|3:1,0:0:0:0:
148,335,131925,1,0,3:0:0:0:
148,335,132008,1,0,1:0:0:0:
44,319,132175,2,0,B|67:306|67:306|79:286|76:240,1,75.000002861023,10|2,1:0|1:0,0:0:0:0:
67,151,132508,6,0,P|113:178|145:165,1,75.000002861023,6|0,1:0|0:0,0:0:0:0:
192,106,132842,2,0,P|175:152|228:180,1,112.500004291534,10|0,1:0|0:0,0:0:0:0:
221,181,133175,2,0,L|234:282,1,75.000002861023,0|0,3:0|3:0,0:0:0:0:
311,208,133508,1,10,1:0:0:0:
369,282,133675,1,10,1:0:0:0:
369,282,133758,1,8,1:0:0:0:
382,137,134008,5,12,1:0:0:0:
467,197,134175,2,0,B|460:165|460:165|462:126|517:86,1,112.500004291534,4|0,1:2|0:0,0:0:0:0:
500,98,134508,2,0,L|506:35,2,37.5000014305115,2|0|2,1:0|0:0|1:0,0:0:0:0:
434,3,134842,2,0,B|418:34|418:34|394:46|352:45,1,75.000002861023,4|2,1:2|1:0,0:0:0:0:
249,51,135175,6,0,P|286:64|300:115,1,75.000002861023,2|2,1:0|1:0,0:0:0:0:
232,178,135508,2,0,B|205:182|183:171|183:171|163:179|163:179|112:164|68:222,1,150.000005722046,10|2,1:0|1:0,0:0:0:0:
90,197,135925,1,0,0:0:0:0:
90,197,136008,1,0,3:0:0:0:
14,254,136175,2,0,L|1:148,1,75.000002861023,10|8,1:0|1:0,0:0:0:0:
5,179,136425,2,0,L|-2:127,1,37.5000014305115,8|0,1:0|0:0,0:0:0:0:
51,12,136675,5,10,1:0:0:0:
120,71,136842,2,0,P|171:69|224:123,1,100.000003814697,4|0,1:2|3:0,0:0:0:0:
252,31,137175,2,0,P|260:55|258:80,2,50.0000019073487,10|0|0,1:0|3:0|3:0,0:0:0:0:
327,48,137508,2,0,P|322:72|308:93,2,50.0000019073487,8|2|2,1:0|1:0|1:0,0:0:0:0:
354,125,137842,6,0,P|385:153|435:148,1,75.000002861023,6|0,1:0|0:0,0:0:0:0:
480,230,138175,2,0,P|443:239|464:318,1,112.500004291534,8|0,1:0|1:0,0:0:0:0:
438,304,138508,2,0,P|384:333|381:373,1,75.000002861023,6|0,1:0|0:0,0:0:0:0:
289,370,138842,2,0,B|284:331|284:331|297:298|297:298|274:243|199:259,1,165.000001573562,8|0,1:0|0:0,0:0:0:0:
110,197,139342,5,12,1:0:0:0:
202,162,139508,2,0,B|242:169|242:169|286:158|312:109,1,112.500004291534,4|0,1:2|0:0,0:0:0:0:
299,128,139842,2,0,L|366:138,2,37.5000014305115,2|0|0,1:0|0:0|0:0,0:0:0:0:
368,35,140175,2,0,L|301:44,2,37.5000014305115,10|0|0,1:0|0:0|3:0,0:0:0:0:
237,56,140508,6,0,P|182:42|169:6,1,75.000002861023,6|2,1:0|1:0,0:0:0:0:
92,84,140842,2,0,P|107:137|43:157,1,112.500004291534,8|0,1:0|0:0,0:0:0:0:
65,164,141175,1,2,1:0:0:0:
135,225,141342,1,0,3:0:0:0:
70,311,141508,2,0,B|107:308|107:308|152:337,1,75.000002861023,2|8,1:0|1:0,0:0:0:0:
139,328,141758,1,0,1:0:0:0:
139,328,141842,6,0,L|239:340,1,75.000002861023,0|10,3:0|1:0,0:0:0:0:
252,234,142175,2,0,P|285:274|335:256,1,112.500004291534,4|0,1:2|0:0,0:0:0:0:
335,256,142508,2,0,L|347:313,2,37.5000014305115,2|0|0,1:0|1:0|3:0,0:0:0:0:
439,208,142842,2,0,L|427:264,2,37.5000014305115,10|0|0,1:0|0:0|0:0,0:0:0:0:
488,133,143175,6,0,B|491:93|491:93|469:58,1,75.000002861023,6|2,1:0|1:0,0:0:0:0:
374,18,143508,2,0,P|356:55|284:39,1,112.500004291534,10|0,1:0|0:0,0:0:0:0:
292,50,143842,2,0,L|195:40,1,75.000002861023,4|0,1:2|0:0,0:0:0:0:
168,146,144175,2,0,L|265:135,1,75.000002861023,8|0,1:0|1:0,0:0:0:0:
242,137,144425,2,0,L|236:198,1,37.5000014305115,0|0,1:0|0:0,0:0:0:0:
127,251,144675,5,10,1:0:0:0:
151,339,144842,2,0,B|109:330|109:330|67:339|49:375,1,112.500004291534,4|0,1:2|0:0,0:0:0:0:
53,367,145175,2,0,L|8:373,2,37.5000014305115,2|0|2,1:0|1:0|1:0,0:0:0:0:
0,253,145508,2,0,L|45:259,2,37.5000014305115,4|0|0,1:2|0:0|0:0,0:0:0:0:
52,148,145842,6,0,P|101:141|123:104,1,75.000002861023,0|2,1:0|1:0,0:0:0:0:
217,58,146175,2,0,P|203:103|260:132,1,112.500004291534,8|0,1:0|0:0,0:0:0:0:
251,134,146508,2,0,B|288:128|288:128|346:166,1,75.000002861023,2|0,1:0|3:0,0:0:0:0:
446,213,146842,2,0,B|409:206|409:206|351:244,1,75.000002861023,8|0,1:0|1:0,0:0:0:0:
377,227,147092,2,0,L|374:285,1,37.5000014305115,0|0,1:0|0:0,0:0:0:0:
213,285,147342,6,0,L|218:347,3,56.2500021457672,0|0|0|0,3:0|3:0|3:0|3:0,0:0:0:0:
218,342,147842,6,0,B|242:259|194:284|210:205|210:205|202:192|202:192|213:104|163:144|188:47,1,300.000011444092,4|6,1:2|1:0,0:0:0:0:
186,54,148842,6,0,B|266:28|245:88|346:47,1,150.000005722046,4|0,1:2|1:0,0:0:0:0:
121,175,149508,2,0,L|62:168,3,37.5000014305115,0|0|0|0,1:0|3:0|1:1|0:0,0:0:0:0:
136,176,149842,6,0,P|192:160|208:132,1,75.000002861023,4|0,1:0|0:0,0:0:0:0:
224,68,150175,1,8,1:0:0:0:
264,276,150675,1,0,3:0:0:0:
344,232,150842,2,0,P|356:264|348:312,1,75.000002861023,8|2,1:0|0:0,0:0:0:0:
280,368,151175,6,0,P|208:360|184:368,1,75.000002861023,0|0,1:0|0:0,0:0:0:0:
120,384,151508,1,8,1:0:0:0:
192,144,152008,1,0,3:0:0:0:
272,180,152175,2,0,P|276:120|256:88,1,75.000002861023,8|2,1:0|0:0,0:0:0:0:
208,236,152508,6,0,L|300:232,1,75.000002861023,0|0,1:0|0:0,0:0:0:0:
372,232,152842,1,8,1:0:0:0:
372,232,153342,1,0,3:0:0:0:
424,308,153508,2,0,L|420:360,3,37.5000014305115,8|0|0|0,1:0|0:0|0:0|0:0,0:0:0:0:
419,359,153842,6,0,L|271:375,1,112.500004291534,0|0,1:0|0:0,0:0:0:0:
307,371,154175,2,0,P|303:287|272:248,1,112.500004291534,8|0,1:0|0:0,0:0:0:0:
280,252,154508,1,0,0:0:0:0:
223,343,154675,1,0,3:0:0:0:
223,343,154759,1,0,3:0:0:0:
223,343,154842,2,0,B|183:351|183:351|163:371|163:371|91:387,1,112.500004291534,8|0,1:0|0:0,0:0:0:0:
121,381,155175,6,0,P|84:332|84:308,1,75.000002861023,4|0,1:0|0:0,0:0:0:0:
112,232,155508,1,8,1:0:0:0:
328,292,156008,1,0,3:0:0:0:
416,332,156175,2,0,P|424:296|416:252,1,75.000002861023,8|2,1:0|0:0,0:0:0:0:
304,152,156508,6,0,P|348:188|372:196,1,75.000002861023,0|0,1:0|0:0,0:0:0:0:
456,168,156842,1,8,1:0:0:0:
180,172,157342,1,0,3:0:0:0:
224,244,157508,2,0,L|308:236,1,75.000002861023,8|2,1:0|0:0,0:0:0:0:
172,308,157842,6,0,L|96:300,1,75.000002861023,0|0,1:0|0:0,0:0:0:0:
228,364,158175,1,0,0:0:0:0:
92,132,158675,1,0,3:0:0:0:
16,180,158842,2,0,L|8:80,1,75.000002861023,8|2,1:0|0:0,0:0:0:0:
92,220,159175,6,0,B|108:244|108:244|104:352,1,112.500004291534,0|0,1:0|0:0,0:0:0:0:
104,327,159508,2,0,L|248:344,1,112.500004291534,8|2,1:0|3:0,0:0:0:0:
240,344,159842,1,0,0:0:0:0:
264,264,160008,1,0,3:0:0:0:
264,264,160092,1,0,0:0:0:0:
264,264,160175,2,0,P|320:252|376:288,1,112.500004291534,4|0,1:2|0:0,0:0:0:0:
366,276,160508,6,0,B|356:312|356:312|368:360,1,75.000002861023,0|0,1:0|0:0,0:0:0:0:
452,316,160842,1,8,1:0:0:0:
128,356,161342,1,0,3:0:0:0:
192,300,161508,2,0,L|196:212,1,75.000002861023,8|0,1:0|0:0,0:0:0:0:
72,172,161842,6,0,B|160:188|140:116|232:152,1,150.000005722046,0|8,1:0|1:0,0:0:0:0:
344,224,162342,2,0,P|296:224|268:204,1,75.000002861023,0|0,1:0|0:0,0:0:0:0:
324,144,162675,1,0,3:0:0:0:
396,108,162842,2,0,L|492:116,1,75.000002861023,4|0,1:2|0:0,0:0:0:0:
512,193,163175,6,0,L|502:284,1,75.000002861023,0|0,1:0|0:0,0:0:0:0:
512,353,163508,1,8,1:0:0:0:
289,204,164008,1,0,3:0:0:0:
367,250,164175,2,0,L|379:157,1,75.000002861023,8|0,1:0|0:0,0:0:0:0:
376,175,164425,1,0,0:0:0:0:
376,175,164508,1,0,1:0:0:0:
352,72,164675,1,0,0:0:0:0:
280,132,164842,2,0,B|244:141|244:141|156:132,1,112.500004291534,8|0,1:0|0:0,0:0:0:0:
152,132,165175,1,0,0:0:0:0:
52,160,165342,1,2,3:0:0:0:
52,160,165425,1,0,0:0:0:0:
52,160,165508,2,0,L|39:67,1,75.000002861023,4|0,1:2|0:0,0:0:0:0:
0,244,165842,6,0,B|47:254|47:254|74:296|74:296|143:303,1,150.000005722046,0|8,1:0|1:0,0:0:0:0:
125,301,166675,1,0,3:0:0:0:
200,241,166842,2,0,P|260:246|278:282,1,75.000002861023,8|2,1:0|0:0,0:0:0:0:
321,182,167175,6,0,P|374:214|448:200,1,112.500004291534,0|0,1:0|0:0,0:0:0:0:
422,211,167508,2,0,L|431:123,1,75.000002861023,8|0,1:0|1:0,0:0:0:0:
342,18,167842,2,0,L|332:100,1,75.000002861023,0|0,0:0|3:0,0:0:0:0:
320,184,168175,1,8,1:0:0:0:
320,184,168342,1,2,0:0:0:0:
258,122,168508,6,0,B|318:116|321:190|407:171,1,150.000005722046,0|8,1:0|1:0,0:0:0:0:
473,129,169008,2,0,P|487:162|479:198,1,75.000002861023,0|0,0:0|0:0,0:0:0:0:
418,253,169342,1,0,3:0:0:0:
338,227,169508,2,0,P|313:286|332:335,1,112.500004291534,8|0,1:0|0:0,0:0:0:0:
327,329,169842,6,0,L|227:323,1,75.000002861023,0|0,1:0|0:0,0:0:0:0:
176,260,170175,2,0,L|44:252,1,112.500004291534,8|0,1:0|0:0,0:0:0:0:
44,252,170508,1,0,0:0:0:0:
41,170,170675,1,8,1:0:0:0:
41,170,170758,1,0,0:0:0:0:
41,170,170842,2,0,L|174:179,1,112.500004291534,4|0,1:2|0:0,0:0:0:0:
153,177,171175,5,4,1:0:0:0:
247,127,171342,1,0,0:0:0:0:
315,206,171508,2,0,L|307:292,1,75.000002861023,8|2,1:0|0:0,0:0:0:0:
388,328,171842,2,0,P|293:325|236:365,1,150.000005722046,0|8,0:0|1:0,0:0:0:0:
435,116,172508,6,0,P|476:209|462:266,1,150.000005722046,0|8,1:0|1:0,0:0:0:0:
356,289,173008,2,0,P|315:196|329:139,1,150.000005722046,2|0,0:0|0:0,0:0:0:0:
234,141,173508,2,0,P|270:79|317:60,1,112.500004291534,4|0,1:2|0:0,0:0:0:0:
304,62,173842,5,0,1:0:0:0:
375,122,174008,1,2,0:0:0:0:
453,74,174175,2,0,P|460:13|453:-17,1,75.000002861023,8|0,1:0|0:0,0:0:0:0:
512,126,174508,2,0,P|460:135|405:231,1,150.000005722046,4|8,0:0|1:0,0:0:0:0:
446,291,175008,6,0,P|393:240|301:256,1,150.000005722046,0|2,3:0|0:0,0:0:0:0:
233,322,175508,2,0,P|241:264|238:243,1,75.000002861023,8|2,1:0|0:0,0:0:0:0:
238,248,175758,1,0,0:0:0:0:
238,248,175842,2,0,L|139:244,1,75.000002861023,0|0,0:0|3:0,0:0:0:0:
61,132,176175,2,0,L|192:141,1,112.500004291534,8|0,1:0|0:0,0:0:0:0:
173,139,176508,6,0,B|190:105|190:105|175:47,1,75.000002861023,4|0,1:0|1:0,0:0:0:0:
284,66,176842,2,0,B|296:114|296:114|280:150|280:150|297:237,1,150.000005722046,0|0,0:0|0:0,0:0:0:0:
458,340,177508,2,0,P|408:324|374:338,1,75.000002861023,8|2,1:0|0:0,0:0:0:0:
313,297,177842,6,0,P|373:249|459:245,1,150.000005722046,0|8,1:0|1:0,0:0:0:0:
256,67,178508,2,0,B|230:133|298:139|250:216,1,150.000005722046,0|8,0:0|1:0,0:0:0:0:
152,222,179008,1,2,0:0:0:0:
73,244,179175,6,0,P|146:252|203:299,1,150.000005722046,0|8,1:0|1:0,0:0:0:0:
273,374,179675,1,2,0:0:0:0:
343,319,179842,2,0,P|391:308|426:316,2,75.000002861023,0|2|8,0:0|3:2|1:0,0:0:0:0:
272,239,180342,1,2,0:0:0:0:
205,297,180508,6,0,P|157:308|122:300,2,75.000002861023,0|2|8,1:0|0:0|1:0,0:0:0:0:
272,239,181008,1,2,0:0:0:0:
272,239,181092,1,0,0:0:0:0:
272,239,181175,2,0,P|318:239|352:254,1,75.000002861023,0|0,0:0|3:0,0:0:0:0:
344,249,181425,1,0,0:0:0:0:
344,249,181508,2,0,L|336:333,1,75.000002861023,4|0,1:2|1:0,0:0:0:0:
264,384,181842,5,4,1:0:0:0:
205,328,182008,1,0,1:0:0:0:
234,245,182175,2,0,P|162:256|147:268,1,75.000002861023,8|2,1:0|0:0,0:0:0:0:
114,330,182508,2,0,P|111:264|76:181,1,150.000005722046,0|8,0:0|1:0,0:0:0:0:
255,14,183175,6,0,P|256:90|288:173,1,150.000005722046,0|8,1:0|1:0,0:0:0:0:
266,256,183675,2,0,P|329:247|431:248,1,150.000005722046,2|2,0:0|3:2,0:0:0:0:
437,336,184175,2,0,P|356:330|311:336,1,112.500004291534,4|0,1:2|0:0,0:0:0:0:
325,333,184508,6,0,P|267:343|222:342,1,75.000002861023,4|2,1:0|0:0,0:0:0:0:
162,313,184842,1,0,0:0:0:0:
194,222,185008,1,2,0:0:0:0:
116,172,185175,2,0,P|111:126|99:85,1,75.000002861023,0|2,0:0|3:2,0:0:0:0:
171,26,185508,2,0,P|216:27|257:19,1,75.000002861023,8|2,1:0|0:0,0:0:0:0:
315,101,185842,6,0,P|307:157|306:253,1,150.000005722046,0|8,0:0|1:0,0:0:0:0:
210,195,186342,1,0,1:0:0:0:
210,195,186425,1,0,1:0:0:0:
210,195,186508,2,0,P|155:208|124:219,1,75.000002861023,0|0,0:0|3:0,0:0:0:0:
137,213,186758,1,0,0:0:0:0:
137,213,186842,2,0,P|141:278|139:302,1,75.000002861023,4|0,1:2|1:0,0:0:0:0:
55,341,187175,6,0,P|55:257|52:173,1,150.000005722046,4|8,1:0|1:0,0:0:0:0:
96,96,187675,1,0,0:0:0:0:
175,167,187842,1,0,0:0:0:0:
175,167,187925,1,0,0:0:0:0:
175,167,188008,2,0,P|219:184|254:183,1,75.000002861023,2|8,3:2|1:0,0:0:0:0:
315,265,188342,1,2,0:0:0:0:
404,207,188508,6,0,P|416:156|381:62,1,150.000005722046,0|8,1:0|1:0,0:0:0:0:
108,207,189175,2,0,P|97:133|127:66,1,150.000005722046,0|8,0:0|1:0,0:0:0:0:
189,153,189675,6,0,B|228:150|256:175|256:175|282:149|332:155,1,150.000005722046,0|2,0:0|0:0,0:0:0:0:
320,240,190175,2,0,P|322:293|336:320,1,75.000002861023,8|2,1:0|0:0,0:0:0:0:
448,296,190508,2,0,P|446:243|432:216,1,75.000002861023,0|2,0:0|3:2,0:0:0:0:
370,159,190842,1,8,1:0:0:0:
370,159,191008,1,2,0:0:0:0:
289,107,191175,6,0,P|248:121|209:123,1,75.000002861023,0|2,1:0|0:0,0:0:0:0:
142,195,191508,2,0,P|196:211|275:199,1,112.500004291534,4|0,1:2|0:0,0:0:0:0:
251,207,191842,2,0,P|244:258|252:286,1,75.000002861023,8|0,1:0|3:2,0:0:0:0:
340,340,192175,2,0,L|400:347,3,37.5000014305115,4|0|0|0,1:2|0:0|0:0|0:0,0:0:0:0:
395,347,192508,5,4,1:0:0:0:
256,192,197842,12,0,201842,0:0:0:0:
264,188,203175,6,0,P|241:123|244:60,1,112.500004291534,6|0,1:0|0:0,0:0:0:0:
250,69,203508,2,0,P|203:75|171:87,1,75.000002861023,10|0,1:0|0:0,0:0:0:0:
105,135,203842,1,0,0:0:0:0:
21,110,204008,2,0,P|68:116|100:128,1,75.000002861023,0|10,3:0|1:0,0:0:0:0:
164,220,204342,6,0,P|91:238|17:247,1,150.000005722046,2|2,1:0|1:0,0:0:0:0:
108,327,204842,2,0,P|170:340|197:352,1,75.000002861023,8|0,1:0|0:0,0:0:0:0:
265,384,205175,1,2,1:0:0:0:
332,325,205342,1,0,3:0:0:0:
423,340,205508,2,0,P|435:291|440:213,1,112.500004291534,8|0,1:0|0:0,0:0:0:0:
435,212,205842,5,2,1:0:0:0:
335,221,206008,2,0,P|283:234|238:233,1,75.000002861023,0|10,0:0|1:0,0:0:0:0:
200,127,206342,2,0,P|252:140|297:139,2,75.000002861023,2|0|0,1:0|1:0|3:0,0:0:0:0:
130,71,206842,1,8,1:0:0:0:
55,112,207008,1,2,1:0:0:0:
124,193,207175,6,0,P|133:229|136:266,1,75.000002861023,2|0,1:0|0:0,0:0:0:0:
116,356,207508,1,10,1:0:0:0:
221,328,207675,2,0,P|224:290|236:255,1,75.000002861023,2|8,1:0|1:0,0:0:0:0:
236,255,207925,1,0,0:0:0:0:
236,255,208008,1,0,3:0:0:0:
314,320,208175,2,0,P|341:309|364:291,3,37.5000014305115,8|0|8|0,1:0|3:0|1:0|3:0,0:0:0:0:
360,295,208508,6,0,P|351:217|320:142,1,150.000005722046,6|8,1:0|1:0,0:0:0:0:
257,93,209008,1,2,1:0:0:0:
181,141,209175,2,0,P|145:152|108:157,1,75.000002861023,2|0,1:0|3:0,0:0:0:0:
17,105,209508,1,10,1:0:0:0:
89,155,209675,1,0,1:0:0:0:
9,198,209842,5,2,1:0:0:0:
90,247,210008,2,0,P|120:240|161:221,1,75.000002861023,2|8,1:0|1:0,0:0:0:0:
189,108,210342,1,2,0:0:0:0:
89,155,210508,2,0,P|155:189|228:205,1,150.000005722046,2|10,1:0|1:0,0:0:0:0:
299,133,211008,1,0,0:0:0:0:
245,203,211175,6,0,P|312:169|385:153,1,150.000005722046,6|8,1:0|1:0,0:0:0:0:
472,219,211675,1,2,1:0:0:0:
403,156,211842,1,0,0:0:0:0:
482,208,212008,2,0,P|491:172|494:135,1,75.000002861023,2|10,1:0|1:0,0:0:0:0:
418,0,212342,6,0,P|420:37|430:73,1,75.000002861023,0|6,0:0|1:0,0:0:0:0:
410,163,212675,1,8,1:0:0:0:
410,163,212758,1,8,1:0:0:0:
410,163,212842,2,0,P|386:155|359:153,3,37.5000014305115,0|0|8|0,0:0|0:0|3:1|0:0,0:0:0:0:
333,124,213175,2,0,P|309:129|284:140,3,37.5000014305115,10|0|0|0,1:0|1:0|1:0|1:0,0:0:0:0:
257,120,213508,2,0,P|239:136|223:159,3,37.5000014305115,8|0|0|0,1:0|3:0|1:0|3:0,0:0:0:0:
185,144,213842,6,0,P|158:217|157:283,1,112.500004291534,6|0,1:0|0:0,0:0:0:0:
160,268,214175,2,0,P|218:280|249:298,1,75.000002861023,8|0,1:0|0:0,0:0:0:0:
317,363,214508,1,0,3:0:0:0:
231,384,214675,2,0,P|272:366|325:361,1,75.000002861023,0|10,3:0|1:0,0:0:0:0:
407,384,215008,6,0,P|439:316|455:243,1,150.000005722046,0|0,0:0|3:0,0:0:0:0:
389,179,215508,2,0,P|362:122|357:78,1,75.000002861023,8|0,1:0|0:0,0:0:0:0:
290,41,215842,2,0,P|279:76|260:109,1,75.000002861023,2|4,1:0|1:2,0:0:0:0:
182,188,216175,2,0,P|237:194|292:209,1,112.500004291534,8|0,1:0|0:0,0:0:0:0:
308,217,216508,5,6,1:0:0:0:
221,283,216675,2,0,P|183:287|147:297,1,75.000002861023,0|10,0:0|1:0,0:0:0:0:
62,349,217008,2,0,P|58:312|48:276,1,75.000002861023,2|0,1:0|3:0,0:0:0:0:
47,275,217258,1,0,0:0:0:0:
47,275,217342,1,0,3:0:0:0:
17,177,217508,2,0,P|73:190|109:192,1,75.000002861023,8|2,1:0|1:0,0:0:0:0:
196,132,217842,6,0,P|244:75|307:34,1,150.000005722046,2|10,1:0|1:0,0:0:0:0:
327,131,218342,2,0,P|310:164|302:201,1,75.000002861023,0|10,0:0|1:0,0:0:0:0:
302,201,218592,1,0,0:0:0:0:
302,201,218675,1,0,3:0:0:0:
402,232,218842,2,0,P|396:214|393:195,3,37.5000014305115,10|0|8|0,1:0|3:0|1:0|3:0,0:0:0:0:
411,248,219175,6,0,P|336:252|268:282,1,150.000005722046,6|8,1:0|1:0,0:0:0:0:
199,352,219675,1,2,1:0:0:0:
284,379,219842,2,0,P|247:374|212:362,1,75.000002861023,2|0,1:0|3:0,0:0:0:0:
136,286,220175,1,10,1:0:0:0:
57,323,220342,1,0,0:0:0:0:
65,234,220508,5,2,1:0:0:0:
143,271,220675,2,0,P|154:235|159:198,1,75.000002861023,2|8,1:0|1:0,0:0:0:0:
105,93,221008,2,0,P|177:112|252:112,1,150.000005722046,4|0,0:0|3:0,0:0:0:0:
328,70,221508,1,10,1:0:0:0:
387,135,221675,1,0,0:0:0:0:
306,210,221842,6,0,P|304:289|324:366,1,160,6|8,1:0|1:0,0:0:0:0:
402,309,222342,1,2,1:0:0:0:
479,357,222508,2,0,P|516:316|534:272,1,79.9999999999999,0|0,3:0|3:0,0:0:0:0:
465,228,222842,2,0,P|455:167|432:101,1,120,8|0,1:0|0:0,0:0:0:0:
426,94,223175,6,0,P|347:61|263:54,1,170.000003242493,6|10,1:0|1:0,0:0:0:0:
177,111,223675,2,0,P|155:109|135:102,2,42.5000008106231,0|0|0,0:0|0:0|1:0,0:0:0:0:
237,207,224008,1,0,3:0:0:0:
237,207,224092,1,0,1:0:0:0:
237,207,224175,2,0,P|199:217|181:218,3,42.5000008106231,10|0|8|0,1:0|3:0|1:0|0:0,0:0:0:0:
177,219,224508,6,0,P|122:212|76:320,1,170.000003242493,6|8,1:0|1:0,0:0:0:0:
97,384,225008,1,2,1:0:0:0:
176,334,225175,2,0,L|283:329,1,85.0000016212463,0|0,0:0|3:0,0:0:0:0:
350,295,225508,1,10,1:0:0:0:
391,372,225675,6,0,L|399:197,1,170.000003242493,2|2,1:0|1:0,0:0:0:0:
341,103,226175,2,0,P|322:146|284:168,1,85.0000016212463,8|0,1:0|0:0,0:0:0:0:
166,98,226508,2,0,P|232:85|263:102,1,85.0000016212463,2|0,1:0|3:0,0:0:0:0:
196,189,226842,2,0,B|162:216|162:216|57:214,1,127.500002431869,8|0,1:0|0:0,0:0:0:0:
77,214,227175,6,0,L|92:309,1,85.0000016212463,2|2,1:0|1:0,0:0:0:0:
27,361,227508,2,0,P|94:334|203:342,1,170.000003242493,8|0,1:0|1:0,0:0:0:0:
190,337,227925,1,0,0:0:0:0:
190,337,228008,1,0,3:0:0:0:
254,255,228175,1,8,1:0:0:0:
318,336,228342,2,0,P|382:318|413:295,1,85.0000016212463,2|2,1:0|1:0,0:0:0:0:
500,305,228675,5,0,0:0:0:0:
446,225,228842,1,10,1:0:0:0:
501,148,229008,1,0,0:0:0:0:
420,95,229175,1,8,1:0:0:0:
420,95,229258,1,0,0:0:0:0:
423,99,229342,1,0,0:0:0:0:
360,172,229508,2,0,L|356:224,3,42.5000008106231
354,160,229842,6,0,B|271:146|271:146|192:201,1,170.000003242493,6|8,1:0|1:0,0:0:0:0:
148,120,230342,1,2,1:0:0:0:
104,196,230508,2,0,P|112:241|144:272,1,85.0000016212463,2|0,1:0|3:0,0:0:0:0:
220,300,230842,1,10,1:0:0:0:
296,252,231008,6,0,P|351:266|403:378,1,170.000003242493,2|2,1:0|1:0,0:0:0:0:
485,268,231508,2,0,L|492:182,1,85.0000016212463,8|2,1:0|1:0,0:0:0:0:
418,108,231842,2,0,L|408:220,1,85.0000016212463,2|0,1:0|3:0,0:0:0:0:
328,147,232175,2,0,L|344:-1,1,127.500002431869,8|0,1:0|0:0,0:0:0:0:
341,20,232508,6,0,P|291:46|246:50,1,85.0000016212463,6|2,1:0|1:0,0:0:0:0:
158,47,232842,1,8,1:0:0:0:
202,129,233008,1,2,1:0:0:0:
105,136,233175,1,0,0:0:0:0:
212,143,233342,1,2,1:0:0:0:
151,241,233508,2,0,P|152:297|168:337,1,85.0000016212463,10|0,1:0|0:0,0:0:0:0:
291,294,233842,6,0,L|384:286,1,85.0000016212463,6|8,1:0|1:0,0:0:0:0:
375,286,234092,1,8,1:0:0:0:
375,286,234175,2,0,P|440:296|475:279,1,85.0000016212463,0|8,0:0|3:1,0:0:0:0:
507,141,234508,1,10,1:0:0:0:
507,141,234592,2,0,P|466:122|412:135,1,85.0000016212463,0|0,1:0|1:0,0:0:0:0:
416,132,234842,2,0,L|372:156,3,42.5000008106231,8|0|0|0,1:0|3:0|1:0|3:0,0:0:0:0:
365,156,235175,6,0,B|338:144|326:148|326:148|316:153|310:161|310:161|302:152|295:150|295:150|261:167|230:145,1,134.999995880127,0|0,0:0|0:0,0:0:0:0:
242,152,235508,2,0,P|230:207|242:248,1,85.0000016212463,8|0,1:0|0:0,0:0:0:0:
215,332,235842,2,0,P|179:304|138:301,1,85.0000016212463,2|0,1:0|3:0,0:0:0:0:
51,364,236175,1,8,1:0:0:0:
7,281,236342,6,0,P|12:204|-3:101,1,170.000003242493,0|0,0:0|3:0,0:0:0:0:
90,180,236842,2,0,P|131:198|173:196,1,85.0000016212463,8|0,1:0|0:0,0:0:0:0:
248,268,237175,1,2,1:0:0:0:
302,181,237342,1,4,3:2:0:0:
229,101,237508,6,0,L|377:95,1,127.500002431869,4|0,1:2|0:0,0:0:0:0:
356,95,237842,2,0,P|398:129|429:133,1,85.0000016212463,6|0,1:0|0:0,0:0:0:0:
494,211,238175,2,0,P|441:222|402:251,1,85.0000016212463,10|0,1:0|0:0,0:0:0:0:
363,328,238508,1,0,3:0:0:0:
363,328,238592,1,0,0:0:0:0:
363,328,238675,1,0,3:0:0:0:
273,274,238842,1,10,1:0:0:0:
336,195,239008,6,0,P|339:132|288:38,1,170.000003242493,0|2,1:0|1:0,0:0:0:0:
224,124,239508,2,0,P|185:139|125:136,1,85.0000016212463,8|2,1:0|1:0,0:0:0:0:
55,91,239842,1,10,1:0:0:0:
55,91,239925,1,0,0:0:0:0:
55,91,240008,1,0,0:0:0:0:
6,189,240175,2,0,L|0:237,3,42.5000008106231,10|0|8|0,1:0|3:0|1:0|3:0,0:0:0:0:
6,247,240508,6,0,L|105:236,1,85.0000016212463,6|2,1:0|1:0,0:0:0:0:
158,327,240842,2,0,P|225:339|317:316,1,127.500002431869,8|0,1:0|0:0,0:0:0:0:
283,330,241175,1,2,1:0:0:0:
342,253,241342,1,0,3:0:0:0:
432,282,241508,1,10,1:0:0:0:
327,244,241675,6,0,B|306:201|306:201|320:62,1,170.000003242493,0|2,3:0|1:0,0:0:0:0:
371,16,242175,2,0,P|312:1|276:10,1,85.0000016212463,8|2,1:0|1:0,0:0:0:0:
221,82,242508,2,0,P|167:92|130:85,1,85.0000016212463,2|0,1:0|3:0,0:0:0:0:
60,28,242842,2,0,P|60:93|32:202,1,170.000003242493,8|6,1:0|1:0,0:0:0:0:
103,276,243342,5,0,0:0:0:0:
182,213,243508,2,0,P|236:204|290:215,1,85.0000016212463,8|8,1:0|3:1,0:0:0:0:
349,259,243842,1,2,1:0:0:0:
420,200,244008,1,2,1:0:0:0:
377,118,244175,2,0,P|376:68|391:28,1,85.0000016212463,8|2,1:0|1:0,0:0:0:0:
506,168,244508,6,0,P|495:244|440:329,1,170.000003242493,6|8,1:0|1:0,0:0:0:0:
350,358,245008,1,2,1:0:0:0:
260,290,245175,2,0,P|211:291|169:305,1,85.0000016212463,0|0,1:0|3:0,0:0:0:0:
62,335,245508,2,0,L|41:387,3,42.5000008106231,8|0|0|0,1:0|3:0|1:0|0:0,0:0:0:0:
69,320,245842,5,2,0:0:0:0:
62,144,246342,1,2,0:0:0:0:
62,144,246508,2,0,L|53:211,2,64.9999970245362,0|0|2,0:0|0:0|0:0,0:0:0:0:
218,79,247175,2,0,L|227:146,1,64.9999970245362,0|2,0:0|0:0,0:0:0:0:
188,218,247508,2,0,P|248:184|327:207,1,129.999994049072,2|0,0:0|0:0,0:0:0:0:
305,192,248508,6,0,P|368:199|422:166,1,129.999994049072,2|0,0:0|0:0,0:0:0:0:
458,90,249008,1,0,0:0:0:0:
458,90,249175,2,0,L|523:82,2,64.9999970245362,2|0|0,0:0|0:0|0:0,0:0:0:0:
305,16,249842,2,0,L|370:24,2,64.9999970245362,2|0|2,0:0|0:0|0:0,0:0:0:0:
137,35,250508,2,0,L|58:44,1,64.9999970245362
148,116,250842,2,0,L|69:125,1,64.9999970245362
18,177,251175,5,2,0:0:0:0:
245,288,251675,1,2,0:0:0:0:
169,249,251842,2,0,P|141:280|131:308,2,64.9999970245362,0|0|2,0:0|0:0|0:0,0:0:0:0:
333,209,252508,2,0,P|292:200|262:205,1,64.9999970245362,0|2,0:0|0:0,0:0:0:0:
193,166,252842,2,0,L|143:17,1,129.999994049072,2|0,0:0|0:0,0:0:0:0:
151,42,253842,6,0,L|23:67,1,129.999994049072,2|0,0:0|0:0,0:0:0:0:
68,139,254342,1,0,0:0:0:0:
23,210,254508,2,0,P|10:255|21:295,2,64.9999970245362,2|0|2,0:0|0:0|0:0,0:0:0:0:
137,335,255175,2,0,P|169:368|209:379,2,64.9999970245362,0|2|2,0:0|0:0|0:0,0:0:0:0:
212,297,255675,1,0,0:0:0:0:
291,327,255842,2,0,L|370:317,1,64.9999970245362
386,239,256175,2,0,L|346:233,3,32.4999985122681
403,244,256508,5,0,0:0:0:0:
423,69,257008,1,0,0:0:0:0:
347,107,257175,1,0,0:0:0:0:
347,107,257508,1,0,0:0:0:0:
182,65,257842,1,0,0:0:0:0:
182,65,258175,1,0,0:0:0:0:
75,218,259175,5,0,0:0:0:0:
75,218,259508,1,0,0:0:0:0:
151,254,259675,1,0,0:0:0:0:
215,198,259842,1,0,0:0:0:0:
215,198,260175,1,0,0:0:0:0:
366,271,260508,1,0,0:0:0:0:
366,271,260842,1,0,0:0:0:0:
493,160,261175,1,0,0:0:0:0:
493,160,261508,1,0,0:0:0:0:
342,83,261842,5,0,0:0:0:0:
199,292,262342,1,0,0:0:0:0:
125,251,262508,1,0,0:0:0:0:
125,251,262841,1,0,0:0:0:0:
274,329,263175,1,0,0:0:0:0:
274,329,263508,1,0,0:0:0:0:
176,92,264508,5,0,0:0:0:0:
176,92,264842,1,0,0:0:0:0:
99,126,265008,1,0,0:0:0:0:
74,206,265175,1,0,0:0:0:0:
74,206,265508,1,0,0:0:0:0:
202,316,265842,1,0,0:0:0:0:
202,316,266175,1,0,0:0:0:0:
359,255,266508,1,0,0:0:0:0:
359,255,266842,2,0,L|408:263,3,32.4999985122681
