osu file format v14

[General]
AudioFilename: audio.mp3
AudioLeadIn: 0
PreviewTime: 59134
Countdown: 0
SampleSet: Soft
StackLeniency: 0.7
Mode: 0
LetterboxInBreaks: 0
WidescreenStoryboard: 1

[Editor]
Bookmarks: 807,7427,14048,40531,60393,73634,86875,93634,119979,139841,153082,166324,199427,212669,225910,239151
DistanceSpacing: 1.1
BeatDivisor: 3
GridSize: 32
TimelineZoom: 1.2

[Metadata]
Title:Miracle Sugite Yabai (feat. shully)
TitleUnicode:ミラクルすぎてヤバイ (feat. shully)
Artist:Hige Driver
ArtistUnicode:ヒゲドライバー
Creator:Milan-
Version:Normal
Source:
Tags:ピコピコロック!motoloid featured artist
BeatmapID:1442774
BeatmapSetID:682290

[Difficulty]
HPDrainRate:4
CircleSize:3.5
OverallDifficulty:4
ApproachRate:5
SliderMultiplier:1
SliderTickRate:1

[Events]
//Background and Video events
0,0,"Miracle_Sugite.jpg",0,0
//Break Periods
//Storyboard Layer 0 (Background)
//Storyboard Layer 1 (Fail)
//Storyboard Layer 2 (Pass)
//Storyboard Layer 3 (Foreground)
//Storyboard Sound Samples

[TimingPoints]
859,413.793103448276,4,2,0,45,1,0
6652,-100,4,2,0,40,0,0
7065,-100,4,2,0,50,0,0
7479,-133.333333333333,4,2,0,45,0,0
13272,-100,4,2,0,40,0,0
13686,-100,4,2,0,50,0,0
14100,-133.333333333333,4,2,0,45,0,0
26514,-100,4,2,0,40,0,0
26927,-100,4,2,0,50,0,0
27341,-133.333333333333,4,2,0,45,0,0
39755,-100,4,2,0,40,0,0
40169,-100,4,2,0,50,0,0
40583,-111.111111111111,4,2,0,45,0,0
50514,-111.111111111111,4,2,0,40,0,0
51755,-111.111111111111,4,2,0,50,0,0
52031,-111.111111111111,4,2,0,40,0,0
52996,-111.111111111111,4,2,0,45,0,0
53824,-111.111111111111,4,2,0,40,0,0
55479,-111.111111111111,4,2,0,45,0,0
57134,-111.111111111111,4,2,0,40,0,0
57962,-100,4,2,0,45,0,0
58790,-111.111111111111,4,2,0,50,0,0
60031,-100,4,2,0,40,0,0
60445,-100,4,2,0,50,0,1
65410,-100,4,2,0,50,0,1
70376,-100,4,2,0,40,0,0
70790,-100,4,2,0,45,0,0
71203,-100,4,2,0,50,0,0
71617,-100,4,2,0,50,0,0
72031,-100,4,2,0,45,0,0
72859,-100,4,2,0,55,0,0
73686,-100,4,2,0,50,0,1
78652,-100,4,2,0,50,0,1
83617,-100,4,2,0,40,0,0
84031,-100,4,2,0,45,0,0
84445,-100,4,2,0,50,0,0
84859,-100,4,2,0,55,0,0
85272,-100,4,2,0,50,0,0
86100,-100,4,2,0,55,0,0
86927,-133.333333333333,4,2,0,45,0,1
87065,-133.333333333333,4,2,0,40,0,0
92721,-100,4,2,0,35,0,0
93134,-100,4,2,0,45,0,0
93548,-100,4,2,0,50,0,0

[Colours]
Combo1 : 190,142,234
Combo2 : 244,132,171
Combo3 : 243,203,118
Combo4 : 247,233,138
Combo5 : 166,230,138
Combo6 : 129,222,239
Combo7 : 149,143,218

[HitObjects]
475,55,5824,5,2,0:0:0:0:
422,174,6238,1,2,0:0:0:0:
298,134,6652,2,0,L|210:150,1,66.6666666666667,4|4,0:3|0:3,0:0:0:0:
218,154,7065,2,0,L|130:170,1,66.6666666666667,8|4,0:3|0:3,0:0:0:0:
136,175,7479,6,0,P|128:209|131:262,1,75.0000028610231,4|0,0:0|1:0,0:0:0:0:
190,315,8307,2,0,L|256:302,1,50.0000019073487,4|4,0:3|0:3,0:0:0:0:
257,314,8721,1,0,1:0:0:0:
292,223,9134,2,0,L|381:228,1,75.0000028610231,4|0,0:3|1:0,0:0:0:0:
454,182,9962,2,0,P|465:156|472:131,1,50.0000019073487,4|4,0:3|0:3,0:0:0:0:
486,122,10376,1,0,1:0:0:0:
411,57,10790,6,0,L|336:61,1,75.0000028610231,4|0,0:3|1:1,0:0:0:0:
245,24,11617,2,0,L|180:35,1,50.0000019073487,4|4,0:3|0:3,0:0:0:0:
188,50,12031,1,0,1:0:0:0:
101,7,12445,2,0,P|68:43|56:84,1,75.0000028610231,4|0,0:3|1:0,0:0:0:0:
28,159,13272,6,0,L|42:243,1,66.6666666666667,4|4,0:3|0:3,0:0:0:0:
30,241,13686,2,0,L|44:325,1,66.6666666666667,8|4,0:3|0:3,0:0:0:0:
58,316,14100,6,0,P|110:342|148:339,1,75.0000028610231,4|0,0:0|1:0,0:0:0:0:
197,273,14927,2,0,P|248:247|286:250,1,75.0000028610231,4|0,0:3|1:0,0:0:0:0:
363,234,15755,2,0,L|379:323,1,75.0000028610231,4|0,0:3|1:0,0:0:0:0:
468,275,16583,2,0,L|457:213,1,50.0000019073487,4|4,0:3|0:3,0:0:0:0:
478,221,16996,1,0,1:0:0:0:
452,128,17410,6,0,P|476:101|523:85,2,75.0000028610231,4|0|4,0:3|1:0|0:3,0:0:0:0:
359,95,18652,1,0,1:0:0:0:
267,127,19065,2,0,P|232:112|207:85,2,75.0000028610231,4|0|4,0:3|1:0|0:3,0:0:0:0:
342,189,20307,1,0,1:0:0:0:
251,226,20721,6,0,P|233:295|236:311,1,75.0000028610231,4|0,0:3|1:0,0:0:0:0:
147,343,21548,2,0,L|51:324,1,75.0000028610231,4|0,0:3|1:0,0:0:0:0:
27,241,22376,2,0,L|100:226,1,75.0000028610231,4|0,0:3|1:0,0:0:0:0:
174,163,23203,2,0,P|189:126|190:97,1,50.0000019073487,4|4,0:3|0:3,0:0:0:0:
205,102,23617,1,0,1:0:0:0:
130,38,24031,6,0,L|56:23,2,75.0000028610231,4|0|4,0:3|1:0|0:3,0:0:0:0:
226,27,25272,1,0,1:0:0:0:
315,65,25686,1,4,0:3:0:0:
408,37,26100,1,2,1:2:0:0:
501,65,26514,6,0,L|511:140,1,66.6666666666667,4|4,0:3|0:3,0:0:0:0:
501,142,26927,2,0,L|511:218,1,66.6666666666667,8|4,0:3|0:3,0:0:0:0:
501,226,27341,6,0,P|460:254|422:261,1,75.0000028610231,4|0,0:0|1:1,0:0:0:0:
469,351,28169,2,0,P|418:354|382:341,1,75.0000028610231,4|0,0:3|1:0,0:0:0:0:
299,365,28996,2,0,L|289:269,1,75.0000028610231,4|0,0:3|1:0,0:0:0:0:
201,251,29824,2,0,L|207:187,1,50.0000019073487,4|4,0:3|0:3,0:0:0:0:
216,184,30238,1,0,1:0:0:0:
126,144,30652,6,0,P|104:79|100:54,2,75.0000028610231,4|0|4,0:3|1:0|0:3,0:0:0:0:
201,81,31893,1,0,1:0:0:0:
293,112,32307,2,0,P|315:47|319:22,1,75.0000028610231,4|0,0:3|1:0,0:0:0:0:
405,2,33134,2,0,P|427:67|431:92,2,75.0000028610231,4|0|4,0:3|1:0|0:3,0:0:0:0:
316,40,34376,5,0,1:0:0:0:
219,50,34790,2,0,P|192:45|158:40,1,50.0000019073487,4|4,0:3|0:3,0:0:0:0:
156,26,35203,1,0,1:0:0:0:
85,91,35617,2,0,P|60:138|57:182,1,75.0000028610231,4|0,0:3|1:0,0:0:0:0:
154,164,36445,2,0,P|158:215|163:234,1,50.0000019073487,4|4,0:3|0:3,0:0:0:0:
152,233,36859,1,0,1:0:0:0:
243,260,37272,6,0,L|328:237,1,75.0000028610231,4|0,0:3|1:0,0:0:0:0:
343,333,38100,2,0,L|270:352,1,75.0000028610231,4|0,0:3|1:0,0:0:0:0:
176,328,38927,1,4,0:3:0:0:
80,347,39341,1,0,1:0:0:0:
2,288,39755,6,0,L|12:217,1,66.6666666666667,4|4,0:3|0:3,0:0:0:0:
23,213,40169,2,0,L|33:142,1,66.6666666666667,8|4,0:3|0:3,0:0:0:0:
25,132,40583,6,0,P|75:131|118:103,1,89.9999972534181,4|0,0:0|1:0,0:0:0:0:
181,47,41410,2,0,P|208:44|253:56,1,59.9999981689454,4|4,0:3|0:3,0:0:0:0:
253,62,41824,1,0,1:0:0:0:
323,130,42238,2,0,P|372:128|415:100,1,89.9999972534181,4|0,0:3|1:0,0:0:0:0:
502,134,43065,1,4,0:3:0:0:
434,206,43479,1,0,1:0:0:0:
498,281,43893,6,0,P|448:282|405:310,1,89.9999972534181,4|0,0:3|1:0,0:0:0:0:
330,356,44721,1,4,0:3:0:0:
307,259,45134,1,0,1:0:0:0:
217,217,45548,2,0,P|167:218|124:246,1,89.9999972534181,4|0,0:3|1:0,0:0:0:0:
56,300,46376,2,0,P|27:287|-4:264,1,59.9999981689454,4|4,0:3|0:3,0:0:0:0:
2,254,46790,1,0,1:0:0:0:
20,154,47203,6,0,P|70:153|113:125,1,89.9999972534181,4|0,0:3|1:0,0:0:0:0:
171,60,48031,2,0,P|198:57|243:69,1,59.9999981689454,4|4,0:3|0:3,0:0:0:0:
243,75,48445,1,0,1:0:0:0:
304,152,48859,2,0,P|353:150|396:122,1,89.9999972534181,4|0,0:3|1:0,0:0:0:0:
485,112,49686,2,0,P|493:141|497:186,1,59.9999981689454,4|4,0:3|0:3,0:0:0:0:
485,185,50100,1,0,1:0:0:0:
494,284,50514,6,0,L|486:378,2,89.9999972534181,4|0|4,0:0|1:0|0:3,0:0:0:0:
341,220,52031,6,0,L|333:130,1,89.9999972534181,4|4,0:0|0:3,0:0:0:0:
330,112,52583,2,0,L|337:22,1,89.9999972534181,4|8,1:2|0:3,0:0:0:0:
243,57,53410,1,6,1:2:0:0:
147,81,53824,6,0,L|52:68,2,89.9999972534181,4|4|4,0:0|1:2|0:3,0:0:0:0:
221,146,55065,1,0,1:0:0:0:
128,180,55479,6,0,P|107:224|110:281,1,89.9999972534181,4|0,0:0|1:0,0:0:0:0:
182,327,56307,2,0,P|203:283|200:226,1,89.9999972534181,4|0,0:3|1:0,0:0:0:0:
225,149,57134,6,0,B|277:152|277:152|310:130|310:130|369:138,1,149.999995422363,4|2,1:2|0:0,0:0:0:0:
382,147,57962,6,0,B|425:117|425:117|481:117|481:117|533:77,1,166.666666666667,6|2,1:2|0:0,0:0:0:0:
512,67,58790,5,4,1:2:0:0:
334,324,60031,5,4,0:0:0:0:
334,324,60445,2,0,P|292:287|283:216,1,100,4|0,1:2|1:0,0:0:0:0:
186,283,61272,2,0,P|182:227|226:170,1,100,0|0,1:0|1:0,0:0:0:0:
111,148,62100,2,0,P|148:105|218:96,2,100,0|0|0,1:0|1:0|1:0,0:0:0:0:
47,224,63341,1,0,1:0:0:0:
117,294,63755,6,0,L|225:270,1,100,0|0,1:0|1:0,0:0:0:0:
247,177,64583,2,0,L|355:201,1,100,0|0,1:0|1:0,0:0:0:0:
380,286,65410,2,0,L|488:262,2,100,0|0|0,1:0|1:0|1:0,0:0:0:0:
280,273,66652,2,0,P|232:314|219:335,1,66.6666666666667,0|4,1:0|0:3,0:0:0:0:
228,332,67065,6,0,P|178:363|119:357,1,100,0|0,1:0|1:0,0:0:0:0:
153,264,67893,2,0,P|113:220|55:210,1,100,0|0,1:0|1:0,0:0:0:0:
1,141,68721,2,0,P|40:97|98:87,1,100,0|0,1:0|1:0,0:0:0:0:
139,6,69548,2,0,P|178:49|236:59,1,100,0|0,1:0|1:0,0:0:0:0:
315,45,70376,5,4,1:2:0:0:
406,84,70790,1,4,1:2:0:0:
408,183,71203,1,4,1:2:0:0:
317,144,71617,1,4,1:2:0:0:
330,243,72031,6,0,P|341:284|329:352,1,100,4|0,1:2|1:0,0:0:0:0:
235,366,72859,2,0,L|149:348,1,66.6666666666667,6|2,1:2|0:0,0:0:0:0:
157,360,73272,2,0,L|71:378,1,66.6666666666667,2|2,1:2|0:0,0:0:0:0:
78,382,73686,6,0,P|63:334|78:287,1,100,4|0,1:2|1:0,0:0:0:0:
27,204,74514,2,0,P|50:160|93:137,1,100,0|0,1:0|1:0,0:0:0:0:
86,37,75341,2,0,P|133:22|180:37,2,100,0|0|0,1:0|1:0|1:0,0:0:0:0:
93,137,76583,1,0,1:0:0:0:
163,208,76996,6,0,L|271:184,1,100,0|0,1:0|1:0,0:0:0:0:
262,86,77824,2,0,L|359:64,1,100,0|0,1:0|1:0,0:0:0:0:
411,150,78652,2,0,L|508:128,2,100,0|0|0,1:0|1:0|1:0,0:0:0:0:
327,204,79893,2,0,P|309:249|305:280,1,66.6666666666667,0|2,1:0|0:0,0:0:0:0:
312,282,80307,6,0,P|262:341|222:344,1,100,0|0,1:0|1:0,0:0:0:0:
149,378,81134,2,0,L|130:262,1,100,0|0,1:0|1:0,0:0:0:0:
74,197,81962,2,0,P|124:138|164:135,1,100,0|0,1:0|1:0,0:0:0:0:
231,86,82790,2,0,L|250:202,1,100,0|0,1:0|1:0,0:0:0:0:
316,256,83617,5,4,1:2:0:0:
398,199,84031,1,4,1:2:0:0:
443,288,84445,1,4,1:2:0:0:
361,345,84859,1,4,1:2:0:0:
261,345,85272,6,0,P|216:354|152:333,1,100,4|0,1:2|1:0,0:0:0:0:
63,321,86100,2,0,L|55:245,1,66.6666666666667,6|2,1:2|0:0,0:0:0:0:
68,248,86514,2,0,L|76:172,1,66.6666666666667,2|2,1:2|0:0,0:0:0:0:
70,167,86927,6,0,P|113:174|160:160,1,75.0000028610231,4|0,0:0|1:0,0:0:0:0:
230,121,87755,2,0,P|260:105|291:94,1,50.0000019073487,4|4,0:3|0:3,0:0:0:0:
292,108,88169,1,0,1:0:0:0:
376,60,88583,2,0,P|413:72|449:104,1,75.0000028610231,4|0,0:3|1:0,0:0:0:0:
487,180,89410,2,0,L|488:247,1,50.0000019073487,4|4,0:3|0:3,0:0:0:0:
490,250,89824,1,0,1:0:0:0:
392,250,90238,6,0,L|403:345,1,75.0000028610231,4|0,0:3|1:0,0:0:0:0:
303,326,91065,2,0,L|298:265,1,50.0000019073487,4|4,0:3|0:3,0:0:0:0:
297,256,91479,1,0,1:0:0:0:
201,273,91893,2,0,L|212:368,1,75.0000028610231,4|0,0:3|1:0,0:0:0:0:
112,341,92721,6,0,L|104:271,1,66.6666666666667,4|4,0:3|0:3,0:0:0:0:
110,260,93134,2,0,L|102:190,1,66.6666666666667,8|4,0:3|0:3,0:0:0:0:
109,175,93548,1,4,0:0:0:0:
