osu file format v14

[General]
AudioFilename: audio.mp3
AudioLeadIn: 0
PreviewTime: 59134
Countdown: 0
SampleSet: Soft
StackLeniency: 1
Mode: 0
LetterboxInBreaks: 0
WidescreenStoryboard: 1

[Editor]
Bookmarks: 807,7427,12531,14048,40531,60393,73634,86875,93634,119979,139841,153082,166324,179565,199427,212669,225910,239151
DistanceSpacing: 1.3
BeatDivisor: 6
GridSize: 32
TimelineZoom: 1.6

[Metadata]
Title:Miracle Sugite Yabai (feat. shully)
TitleUnicode:ミラクルすぎてヤバイ (feat. shully)
Artist:Hige Driver
ArtistUnicode:ヒゲドライバー
Creator:Milan-
Version:Insane
Source:
Tags:ピコピコロック!motoloid featured artist
BeatmapID:1442773
BeatmapSetID:682290

[Difficulty]
HPDrainRate:6
CircleSize:4
OverallDifficulty:8
ApproachRate:8.5
SliderMultiplier:1.8
SliderTickRate:1

[Events]
//Background and Video events
0,0,"Miracle_Sugite.jpg",0,0
//Break Periods
//Storyboard Layer 0 (Background)
//Storyboard Layer 1 (Fail)
//Storyboard Layer 2 (Pass)
//Storyboard Layer 3 (Foreground)
//Storyboard Sound Samples

[TimingPoints]
859,413.793103448276,4,2,0,45,1,0
6652,-200,4,2,0,40,0,0
7065,-50,4,2,0,50,0,0
7479,-133.333333333333,4,2,0,45,0,0
13272,-200,4,2,0,40,0,0
13686,-50,4,2,0,50,0,0
14100,-133.333333333333,4,2,0,45,0,0
26514,-200,4,2,0,40,0,0
26927,-50,4,2,0,50,0,0
27341,-133.333333333333,4,2,0,45,0,0
38514,-100,4,2,0,45,0,0
38927,-66.6666666666667,4,2,0,45,0,0
39341,-100,4,2,0,45,0,0
39755,-200,4,2,0,40,0,0
40169,-50,4,2,0,50,0,0
40583,-133.333333333333,4,2,0,45,0,0
50514,-133.333333333333,4,2,0,40,0,0
51755,-66.6666666666667,4,2,0,50,0,0
52031,-133.333333333333,4,2,0,40,0,0
52996,-133.333333333333,4,2,0,45,0,0
53824,-133.333333333333,4,2,0,40,0,0
54652,-100,4,2,0,40,0,0
55065,-66.6666666666667,4,2,0,40,0,0
55479,-100,4,2,0,45,0,0
57134,-100,4,2,0,40,0,0
57962,-100,4,2,0,45,0,0
58790,-100,4,2,0,50,0,0
60031,-50,4,2,0,40,0,0
60445,-100,4,2,0,50,0,1
70376,-200,4,2,0,40,0,0
70790,-133.333333333333,4,2,0,45,0,0
71203,-100,4,2,0,50,0,0
71617,-80,4,2,0,50,0,0
72031,-80,4,2,0,45,0,0
72859,-80,4,2,0,55,0,0
73686,-100,4,2,0,50,0,1
83617,-200,4,2,0,40,0,0
84031,-133.333333333333,4,2,0,45,0,0
84445,-100,4,2,0,50,0,0
84859,-80,4,2,0,55,0,0
85272,-80,4,2,0,50,0,0
86100,-80,4,2,0,55,0,0
86927,-200,4,2,0,45,0,1
87065,-200,4,2,0,40,0,0
92721,-200,4,2,0,35,0,0
93134,-50,4,2,0,45,0,0
93548,-50,4,2,0,50,0,0

[Colours]
Combo1 : 190,142,234
Combo2 : 244,132,171
Combo3 : 243,203,118
Combo4 : 247,233,138
Combo5 : 166,230,138
Combo6 : 129,222,239
Combo7 : 149,143,218

[HitObjects]
24,122,5824,5,2,0:0:0:0:
24,122,6238,1,2,0:0:0:0:
24,122,6652,2,0,L|109:106,1,60,4|4,0:3|0:3,0:0:0:0:
172,101,7065,6,0,P|113:96|58:67,2,120,8|8|4,0:3|0:3|0:3,0:0:0:0:
320,29,7479,5,4,0:0:0:0:
320,29,7893,1,0,1:0:0:0:
267,102,8169,1,0,0:0:0:0:
320,29,8307,2,0,P|362:45|417:37,1,90.0000034332277,4|4,0:3|0:3,0:0:0:0:
406,41,8721,2,0,P|448:57|503:49,1,90.0000034332277,0|0,1:0|0:0,0:0:0:0:
267,102,9134,5,4,0:3:0:0:
267,102,9548,1,0,1:0:0:0:
320,175,9824,1,0,0:0:0:0:
267,102,9962,2,0,P|225:118|170:110,1,90.0000034332277,4|4,0:3|0:3,0:0:0:0:
95,132,10376,2,0,P|140:135|182:119,1,90.0000034332277,0|0,1:0|0:0,0:0:0:0:
320,175,10790,5,4,0:3:0:0:
320,175,11203,1,0,1:1:0:0:
267,248,11479,1,0,0:0:0:0:
320,175,11617,2,0,P|362:191|417:183,1,90.0000034332277,4|4,0:3|0:3,0:0:0:0:
406,187,12031,2,0,P|447:202|492:199,1,90.0000034332277,0|0,1:0|0:0,0:0:0:0:
267,248,12445,5,4,0:3:0:0:
267,248,12859,1,0,1:0:0:0:
320,321,13134,1,4,0:0:0:0:
267,248,13272,6,0,L|182:264,1,60,4|4,0:3|0:3,0:0:0:0:
119,269,13686,6,0,P|178:274|233:303,2,120,8|8|4,0:3|0:3|0:3,0:0:0:0:
11,147,14100,5,4,0:0:0:0:
11,147,14514,1,0,1:0:0:0:
34,224,14790,1,2,0:0:0:0:
11,147,14927,2,0,P|55:144|92:121,1,90.0000034332277,4|4,0:3|0:3,0:0:0:0:
92,119,15341,2,0,P|137:116|175:93,1,90.0000034332277,0|0,1:0|0:0,0:0:0:0:
175,93,15755,2,0,P|230:90|291:33,1,135.000005149842,4|0,0:3|1:0,0:0:0:0:
408,162,16445,5,2,0:0:0:0:
364,85,16583,2,0,P|330:113|288:123,1,90.0000034332277,4|4,0:3|0:3,0:0:0:0:
212,167,16996,2,0,P|256:157|290:128,1,90.0000034332277,0|0,1:0|0:0,0:0:0:0:
210,162,17410,2,0,P|168:198|85:201,1,135.000005149842,4|0,0:3|1:0,0:0:0:0:
103,384,18100,5,2,0:0:0:0:
79,298,18238,2,0,P|123:295|160:272,1,90.0000034332277,4|4,0:3|0:3,0:0:0:0:
358,189,18652,2,0,P|320:212|276:216,1,90.0000034332277,0|0,1:0|0:0,0:0:0:0:
165,274,19065,2,0,P|230:266|278:220,1,135.000005149842,4|0,0:3|1:0,0:0:0:0:
423,115,19755,5,2,0:0:0:0:
419,121,19893,1,4,0:3:0:0:
317,81,20169,1,4,0:3:0:0:
304,108,20307,1,0,1:0:0:0:
212,55,20583,1,2,0:0:0:0:
194,143,20721,5,4,0:3:0:0:
194,143,21134,1,0,1:0:0:0:
123,71,21410,1,2,0:0:0:0:
194,143,21548,2,0,P|214:182|215:227,1,90.0000034332277,4|4,0:3|0:3,0:0:0:0:
215,227,21962,2,0,P|191:264|152:287,1,90.0000034332277,0|0,1:0|0:0,0:0:0:0:
152,287,22376,2,0,P|107:285|41:214,1,135.000005149842,4|0,0:3|1:0,0:0:0:0:
234,47,23065,5,2,0:0:0:0:
162,119,23203,2,0,P|141:158|140:203,1,90.0000034332277,4|4,0:3|0:3,0:0:0:0:
200,269,23617,2,0,P|162:246|138:208,1,90.0000034332277,0|0,1:0|0:0,0:0:0:0:
205,263,24031,2,0,P|249:261|316:190,1,135.000005149842,4|0,0:3|1:0,0:0:0:0:
139,35,24721,5,2,0:0:0:0:
211,90,24859,2,0,P|231:129|232:174,1,90.0000034332277,4|4,0:3|0:3,0:0:0:0:
142,323,25272,2,0,P|181:300|205:263,1,90.0000034332277,0|0,1:0|0:0,0:0:0:0:
147,193,25686,5,4,0:3:0:0:
135,189,25824,1,2,0:0:0:0:
123,185,25962,1,2,0:0:0:0:
99,155,26100,5,2,1:2:0:0:
87,159,26238,1,2,0:0:0:0:
75,163,26376,1,6,0:0:0:0:
48,190,26514,6,0,L|30:127,1,60,4|4,0:3|0:3,0:0:0:0:
55,38,26927,6,0,P|18:80|8:181,2,120,8|8|4,0:3|0:3|0:3,0:0:0:0:
242,72,27341,5,4,0:0:0:0:
242,72,27755,1,0,1:1:0:0:
300,1,28031,1,2,0:0:0:0:
242,72,28169,2,0,P|278:96|351:91,1,90.0000034332277,4|4,0:3|0:3,0:0:0:0:
323,100,28583,2,0,P|359:76|432:81,1,90.0000034332277,0|0,1:0|0:0,0:0:0:0:
404,71,28996,2,0,P|367:122|406:207,1,135.000005149842,4|0,0:3|1:0,0:0:0:0:
184,113,29686,5,2,0:0:0:0:
250,173,29824,2,0,P|214:197|141:192,1,90.0000034332277,4|4,0:3|0:3,0:0:0:0:
82,177,30238,2,0,P|126:180|163:205,1,90.0000034332277,0|0,1:0|0:0,0:0:0:0:
75,179,30652,2,0,P|112:229|73:314,1,135.000005149842,4|0,0:3|1:0,0:0:0:0:
333,201,31341,5,2,0:0:0:0:
267,262,31479,2,0,P|303:286|376:281,1,90.0000034332277,4|4,0:3|0:3,0:0:0:0:
469,257,31893,2,0,P|465:301|485:340,1,90.0000034332277,0|0,1:0|0:0,0:0:0:0:
353,284,32307,2,0,P|396:248|483:256,1,135.000005149842,4|0,0:3|1:0,0:0:0:0:
246,236,32996,5,2,0:0:0:0:
242,230,33134,1,4,0:3:0:0:
142,163,33410,1,4,0:3:0:0:
173,158,33548,1,0,1:0:0:0:
288,49,33824,1,2,0:0:0:0:
270,137,33962,5,4,0:3:0:0:
270,137,34376,1,0,1:0:0:0:
199,72,34652,1,2,0:0:0:0:
270,137,34790,2,0,P|316:134|360:101,1,90.0000034332277,4|4,0:3|0:3,0:0:0:0:
199,72,35203,1,0,1:0:0:0:
159,245,35479,5,2,0:0:0:0:
177,160,35617,2,0,P|152:122|113:101,1,90.0000034332277,4|0,0:3|0:0,0:0:0:0:
159,245,36031,1,0,1:0:0:0:
333,201,36307,5,2,0:0:0:0:
250,228,36445,2,0,P|229:267|231:311,1,90.0000034332277,4|4,0:3|0:3,0:0:0:0:
333,201,36859,1,0,1:0:0:0:
451,335,37134,5,2,0:0:0:0:
504,267,37272,2,0,P|459:271|418:254,1,90.0000034332277,4|0,0:3|0:0,0:0:0:0:
503,155,37686,2,0,P|460:169|416:163,1,90.0000034332277,0|0,1:0|0:0,0:0:0:0:
245,132,38100,6,0,P|289:135|330:118,1,90.0000034332277,4|4,0:3|0:3,0:0:0:0:
225,0,38514,2,0,P|273:30|332:27,1,120,0|0,1:0|0:0,0:0:0:0:
161,71,38927,6,0,P|60:80|45:214,1,180.000006866455,4|0,0:3|0:0,0:0:0:0:
245,132,39341,6,0,P|262:188|243:244,1,120,0|4,1:0|0:0,0:0:0:0:
116,155,39755,6,0,L|187:191,1,60,4|4,0:3|0:3,0:0:0:0:
75,265,40169,6,0,P|113:220|172:210,2,120,8|8|4,0:3|0:3|0:3,0:0:0:0:
248,332,40583,5,4,0:0:0:0:
248,332,40996,1,0,1:0:0:0:
288,249,41272,1,2,0:0:0:0:
248,332,41410,1,4,0:3:0:0:
364,305,41686,1,4,0:3:0:0:
338,329,41824,1,0,1:0:0:0:
428,363,42100,1,2,0:0:0:0:
413,374,42238,5,4,0:3:0:0:
413,374,42652,1,0,1:0:0:0:
428,363,42927,1,2,0:0:0:0:
413,374,43065,1,4,0:3:0:0:
364,305,43341,1,4,0:3:0:0:
338,329,43479,1,0,1:0:0:0:
288,249,43755,1,2,0:0:0:0:
248,332,43893,5,4,0:3:0:0:
248,332,44307,1,0,1:0:0:0:
288,249,44583,1,2,0:0:0:0:
248,332,44721,2,0,P|215:308|196:247,1,90.0000034332277,4|4,0:3|0:3,0:0:0:0:
111,223,45134,2,0,P|144:199|163:138,1,90.0000034332277,0|0,1:0|0:0,0:0:0:0:
119,313,45548,6,0,P|79:333|35:330,1,90.0000034332277,4|0,0:3|0:0,0:0:0:0:
196,263,45962,2,0,P|235:283|279:280,1,90.0000034332277,0|0,1:0|0:0,0:0:0:0:
111,223,46376,1,4,0:3:0:0:
162,154,46652,1,4,0:3:0:0:
111,223,46790,2,0,P|81:181|84:122,1,90.0000034332277,0|0,1:0|0:0,0:0:0:0:
223,87,47203,5,4,0:3:0:0:
223,87,47617,1,0,1:0:0:0:
308,104,47893,1,2,0:0:0:0:
223,87,48031,1,4,0:3:0:0:
287,193,48307,1,4,0:3:0:0:
254,203,48445,1,0,1:0:0:0:
294,296,48721,1,2,0:0:0:0:
279,291,48859,5,4,0:3:0:0:
279,291,49272,1,0,1:0:0:0:
294,296,49548,1,2,0:0:0:0:
279,291,49686,2,0,L|169:308,1,90.0000034332277,4|4,0:3|0:3,0:0:0:0:
287,193,50100,2,0,L|397:210,1,90.0000034332277,0|0,1:0|0:0,0:0:0:0:
222,86,50514,6,0,P|209:44|213:0,1,90.0000034332277,4|0,0:0|0:0,0:0:0:0:
287,193,50927,2,0,P|330:202|367:228,1,90.0000034332277,0|0,1:0|0:0,0:0:0:0:
163,198,51341,2,0,P|101:247|73:253,1,90.0000034332277,4|2,0:3|0:0,0:0:0:0:
242,364,51755,6,0,L|229:239,1,90.0000034332277,4|0,0:0|0:0,0:0:0:0:
91,249,52031,6,0,P|121:216|161:197,1,90.0000034332277,4|0,0:0|0:0,0:0:0:0:
232,274,52445,1,4,0:3:0:0:
367,228,52583,2,0,P|324:219|287:193,1,90.0000034332277,4|4,1:2|0:3,0:0:0:0:
222,86,52996,5,8,0:3:0:0:
220,72,53134,1,8,0:3:0:0:
219,58,53272,1,4,0:3:0:0:
218,44,53410,5,6,1:2:0:0:
193,126,53548,1,2,0:0:0:0:
276,106,53686,1,2,0:0:0:0:
302,24,53824,6,0,P|349:29|405:6,1,90.0000034332277,4|0,0:0|0:0,0:0:0:0:
325,176,54238,2,0,P|308:135|275:105,1,90.0000034332277,4|0,1:2|0:0,0:0:0:0:
460,71,54652,2,0,P|423:112|425:186,1,120,4|4,0:3|0:3,0:0:0:0:
325,176,55065,6,0,P|292:146|275:105,1,90.0000034332277,0|0,1:0|0:0,0:0:0:0:
302,24,55341,1,4,0:3:0:0:
215,38,55479,6,0,L|39:15,1,120,4|0,0:0|0:0,0:0:0:0:
34,72,55893,1,0,1:0:0:0:
186,123,56169,1,2,0:0:0:0:
135,183,56307,2,0,L|311:160,1,120,4|4,0:3|0:3,0:0:0:0:
316,217,56721,1,0,1:0:0:0:
168,278,56996,1,2,0:0:0:0:
199,286,57134,5,4,1:2:0:0:
209,300,57272,1,2,0:0:0:0:
220,314,57410,1,2,0:0:0:0:
254,318,57548,5,6,1:2:0:0:
264,332,57686,1,2,0:0:0:0:
275,346,57824,1,2,0:0:0:0:
308,350,57962,5,6,1:2:0:0:
387,340,58100,1,2,0:0:0:0:
432,274,58238,1,2,0:0:0:0:
410,254,58376,5,6,1:2:0:0:
394,151,58514,1,2,0:0:0:0:
313,108,58652,1,2,0:0:0:0:
298,82,58790,5,4,1:2:0:0:
18,286,59893,5,4,0:3:0:0:
114,281,60031,2,0,P|59:257|0:254,2,120,4|8|4,0:0|0:3|0:3,0:0:0:0:
214,191,60445,6,0,P|184:196|158:210,1,60,4|0,1:2|0:0,0:0:0:0:
295,201,60721,1,2,0:0:0:0:
266,119,60859,2,0,P|241:102|212:93,1,60,0|0,1:0|0:0,0:0:0:0:
316,183,61134,1,2,0:0:0:0:
351,106,61272,2,0,P|345:76|331:50,1,60,0|0,1:0|0:0,0:0:0:0:
341,186,61548,1,2,0:0:0:0:
423,156,61686,2,0,P|439:131|448:102,1,60,0|0,1:0|0:0,0:0:0:0:
359,205,61962,1,2,0:0:0:0:
440,239,62100,6,0,P|480:280|478:339,1,120,0|0,1:0|0:0,0:0:0:0:
370,290,62514,2,0,P|313:304|263:273,1,120,0|2,1:0|0:0,0:0:0:0:
359,205,62927,2,0,P|374:148|426:121,1,120,0|0,1:0|0:0,0:0:0:0:
440,239,63341,1,0,1:0:0:0:
225,225,63617,5,2,0:0:0:0:
303,186,63755,2,0,P|333:191|359:205,1,60,0|0,1:0|0:0,0:0:0:0:
222,196,64031,1,2,0:0:0:0:
251,114,64169,2,0,P|276:97|305:88,1,60,0|0,1:0|0:0,0:0:0:0:
201,178,64445,1,2,0:0:0:0:
166,101,64583,2,0,P|172:71|186:45,1,60,0|0,1:0|0:0,0:0:0:0:
176,181,64859,1,2,0:0:0:0:
94,151,64996,2,0,P|78:126|69:97,1,60,0|0,1:0|0:0,0:0:0:0:
158,200,65272,1,2,0:0:0:0:
77,234,65410,6,0,P|37:275|39:334,1,120,0|0,1:0|0:0,0:0:0:0:
114,304,65824,1,0,1:0:0:0:
274,212,66100,5,2,0:0:0:0:
311,142,66238,2,0,P|351:183|349:242,1,120,0|0,1:0|0:0,0:0:0:0:
274,212,66652,1,0,1:0:0:0:
132,106,66927,5,4,0:3:0:0:
95,36,67065,2,0,P|55:77|57:136,1,120,0|0,1:0|0:0,0:0:0:0:
132,106,67479,2,0,P|160:155|217:167,1,120,0|0,1:0|0:0,0:0:0:0:
209,89,67893,2,0,P|264:74|291:21,1,120,0|0,1:0|0:0,0:0:0:0:
213,10,68307,1,0,1:0:0:0:
366,127,68583,5,2,0:0:0:0:
408,193,68721,2,0,P|353:207|303:175,1,120,0|0,1:0|0:0,0:0:0:0:
366,127,69134,1,0,1:0:0:0:
268,284,69410,5,2,0:0:0:0:
226,350,69548,2,0,P|281:364|331:332,1,120,0|0,1:0|0:0,0:0:0:0:
268,284,69962,1,0,1:0:0:0:
493,350,70238,1,2,0:0:0:0:
421,309,70376,6,0,P|450:314|474:331,1,60,4|0,1:2|0:0,0:0:0:0:
360,237,70790,6,0,P|399:201|439:192,1,90.0000034332277,4|0,1:2|0:0,0:0:0:0:
272,202,71203,6,0,P|283:120|351:77,1,120,4|0,1:2|0:0,0:0:0:0:
192,258,71617,6,0,P|145:226|121:117,1,150,4|0,1:2|0:0,0:0:0:0:
204,357,72031,5,4,1:2:0:0:
221,354,72169,1,0,0:0:0:0:
238,351,72307,1,0,0:0:0:0:
258,323,72445,5,0,1:0:0:0:
275,321,72583,1,0,0:0:0:0:
292,318,72721,1,0,0:0:0:0:
311,290,72859,5,6,1:2:0:0:
339,216,72996,1,2,0:0:0:0:
302,145,73134,1,2,0:0:0:0:
274,155,73272,5,2,1:2:0:0:
380,135,73410,1,2,0:0:0:0:
413,33,73548,1,2,0:0:0:0:
435,43,73686,6,0,P|465:42|494:32,1,60,4|0,1:2|0:0,0:0:0:0:
466,133,73962,1,2,0:0:0:0:
380,135,74100,2,0,P|350:133|321:123,1,60,0|0,1:0|0:0,0:0:0:0:
368,223,74376,1,2,0:0:0:0:
454,225,74514,2,0,P|483:223|512:213,1,60,0|0,1:0|0:0,0:0:0:0:
465,313,74790,1,2,0:0:0:0:
379,315,74927,2,0,P|349:313|320:303,1,60,0|0,1:0|0:0,0:0:0:0:
159,291,75203,5,2,0:0:0:0:
194,366,75341,2,0,P|234:323|236:264,1,120,0|0,1:0|0:0,0:0:0:0:
121,106,75755,2,0,P|138:162|188:194,1,120,0|2,1:0|0:0,0:0:0:0:
381,172,76169,2,0,P|324:158|273:186,1,120,0|0,1:0|0:0,0:0:0:0:
236,264,76583,1,0,1:0:0:0:
207,104,76859,5,2,0:0:0:0:
121,106,76996,2,0,P|92:104|63:94,1,60,0|0,1:0|0:0,0:0:0:0:
90,195,77272,1,2,0:0:0:0:
176,197,77410,2,0,P|205:195|234:185,1,60,0|0,1:0|0:0,0:0:0:0:
188,285,77686,1,2,0:0:0:0:
102,287,77824,2,0,P|72:285|43:275,1,60,0|0,1:0|0:0,0:0:0:0:
91,375,78100,1,2,0:0:0:0:
177,377,78238,2,0,P|206:375|235:365,1,60,0|0,1:0|0:0,0:0:0:0:
360,273,78514,5,2,0:0:0:0:
322,200,78652,2,0,P|282:241|284:300,1,120,0|0,1:0|0:0,0:0:0:0:
360,273,79065,1,0,1:0:0:0:
114,218,79341,5,2,0:0:0:0:
152,145,79479,2,0,P|192:186|190:245,1,120,0|0,1:0|0:0,0:0:0:0:
114,218,79893,1,0,1:0:0:0:
332,105,80169,5,2,0:0:0:0:
294,32,80307,2,0,P|254:73|256:132,1,120,0|0,1:0|0:0,0:0:0:0:
332,105,80721,2,0,P|361:154|418:167,1,120,0|0,1:0|0:0,0:0:0:0:
409,89,81134,2,0,P|464:73|491:21,1,120,0|0,1:0|0:0,0:0:0:0:
414,10,81548,1,0,1:0:0:0:
256,132,81824,5,2,0:0:0:0:
300,199,81962,2,0,P|244:213|194:181,1,120,0|0,1:0|0:0,0:0:0:0:
256,132,82376,1,0,1:0:0:0:
449,242,82652,5,2,0:0:0:0:
405,309,82790,2,0,P|460:323|510:291,1,120,0|0,1:0|0:0,0:0:0:0:
449,242,83203,1,0,1:0:0:0:
248,317,83479,1,2,0:0:0:0:
328,344,83617,6,0,P|303:326|274:321,1,60,4|0,1:2|0:0,0:0:0:0:
130,288,84031,6,0,P|161:257|203:243,1,90.0000034332277,4|0,1:2|0:0,0:0:0:0:
364,193,84445,6,0,P|324:150|265:147,1,120,4|0,1:2|0:0,0:0:0:0:
72,136,84859,6,0,P|139:62|209:76,1,150,4|0,1:2|0:0,0:0:0:0:
203,243,85272,5,4,1:2:0:0:
206,226,85410,1,0,0:0:0:0:
209,209,85548,1,0,0:0:0:0:
237,189,85686,5,0,1:0:0:0:
239,172,85824,1,0,0:0:0:0:
242,155,85962,1,0,0:0:0:0:
270,136,86100,5,6,1:2:0:0:
339,179,86238,1,2,0:0:0:0:
414,145,86376,1,2,0:0:0:0:
440,159,86514,5,2,1:2:0:0:
399,264,86652,1,2,0:0:0:0:
285,267,86790,1,2,0:0:0:0:
276,296,86927,6,0,L|289:388,1,90,4|0,0:0|1:0,0:0:0:0:
122,236,87617,1,2,0:0:0:0:
201,227,87755,2,0,P|173:239|143:242,1,60,4|4,0:3|0:3,0:0:0:0:
69,128,88169,2,0,P|99:131|127:144,1,60,0|0,1:0|0:0,0:0:0:0:
220,130,88583,6,0,L|235:21,1,90,4|0,0:3|1:0,0:0:0:0:
408,70,89272,1,2,0:0:0:0:
329,87,89410,2,0,P|358:86|388:80,1,60,4|4,0:3|0:3,0:0:0:0:
465,178,89824,2,0,P|435:177|405:171,1,60,0|0,1:0|0:0,0:0:0:0:
368,282,90238,6,0,L|465:264,1,90,4|0,0:3|1:0,0:0:0:0:
268,274,90927,1,2,0:0:0:0:
299,203,91065,2,0,P|281:227|269:254,1,60,4|4,0:3|0:3,0:0:0:0:
180,203,91479,2,0,P|175:256|178:275,1,60,0|0,1:0|0:0,0:0:0:0:
218,359,91893,6,0,L|109:343,1,90,4|0,0:3|1:0,0:0:0:0:
47,179,92583,1,4,0:0:0:0:
29,261,92721,2,0,L|48:178,1,60,4|4,0:3|0:3,0:0:0:0:
143,235,93134,6,0,P|94:242|33:295,2,120,8|8|4,0:3|0:3|0:3,0:0:0:0:
131,128,93548,5,4,0:0:0:0:
