osu file format v14

[General]
AudioFilename: audio.mp3
AudioLeadIn: 0
PreviewTime: 59134
Countdown: 0
SampleSet: Soft
StackLeniency: 0.7
Mode: 0
LetterboxInBreaks: 0
WidescreenStoryboard: 1

[Editor]
Bookmarks: 807,7427,14048,40531,60393,73634,86875,93634,119979,139841,153082,166324,199427,212669,225910,239151
DistanceSpacing: 1.3
BeatDivisor: 3
GridSize: 32
TimelineZoom: 0.6999999

[Metadata]
Title:Miracle Sugite Yabai (feat. shully)
TitleUnicode:ミラクルすぎてヤバイ (feat. shully)
Artist:Hige Driver
ArtistUnicode:ヒゲドライバー
Creator:Milan-
Version:Easy
Source:
Tags:ピコピコロック!motoloid featured artist
BeatmapID:1442771
BeatmapSetID:682290

[Difficulty]
HPDrainRate:1
CircleSize:3
OverallDifficulty:2
ApproachRate:3
SliderMultiplier:0.7
SliderTickRate:1

[Events]
//Background and Video events
0,0,"Miracle_Sugite.jpg",0,0
//Break Periods
//Storyboard Layer 0 (Background)
//Storyboard Layer 1 (Fail)
//Storyboard Layer 2 (Pass)
//Storyboard Layer 3 (Foreground)
//Storyboard Sound Samples

[TimingPoints]
859,413.793103448276,4,2,0,45,1,0
6652,-100,4,2,0,40,0,0
7065,-100,4,2,0,50,0,0
7479,-100,4,2,0,45,0,0
13272,-100,4,2,0,40,0,0
13686,-100,4,2,0,50,0,0
14100,-100,4,2,0,45,0,0
26514,-100,4,2,0,40,0,0
26927,-100,4,2,0,50,0,0
27341,-100,4,2,0,45,0,0
39755,-100,4,2,0,40,0,0
40169,-100,4,2,0,50,0,0
40583,-100,4,2,0,45,0,0
50514,-100,4,2,0,40,0,0
51755,-100,4,2,0,50,0,0
52031,-100,4,2,0,40,0,0
52996,-100,4,2,0,45,0,0
53824,-100,4,2,0,40,0,0
55479,-100,4,2,0,45,0,0
57134,-100,4,2,0,40,0,0
57962,-100,4,2,0,45,0,0
58790,-100,4,2,0,50,0,0
60031,-100,4,2,0,40,0,0
60445,-100,4,2,0,50,0,1
65410,-100,4,2,0,50,0,1
70376,-100,4,2,0,40,0,0
70790,-100,4,2,0,45,0,0
71203,-100,4,2,0,50,0,0
71617,-100,4,2,0,50,0,0
72031,-100,4,2,0,45,0,0
72859,-100,4,2,0,55,0,0
73686,-100,4,2,0,50,0,1
78652,-100,4,2,0,50,0,1
83617,-100,4,2,0,40,0,0
84031,-100,4,2,0,45,0,0
84445,-100,4,2,0,50,0,0
84859,-100,4,2,0,55,0,0
85272,-100,4,2,0,50,0,0
86100,-100,4,2,0,55,0,0
86927,-100,4,2,0,45,0,1
87065,-100,4,2,0,40,0,0
92721,-100,4,2,0,35,0,0
93134,-100,4,2,0,45,0,0
93548,-100,4,2,0,50,0,0

[Colours]
Combo1 : 190,142,234
Combo2 : 244,132,171
Combo3 : 243,203,118
Combo4 : 247,233,138
Combo5 : 166,230,138
Combo6 : 129,222,239
Combo7 : 149,143,218

[HitObjects]
440,100,5824,6,0,L|291:77,1,140,2|4,0:0|0:3,0:0:0:0:
220,119,7065,1,8,0:3:0:0:
177,38,7479,6,0,P|129:101|138:161,1,140,4|4,0:0|0:3,0:0:0:0:
214,207,8721,1,0,1:0:0:0:
299,176,9134,2,0,P|346:239|337:299,1,140,4|4,0:3|0:3,0:0:0:0:
255,334,10376,1,0,1:0:0:0:
168,362,10790,6,0,L|11:344,1,140,4|4,0:3|0:3,0:0:0:0:
6,257,12031,1,0,1:0:0:0:
82,207,12445,1,4,0:3:0:0:
67,25,13272,6,0,L|-3:43,2,70,4|8|4,0:3|0:3|0:0,0:0:0:0:
157,34,14514,5,0,1:0:0:0:
190,118,14927,2,0,P|246:146|330:120,2,140,4|4|4,0:3|0:3|0:3,0:0:0:0:
99,111,16996,1,0,1:0:0:0:
29,170,17410,6,0,B|-22:237|18:306|18:306|44:304|95:274,1,210,4|0,0:3|1:0,0:0:0:0:
152,231,19065,2,0,B|185:210|211:208|211:208|251:277|200:344,1,210,4|0,0:3|1:0,0:0:0:0:
117,382,20721,6,0,L|33:363,1,70,4|0,0:3|1:0,0:0:0:0:
7,285,21548,2,0,L|61:218,1,70,4|0,0:3|1:0,0:0:0:0:
17,145,22376,2,0,L|154:111,1,140,4|4,0:3|0:3,0:0:0:0:
217,46,23617,1,0,1:0:0:0:
307,42,24031,6,0,L|444:76,1,140,4|4,0:3|0:3,0:0:0:0:
465,163,25272,1,0,1:0:0:0:
382,202,25686,1,4,0:3:0:0:
459,366,26514,6,0,L|531:337,2,70,4|8|4,0:3|0:3|0:0,0:0:0:0:
376,326,27755,5,0,1:1:0:0:
293,364,28169,2,0,P|226:381|164:352,2,140,4|4|4,0:3|0:3|0:3,0:0:0:0:
299,273,30238,1,0,1:0:0:0:
228,214,30652,6,0,B|200:160|229:114|229:114|178:121|140:67,1,210,4|0,0:3|1:0,0:0:0:0:
73,130,32307,2,0,P|85:197|141:241,1,140,4|4,0:3|0:3,0:0:0:0:
228,214,33548,1,0,1:0:0:0:
316,237,33962,6,0,P|371:196|442:201,1,140,4|4,0:3|0:3,0:0:0:0:
496,271,35203,1,0,1:0:0:0:
461,355,35617,2,0,L|380:342,1,70,4|0,0:3|1:0,0:0:0:0:
320,287,36445,2,0,L|239:300,1,70,4|0,0:3|1:0,0:0:0:0:
198,372,37272,6,0,L|44:346,1,140,4|4,0:3|0:3,0:0:0:0:
36,260,38514,1,0,1:0:0:0:
117,219,38927,1,4,0:3:0:0:
91,131,39341,1,0,1:0:0:0:
170,87,39755,6,0,L|154:0,2,70,4|8|4,0:3|0:3|0:0,0:0:0:0:
350,60,41410,6,0,L|439:42,1,70,4|0,0:3|1:0,0:0:0:0:
438,134,42238,2,0,L|369:147,1,70,4|0,0:3|1:0,0:0:0:0:
398,234,43065,2,0,L|487:216,1,70,4|0,0:3|1:0,0:0:0:0:
507,301,43893,6,0,P|463:343|377:342,1,140,4|4,0:3|0:3,0:0:0:0:
304,308,45134,1,0,1:0:0:0:
223,351,45548,1,4,0:3:0:0:
304,188,46376,1,4,0:3:0:0:
170,62,47203,6,0,L|81:44,1,70,4|0,0:3|1:0,0:0:0:0:
74,134,48031,2,0,L|142:147,1,70,4|0,0:3|1:0,0:0:0:0:
114,234,48859,2,0,L|25:216,1,70,4|0,0:3|1:0,0:0:0:0:
5,301,49686,2,0,P|49:343|82:354,1,70,4|0,0:3|1:0,0:0:0:0:
142,317,50514,5,4,0:0:0:0:
229,340,50927,1,0,1:0:0:0:
316,364,51341,2,0,L|446:339,1,116.666666666667,4|4,0:3|0:0,0:0:0:0:
400,255,52445,2,0,B|319:273|319:273|232:235,1,163.333333333333,4|6,0:3|1:2,0:0:0:0:
158,269,53824,5,4,0:0:0:0:
134,181,54238,1,4,1:2:0:0:
111,92,54652,2,0,P|159:35|228:33,1,140,4|4,0:3|0:0,0:0:0:0:
256,192,55893,12,4,58790,1:2:0:0:
421,238,60445,6,0,P|441:209|454:177,1,70,4|0,1:2|1:0,0:0:0:0:
403,101,61272,2,0,P|368:97|333:102,1,70,0|0,1:0|1:0,0:0:0:0:
295,185,62100,2,0,P|309:216|330:244,1,70,0|0,1:0|1:0,0:0:0:0:
379,321,62927,1,0,1:0:0:0:
222,227,63755,6,0,P|193:247|161:260,1,70,0|0,1:0|1:0,0:0:0:0:
85,209,64583,2,0,P|81:174|86:139,1,70,0|0,1:0|1:0,0:0:0:0:
150,75,65410,2,0,P|204:80|258:151,1,140,0|0,1:0|1:0,0:0:0:0:
222,227,66652,1,0,1:0:0:0:
300,272,67065,6,0,P|354:267|408:196,1,140,0|0,1:0|1:0,0:0:0:0:
488,164,68307,1,0,1:0:0:0:
414,110,68721,2,0,L|417:29,1,70,0|0,1:0|1:0,0:0:0:0:
328,16,69548,2,0,L|325:85,1,70,0|0,1:0|1:0,0:0:0:0:
244,127,70376,5,4,1:2:0:0:
153,118,70790,1,4,1:2:0:0:
96,188,71203,1,4,1:2:0:0:
6,179,71617,1,4,1:2:0:0:
42,262,72031,2,0,B|139:310|154:218|251:271,1,210,4|2,1:2|1:2,0:0:0:0:
330,244,73686,6,0,P|350:215|363:183,1,70,4|0,1:2|1:0,0:0:0:0:
451,159,74514,2,0,P|465:190|486:218,1,70,0|0,1:0|1:0,0:0:0:0:
464,306,75341,2,0,P|429:302|394:307,1,70,0|0,1:0|1:0,0:0:0:0:
307,334,76169,1,0,1:0:0:0:
156,231,76996,6,0,P|135:202|122:170,1,70,0|0,1:0|1:0,0:0:0:0:
35,146,77824,2,0,P|20:177|0:205,1,70,0|0,1:0|1:0,0:0:0:0:
5,296,78652,2,0,P|66:283|138:328,1,140,0|0,1:0|1:0,0:0:0:0:
220,299,79893,1,0,1:0:0:0:
298,345,80307,6,0,P|359:358|431:313,1,140,0|0,1:0|1:0,0:0:0:0:
472,244,81548,1,0,1:0:0:0:
410,176,81962,2,0,L|327:192,1,70,0|0,1:0|1:0,0:0:0:0:
256,224,82790,2,0,L|173:208,1,70,0|0,1:0|1:0,0:0:0:0:
104,248,83617,5,4,1:2:0:0:
62,166,84031,1,4,1:2:0:0:
129,105,84445,1,4,1:2:0:0:
134,14,84859,1,4,1:2:0:0:
210,63,85272,2,0,B|234:115|200:169|200:169|248:163|295:207,1,210,4|2,1:2|1:2,0:0:0:0:
216,256,86927,5,4,0:0:0:0:
381,179,87755,1,4,0:3:0:0:
434,353,88583,2,0,P|361:366|293:331,1,140,4|4,0:3|0:3,0:0:0:0:
306,249,89824,1,0,1:0:0:0:
269,165,90238,5,4,0:3:0:0:
104,88,91065,1,4,0:3:0:0:
51,262,91893,1,4,0:3:0:0:
216,337,92721,2,0,L|299:352,2,70,4|8|4,0:3|0:3|0:0,0:0:0:0:
