osu file format v14

[General]
AudioFilename: audio.mp3
AudioLeadIn: 0
PreviewTime: -1
Countdown: 1
SampleSet: Soft
StackLeniency: 0.7
Mode: 3
LetterboxInBreaks: 0
SpecialStyle: 0
WidescreenStoryboard: 0

[Editor]
DistanceSpacing: 0.8
BeatDivisor: 6
GridSize: 16
TimelineZoom: 1

[Metadata]
Title:Miracle Sugite Yabai (feat. shully)
TitleUnicode:ミラクルすぎてヤバイ (feat. shully)
Artist:Hige Driver
ArtistUnicode:ヒゲドライバー
Creator:HybridLiam
Version:Miracle
Source:
Tags:Motoloid
BeatmapID:1479683
BeatmapSetID:698672

[Difficulty]
HPDrainRate:8
CircleSize:5
OverallDifficulty:8
ApproachRate:5
SliderMultiplier:1.4
SliderTickRate:1

[Events]
//Background and Video events
0,0,"Background.jpg",0,0
//Break Periods
//Storyboard Layer 0 (Background)
//Storyboard Layer 1 (Fail)
//Storyboard Layer 2 (Pass)
//Storyboard Layer 3 (Foreground)
//Storyboard Sound Samples

[TimingPoints]
819,413.793103448276,4,2,0,100,1,0
60405,413.793103448276,4,2,0,100,1,1
83577,413.793103448276,4,2,0,100,1,0
139852,413.793103448276,4,2,0,100,1,1
163024,413.793103448276,4,2,0,100,1,0
199437,413.793103448276,4,2,0,100,1,1
209368,413.793103448276,4,2,0,100,1,0
212678,413.793103448276,4,2,0,100,1,1
222609,413.793103448276,4,2,0,100,1,0

[HitObjects]
51,192,819,128,0,1094:0:0:0:0:
153,192,1094,128,0,1232:0:0:0:0:
256,192,1232,128,0,1508:0:0:0:0:
358,192,1508,128,0,2336:0:0:0:0:
51,192,2474,128,0,2750:0:0:0:0:
153,192,2750,128,0,2887:0:0:0:0:
256,192,2887,128,0,3163:0:0:0:0:
460,192,3163,128,0,3991:0:0:0:0:
51,192,4129,128,0,4405:0:0:0:0:
153,192,4405,128,0,4543:0:0:0:0:
256,192,4543,128,0,4819:0:0:0:0:
358,192,4819,128,0,5646:0:0:0:0:
51,192,5784,128,0,6060:0:0:0:0:
460,192,5784,1,0,0:0:0:0:
153,192,6060,128,0,6198:0:0:0:0:
256,192,6198,128,0,6474:0:0:0:0:
460,192,6198,1,0,0:0:0:0:
358,192,6439,1,0,0:0:0:0:
460,192,6474,128,0,6887:0:0:0:0:
51,192,6612,1,0,0:0:0:0:
358,192,6887,128,0,7025:0:0:0:0:
51,192,6887,1,0,0:0:0:0:
256,192,7025,128,0,7301:0:0:0:0:
153,192,7025,1,0,0:0:0:0:
460,192,7163,1,0,0:0:0:0:
51,192,7163,1,0,0:0:0:0:
153,192,7301,128,0,7439:0:0:0:0:
358,192,7301,1,0,0:0:0:0:
51,192,7439,1,0,0:0:0:0:
460,192,7439,128,0,7715:0:0:0:0:
358,192,7715,128,0,7853:0:0:0:0:
153,192,7853,1,0,0:0:0:0:
51,192,7853,1,0,0:0:0:0:
256,192,7853,128,0,8129:0:0:0:0:
153,192,8129,1,0,0:0:0:0:
358,192,8129,128,0,8956:0:0:0:0:
51,192,8267,1,0,0:0:0:0:
153,192,8543,1,0,0:0:0:0:
51,192,8681,1,0,0:0:0:0:
153,192,8956,1,0,0:0:0:0:
460,192,9094,1,0,0:0:0:0:
51,192,9094,128,0,9370:0:0:0:0:
153,192,9370,128,0,9508:0:0:0:0:
358,192,9508,1,0,0:0:0:0:
460,192,9508,1,0,0:0:0:0:
256,192,9508,128,0,9784:0:0:0:0:
358,192,9784,1,0,0:0:0:0:
153,192,9784,128,0,10750:0:0:0:0:
460,192,9922,1,0,0:0:0:0:
358,192,10198,1,0,0:0:0:0:
460,192,10336,1,0,0:0:0:0:
358,192,10612,1,0,0:0:0:0:
51,192,10750,1,0,0:0:0:0:
460,192,10750,128,0,11025:0:0:0:0:
358,192,11025,128,0,11163:0:0:0:0:
153,192,11163,1,0,0:0:0:0:
51,192,11163,1,0,0:0:0:0:
256,192,11163,128,0,11439:0:0:0:0:
153,192,11439,1,0,0:0:0:0:
358,192,11439,128,0,12267:0:0:0:0:
51,192,11577,1,0,0:0:0:0:
153,192,11853,1,0,0:0:0:0:
51,192,11991,1,0,0:0:0:0:
153,192,12267,1,0,0:0:0:0:
460,192,12405,1,0,0:0:0:0:
51,192,12405,128,0,12681:0:0:0:0:
153,192,12681,128,0,12819:0:0:0:0:
358,192,12819,1,0,0:0:0:0:
460,192,12819,1,0,0:0:0:0:
256,192,12819,128,0,13094:0:0:0:0:
358,192,13094,1,0,0:0:0:0:
51,192,13094,128,0,13508:0:0:0:0:
460,192,13232,1,0,0:0:0:0:
153,192,13508,128,0,13646:0:0:0:0:
358,192,13508,1,0,0:0:0:0:
256,192,13646,128,0,13922:0:0:0:0:
358,192,13646,1,0,0:0:0:0:
460,192,13646,1,0,0:0:0:0:
51,192,13784,1,0,0:0:0:0:
153,192,13784,1,0,0:0:0:0:
358,192,13922,128,0,14060:0:0:0:0:
460,192,13922,1,0,0:0:0:0:
51,192,14060,1,0,0:0:0:0:
153,192,14060,1,0,0:0:0:0:
51,192,14474,1,0,0:0:0:0:
460,192,14474,1,0,0:0:0:0:
256,192,14474,1,0,0:0:0:0:
460,192,14750,1,0,0:0:0:0:
358,192,14887,128,0,15163:0:0:0:0:
51,192,14887,1,0,0:0:0:0:
256,192,15163,128,0,15301:0:0:0:0:
51,192,15163,1,0,0:0:0:0:
153,192,15301,128,0,15577:0:0:0:0:
256,192,15577,1,0,0:0:0:0:
358,192,15715,128,0,16129:0:0:0:0:
51,192,15715,1,0,0:0:0:0:
256,192,16129,1,0,0:0:0:0:
460,192,16129,1,0,0:0:0:0:
51,192,16129,128,0,16405:0:0:0:0:
153,192,16405,128,0,16819:0:0:0:0:
460,192,16543,1,0,0:0:0:0:
256,192,16819,128,0,17232:0:0:0:0:
460,192,16819,1,0,0:0:0:0:
51,192,16956,1,0,0:0:0:0:
153,192,16956,1,0,0:0:0:0:
358,192,17232,128,0,18474:0:0:0:0:
51,192,17370,1,0,0:0:0:0:
460,192,17370,1,0,0:0:0:0:
51,192,17784,1,0,0:0:0:0:
256,192,17784,1,0,0:0:0:0:
460,192,17784,1,0,0:0:0:0:
460,192,18060,1,0,0:0:0:0:
51,192,18198,1,0,0:0:0:0:
153,192,18198,1,0,0:0:0:0:
153,192,18474,128,0,18612:0:0:0:0:
51,192,18474,1,0,0:0:0:0:
256,192,18612,128,0,18887:0:0:0:0:
460,192,18887,128,0,20267:0:0:0:0:
51,192,19025,1,0,0:0:0:0:
358,192,19025,1,0,0:0:0:0:
51,192,19439,1,0,0:0:0:0:
256,192,19439,1,0,0:0:0:0:
358,192,19439,1,0,0:0:0:0:
51,192,19715,1,0,0:0:0:0:
358,192,19853,1,0,0:0:0:0:
51,192,20129,1,0,0:0:0:0:
153,192,20267,1,0,0:0:0:0:
256,192,20267,1,0,0:0:0:0:
358,192,20267,128,0,20543:0:0:0:0:
153,192,20543,128,0,20681:0:0:0:0:
51,192,20681,128,0,22198:0:0:0:0:
460,192,20681,1,0,0:0:0:0:
256,192,20681,1,0,0:0:0:0:
256,192,21094,1,0,0:0:0:0:
358,192,21094,1,0,0:0:0:0:
460,192,21094,1,0,0:0:0:0:
153,192,21370,1,0,0:0:0:0:
460,192,21508,1,0,0:0:0:0:
460,192,21784,1,0,0:0:0:0:
358,192,21922,1,0,0:0:0:0:
256,192,21922,1,0,0:0:0:0:
153,192,21922,1,0,0:0:0:0:
358,192,22198,1,0,0:0:0:0:
460,192,22336,128,0,23853:0:0:0:0:
153,192,22336,1,0,0:0:0:0:
256,192,22750,1,0,0:0:0:0:
153,192,22750,1,0,0:0:0:0:
51,192,22750,1,0,0:0:0:0:
358,192,23025,1,0,0:0:0:0:
51,192,23163,1,0,0:0:0:0:
51,192,23439,1,0,0:0:0:0:
153,192,23577,1,0,0:0:0:0:
256,192,23577,1,0,0:0:0:0:
358,192,23577,1,0,0:0:0:0:
256,192,23991,128,0,27163:0:0:0:0:
358,192,23991,128,0,24267:0:0:0:0:
51,192,23991,1,0,0:0:0:0:
460,192,24405,128,0,24681:0:0:0:0:
153,192,24405,1,0,0:0:0:0:
51,192,24405,1,0,0:0:0:0:
51,192,24681,1,0,0:0:0:0:
358,192,24819,128,0,25094:0:0:0:0:
153,192,24819,1,0,0:0:0:0:
153,192,25094,1,0,0:0:0:0:
460,192,25232,128,0,25508:0:0:0:0:
51,192,25232,1,0,0:0:0:0:
358,192,25508,1,0,0:0:0:0:
51,192,25646,128,0,25922:0:0:0:0:
153,192,25646,1,0,0:0:0:0:
460,192,25784,1,0,0:0:0:0:
358,192,25922,1,0,0:0:0:0:
153,192,26060,128,0,26336:0:0:0:0:
460,192,26060,1,0,0:0:0:0:
51,192,26198,1,0,0:0:0:0:
358,192,26336,1,0,0:0:0:0:
51,192,26474,128,0,26750:0:0:0:0:
460,192,26474,1,0,0:0:0:0:
358,192,26612,1,0,0:0:0:0:
153,192,26750,1,0,0:0:0:0:
358,192,26887,1,0,0:0:0:0:
460,192,26887,1,0,0:0:0:0:
153,192,27025,1,0,0:0:0:0:
51,192,27025,1,0,0:0:0:0:
358,192,27163,1,0,0:0:0:0:
460,192,27163,1,0,0:0:0:0:
51,192,27301,128,0,27577:0:0:0:0:
153,192,27301,1,0,0:0:0:0:
153,192,27577,128,0,27715:0:0:0:0:
460,192,27715,128,0,27991:0:0:0:0:
256,192,27715,1,0,0:0:0:0:
358,192,27715,1,0,0:0:0:0:
358,192,27991,128,0,28129:0:0:0:0:
256,192,28129,128,0,28405:0:0:0:0:
51,192,28129,1,0,0:0:0:0:
51,192,28405,128,0,28543:0:0:0:0:
153,192,28543,128,0,28819:0:0:0:0:
460,192,28543,1,0,0:0:0:0:
358,192,28543,1,0,0:0:0:0:
358,192,28819,128,0,28956:0:0:0:0:
256,192,28819,1,0,0:0:0:0:
460,192,28956,128,0,29232:0:0:0:0:
51,192,28956,1,0,0:0:0:0:
153,192,29232,128,0,29370:0:0:0:0:
51,192,29370,128,0,29646:0:0:0:0:
256,192,29370,1,0,0:0:0:0:
358,192,29370,1,0,0:0:0:0:
153,192,29646,128,0,29784:0:0:0:0:
256,192,29784,128,0,30060:0:0:0:0:
460,192,29784,1,0,0:0:0:0:
460,192,30060,128,0,30198:0:0:0:0:
51,192,30060,1,0,0:0:0:0:
358,192,30198,128,0,30474:0:0:0:0:
153,192,30198,1,0,0:0:0:0:
256,192,30198,1,0,0:0:0:0:
153,192,30474,128,0,30612:0:0:0:0:
460,192,30474,1,0,0:0:0:0:
51,192,30612,128,0,30750:0:0:0:0:
358,192,30612,1,0,0:0:0:0:
153,192,30750,128,0,30887:0:0:0:0:
256,192,30887,128,0,31025:0:0:0:0:
358,192,31025,128,0,31301:0:0:0:0:
51,192,31025,1,0,0:0:0:0:
51,192,31301,128,0,31439:0:0:0:0:
256,192,31301,1,0,0:0:0:0:
460,192,31439,128,0,31577:0:0:0:0:
153,192,31439,1,0,0:0:0:0:
358,192,31577,128,0,31715:0:0:0:0:
256,192,31715,128,0,31853:0:0:0:0:
153,192,31715,1,0,0:0:0:0:
358,192,31853,128,0,31991:0:0:0:0:
51,192,31853,1,0,0:0:0:0:
460,192,31853,1,0,0:0:0:0:
256,192,31991,128,0,32129:0:0:0:0:
153,192,32129,128,0,32267:0:0:0:0:
51,192,32267,128,0,32543:0:0:0:0:
358,192,32267,1,0,0:0:0:0:
460,192,32267,1,0,0:0:0:0:
153,192,32543,128,0,32681:0:0:0:0:
460,192,32543,1,0,0:0:0:0:
256,192,32681,128,0,32956:0:0:0:0:
358,192,32681,1,0,0:0:0:0:
358,192,32922,128,0,33370:0:0:0:0:
460,192,32956,128,0,33370:0:0:0:0:
51,192,33094,1,0,0:0:0:0:
256,192,33370,128,0,33508:0:0:0:0:
51,192,33370,1,0,0:0:0:0:
153,192,33508,128,0,33784:0:0:0:0:
460,192,33508,1,0,0:0:0:0:
460,192,33784,128,0,33922:0:0:0:0:
51,192,33922,1,0,0:0:0:0:
256,192,33922,1,0,0:0:0:0:
153,192,34060,1,0,0:0:0:0:
358,192,34198,1,0,0:0:0:0:
153,192,34336,1,0,0:0:0:0:
51,192,34336,1,0,0:0:0:0:
460,192,34336,1,0,0:0:0:0:
256,192,34474,1,0,0:0:0:0:
358,192,34612,1,0,0:0:0:0:
460,192,34750,1,0,0:0:0:0:
256,192,34750,1,0,0:0:0:0:
358,192,34887,1,0,0:0:0:0:
153,192,35025,1,0,0:0:0:0:
256,192,35025,1,0,0:0:0:0:
358,192,35163,1,0,0:0:0:0:
51,192,35163,1,0,0:0:0:0:
460,192,35163,1,0,0:0:0:0:
256,192,35301,1,0,0:0:0:0:
153,192,35439,1,0,0:0:0:0:
51,192,35577,1,0,0:0:0:0:
460,192,35577,1,0,0:0:0:0:
358,192,35715,1,0,0:0:0:0:
460,192,35853,1,0,0:0:0:0:
51,192,35991,1,0,0:0:0:0:
256,192,35991,1,0,0:0:0:0:
358,192,35991,1,0,0:0:0:0:
153,192,36129,1,0,0:0:0:0:
256,192,36267,1,0,0:0:0:0:
460,192,36405,1,0,0:0:0:0:
358,192,36405,1,0,0:0:0:0:
153,192,36543,1,0,0:0:0:0:
51,192,36681,1,0,0:0:0:0:
358,192,36681,1,0,0:0:0:0:
460,192,36819,1,0,0:0:0:0:
153,192,36819,1,0,0:0:0:0:
256,192,36819,1,0,0:0:0:0:
358,192,36956,1,0,0:0:0:0:
256,192,37094,1,0,0:0:0:0:
51,192,37232,128,0,37508:0:0:0:0:
153,192,37232,1,0,0:0:0:0:
153,192,37508,128,0,37646:0:0:0:0:
460,192,37646,128,0,37922:0:0:0:0:
256,192,37646,1,0,0:0:0:0:
358,192,37646,1,0,0:0:0:0:
358,192,37922,128,0,38060:0:0:0:0:
256,192,38060,128,0,38336:0:0:0:0:
51,192,38060,1,0,0:0:0:0:
51,192,38336,128,0,38474:0:0:0:0:
460,192,38474,1,0,0:0:0:0:
358,192,38474,1,0,0:0:0:0:
153,192,38474,128,0,38887:0:0:0:0:
51,192,38887,128,0,39301:0:0:0:0:
256,192,38887,1,0,0:0:0:0:
153,192,39301,128,0,39715:0:0:0:0:
460,192,39301,1,0,0:0:0:0:
358,192,39301,1,0,0:0:0:0:
460,192,39577,128,0,40543:0:0:0:0:
51,192,39715,128,0,40129:0:0:0:0:
256,192,39715,1,0,0:0:0:0:
256,192,39991,1,0,0:0:0:0:
153,192,40129,1,0,0:0:0:0:
358,192,40129,1,0,0:0:0:0:
51,192,40267,1,0,0:0:0:0:
256,192,40267,1,0,0:0:0:0:
153,192,40405,1,0,0:0:0:0:
358,192,40405,1,0,0:0:0:0:
51,192,40543,128,0,41232:0:0:0:0:
460,192,40956,1,0,0:0:0:0:
358,192,40956,1,0,0:0:0:0:
153,192,41232,1,0,0:0:0:0:
460,192,41232,1,0,0:0:0:0:
51,192,41370,128,0,41646:0:0:0:0:
358,192,41370,1,0,0:0:0:0:
153,192,41646,1,0,0:0:0:0:
358,192,41646,1,0,0:0:0:0:
51,192,41784,128,0,42060:0:0:0:0:
460,192,41784,1,0,0:0:0:0:
256,192,41784,1,0,0:0:0:0:
358,192,42198,128,0,42887:0:0:0:0:
153,192,42612,1,0,0:0:0:0:
51,192,42612,1,0,0:0:0:0:
460,192,42887,1,0,0:0:0:0:
153,192,42887,1,0,0:0:0:0:
358,192,43025,128,0,43301:0:0:0:0:
51,192,43025,1,0,0:0:0:0:
256,192,43301,1,0,0:0:0:0:
460,192,43439,128,0,43715:0:0:0:0:
153,192,43439,1,0,0:0:0:0:
51,192,43439,1,0,0:0:0:0:
256,192,43853,128,0,44543:0:0:0:0:
51,192,44267,1,0,0:0:0:0:
460,192,44267,1,0,0:0:0:0:
153,192,44543,1,0,0:0:0:0:
358,192,44543,1,0,0:0:0:0:
256,192,44681,128,0,44956:0:0:0:0:
460,192,44681,1,0,0:0:0:0:
153,192,44956,1,0,0:0:0:0:
358,192,44956,1,0,0:0:0:0:
256,192,45094,128,0,45370:0:0:0:0:
51,192,45094,1,0,0:0:0:0:
460,192,45094,1,0,0:0:0:0:
51,192,45508,128,0,45784:0:0:0:0:
256,192,45784,1,0,0:0:0:0:
153,192,45922,128,0,46198:0:0:0:0:
358,192,45922,1,0,0:0:0:0:
460,192,45922,1,0,0:0:0:0:
358,192,46198,1,0,0:0:0:0:
51,192,46198,1,0,0:0:0:0:
256,192,46336,128,0,46612:0:0:0:0:
460,192,46336,1,0,0:0:0:0:
460,192,46612,1,0,0:0:0:0:
51,192,46612,1,0,0:0:0:0:
358,192,46750,128,0,47025:0:0:0:0:
153,192,46750,1,0,0:0:0:0:
51,192,47025,1,0,0:0:0:0:
460,192,47163,128,0,47853:0:0:0:0:
51,192,47577,1,0,0:0:0:0:
358,192,47577,1,0,0:0:0:0:
256,192,47853,1,0,0:0:0:0:
358,192,47853,1,0,0:0:0:0:
51,192,47991,128,0,48267:0:0:0:0:
153,192,47991,1,0,0:0:0:0:
460,192,48267,1,0,0:0:0:0:
256,192,48267,1,0,0:0:0:0:
358,192,48405,128,0,48681:0:0:0:0:
153,192,48405,1,0,0:0:0:0:
460,192,48681,128,0,48819:0:0:0:0:
51,192,48819,128,0,49094:0:0:0:0:
153,192,49094,1,0,0:0:0:0:
51,192,49232,128,0,49508:0:0:0:0:
358,192,49232,1,0,0:0:0:0:
460,192,49232,1,0,0:0:0:0:
153,192,49508,1,0,0:0:0:0:
460,192,49508,1,0,0:0:0:0:
256,192,49646,128,0,49922:0:0:0:0:
358,192,49646,1,0,0:0:0:0:
153,192,49922,1,0,0:0:0:0:
358,192,49922,1,0,0:0:0:0:
51,192,50060,128,0,50336:0:0:0:0:
460,192,50060,1,0,0:0:0:0:
153,192,50336,1,0,0:0:0:0:
256,192,50474,1,0,0:0:0:0:
358,192,50474,1,0,0:0:0:0:
460,192,50474,1,0,0:0:0:0:
51,192,50474,1,0,0:0:0:0:
153,192,50887,1,0,0:0:0:0:
256,192,50887,1,0,0:0:0:0:
358,192,50887,1,0,0:0:0:0:
460,192,50887,1,0,0:0:0:0:
51,192,51301,1,0,0:0:0:0:
153,192,51301,1,0,0:0:0:0:
256,192,51301,1,0,0:0:0:0:
460,192,51301,1,0,0:0:0:0:
460,192,51577,1,0,0:0:0:0:
51,192,51715,1,0,0:0:0:0:
153,192,51715,1,0,0:0:0:0:
358,192,51715,1,0,0:0:0:0:
256,192,51715,128,0,51991:0:0:0:0:
51,192,51991,1,0,0:0:0:0:
153,192,51991,1,0,0:0:0:0:
358,192,51991,1,0,0:0:0:0:
460,192,51991,1,0,0:0:0:0:
153,192,52405,1,0,0:0:0:0:
256,192,52405,1,0,0:0:0:0:
358,192,52405,1,0,0:0:0:0:
460,192,52405,1,0,0:0:0:0:
51,192,52543,128,0,52819:0:0:0:0:
256,192,52819,1,0,0:0:0:0:
358,192,52819,1,0,0:0:0:0:
153,192,52819,1,0,0:0:0:0:
51,192,52956,1,0,0:0:0:0:
460,192,53025,1,0,0:0:0:0:
153,192,53094,1,0,0:0:0:0:
358,192,53163,1,0,0:0:0:0:
51,192,53232,1,0,0:0:0:0:
460,192,53301,1,0,0:0:0:0:
153,192,53370,1,0,0:0:0:0:
358,192,53439,1,0,0:0:0:0:
51,192,53508,1,0,0:0:0:0:
460,192,53577,1,0,0:0:0:0:
153,192,53646,1,0,0:0:0:0:
358,192,53715,1,0,0:0:0:0:
153,192,53784,1,0,0:0:0:0:
256,192,53784,1,0,0:0:0:0:
51,192,53784,1,0,0:0:0:0:
460,192,53784,1,0,0:0:0:0:
51,192,54198,1,0,0:0:0:0:
256,192,54198,1,0,0:0:0:0:
358,192,54198,1,0,0:0:0:0:
460,192,54198,1,0,0:0:0:0:
153,192,54612,1,0,0:0:0:0:
51,192,54612,1,0,0:0:0:0:
358,192,54612,1,0,0:0:0:0:
460,192,54612,1,0,0:0:0:0:
256,192,54750,1,0,0:0:0:0:
460,192,54750,128,0,54887:0:0:0:0:
153,192,54887,1,0,0:0:0:0:
358,192,54887,128,0,55025:0:0:0:0:
51,192,55025,128,0,55163:0:0:0:0:
256,192,55025,1,0,0:0:0:0:
153,192,55163,128,0,55301:0:0:0:0:
358,192,55163,1,0,0:0:0:0:
460,192,55301,128,0,55439:0:0:0:0:
256,192,55301,1,0,0:0:0:0:
358,192,55439,128,0,56543:0:0:0:0:
51,192,55439,1,0,0:0:0:0:
51,192,55853,1,0,0:0:0:0:
460,192,55853,1,0,0:0:0:0:
51,192,56267,1,0,0:0:0:0:
256,192,56543,128,0,56681:0:0:0:0:
51,192,56543,1,0,0:0:0:0:
460,192,56681,1,0,0:0:0:0:
153,192,56681,128,0,56956:0:0:0:0:
358,192,56681,1,0,0:0:0:0:
460,192,56956,1,0,0:0:0:0:
51,192,56956,1,0,0:0:0:0:
358,192,57025,1,0,0:0:0:0:
256,192,57094,128,0,58750:0:0:0:0:
153,192,57094,1,0,0:0:0:0:
460,192,57232,1,0,0:0:0:0:
51,192,57232,1,0,0:0:0:0:
358,192,57370,1,0,0:0:0:0:
460,192,57508,1,0,0:0:0:0:
51,192,57508,1,0,0:0:0:0:
153,192,57646,1,0,0:0:0:0:
51,192,57784,1,0,0:0:0:0:
460,192,57784,1,0,0:0:0:0:
358,192,57922,1,0,0:0:0:0:
460,192,58060,1,0,0:0:0:0:
51,192,58060,1,0,0:0:0:0:
153,192,58198,1,0,0:0:0:0:
51,192,58336,1,0,0:0:0:0:
460,192,58336,1,0,0:0:0:0:
358,192,58474,1,0,0:0:0:0:
460,192,58612,1,0,0:0:0:0:
51,192,58612,1,0,0:0:0:0:
51,192,58750,1,0,0:0:0:0:
153,192,58750,1,0,0:0:0:0:
358,192,58750,1,0,0:0:0:0:
460,192,58750,1,0,0:0:0:0:
51,192,59163,128,0,59577:0:0:0:0:
153,192,59577,128,0,59991:0:0:0:0:
256,192,59991,128,0,60405:0:0:0:0:
358,192,59991,1,0,0:0:0:0:
460,192,59991,1,0,0:0:0:0:
358,192,60405,1,0,0:0:0:0:
460,192,60405,1,0,0:0:0:0:
51,192,60405,128,0,60543:0:0:0:0:
256,192,60543,1,0,0:0:0:0:
153,192,60543,128,0,60681:0:0:0:0:
358,192,60681,1,0,0:0:0:0:
460,192,60681,128,0,60819:0:0:0:0:
256,192,60819,1,0,0:0:0:0:
153,192,60819,1,0,0:0:0:0:
51,192,60819,128,0,60956:0:0:0:0:
460,192,60956,1,0,0:0:0:0:
358,192,60956,128,0,61094:0:0:0:0:
51,192,61094,1,0,0:0:0:0:
153,192,61094,128,0,61232:0:0:0:0:
358,192,61232,1,0,0:0:0:0:
256,192,61232,1,0,0:0:0:0:
460,192,61232,128,0,61370:0:0:0:0:
153,192,61370,1,0,0:0:0:0:
51,192,61370,128,0,61508:0:0:0:0:
256,192,61508,1,0,0:0:0:0:
358,192,61508,128,0,61646:0:0:0:0:
51,192,61646,128,0,61922:0:0:0:0:
460,192,61646,128,0,61922:0:0:0:0:
256,192,61922,128,0,62060:0:0:0:0:
358,192,61922,128,0,62060:0:0:0:0:
51,192,62060,1,0,0:0:0:0:
153,192,62060,1,0,0:0:0:0:
460,192,62060,128,0,62198:0:0:0:0:
256,192,62198,1,0,0:0:0:0:
358,192,62198,128,0,62336:0:0:0:0:
153,192,62336,1,0,0:0:0:0:
51,192,62336,128,0,62474:0:0:0:0:
358,192,62474,1,0,0:0:0:0:
256,192,62474,1,0,0:0:0:0:
460,192,62474,128,0,62612:0:0:0:0:
153,192,62612,128,0,62750:0:0:0:0:
51,192,62612,1,0,0:0:0:0:
460,192,62750,128,0,62887:0:0:0:0:
358,192,62750,1,0,0:0:0:0:
153,192,62887,1,0,0:0:0:0:
256,192,62887,128,0,63577:0:0:0:0:
51,192,62887,128,0,63025:0:0:0:0:
358,192,63025,128,0,63163:0:0:0:0:
153,192,63163,128,0,63301:0:0:0:0:
460,192,63301,128,0,63439:0:0:0:0:
51,192,63439,128,0,63577:0:0:0:0:
358,192,63577,128,0,63715:0:0:0:0:
153,192,63715,1,0,0:0:0:0:
460,192,63715,128,0,63853:0:0:0:0:
256,192,63715,1,0,0:0:0:0:
51,192,63853,128,0,63991:0:0:0:0:
153,192,63991,128,0,64129:0:0:0:0:
256,192,64129,1,0,0:0:0:0:
358,192,64129,1,0,0:0:0:0:
460,192,64129,128,0,64267:0:0:0:0:
51,192,64267,128,0,64405:0:0:0:0:
153,192,64405,128,0,64543:0:0:0:0:
358,192,64543,1,0,0:0:0:0:
256,192,64543,1,0,0:0:0:0:
51,192,64543,128,0,64681:0:0:0:0:
460,192,64681,128,0,64819:0:0:0:0:
358,192,64819,128,0,64956:0:0:0:0:
256,192,64956,1,0,0:0:0:0:
153,192,64956,1,0,0:0:0:0:
51,192,64956,128,0,65094:0:0:0:0:
460,192,65094,128,0,65232:0:0:0:0:
358,192,65232,128,0,65370:0:0:0:0:
256,192,65370,1,0,0:0:0:0:
460,192,65370,1,0,0:0:0:0:
153,192,65370,128,0,65646:0:0:0:0:
51,192,65646,128,0,65784:0:0:0:0:
460,192,65784,1,0,0:0:0:0:
153,192,65784,1,0,0:0:0:0:
358,192,65784,1,0,0:0:0:0:
256,192,65922,1,0,0:0:0:0:
51,192,65922,1,0,0:0:0:0:
153,192,66060,1,0,0:0:0:0:
460,192,66060,1,0,0:0:0:0:
256,192,66198,1,0,0:0:0:0:
51,192,66198,1,0,0:0:0:0:
358,192,66198,128,0,66474:0:0:0:0:
460,192,66474,128,0,66612:0:0:0:0:
51,192,66612,1,0,0:0:0:0:
358,192,66612,1,0,0:0:0:0:
153,192,66612,1,0,0:0:0:0:
256,192,66750,1,0,0:0:0:0:
460,192,66750,1,0,0:0:0:0:
153,192,66887,1,0,0:0:0:0:
358,192,66887,1,0,0:0:0:0:
460,192,67025,1,0,0:0:0:0:
358,192,67077,1,0,0:0:0:0:
153,192,67129,1,0,0:0:0:0:
51,192,67181,1,0,0:0:0:0:
460,192,67232,1,0,0:0:0:0:
358,192,67284,1,0,0:0:0:0:
153,192,67336,1,0,0:0:0:0:
51,192,67387,1,0,0:0:0:0:
460,192,67439,1,0,0:0:0:0:
358,192,67491,1,0,0:0:0:0:
153,192,67543,1,0,0:0:0:0:
51,192,67594,1,0,0:0:0:0:
460,192,67646,1,0,0:0:0:0:
358,192,67698,1,0,0:0:0:0:
153,192,67750,1,0,0:0:0:0:
51,192,67801,1,0,0:0:0:0:
460,192,67853,1,0,0:0:0:0:
358,192,67905,1,0,0:0:0:0:
153,192,67956,1,0,0:0:0:0:
51,192,68008,1,0,0:0:0:0:
460,192,68060,1,0,0:0:0:0:
358,192,68112,1,0,0:0:0:0:
153,192,68163,1,0,0:0:0:0:
51,192,68215,1,0,0:0:0:0:
460,192,68267,1,0,0:0:0:0:
358,192,68319,1,0,0:0:0:0:
153,192,68370,1,0,0:0:0:0:
51,192,68422,1,0,0:0:0:0:
460,192,68474,1,0,0:0:0:0:
358,192,68525,1,0,0:0:0:0:
256,192,68577,1,0,0:0:0:0:
153,192,68629,1,0,0:0:0:0:
51,192,68681,1,0,0:0:0:0:
153,192,68732,1,0,0:0:0:0:
358,192,68784,1,0,0:0:0:0:
460,192,68836,1,0,0:0:0:0:
51,192,68887,1,0,0:0:0:0:
153,192,68939,1,0,0:0:0:0:
358,192,68991,1,0,0:0:0:0:
460,192,69043,1,0,0:0:0:0:
51,192,69094,1,0,0:0:0:0:
153,192,69146,1,0,0:0:0:0:
358,192,69198,1,0,0:0:0:0:
460,192,69250,1,0,0:0:0:0:
51,192,69301,1,0,0:0:0:0:
153,192,69353,1,0,0:0:0:0:
256,192,69405,1,0,0:0:0:0:
358,192,69456,1,0,0:0:0:0:
460,192,69508,1,0,0:0:0:0:
358,192,69560,1,0,0:0:0:0:
153,192,69612,1,0,0:0:0:0:
51,192,69663,1,0,0:0:0:0:
460,192,69715,1,0,0:0:0:0:
358,192,69767,1,0,0:0:0:0:
153,192,69819,1,0,0:0:0:0:
51,192,69870,1,0,0:0:0:0:
460,192,69922,1,0,0:0:0:0:
358,192,69974,1,0,0:0:0:0:
153,192,70025,1,0,0:0:0:0:
51,192,70077,1,0,0:0:0:0:
460,192,70129,1,0,0:0:0:0:
358,192,70181,1,0,0:0:0:0:
153,192,70232,1,0,0:0:0:0:
51,192,70284,1,0,0:0:0:0:
153,192,70336,1,0,0:0:0:0:
256,192,70336,1,0,0:0:0:0:
358,192,70336,1,0,0:0:0:0:
460,192,70336,1,0,0:0:0:0:
51,192,70750,1,0,0:0:0:0:
153,192,70750,1,0,0:0:0:0:
256,192,70750,1,0,0:0:0:0:
358,192,70750,1,0,0:0:0:0:
51,192,71163,1,0,0:0:0:0:
153,192,71163,1,0,0:0:0:0:
460,192,71163,1,0,0:0:0:0:
256,192,71163,1,0,0:0:0:0:
256,192,71439,1,0,0:0:0:0:
51,192,71577,1,0,0:0:0:0:
358,192,71577,1,0,0:0:0:0:
460,192,71577,1,0,0:0:0:0:
153,192,71577,1,0,0:0:0:0:
460,192,71991,128,0,72129:0:0:0:0:
51,192,71991,1,0,0:0:0:0:
153,192,71991,1,0,0:0:0:0:
358,192,72129,128,0,72267:0:0:0:0:
256,192,72267,128,0,72405:0:0:0:0:
153,192,72267,1,0,0:0:0:0:
51,192,72405,128,0,72543:0:0:0:0:
358,192,72405,1,0,0:0:0:0:
460,192,72405,1,0,0:0:0:0:
153,192,72543,128,0,72681:0:0:0:0:
256,192,72681,128,0,72819:0:0:0:0:
358,192,72681,1,0,0:0:0:0:
460,192,72819,128,0,72956:0:0:0:0:
153,192,72819,1,0,0:0:0:0:
51,192,72819,1,0,0:0:0:0:
358,192,72956,128,0,73094:0:0:0:0:
256,192,73094,128,0,73232:0:0:0:0:
153,192,73094,1,0,0:0:0:0:
51,192,73232,128,0,73370:0:0:0:0:
358,192,73232,1,0,0:0:0:0:
460,192,73232,1,0,0:0:0:0:
153,192,73370,128,0,73508:0:0:0:0:
256,192,73508,128,0,73646:0:0:0:0:
358,192,73508,1,0,0:0:0:0:
460,192,73646,128,0,73784:0:0:0:0:
51,192,73646,1,0,0:0:0:0:
153,192,73646,1,0,0:0:0:0:
256,192,73784,1,0,0:0:0:0:
358,192,73784,128,0,73922:0:0:0:0:
153,192,73922,1,0,0:0:0:0:
51,192,73922,128,0,74060:0:0:0:0:
256,192,74060,1,0,0:0:0:0:
358,192,74060,1,0,0:0:0:0:
460,192,74060,128,0,74198:0:0:0:0:
51,192,74198,1,0,0:0:0:0:
153,192,74198,128,0,74336:0:0:0:0:
460,192,74336,1,0,0:0:0:0:
358,192,74336,128,0,74474:0:0:0:0:
153,192,74474,1,0,0:0:0:0:
256,192,74474,1,0,0:0:0:0:
51,192,74474,128,0,74612:0:0:0:0:
358,192,74612,1,0,0:0:0:0:
460,192,74612,128,0,74750:0:0:0:0:
256,192,74750,1,0,0:0:0:0:
153,192,74750,128,0,74887:0:0:0:0:
51,192,74887,128,0,75163:0:0:0:0:
460,192,74887,128,0,75163:0:0:0:0:
256,192,75163,128,0,75301:0:0:0:0:
153,192,75163,128,0,75301:0:0:0:0:
51,192,75301,1,0,0:0:0:0:
358,192,75301,1,0,0:0:0:0:
460,192,75301,128,0,75439:0:0:0:0:
256,192,75439,1,0,0:0:0:0:
153,192,75439,128,0,75577:0:0:0:0:
358,192,75577,1,0,0:0:0:0:
460,192,75577,128,0,75715:0:0:0:0:
153,192,75715,1,0,0:0:0:0:
256,192,75715,1,0,0:0:0:0:
51,192,75715,128,0,75853:0:0:0:0:
358,192,75853,128,0,75991:0:0:0:0:
460,192,75853,1,0,0:0:0:0:
51,192,75991,128,0,76129:0:0:0:0:
153,192,75991,1,0,0:0:0:0:
358,192,76129,1,0,0:0:0:0:
256,192,76129,128,0,76819:0:0:0:0:
460,192,76129,128,0,76267:0:0:0:0:
153,192,76267,128,0,76405:0:0:0:0:
358,192,76405,128,0,76543:0:0:0:0:
51,192,76543,128,0,76681:0:0:0:0:
460,192,76681,128,0,76819:0:0:0:0:
153,192,76819,128,0,76956:0:0:0:0:
358,192,76956,1,0,0:0:0:0:
51,192,76956,128,0,77094:0:0:0:0:
256,192,76956,1,0,0:0:0:0:
460,192,77094,128,0,77232:0:0:0:0:
358,192,77232,128,0,77370:0:0:0:0:
256,192,77370,1,0,0:0:0:0:
153,192,77370,1,0,0:0:0:0:
51,192,77370,128,0,77508:0:0:0:0:
460,192,77508,128,0,77646:0:0:0:0:
358,192,77646,128,0,77784:0:0:0:0:
153,192,77784,1,0,0:0:0:0:
256,192,77784,1,0,0:0:0:0:
460,192,77784,128,0,77922:0:0:0:0:
51,192,77922,128,0,78060:0:0:0:0:
153,192,78060,128,0,78198:0:0:0:0:
256,192,78198,1,0,0:0:0:0:
358,192,78198,1,0,0:0:0:0:
460,192,78198,128,0,78336:0:0:0:0:
51,192,78336,128,0,78474:0:0:0:0:
153,192,78474,128,0,78612:0:0:0:0:
256,192,78612,1,0,0:0:0:0:
51,192,78612,1,0,0:0:0:0:
358,192,78612,128,0,78887:0:0:0:0:
460,192,78887,128,0,79025:0:0:0:0:
51,192,79025,1,0,0:0:0:0:
153,192,79025,1,0,0:0:0:0:
358,192,79025,1,0,0:0:0:0:
256,192,79163,1,0,0:0:0:0:
460,192,79163,1,0,0:0:0:0:
358,192,79301,1,0,0:0:0:0:
51,192,79301,1,0,0:0:0:0:
256,192,79439,1,0,0:0:0:0:
460,192,79439,1,0,0:0:0:0:
153,192,79439,128,0,79715:0:0:0:0:
51,192,79715,128,0,79853:0:0:0:0:
460,192,79853,1,0,0:0:0:0:
358,192,79853,1,0,0:0:0:0:
153,192,79853,1,0,0:0:0:0:
256,192,79991,1,0,0:0:0:0:
51,192,79991,1,0,0:0:0:0:
153,192,80129,1,0,0:0:0:0:
358,192,80129,1,0,0:0:0:0:
460,192,80267,1,0,0:0:0:0:
358,192,80319,1,0,0:0:0:0:
153,192,80370,1,0,0:0:0:0:
51,192,80422,1,0,0:0:0:0:
460,192,80474,1,0,0:0:0:0:
358,192,80525,1,0,0:0:0:0:
153,192,80577,1,0,0:0:0:0:
51,192,80629,1,0,0:0:0:0:
460,192,80681,1,0,0:0:0:0:
358,192,80732,1,0,0:0:0:0:
153,192,80784,1,0,0:0:0:0:
51,192,80836,1,0,0:0:0:0:
460,192,80887,1,0,0:0:0:0:
358,192,80939,1,0,0:0:0:0:
153,192,80991,1,0,0:0:0:0:
51,192,81043,1,0,0:0:0:0:
460,192,81094,1,0,0:0:0:0:
358,192,81146,1,0,0:0:0:0:
153,192,81198,1,0,0:0:0:0:
51,192,81250,1,0,0:0:0:0:
460,192,81301,1,0,0:0:0:0:
358,192,81353,1,0,0:0:0:0:
153,192,81405,1,0,0:0:0:0:
51,192,81456,1,0,0:0:0:0:
460,192,81508,1,0,0:0:0:0:
358,192,81560,1,0,0:0:0:0:
153,192,81612,1,0,0:0:0:0:
51,192,81663,1,0,0:0:0:0:
460,192,81715,1,0,0:0:0:0:
358,192,81767,1,0,0:0:0:0:
256,192,81819,1,0,0:0:0:0:
153,192,81870,1,0,0:0:0:0:
51,192,81922,1,0,0:0:0:0:
153,192,81974,1,0,0:0:0:0:
358,192,82025,1,0,0:0:0:0:
460,192,82077,1,0,0:0:0:0:
51,192,82129,1,0,0:0:0:0:
153,192,82181,1,0,0:0:0:0:
358,192,82232,1,0,0:0:0:0:
460,192,82284,1,0,0:0:0:0:
51,192,82336,1,0,0:0:0:0:
153,192,82387,1,0,0:0:0:0:
358,192,82439,1,0,0:0:0:0:
460,192,82491,1,0,0:0:0:0:
51,192,82543,1,0,0:0:0:0:
153,192,82594,1,0,0:0:0:0:
256,192,82646,1,0,0:0:0:0:
358,192,82698,1,0,0:0:0:0:
460,192,82750,1,0,0:0:0:0:
358,192,82801,1,0,0:0:0:0:
153,192,82853,1,0,0:0:0:0:
51,192,82905,1,0,0:0:0:0:
460,192,82956,1,0,0:0:0:0:
358,192,83008,1,0,0:0:0:0:
153,192,83060,1,0,0:0:0:0:
51,192,83112,1,0,0:0:0:0:
460,192,83163,1,0,0:0:0:0:
358,192,83215,1,0,0:0:0:0:
153,192,83267,1,0,0:0:0:0:
51,192,83319,1,0,0:0:0:0:
460,192,83370,1,0,0:0:0:0:
358,192,83422,1,0,0:0:0:0:
153,192,83474,1,0,0:0:0:0:
51,192,83525,1,0,0:0:0:0:
153,192,83577,1,0,0:0:0:0:
256,192,83577,1,0,0:0:0:0:
358,192,83577,1,0,0:0:0:0:
460,192,83577,1,0,0:0:0:0:
51,192,83991,1,0,0:0:0:0:
153,192,83991,1,0,0:0:0:0:
256,192,83991,1,0,0:0:0:0:
358,192,83991,1,0,0:0:0:0:
51,192,84405,1,0,0:0:0:0:
153,192,84405,1,0,0:0:0:0:
460,192,84405,1,0,0:0:0:0:
256,192,84405,1,0,0:0:0:0:
256,192,84681,1,0,0:0:0:0:
51,192,84819,1,0,0:0:0:0:
358,192,84819,1,0,0:0:0:0:
460,192,84819,1,0,0:0:0:0:
153,192,84819,1,0,0:0:0:0:
51,192,85232,1,0,0:0:0:0:
153,192,85232,1,0,0:0:0:0:
460,192,85232,1,0,0:0:0:0:
256,192,85370,1,0,0:0:0:0:
358,192,85370,1,0,0:0:0:0:
51,192,85508,1,0,0:0:0:0:
153,192,85508,1,0,0:0:0:0:
256,192,85646,1,0,0:0:0:0:
358,192,85646,1,0,0:0:0:0:
460,192,85646,1,0,0:0:0:0:
51,192,85784,1,0,0:0:0:0:
153,192,85784,1,0,0:0:0:0:
256,192,85922,1,0,0:0:0:0:
358,192,85922,1,0,0:0:0:0:
460,192,85922,1,0,0:0:0:0:
460,192,86060,1,0,0:0:0:0:
358,192,86060,1,0,0:0:0:0:
51,192,86060,1,0,0:0:0:0:
256,192,86198,1,0,0:0:0:0:
153,192,86198,1,0,0:0:0:0:
460,192,86336,1,0,0:0:0:0:
51,192,86336,1,0,0:0:0:0:
153,192,86474,1,0,0:0:0:0:
256,192,86474,1,0,0:0:0:0:
358,192,86474,1,0,0:0:0:0:
460,192,86612,1,0,0:0:0:0:
51,192,86612,1,0,0:0:0:0:
358,192,86750,1,0,0:0:0:0:
153,192,86750,1,0,0:0:0:0:
460,192,86887,128,0,87163:0:0:0:0:
51,192,86887,1,0,0:0:0:0:
256,192,86887,1,0,0:0:0:0:
358,192,87163,128,0,87301:0:0:0:0:
153,192,87301,1,0,0:0:0:0:
51,192,87301,1,0,0:0:0:0:
256,192,87301,128,0,87577:0:0:0:0:
153,192,87577,1,0,0:0:0:0:
358,192,87577,128,0,88405:0:0:0:0:
51,192,87715,1,0,0:0:0:0:
153,192,87991,1,0,0:0:0:0:
51,192,88129,1,0,0:0:0:0:
153,192,88405,1,0,0:0:0:0:
460,192,88543,1,0,0:0:0:0:
51,192,88543,128,0,88819:0:0:0:0:
153,192,88819,128,0,88956:0:0:0:0:
358,192,88956,1,0,0:0:0:0:
460,192,88956,1,0,0:0:0:0:
256,192,88956,128,0,89232:0:0:0:0:
358,192,89232,1,0,0:0:0:0:
153,192,89232,128,0,90198:0:0:0:0:
460,192,89370,1,0,0:0:0:0:
358,192,89646,1,0,0:0:0:0:
460,192,89784,1,0,0:0:0:0:
358,192,90060,1,0,0:0:0:0:
51,192,90198,1,0,0:0:0:0:
460,192,90198,128,0,90474:0:0:0:0:
358,192,90474,128,0,90612:0:0:0:0:
153,192,90612,1,0,0:0:0:0:
51,192,90612,1,0,0:0:0:0:
256,192,90612,128,0,90887:0:0:0:0:
153,192,90887,1,0,0:0:0:0:
358,192,90887,128,0,91715:0:0:0:0:
51,192,91025,1,0,0:0:0:0:
153,192,91301,1,0,0:0:0:0:
51,192,91439,1,0,0:0:0:0:
153,192,91715,1,0,0:0:0:0:
460,192,91853,1,0,0:0:0:0:
51,192,91853,128,0,92129:0:0:0:0:
153,192,92129,128,0,92267:0:0:0:0:
358,192,92267,1,0,0:0:0:0:
460,192,92267,1,0,0:0:0:0:
256,192,92267,128,0,92543:0:0:0:0:
358,192,92543,1,0,0:0:0:0:
51,192,92543,128,0,92956:0:0:0:0:
460,192,92681,1,0,0:0:0:0:
153,192,92956,128,0,93094:0:0:0:0:
358,192,92956,1,0,0:0:0:0:
256,192,93094,128,0,93370:0:0:0:0:
358,192,93094,1,0,0:0:0:0:
460,192,93094,1,0,0:0:0:0:
51,192,93232,1,0,0:0:0:0:
153,192,93232,1,0,0:0:0:0:
358,192,93370,128,0,93508:0:0:0:0:
460,192,93370,1,0,0:0:0:0:
51,192,93508,1,0,0:0:0:0:
153,192,93508,1,0,0:0:0:0:
51,192,93922,1,0,0:0:0:0:
460,192,93922,1,0,0:0:0:0:
256,192,93922,1,0,0:0:0:0:
460,192,94198,1,0,0:0:0:0:
358,192,94336,128,0,94612:0:0:0:0:
51,192,94336,1,0,0:0:0:0:
256,192,94612,128,0,94750:0:0:0:0:
51,192,94612,1,0,0:0:0:0:
153,192,94750,128,0,95025:0:0:0:0:
256,192,95025,1,0,0:0:0:0:
358,192,95163,128,0,95577:0:0:0:0:
51,192,95163,1,0,0:0:0:0:
256,192,95577,1,0,0:0:0:0:
460,192,95577,1,0,0:0:0:0:
51,192,95577,128,0,95853:0:0:0:0:
153,192,95853,128,0,96267:0:0:0:0:
460,192,95991,1,0,0:0:0:0:
256,192,96267,128,0,96681:0:0:0:0:
460,192,96267,1,0,0:0:0:0:
51,192,96405,1,0,0:0:0:0:
153,192,96405,1,0,0:0:0:0:
358,192,96681,128,0,97922:0:0:0:0:
51,192,96819,1,0,0:0:0:0:
460,192,96819,1,0,0:0:0:0:
51,192,97232,1,0,0:0:0:0:
256,192,97232,1,0,0:0:0:0:
460,192,97232,1,0,0:0:0:0:
460,192,97508,1,0,0:0:0:0:
51,192,97646,1,0,0:0:0:0:
153,192,97646,1,0,0:0:0:0:
153,192,97922,128,0,98060:0:0:0:0:
51,192,97922,1,0,0:0:0:0:
256,192,98060,128,0,98336:0:0:0:0:
460,192,98336,128,0,99715:0:0:0:0:
51,192,98474,1,0,0:0:0:0:
358,192,98474,1,0,0:0:0:0:
51,192,98887,1,0,0:0:0:0:
256,192,98887,1,0,0:0:0:0:
358,192,98887,1,0,0:0:0:0:
51,192,99163,1,0,0:0:0:0:
358,192,99301,1,0,0:0:0:0:
51,192,99577,1,0,0:0:0:0:
153,192,99715,1,0,0:0:0:0:
256,192,99715,1,0,0:0:0:0:
358,192,99715,128,0,99991:0:0:0:0:
153,192,99991,128,0,100129:0:0:0:0:
51,192,100129,128,0,101646:0:0:0:0:
460,192,100129,1,0,0:0:0:0:
256,192,100129,1,0,0:0:0:0:
256,192,100543,1,0,0:0:0:0:
358,192,100543,1,0,0:0:0:0:
460,192,100543,1,0,0:0:0:0:
153,192,100819,1,0,0:0:0:0:
460,192,100956,1,0,0:0:0:0:
460,192,101232,1,0,0:0:0:0:
358,192,101370,1,0,0:0:0:0:
256,192,101370,1,0,0:0:0:0:
153,192,101370,1,0,0:0:0:0:
358,192,101646,1,0,0:0:0:0:
460,192,101784,128,0,103301:0:0:0:0:
153,192,101784,1,0,0:0:0:0:
256,192,102198,1,0,0:0:0:0:
153,192,102198,1,0,0:0:0:0:
51,192,102198,1,0,0:0:0:0:
358,192,102474,1,0,0:0:0:0:
51,192,102612,1,0,0:0:0:0:
51,192,102887,1,0,0:0:0:0:
153,192,103025,1,0,0:0:0:0:
256,192,103025,1,0,0:0:0:0:
358,192,103025,1,0,0:0:0:0:
256,192,103439,128,0,106612:0:0:0:0:
358,192,103439,128,0,103715:0:0:0:0:
51,192,103439,1,0,0:0:0:0:
460,192,103853,128,0,104129:0:0:0:0:
153,192,103853,1,0,0:0:0:0:
51,192,103853,1,0,0:0:0:0:
51,192,104129,1,0,0:0:0:0:
358,192,104267,128,0,104543:0:0:0:0:
153,192,104267,1,0,0:0:0:0:
153,192,104543,1,0,0:0:0:0:
460,192,104681,128,0,104956:0:0:0:0:
51,192,104681,1,0,0:0:0:0:
358,192,104956,1,0,0:0:0:0:
51,192,105094,128,0,105370:0:0:0:0:
153,192,105094,1,0,0:0:0:0:
460,192,105232,1,0,0:0:0:0:
358,192,105370,1,0,0:0:0:0:
153,192,105508,128,0,105784:0:0:0:0:
460,192,105508,1,0,0:0:0:0:
51,192,105646,1,0,0:0:0:0:
358,192,105784,1,0,0:0:0:0:
51,192,105922,128,0,106198:0:0:0:0:
460,192,105922,1,0,0:0:0:0:
358,192,106060,1,0,0:0:0:0:
153,192,106198,1,0,0:0:0:0:
358,192,106336,1,0,0:0:0:0:
460,192,106336,1,0,0:0:0:0:
153,192,106474,1,0,0:0:0:0:
51,192,106474,1,0,0:0:0:0:
358,192,106612,1,0,0:0:0:0:
460,192,106612,1,0,0:0:0:0:
51,192,106750,128,0,107025:0:0:0:0:
153,192,106750,1,0,0:0:0:0:
153,192,107025,128,0,107163:0:0:0:0:
460,192,107163,128,0,107439:0:0:0:0:
256,192,107163,1,0,0:0:0:0:
358,192,107163,1,0,0:0:0:0:
358,192,107439,128,0,107577:0:0:0:0:
256,192,107577,128,0,107853:0:0:0:0:
51,192,107577,1,0,0:0:0:0:
51,192,107853,128,0,107991:0:0:0:0:
153,192,107991,128,0,108267:0:0:0:0:
460,192,107991,1,0,0:0:0:0:
358,192,107991,1,0,0:0:0:0:
358,192,108267,128,0,108405:0:0:0:0:
256,192,108267,1,0,0:0:0:0:
460,192,108405,128,0,108681:0:0:0:0:
51,192,108405,1,0,0:0:0:0:
153,192,108681,128,0,108819:0:0:0:0:
51,192,108819,128,0,109094:0:0:0:0:
256,192,108819,1,0,0:0:0:0:
358,192,108819,1,0,0:0:0:0:
153,192,109094,128,0,109232:0:0:0:0:
256,192,109232,128,0,109508:0:0:0:0:
460,192,109232,1,0,0:0:0:0:
460,192,109508,128,0,109646:0:0:0:0:
51,192,109508,1,0,0:0:0:0:
358,192,109646,128,0,109922:0:0:0:0:
153,192,109646,1,0,0:0:0:0:
256,192,109646,1,0,0:0:0:0:
153,192,109922,128,0,110060:0:0:0:0:
460,192,109922,1,0,0:0:0:0:
51,192,110060,128,0,110198:0:0:0:0:
358,192,110060,1,0,0:0:0:0:
153,192,110198,128,0,110336:0:0:0:0:
256,192,110336,128,0,110474:0:0:0:0:
358,192,110474,128,0,110750:0:0:0:0:
51,192,110474,1,0,0:0:0:0:
51,192,110750,128,0,110887:0:0:0:0:
256,192,110750,1,0,0:0:0:0:
460,192,110887,128,0,111025:0:0:0:0:
153,192,110887,1,0,0:0:0:0:
358,192,111025,128,0,111163:0:0:0:0:
256,192,111163,128,0,111301:0:0:0:0:
153,192,111163,1,0,0:0:0:0:
358,192,111301,128,0,111439:0:0:0:0:
51,192,111301,1,0,0:0:0:0:
460,192,111301,1,0,0:0:0:0:
256,192,111439,128,0,111577:0:0:0:0:
153,192,111577,128,0,111715:0:0:0:0:
51,192,111715,128,0,111991:0:0:0:0:
358,192,111715,1,0,0:0:0:0:
460,192,111715,1,0,0:0:0:0:
153,192,111991,128,0,112129:0:0:0:0:
460,192,111991,1,0,0:0:0:0:
256,192,112129,128,0,112405:0:0:0:0:
358,192,112129,1,0,0:0:0:0:
358,192,112370,128,0,112819:0:0:0:0:
460,192,112405,128,0,112819:0:0:0:0:
51,192,112543,1,0,0:0:0:0:
256,192,112819,128,0,112956:0:0:0:0:
51,192,112819,1,0,0:0:0:0:
153,192,112956,128,0,113232:0:0:0:0:
460,192,112956,1,0,0:0:0:0:
460,192,113232,128,0,113370:0:0:0:0:
51,192,113370,1,0,0:0:0:0:
256,192,113370,1,0,0:0:0:0:
153,192,113508,1,0,0:0:0:0:
358,192,113646,1,0,0:0:0:0:
153,192,113784,1,0,0:0:0:0:
51,192,113784,1,0,0:0:0:0:
460,192,113784,1,0,0:0:0:0:
256,192,113922,1,0,0:0:0:0:
358,192,114060,1,0,0:0:0:0:
460,192,114198,1,0,0:0:0:0:
256,192,114198,1,0,0:0:0:0:
358,192,114336,1,0,0:0:0:0:
153,192,114474,1,0,0:0:0:0:
256,192,114474,1,0,0:0:0:0:
358,192,114612,1,0,0:0:0:0:
51,192,114612,1,0,0:0:0:0:
460,192,114612,1,0,0:0:0:0:
256,192,114750,1,0,0:0:0:0:
153,192,114887,1,0,0:0:0:0:
51,192,115025,1,0,0:0:0:0:
460,192,115025,1,0,0:0:0:0:
358,192,115163,1,0,0:0:0:0:
460,192,115301,1,0,0:0:0:0:
51,192,115439,1,0,0:0:0:0:
256,192,115439,1,0,0:0:0:0:
358,192,115439,1,0,0:0:0:0:
153,192,115577,1,0,0:0:0:0:
256,192,115715,1,0,0:0:0:0:
460,192,115853,1,0,0:0:0:0:
358,192,115853,1,0,0:0:0:0:
153,192,115991,1,0,0:0:0:0:
51,192,116129,1,0,0:0:0:0:
358,192,116129,1,0,0:0:0:0:
460,192,116267,1,0,0:0:0:0:
153,192,116267,1,0,0:0:0:0:
256,192,116267,1,0,0:0:0:0:
358,192,116405,1,0,0:0:0:0:
256,192,116543,1,0,0:0:0:0:
51,192,116681,128,0,116956:0:0:0:0:
153,192,116681,1,0,0:0:0:0:
153,192,116956,128,0,117094:0:0:0:0:
460,192,117094,128,0,117370:0:0:0:0:
256,192,117094,1,0,0:0:0:0:
358,192,117094,1,0,0:0:0:0:
358,192,117370,128,0,117508:0:0:0:0:
256,192,117508,128,0,117784:0:0:0:0:
51,192,117508,1,0,0:0:0:0:
51,192,117784,128,0,117922:0:0:0:0:
460,192,117922,1,0,0:0:0:0:
358,192,117922,1,0,0:0:0:0:
153,192,117922,128,0,118336:0:0:0:0:
51,192,118336,128,0,118750:0:0:0:0:
256,192,118336,1,0,0:0:0:0:
153,192,118750,128,0,119163:0:0:0:0:
460,192,118750,1,0,0:0:0:0:
358,192,118750,1,0,0:0:0:0:
460,192,119025,128,0,119991:0:0:0:0:
51,192,119163,128,0,119577:0:0:0:0:
256,192,119163,1,0,0:0:0:0:
256,192,119439,1,0,0:0:0:0:
153,192,119577,1,0,0:0:0:0:
358,192,119577,1,0,0:0:0:0:
51,192,119715,1,0,0:0:0:0:
256,192,119715,1,0,0:0:0:0:
153,192,119853,1,0,0:0:0:0:
358,192,119853,1,0,0:0:0:0:
51,192,119991,128,0,120681:0:0:0:0:
460,192,120405,1,0,0:0:0:0:
358,192,120405,1,0,0:0:0:0:
153,192,120681,1,0,0:0:0:0:
460,192,120681,1,0,0:0:0:0:
51,192,120819,128,0,121094:0:0:0:0:
358,192,120819,1,0,0:0:0:0:
153,192,121094,1,0,0:0:0:0:
358,192,121094,1,0,0:0:0:0:
51,192,121232,128,0,121508:0:0:0:0:
460,192,121232,1,0,0:0:0:0:
256,192,121232,1,0,0:0:0:0:
358,192,121646,128,0,122336:0:0:0:0:
153,192,122060,1,0,0:0:0:0:
51,192,122060,1,0,0:0:0:0:
460,192,122336,1,0,0:0:0:0:
153,192,122336,1,0,0:0:0:0:
358,192,122474,128,0,122750:0:0:0:0:
51,192,122474,1,0,0:0:0:0:
256,192,122750,1,0,0:0:0:0:
460,192,122887,128,0,123163:0:0:0:0:
153,192,122887,1,0,0:0:0:0:
51,192,122887,1,0,0:0:0:0:
256,192,123301,128,0,123991:0:0:0:0:
51,192,123715,1,0,0:0:0:0:
460,192,123715,1,0,0:0:0:0:
153,192,123991,1,0,0:0:0:0:
358,192,123991,1,0,0:0:0:0:
256,192,124129,128,0,124405:0:0:0:0:
460,192,124129,1,0,0:0:0:0:
153,192,124405,1,0,0:0:0:0:
358,192,124405,1,0,0:0:0:0:
256,192,124543,128,0,124819:0:0:0:0:
51,192,124543,1,0,0:0:0:0:
460,192,124543,1,0,0:0:0:0:
51,192,124956,128,0,125232:0:0:0:0:
256,192,125232,1,0,0:0:0:0:
153,192,125370,128,0,125646:0:0:0:0:
358,192,125370,1,0,0:0:0:0:
460,192,125370,1,0,0:0:0:0:
358,192,125646,1,0,0:0:0:0:
51,192,125646,1,0,0:0:0:0:
256,192,125784,128,0,126060:0:0:0:0:
460,192,125784,1,0,0:0:0:0:
460,192,126060,1,0,0:0:0:0:
51,192,126060,1,0,0:0:0:0:
358,192,126198,128,0,126474:0:0:0:0:
153,192,126198,1,0,0:0:0:0:
51,192,126474,1,0,0:0:0:0:
460,192,126612,128,0,127301:0:0:0:0:
51,192,127025,1,0,0:0:0:0:
358,192,127025,1,0,0:0:0:0:
256,192,127301,1,0,0:0:0:0:
358,192,127301,1,0,0:0:0:0:
51,192,127439,128,0,127715:0:0:0:0:
153,192,127439,1,0,0:0:0:0:
460,192,127715,1,0,0:0:0:0:
256,192,127715,1,0,0:0:0:0:
358,192,127853,128,0,128129:0:0:0:0:
153,192,127853,1,0,0:0:0:0:
460,192,128129,128,0,128267:0:0:0:0:
51,192,128267,128,0,128543:0:0:0:0:
153,192,128543,1,0,0:0:0:0:
51,192,128681,128,0,128956:0:0:0:0:
358,192,128681,1,0,0:0:0:0:
460,192,128681,1,0,0:0:0:0:
153,192,128956,1,0,0:0:0:0:
460,192,128956,1,0,0:0:0:0:
256,192,129094,128,0,129370:0:0:0:0:
358,192,129094,1,0,0:0:0:0:
153,192,129370,1,0,0:0:0:0:
358,192,129370,1,0,0:0:0:0:
51,192,129508,128,0,129784:0:0:0:0:
460,192,129508,1,0,0:0:0:0:
153,192,129784,1,0,0:0:0:0:
256,192,129922,1,0,0:0:0:0:
358,192,129922,1,0,0:0:0:0:
460,192,129922,1,0,0:0:0:0:
51,192,129922,1,0,0:0:0:0:
153,192,130336,1,0,0:0:0:0:
256,192,130336,1,0,0:0:0:0:
358,192,130336,1,0,0:0:0:0:
460,192,130336,1,0,0:0:0:0:
51,192,130750,1,0,0:0:0:0:
153,192,130750,1,0,0:0:0:0:
256,192,130750,1,0,0:0:0:0:
460,192,130750,1,0,0:0:0:0:
460,192,131025,1,0,0:0:0:0:
51,192,131163,1,0,0:0:0:0:
153,192,131163,1,0,0:0:0:0:
358,192,131163,1,0,0:0:0:0:
256,192,131163,128,0,131439:0:0:0:0:
51,192,131439,1,0,0:0:0:0:
153,192,131439,1,0,0:0:0:0:
358,192,131439,1,0,0:0:0:0:
460,192,131439,1,0,0:0:0:0:
153,192,131853,1,0,0:0:0:0:
256,192,131853,1,0,0:0:0:0:
358,192,131853,1,0,0:0:0:0:
460,192,131853,1,0,0:0:0:0:
51,192,131991,128,0,132267:0:0:0:0:
256,192,132267,1,0,0:0:0:0:
358,192,132267,1,0,0:0:0:0:
153,192,132267,1,0,0:0:0:0:
51,192,132405,1,0,0:0:0:0:
460,192,132474,1,0,0:0:0:0:
153,192,132543,1,0,0:0:0:0:
358,192,132612,1,0,0:0:0:0:
51,192,132681,1,0,0:0:0:0:
460,192,132750,1,0,0:0:0:0:
153,192,132819,1,0,0:0:0:0:
358,192,132887,1,0,0:0:0:0:
51,192,132956,1,0,0:0:0:0:
460,192,133025,1,0,0:0:0:0:
153,192,133094,1,0,0:0:0:0:
358,192,133163,1,0,0:0:0:0:
153,192,133232,1,0,0:0:0:0:
256,192,133232,1,0,0:0:0:0:
51,192,133232,1,0,0:0:0:0:
460,192,133232,1,0,0:0:0:0:
51,192,133646,1,0,0:0:0:0:
256,192,133646,1,0,0:0:0:0:
358,192,133646,1,0,0:0:0:0:
460,192,133646,1,0,0:0:0:0:
153,192,134060,1,0,0:0:0:0:
51,192,134060,1,0,0:0:0:0:
358,192,134060,1,0,0:0:0:0:
460,192,134060,1,0,0:0:0:0:
256,192,134198,1,0,0:0:0:0:
460,192,134198,128,0,134336:0:0:0:0:
153,192,134336,1,0,0:0:0:0:
358,192,134336,128,0,134474:0:0:0:0:
51,192,134474,128,0,134612:0:0:0:0:
256,192,134474,1,0,0:0:0:0:
153,192,134612,128,0,134750:0:0:0:0:
358,192,134612,1,0,0:0:0:0:
460,192,134750,128,0,134887:0:0:0:0:
256,192,134750,1,0,0:0:0:0:
358,192,134887,128,0,135991:0:0:0:0:
51,192,134887,1,0,0:0:0:0:
51,192,135301,1,0,0:0:0:0:
460,192,135301,1,0,0:0:0:0:
51,192,135715,1,0,0:0:0:0:
256,192,135991,128,0,136129:0:0:0:0:
51,192,135991,1,0,0:0:0:0:
460,192,136129,1,0,0:0:0:0:
153,192,136129,128,0,136405:0:0:0:0:
358,192,136129,1,0,0:0:0:0:
460,192,136405,1,0,0:0:0:0:
51,192,136405,1,0,0:0:0:0:
358,192,136474,1,0,0:0:0:0:
256,192,136543,128,0,138198:0:0:0:0:
153,192,136543,1,0,0:0:0:0:
460,192,136681,1,0,0:0:0:0:
51,192,136681,1,0,0:0:0:0:
358,192,136819,1,0,0:0:0:0:
460,192,136956,1,0,0:0:0:0:
51,192,136956,1,0,0:0:0:0:
153,192,137094,1,0,0:0:0:0:
51,192,137232,1,0,0:0:0:0:
460,192,137232,1,0,0:0:0:0:
358,192,137370,1,0,0:0:0:0:
460,192,137508,1,0,0:0:0:0:
51,192,137508,1,0,0:0:0:0:
153,192,137646,1,0,0:0:0:0:
51,192,137784,1,0,0:0:0:0:
460,192,137784,1,0,0:0:0:0:
358,192,137922,1,0,0:0:0:0:
460,192,138060,1,0,0:0:0:0:
51,192,138060,1,0,0:0:0:0:
51,192,138198,1,0,0:0:0:0:
153,192,138198,1,0,0:0:0:0:
358,192,138198,1,0,0:0:0:0:
460,192,138198,1,0,0:0:0:0:
51,192,138612,128,0,139025:0:0:0:0:
153,192,139025,128,0,139439:0:0:0:0:
256,192,139439,128,0,139853:0:0:0:0:
358,192,139439,1,0,0:0:0:0:
460,192,139439,1,0,0:0:0:0:
358,192,139853,1,0,0:0:0:0:
460,192,139853,1,0,0:0:0:0:
51,192,139853,128,0,139991:0:0:0:0:
256,192,139991,1,0,0:0:0:0:
153,192,139991,128,0,140129:0:0:0:0:
358,192,140129,1,0,0:0:0:0:
460,192,140129,128,0,140267:0:0:0:0:
256,192,140267,1,0,0:0:0:0:
153,192,140267,1,0,0:0:0:0:
51,192,140267,128,0,140405:0:0:0:0:
460,192,140405,1,0,0:0:0:0:
358,192,140405,128,0,140543:0:0:0:0:
51,192,140543,1,0,0:0:0:0:
153,192,140543,128,0,140681:0:0:0:0:
358,192,140681,1,0,0:0:0:0:
256,192,140681,1,0,0:0:0:0:
460,192,140681,128,0,140819:0:0:0:0:
153,192,140819,1,0,0:0:0:0:
51,192,140819,128,0,140956:0:0:0:0:
256,192,140956,1,0,0:0:0:0:
358,192,140956,128,0,141094:0:0:0:0:
51,192,141094,128,0,141370:0:0:0:0:
460,192,141094,128,0,141370:0:0:0:0:
256,192,141370,128,0,141508:0:0:0:0:
358,192,141370,128,0,141508:0:0:0:0:
51,192,141508,1,0,0:0:0:0:
153,192,141508,1,0,0:0:0:0:
460,192,141508,128,0,141646:0:0:0:0:
256,192,141646,1,0,0:0:0:0:
358,192,141646,128,0,141784:0:0:0:0:
153,192,141784,1,0,0:0:0:0:
51,192,141784,128,0,141922:0:0:0:0:
358,192,141922,1,0,0:0:0:0:
256,192,141922,1,0,0:0:0:0:
460,192,141922,128,0,142060:0:0:0:0:
153,192,142060,128,0,142198:0:0:0:0:
51,192,142060,1,0,0:0:0:0:
460,192,142198,128,0,142336:0:0:0:0:
358,192,142198,1,0,0:0:0:0:
153,192,142336,1,0,0:0:0:0:
256,192,142336,128,0,143025:0:0:0:0:
51,192,142336,128,0,142474:0:0:0:0:
358,192,142474,128,0,142612:0:0:0:0:
153,192,142612,128,0,142750:0:0:0:0:
460,192,142750,128,0,142887:0:0:0:0:
51,192,142887,128,0,143025:0:0:0:0:
358,192,143025,128,0,143163:0:0:0:0:
153,192,143163,1,0,0:0:0:0:
460,192,143163,128,0,143301:0:0:0:0:
256,192,143163,1,0,0:0:0:0:
51,192,143301,128,0,143439:0:0:0:0:
153,192,143439,128,0,143577:0:0:0:0:
256,192,143577,1,0,0:0:0:0:
358,192,143577,1,0,0:0:0:0:
460,192,143577,128,0,143715:0:0:0:0:
51,192,143715,128,0,143853:0:0:0:0:
153,192,143853,128,0,143991:0:0:0:0:
358,192,143991,1,0,0:0:0:0:
256,192,143991,1,0,0:0:0:0:
51,192,143991,128,0,144129:0:0:0:0:
460,192,144129,128,0,144267:0:0:0:0:
358,192,144267,128,0,144405:0:0:0:0:
256,192,144405,1,0,0:0:0:0:
153,192,144405,1,0,0:0:0:0:
51,192,144405,128,0,144543:0:0:0:0:
460,192,144543,128,0,144681:0:0:0:0:
358,192,144681,128,0,144819:0:0:0:0:
256,192,144819,1,0,0:0:0:0:
460,192,144819,1,0,0:0:0:0:
153,192,144819,128,0,145094:0:0:0:0:
51,192,145094,128,0,145232:0:0:0:0:
460,192,145232,1,0,0:0:0:0:
153,192,145232,1,0,0:0:0:0:
358,192,145232,1,0,0:0:0:0:
256,192,145370,1,0,0:0:0:0:
51,192,145370,1,0,0:0:0:0:
153,192,145508,1,0,0:0:0:0:
460,192,145508,1,0,0:0:0:0:
256,192,145646,1,0,0:0:0:0:
51,192,145646,1,0,0:0:0:0:
358,192,145646,128,0,145922:0:0:0:0:
460,192,145922,128,0,146060:0:0:0:0:
51,192,146060,1,0,0:0:0:0:
358,192,146060,1,0,0:0:0:0:
153,192,146060,1,0,0:0:0:0:
256,192,146198,1,0,0:0:0:0:
460,192,146198,1,0,0:0:0:0:
153,192,146336,1,0,0:0:0:0:
358,192,146336,1,0,0:0:0:0:
460,192,146474,1,0,0:0:0:0:
358,192,146525,1,0,0:0:0:0:
153,192,146577,1,0,0:0:0:0:
51,192,146629,1,0,0:0:0:0:
460,192,146681,1,0,0:0:0:0:
358,192,146732,1,0,0:0:0:0:
153,192,146784,1,0,0:0:0:0:
51,192,146836,1,0,0:0:0:0:
460,192,146887,1,0,0:0:0:0:
358,192,146939,1,0,0:0:0:0:
153,192,146991,1,0,0:0:0:0:
51,192,147043,1,0,0:0:0:0:
460,192,147094,1,0,0:0:0:0:
358,192,147146,1,0,0:0:0:0:
153,192,147198,1,0,0:0:0:0:
51,192,147250,1,0,0:0:0:0:
460,192,147301,1,0,0:0:0:0:
358,192,147353,1,0,0:0:0:0:
153,192,147405,1,0,0:0:0:0:
51,192,147456,1,0,0:0:0:0:
460,192,147508,1,0,0:0:0:0:
358,192,147560,1,0,0:0:0:0:
153,192,147612,1,0,0:0:0:0:
51,192,147663,1,0,0:0:0:0:
460,192,147715,1,0,0:0:0:0:
358,192,147767,1,0,0:0:0:0:
153,192,147819,1,0,0:0:0:0:
51,192,147870,1,0,0:0:0:0:
460,192,147922,1,0,0:0:0:0:
358,192,147974,1,0,0:0:0:0:
256,192,148025,1,0,0:0:0:0:
153,192,148077,1,0,0:0:0:0:
51,192,148129,1,0,0:0:0:0:
153,192,148181,1,0,0:0:0:0:
358,192,148232,1,0,0:0:0:0:
460,192,148284,1,0,0:0:0:0:
51,192,148336,1,0,0:0:0:0:
153,192,148387,1,0,0:0:0:0:
358,192,148439,1,0,0:0:0:0:
460,192,148491,1,0,0:0:0:0:
51,192,148543,1,0,0:0:0:0:
153,192,148594,1,0,0:0:0:0:
358,192,148646,1,0,0:0:0:0:
460,192,148698,1,0,0:0:0:0:
51,192,148750,1,0,0:0:0:0:
153,192,148801,1,0,0:0:0:0:
256,192,148853,1,0,0:0:0:0:
358,192,148905,1,0,0:0:0:0:
460,192,148956,1,0,0:0:0:0:
358,192,149008,1,0,0:0:0:0:
153,192,149060,1,0,0:0:0:0:
51,192,149112,1,0,0:0:0:0:
460,192,149163,1,0,0:0:0:0:
358,192,149215,1,0,0:0:0:0:
153,192,149267,1,0,0:0:0:0:
51,192,149319,1,0,0:0:0:0:
460,192,149370,1,0,0:0:0:0:
358,192,149422,1,0,0:0:0:0:
153,192,149474,1,0,0:0:0:0:
51,192,149525,1,0,0:0:0:0:
460,192,149577,1,0,0:0:0:0:
358,192,149629,1,0,0:0:0:0:
153,192,149681,1,0,0:0:0:0:
51,192,149732,1,0,0:0:0:0:
153,192,149784,1,0,0:0:0:0:
256,192,149784,1,0,0:0:0:0:
358,192,149784,1,0,0:0:0:0:
460,192,149784,1,0,0:0:0:0:
51,192,150198,1,0,0:0:0:0:
153,192,150198,1,0,0:0:0:0:
256,192,150198,1,0,0:0:0:0:
358,192,150198,1,0,0:0:0:0:
51,192,150612,1,0,0:0:0:0:
153,192,150612,1,0,0:0:0:0:
460,192,150612,1,0,0:0:0:0:
256,192,150612,1,0,0:0:0:0:
256,192,150887,1,0,0:0:0:0:
51,192,151025,1,0,0:0:0:0:
358,192,151025,1,0,0:0:0:0:
460,192,151025,1,0,0:0:0:0:
153,192,151025,1,0,0:0:0:0:
460,192,151439,128,0,151577:0:0:0:0:
51,192,151439,1,0,0:0:0:0:
153,192,151439,1,0,0:0:0:0:
358,192,151577,128,0,151715:0:0:0:0:
256,192,151715,128,0,151853:0:0:0:0:
153,192,151715,1,0,0:0:0:0:
51,192,151853,128,0,151991:0:0:0:0:
358,192,151853,1,0,0:0:0:0:
460,192,151853,1,0,0:0:0:0:
153,192,151991,128,0,152129:0:0:0:0:
256,192,152129,128,0,152267:0:0:0:0:
358,192,152129,1,0,0:0:0:0:
460,192,152267,128,0,152405:0:0:0:0:
153,192,152267,1,0,0:0:0:0:
51,192,152267,1,0,0:0:0:0:
358,192,152405,128,0,152543:0:0:0:0:
256,192,152543,128,0,152681:0:0:0:0:
153,192,152543,1,0,0:0:0:0:
51,192,152681,128,0,152819:0:0:0:0:
358,192,152681,1,0,0:0:0:0:
460,192,152681,1,0,0:0:0:0:
153,192,152819,128,0,152956:0:0:0:0:
256,192,152956,128,0,153094:0:0:0:0:
358,192,152956,1,0,0:0:0:0:
460,192,153094,128,0,153232:0:0:0:0:
51,192,153094,1,0,0:0:0:0:
153,192,153094,1,0,0:0:0:0:
256,192,153232,1,0,0:0:0:0:
358,192,153232,128,0,153370:0:0:0:0:
153,192,153370,1,0,0:0:0:0:
51,192,153370,128,0,153508:0:0:0:0:
256,192,153508,1,0,0:0:0:0:
358,192,153508,1,0,0:0:0:0:
460,192,153508,128,0,153646:0:0:0:0:
51,192,153646,1,0,0:0:0:0:
153,192,153646,128,0,153784:0:0:0:0:
460,192,153784,1,0,0:0:0:0:
358,192,153784,128,0,153922:0:0:0:0:
153,192,153922,1,0,0:0:0:0:
256,192,153922,1,0,0:0:0:0:
51,192,153922,128,0,154060:0:0:0:0:
358,192,154060,1,0,0:0:0:0:
460,192,154060,128,0,154198:0:0:0:0:
256,192,154198,1,0,0:0:0:0:
153,192,154198,128,0,154336:0:0:0:0:
51,192,154336,128,0,154612:0:0:0:0:
460,192,154336,128,0,154612:0:0:0:0:
256,192,154612,128,0,154750:0:0:0:0:
153,192,154612,128,0,154750:0:0:0:0:
51,192,154750,1,0,0:0:0:0:
358,192,154750,1,0,0:0:0:0:
460,192,154750,128,0,154887:0:0:0:0:
256,192,154887,1,0,0:0:0:0:
153,192,154887,128,0,155025:0:0:0:0:
358,192,155025,1,0,0:0:0:0:
460,192,155025,128,0,155163:0:0:0:0:
153,192,155163,1,0,0:0:0:0:
256,192,155163,1,0,0:0:0:0:
51,192,155163,128,0,155301:0:0:0:0:
358,192,155301,128,0,155439:0:0:0:0:
460,192,155301,1,0,0:0:0:0:
51,192,155439,128,0,155577:0:0:0:0:
153,192,155439,1,0,0:0:0:0:
358,192,155577,1,0,0:0:0:0:
256,192,155577,128,0,156267:0:0:0:0:
460,192,155577,128,0,155715:0:0:0:0:
153,192,155715,128,0,155853:0:0:0:0:
358,192,155853,128,0,155991:0:0:0:0:
51,192,155991,128,0,156129:0:0:0:0:
460,192,156129,128,0,156267:0:0:0:0:
153,192,156267,128,0,156405:0:0:0:0:
358,192,156405,1,0,0:0:0:0:
51,192,156405,128,0,156543:0:0:0:0:
256,192,156405,1,0,0:0:0:0:
460,192,156543,128,0,156681:0:0:0:0:
358,192,156681,128,0,156819:0:0:0:0:
256,192,156819,1,0,0:0:0:0:
153,192,156819,1,0,0:0:0:0:
51,192,156819,128,0,156956:0:0:0:0:
460,192,156956,128,0,157094:0:0:0:0:
358,192,157094,128,0,157232:0:0:0:0:
153,192,157232,1,0,0:0:0:0:
256,192,157232,1,0,0:0:0:0:
460,192,157232,128,0,157370:0:0:0:0:
51,192,157370,128,0,157508:0:0:0:0:
153,192,157508,128,0,157646:0:0:0:0:
256,192,157646,1,0,0:0:0:0:
358,192,157646,1,0,0:0:0:0:
460,192,157646,128,0,157784:0:0:0:0:
51,192,157784,128,0,157922:0:0:0:0:
153,192,157922,128,0,158060:0:0:0:0:
256,192,158060,1,0,0:0:0:0:
51,192,158060,1,0,0:0:0:0:
358,192,158060,128,0,158336:0:0:0:0:
460,192,158336,128,0,158474:0:0:0:0:
51,192,158474,1,0,0:0:0:0:
153,192,158474,1,0,0:0:0:0:
358,192,158474,1,0,0:0:0:0:
256,192,158612,1,0,0:0:0:0:
460,192,158612,1,0,0:0:0:0:
358,192,158750,1,0,0:0:0:0:
51,192,158750,1,0,0:0:0:0:
256,192,158887,1,0,0:0:0:0:
460,192,158887,1,0,0:0:0:0:
153,192,158887,128,0,159163:0:0:0:0:
51,192,159163,128,0,159301:0:0:0:0:
460,192,159301,1,0,0:0:0:0:
358,192,159301,1,0,0:0:0:0:
153,192,159301,1,0,0:0:0:0:
256,192,159439,1,0,0:0:0:0:
51,192,159439,1,0,0:0:0:0:
153,192,159577,1,0,0:0:0:0:
358,192,159577,1,0,0:0:0:0:
460,192,159715,1,0,0:0:0:0:
358,192,159767,1,0,0:0:0:0:
153,192,159819,1,0,0:0:0:0:
51,192,159870,1,0,0:0:0:0:
460,192,159922,1,0,0:0:0:0:
358,192,159974,1,0,0:0:0:0:
153,192,160025,1,0,0:0:0:0:
51,192,160077,1,0,0:0:0:0:
460,192,160129,1,0,0:0:0:0:
358,192,160181,1,0,0:0:0:0:
153,192,160232,1,0,0:0:0:0:
51,192,160284,1,0,0:0:0:0:
460,192,160336,1,0,0:0:0:0:
358,192,160387,1,0,0:0:0:0:
153,192,160439,1,0,0:0:0:0:
51,192,160491,1,0,0:0:0:0:
460,192,160543,1,0,0:0:0:0:
358,192,160594,1,0,0:0:0:0:
153,192,160646,1,0,0:0:0:0:
51,192,160698,1,0,0:0:0:0:
460,192,160750,1,0,0:0:0:0:
358,192,160801,1,0,0:0:0:0:
153,192,160853,1,0,0:0:0:0:
51,192,160905,1,0,0:0:0:0:
460,192,160956,1,0,0:0:0:0:
358,192,161008,1,0,0:0:0:0:
153,192,161060,1,0,0:0:0:0:
51,192,161112,1,0,0:0:0:0:
460,192,161163,1,0,0:0:0:0:
358,192,161215,1,0,0:0:0:0:
256,192,161267,1,0,0:0:0:0:
153,192,161319,1,0,0:0:0:0:
51,192,161370,1,0,0:0:0:0:
153,192,161422,1,0,0:0:0:0:
358,192,161474,1,0,0:0:0:0:
460,192,161525,1,0,0:0:0:0:
51,192,161577,1,0,0:0:0:0:
153,192,161629,1,0,0:0:0:0:
358,192,161681,1,0,0:0:0:0:
460,192,161732,1,0,0:0:0:0:
51,192,161784,1,0,0:0:0:0:
153,192,161836,1,0,0:0:0:0:
358,192,161887,1,0,0:0:0:0:
460,192,161939,1,0,0:0:0:0:
51,192,161991,1,0,0:0:0:0:
153,192,162043,1,0,0:0:0:0:
256,192,162094,1,0,0:0:0:0:
358,192,162146,1,0,0:0:0:0:
460,192,162198,1,0,0:0:0:0:
358,192,162250,1,0,0:0:0:0:
153,192,162301,1,0,0:0:0:0:
51,192,162353,1,0,0:0:0:0:
460,192,162405,1,0,0:0:0:0:
358,192,162456,1,0,0:0:0:0:
153,192,162508,1,0,0:0:0:0:
51,192,162560,1,0,0:0:0:0:
460,192,162612,1,0,0:0:0:0:
358,192,162663,1,0,0:0:0:0:
153,192,162715,1,0,0:0:0:0:
51,192,162767,1,0,0:0:0:0:
460,192,162819,1,0,0:0:0:0:
358,192,162870,1,0,0:0:0:0:
153,192,162922,1,0,0:0:0:0:
51,192,162974,1,0,0:0:0:0:
153,192,163025,1,0,0:0:0:0:
256,192,163025,1,0,0:0:0:0:
358,192,163025,1,0,0:0:0:0:
460,192,163025,1,0,0:0:0:0:
51,192,163439,1,0,0:0:0:0:
153,192,163439,1,0,0:0:0:0:
256,192,163439,1,0,0:0:0:0:
358,192,163439,1,0,0:0:0:0:
51,192,163853,1,0,0:0:0:0:
153,192,163853,1,0,0:0:0:0:
460,192,163853,1,0,0:0:0:0:
256,192,163853,1,0,0:0:0:0:
256,192,164129,1,0,0:0:0:0:
51,192,164267,1,0,0:0:0:0:
358,192,164267,1,0,0:0:0:0:
460,192,164267,1,0,0:0:0:0:
153,192,164267,1,0,0:0:0:0:
51,192,164681,1,0,0:0:0:0:
153,192,164681,1,0,0:0:0:0:
460,192,164681,1,0,0:0:0:0:
256,192,164819,1,0,0:0:0:0:
358,192,164819,1,0,0:0:0:0:
51,192,164956,1,0,0:0:0:0:
153,192,164956,1,0,0:0:0:0:
256,192,165094,1,0,0:0:0:0:
358,192,165094,1,0,0:0:0:0:
460,192,165094,1,0,0:0:0:0:
51,192,165232,1,0,0:0:0:0:
153,192,165232,1,0,0:0:0:0:
256,192,165370,1,0,0:0:0:0:
358,192,165370,1,0,0:0:0:0:
460,192,165370,1,0,0:0:0:0:
460,192,165508,1,0,0:0:0:0:
358,192,165508,1,0,0:0:0:0:
51,192,165508,1,0,0:0:0:0:
256,192,165646,1,0,0:0:0:0:
153,192,165646,1,0,0:0:0:0:
460,192,165784,1,0,0:0:0:0:
51,192,165784,1,0,0:0:0:0:
153,192,165922,1,0,0:0:0:0:
256,192,165922,1,0,0:0:0:0:
358,192,165922,1,0,0:0:0:0:
460,192,166060,1,0,0:0:0:0:
51,192,166060,1,0,0:0:0:0:
358,192,166198,1,0,0:0:0:0:
153,192,166198,1,0,0:0:0:0:
256,192,166336,1,0,0:0:0:0:
460,192,166336,1,0,0:0:0:0:
51,192,166336,128,0,167025:0:0:0:0:
153,192,166750,1,0,0:0:0:0:
256,192,166750,1,0,0:0:0:0:
460,192,166750,1,0,0:0:0:0:
358,192,167025,1,0,0:0:0:0:
460,192,167025,1,0,0:0:0:0:
153,192,167163,1,0,0:0:0:0:
51,192,167163,128,0,167439:0:0:0:0:
153,192,167439,1,0,0:0:0:0:
460,192,167577,1,0,0:0:0:0:
358,192,167577,1,0,0:0:0:0:
256,192,167577,1,0,0:0:0:0:
51,192,167577,128,0,167991:0:0:0:0:
153,192,167991,128,0,168681:0:0:0:0:
51,192,168405,1,0,0:0:0:0:
256,192,168405,1,0,0:0:0:0:
358,192,168405,1,0,0:0:0:0:
51,192,168681,1,0,0:0:0:0:
460,192,168681,1,0,0:0:0:0:
256,192,168819,1,0,0:0:0:0:
153,192,168819,128,0,169094:0:0:0:0:
358,192,169094,1,0,0:0:0:0:
51,192,169232,1,0,0:0:0:0:
256,192,169232,128,0,169646:0:0:0:0:
460,192,169646,1,0,0:0:0:0:
153,192,169646,1,0,0:0:0:0:
51,192,169646,128,0,170336:0:0:0:0:
153,192,170060,1,0,0:0:0:0:
256,192,170060,1,0,0:0:0:0:
460,192,170060,1,0,0:0:0:0:
153,192,170336,1,0,0:0:0:0:
358,192,170336,1,0,0:0:0:0:
460,192,170474,1,0,0:0:0:0:
51,192,170474,128,0,170750:0:0:0:0:
153,192,170750,1,0,0:0:0:0:
460,192,170887,1,0,0:0:0:0:
358,192,170887,1,0,0:0:0:0:
256,192,170887,1,0,0:0:0:0:
51,192,170887,128,0,171301:0:0:0:0:
153,192,171301,128,0,171715:0:0:0:0:
51,192,171715,1,0,0:0:0:0:
358,192,171715,1,0,0:0:0:0:
256,192,171715,128,0,172129:0:0:0:0:
51,192,171991,1,0,0:0:0:0:
460,192,171991,1,0,0:0:0:0:
153,192,172129,1,0,0:0:0:0:
358,192,172129,128,0,172543:0:0:0:0:
256,192,172405,1,0,0:0:0:0:
51,192,172543,1,0,0:0:0:0:
153,192,172543,1,0,0:0:0:0:
460,192,172543,128,0,172956:0:0:0:0:
256,192,172956,128,0,173646:0:0:0:0:
51,192,173370,1,0,0:0:0:0:
460,192,173370,1,0,0:0:0:0:
358,192,173646,1,0,0:0:0:0:
256,192,173784,128,0,174060:0:0:0:0:
153,192,173784,1,0,0:0:0:0:
51,192,173784,1,0,0:0:0:0:
153,192,174060,1,0,0:0:0:0:
256,192,174198,128,0,174474:0:0:0:0:
358,192,174198,1,0,0:0:0:0:
460,192,174198,1,0,0:0:0:0:
153,192,174474,1,0,0:0:0:0:
51,192,174612,128,0,175301:0:0:0:0:
460,192,174612,1,0,0:0:0:0:
256,192,175025,1,0,0:0:0:0:
358,192,175025,1,0,0:0:0:0:
460,192,175025,1,0,0:0:0:0:
153,192,175301,1,0,0:0:0:0:
51,192,175439,128,0,175715:0:0:0:0:
256,192,175439,1,0,0:0:0:0:
153,192,175715,1,0,0:0:0:0:
256,192,175853,128,0,176267:0:0:0:0:
460,192,175853,1,0,0:0:0:0:
51,192,176129,1,0,0:0:0:0:
153,192,176267,128,0,176956:0:0:0:0:
460,192,176267,1,0,0:0:0:0:
358,192,176543,1,0,0:0:0:0:
51,192,176681,1,0,0:0:0:0:
460,192,176681,1,0,0:0:0:0:
256,192,176956,1,0,0:0:0:0:
153,192,177094,128,0,177370:0:0:0:0:
51,192,177094,1,0,0:0:0:0:
256,192,177370,1,0,0:0:0:0:
153,192,177508,128,0,177646:0:0:0:0:
358,192,177508,1,0,0:0:0:0:
460,192,177508,1,0,0:0:0:0:
153,192,177784,128,0,177922:0:0:0:0:
358,192,177784,1,0,0:0:0:0:
460,192,177784,1,0,0:0:0:0:
51,192,177922,128,0,178198:0:0:0:0:
256,192,177922,1,0,0:0:0:0:
460,192,177922,1,0,0:0:0:0:
153,192,178198,1,0,0:0:0:0:
51,192,178336,128,0,178612:0:0:0:0:
256,192,178336,1,0,0:0:0:0:
460,192,178336,1,0,0:0:0:0:
358,192,178612,128,0,179163:0:0:0:0:
51,192,178750,128,0,179025:0:0:0:0:
256,192,178750,1,0,0:0:0:0:
460,192,178750,1,0,0:0:0:0:
256,192,179025,1,0,0:0:0:0:
460,192,179163,1,0,0:0:0:0:
153,192,179163,128,0,179439:0:0:0:0:
358,192,179301,1,0,0:0:0:0:
51,192,179301,1,0,0:0:0:0:
256,192,179439,1,0,0:0:0:0:
460,192,179439,1,0,0:0:0:0:
51,192,179577,128,0,180267:0:0:0:0:
460,192,179991,1,0,0:0:0:0:
358,192,179991,1,0,0:0:0:0:
153,192,180267,1,0,0:0:0:0:
460,192,180267,1,0,0:0:0:0:
51,192,180405,128,0,180681:0:0:0:0:
358,192,180405,1,0,0:0:0:0:
153,192,180681,1,0,0:0:0:0:
358,192,180681,1,0,0:0:0:0:
51,192,180819,128,0,181094:0:0:0:0:
460,192,180819,1,0,0:0:0:0:
256,192,180819,1,0,0:0:0:0:
358,192,181232,128,0,181922:0:0:0:0:
153,192,181646,1,0,0:0:0:0:
51,192,181646,1,0,0:0:0:0:
460,192,181922,1,0,0:0:0:0:
153,192,181922,1,0,0:0:0:0:
358,192,182060,128,0,182336:0:0:0:0:
51,192,182060,1,0,0:0:0:0:
256,192,182336,1,0,0:0:0:0:
460,192,182474,128,0,182750:0:0:0:0:
153,192,182474,1,0,0:0:0:0:
51,192,182474,1,0,0:0:0:0:
256,192,182887,128,0,183577:0:0:0:0:
51,192,183301,1,0,0:0:0:0:
460,192,183301,1,0,0:0:0:0:
153,192,183577,1,0,0:0:0:0:
358,192,183577,1,0,0:0:0:0:
256,192,183715,128,0,183991:0:0:0:0:
460,192,183715,1,0,0:0:0:0:
153,192,183991,1,0,0:0:0:0:
358,192,183991,1,0,0:0:0:0:
256,192,184129,128,0,184405:0:0:0:0:
51,192,184129,1,0,0:0:0:0:
460,192,184129,1,0,0:0:0:0:
51,192,184543,128,0,184819:0:0:0:0:
256,192,184819,1,0,0:0:0:0:
153,192,184956,128,0,185232:0:0:0:0:
358,192,184956,1,0,0:0:0:0:
460,192,184956,1,0,0:0:0:0:
358,192,185232,1,0,0:0:0:0:
51,192,185232,1,0,0:0:0:0:
256,192,185370,128,0,185646:0:0:0:0:
460,192,185370,1,0,0:0:0:0:
460,192,185646,1,0,0:0:0:0:
51,192,185646,1,0,0:0:0:0:
358,192,185784,128,0,186060:0:0:0:0:
153,192,185784,1,0,0:0:0:0:
51,192,186060,1,0,0:0:0:0:
460,192,186198,128,0,186887:0:0:0:0:
51,192,186612,1,0,0:0:0:0:
358,192,186612,1,0,0:0:0:0:
256,192,186887,1,0,0:0:0:0:
358,192,186887,1,0,0:0:0:0:
51,192,187025,128,0,187301:0:0:0:0:
153,192,187025,1,0,0:0:0:0:
460,192,187301,1,0,0:0:0:0:
256,192,187301,1,0,0:0:0:0:
358,192,187439,128,0,187715:0:0:0:0:
153,192,187439,1,0,0:0:0:0:
460,192,187715,128,0,187853:0:0:0:0:
51,192,187853,128,0,188129:0:0:0:0:
153,192,188129,1,0,0:0:0:0:
51,192,188267,128,0,188543:0:0:0:0:
358,192,188267,1,0,0:0:0:0:
460,192,188267,1,0,0:0:0:0:
153,192,188543,1,0,0:0:0:0:
460,192,188543,1,0,0:0:0:0:
256,192,188681,128,0,188956:0:0:0:0:
358,192,188681,1,0,0:0:0:0:
153,192,188956,1,0,0:0:0:0:
358,192,188956,1,0,0:0:0:0:
51,192,189094,128,0,189370:0:0:0:0:
460,192,189094,1,0,0:0:0:0:
153,192,189370,1,0,0:0:0:0:
256,192,189508,1,0,0:0:0:0:
358,192,189508,1,0,0:0:0:0:
460,192,189508,1,0,0:0:0:0:
51,192,189508,1,0,0:0:0:0:
153,192,189922,1,0,0:0:0:0:
256,192,189922,1,0,0:0:0:0:
358,192,189922,1,0,0:0:0:0:
460,192,189922,1,0,0:0:0:0:
51,192,190336,1,0,0:0:0:0:
153,192,190336,1,0,0:0:0:0:
256,192,190336,1,0,0:0:0:0:
460,192,190336,1,0,0:0:0:0:
460,192,190612,1,0,0:0:0:0:
51,192,190750,1,0,0:0:0:0:
153,192,190750,1,0,0:0:0:0:
358,192,190750,1,0,0:0:0:0:
256,192,190750,128,0,191025:0:0:0:0:
51,192,191025,1,0,0:0:0:0:
153,192,191025,1,0,0:0:0:0:
358,192,191025,1,0,0:0:0:0:
460,192,191025,1,0,0:0:0:0:
153,192,191439,1,0,0:0:0:0:
256,192,191439,1,0,0:0:0:0:
358,192,191439,1,0,0:0:0:0:
460,192,191439,1,0,0:0:0:0:
51,192,191577,128,0,191853:0:0:0:0:
256,192,191853,1,0,0:0:0:0:
358,192,191853,1,0,0:0:0:0:
153,192,191853,1,0,0:0:0:0:
51,192,191991,1,0,0:0:0:0:
460,192,192060,1,0,0:0:0:0:
153,192,192129,1,0,0:0:0:0:
358,192,192198,1,0,0:0:0:0:
51,192,192267,1,0,0:0:0:0:
460,192,192336,1,0,0:0:0:0:
153,192,192405,1,0,0:0:0:0:
358,192,192474,1,0,0:0:0:0:
51,192,192543,1,0,0:0:0:0:
460,192,192612,1,0,0:0:0:0:
153,192,192681,1,0,0:0:0:0:
358,192,192750,1,0,0:0:0:0:
153,192,192819,1,0,0:0:0:0:
256,192,192819,1,0,0:0:0:0:
51,192,192819,1,0,0:0:0:0:
460,192,192819,1,0,0:0:0:0:
51,192,193232,1,0,0:0:0:0:
256,192,193232,1,0,0:0:0:0:
358,192,193232,1,0,0:0:0:0:
460,192,193232,1,0,0:0:0:0:
153,192,193646,1,0,0:0:0:0:
51,192,193646,1,0,0:0:0:0:
358,192,193646,1,0,0:0:0:0:
460,192,193646,1,0,0:0:0:0:
256,192,193784,1,0,0:0:0:0:
460,192,193784,128,0,193922:0:0:0:0:
153,192,193922,1,0,0:0:0:0:
358,192,193922,128,0,194060:0:0:0:0:
51,192,194060,128,0,194198:0:0:0:0:
256,192,194060,1,0,0:0:0:0:
153,192,194198,128,0,194336:0:0:0:0:
358,192,194198,1,0,0:0:0:0:
460,192,194336,128,0,194474:0:0:0:0:
256,192,194336,1,0,0:0:0:0:
358,192,194474,128,0,195577:0:0:0:0:
51,192,194474,1,0,0:0:0:0:
51,192,194887,1,0,0:0:0:0:
460,192,194887,1,0,0:0:0:0:
51,192,195301,1,0,0:0:0:0:
256,192,195577,128,0,195715:0:0:0:0:
51,192,195577,1,0,0:0:0:0:
460,192,195715,1,0,0:0:0:0:
153,192,195715,128,0,195991:0:0:0:0:
358,192,195715,1,0,0:0:0:0:
460,192,195991,1,0,0:0:0:0:
51,192,195991,1,0,0:0:0:0:
358,192,196060,1,0,0:0:0:0:
256,192,196129,128,0,197784:0:0:0:0:
153,192,196129,1,0,0:0:0:0:
460,192,196267,1,0,0:0:0:0:
51,192,196267,1,0,0:0:0:0:
358,192,196405,1,0,0:0:0:0:
460,192,196543,1,0,0:0:0:0:
51,192,196543,1,0,0:0:0:0:
153,192,196681,1,0,0:0:0:0:
51,192,196819,1,0,0:0:0:0:
460,192,196819,1,0,0:0:0:0:
358,192,196956,1,0,0:0:0:0:
460,192,197094,1,0,0:0:0:0:
51,192,197094,1,0,0:0:0:0:
153,192,197232,1,0,0:0:0:0:
51,192,197370,1,0,0:0:0:0:
460,192,197370,1,0,0:0:0:0:
358,192,197508,1,0,0:0:0:0:
460,192,197646,1,0,0:0:0:0:
51,192,197646,1,0,0:0:0:0:
51,192,197784,1,0,0:0:0:0:
153,192,197784,1,0,0:0:0:0:
358,192,197784,1,0,0:0:0:0:
460,192,197784,1,0,0:0:0:0:
51,192,198198,128,0,198612:0:0:0:0:
153,192,198612,128,0,199025:0:0:0:0:
51,192,198887,1,0,0:0:0:0:
256,192,199025,1,0,0:0:0:0:
358,192,199025,1,0,0:0:0:0:
460,192,199025,128,0,199439:0:0:0:0:
51,192,199163,1,0,0:0:0:0:
358,192,199301,1,0,0:0:0:0:
153,192,199301,1,0,0:0:0:0:
51,192,199439,128,0,199577:0:0:0:0:
256,192,199439,128,0,199577:0:0:0:0:
153,192,199577,128,0,199715:0:0:0:0:
460,192,199715,128,0,199853:0:0:0:0:
51,192,199853,128,0,199991:0:0:0:0:
256,192,199853,128,0,199991:0:0:0:0:
358,192,199991,128,0,200129:0:0:0:0:
153,192,200129,128,0,200267:0:0:0:0:
460,192,200267,128,0,200405:0:0:0:0:
256,192,200267,128,0,200405:0:0:0:0:
51,192,200405,128,0,200543:0:0:0:0:
358,192,200543,128,0,200681:0:0:0:0:
51,192,200681,128,0,200956:0:0:0:0:
460,192,200681,128,0,200956:0:0:0:0:
256,192,200681,128,0,200819:0:0:0:0:
358,192,200956,128,0,201094:0:0:0:0:
153,192,200956,128,0,201094:0:0:0:0:
460,192,201094,128,0,201232:0:0:0:0:
256,192,201094,128,0,201232:0:0:0:0:
358,192,201232,128,0,201370:0:0:0:0:
51,192,201370,128,0,201508:0:0:0:0:
460,192,201508,128,0,201646:0:0:0:0:
256,192,201508,128,0,201646:0:0:0:0:
153,192,201646,128,0,201784:0:0:0:0:
460,192,201784,128,0,201922:0:0:0:0:
51,192,201922,128,0,202060:0:0:0:0:
256,192,201922,128,0,202060:0:0:0:0:
358,192,202060,128,0,202198:0:0:0:0:
153,192,202198,128,0,202336:0:0:0:0:
460,192,202336,128,0,202474:0:0:0:0:
256,192,202336,128,0,202474:0:0:0:0:
51,192,202474,128,0,202612:0:0:0:0:
358,192,202612,128,0,202750:0:0:0:0:
460,192,202750,128,0,202887:0:0:0:0:
256,192,202750,128,0,202887:0:0:0:0:
51,192,202887,128,0,203025:0:0:0:0:
153,192,203025,128,0,203163:0:0:0:0:
460,192,203163,128,0,203301:0:0:0:0:
256,192,203163,128,0,203301:0:0:0:0:
51,192,203301,128,0,203439:0:0:0:0:
153,192,203439,128,0,203577:0:0:0:0:
51,192,203577,128,0,203715:0:0:0:0:
256,192,203577,128,0,203715:0:0:0:0:
460,192,203715,128,0,203853:0:0:0:0:
358,192,203853,128,0,203991:0:0:0:0:
51,192,203991,128,0,204129:0:0:0:0:
256,192,203991,128,0,204129:0:0:0:0:
460,192,204129,128,0,204267:0:0:0:0:
358,192,204267,128,0,204405:0:0:0:0:
153,192,204405,128,0,204681:0:0:0:0:
256,192,204405,1,0,0:0:0:0:
51,192,204681,128,0,204819:0:0:0:0:
256,192,204819,128,0,205232:0:0:0:0:
153,192,204819,128,0,205232:0:0:0:0:
358,192,205232,128,0,205508:0:0:0:0:
460,192,205508,128,0,205646:0:0:0:0:
256,192,205508,128,0,205646:0:0:0:0:
153,192,205646,128,0,205922:0:0:0:0:
51,192,205646,128,0,205922:0:0:0:0:
256,192,205922,128,0,206060:0:0:0:0:
460,192,206060,1,0,0:0:0:0:
358,192,206112,1,0,0:0:0:0:
153,192,206163,1,0,0:0:0:0:
51,192,206215,1,0,0:0:0:0:
460,192,206267,1,0,0:0:0:0:
358,192,206319,1,0,0:0:0:0:
153,192,206370,1,0,0:0:0:0:
51,192,206422,1,0,0:0:0:0:
460,192,206474,1,0,0:0:0:0:
358,192,206525,1,0,0:0:0:0:
153,192,206577,1,0,0:0:0:0:
51,192,206629,1,0,0:0:0:0:
460,192,206681,1,0,0:0:0:0:
358,192,206732,1,0,0:0:0:0:
153,192,206784,1,0,0:0:0:0:
51,192,206836,1,0,0:0:0:0:
460,192,206887,1,0,0:0:0:0:
358,192,206939,1,0,0:0:0:0:
153,192,206991,1,0,0:0:0:0:
51,192,207043,1,0,0:0:0:0:
460,192,207094,1,0,0:0:0:0:
358,192,207146,1,0,0:0:0:0:
153,192,207198,1,0,0:0:0:0:
51,192,207250,1,0,0:0:0:0:
460,192,207301,1,0,0:0:0:0:
358,192,207353,1,0,0:0:0:0:
153,192,207405,1,0,0:0:0:0:
51,192,207456,1,0,0:0:0:0:
460,192,207508,1,0,0:0:0:0:
358,192,207560,1,0,0:0:0:0:
256,192,207612,1,0,0:0:0:0:
153,192,207663,1,0,0:0:0:0:
51,192,207715,1,0,0:0:0:0:
153,192,207767,1,0,0:0:0:0:
358,192,207819,1,0,0:0:0:0:
460,192,207870,1,0,0:0:0:0:
51,192,207922,1,0,0:0:0:0:
153,192,207974,1,0,0:0:0:0:
358,192,208025,1,0,0:0:0:0:
460,192,208077,1,0,0:0:0:0:
51,192,208129,1,0,0:0:0:0:
153,192,208181,1,0,0:0:0:0:
358,192,208232,1,0,0:0:0:0:
460,192,208284,1,0,0:0:0:0:
51,192,208336,1,0,0:0:0:0:
153,192,208387,1,0,0:0:0:0:
256,192,208439,1,0,0:0:0:0:
358,192,208491,1,0,0:0:0:0:
460,192,208543,1,0,0:0:0:0:
358,192,208594,1,0,0:0:0:0:
153,192,208646,1,0,0:0:0:0:
51,192,208698,1,0,0:0:0:0:
460,192,208750,1,0,0:0:0:0:
358,192,208801,1,0,0:0:0:0:
153,192,208853,1,0,0:0:0:0:
51,192,208905,1,0,0:0:0:0:
460,192,208956,1,0,0:0:0:0:
358,192,209008,1,0,0:0:0:0:
153,192,209060,1,0,0:0:0:0:
51,192,209112,1,0,0:0:0:0:
460,192,209163,1,0,0:0:0:0:
358,192,209215,1,0,0:0:0:0:
153,192,209267,1,0,0:0:0:0:
51,192,209319,1,0,0:0:0:0:
460,192,209370,1,0,0:0:0:0:
256,192,209370,1,0,0:0:0:0:
51,192,209784,1,0,0:0:0:0:
256,192,209784,1,0,0:0:0:0:
153,192,210198,1,0,0:0:0:0:
460,192,210198,1,0,0:0:0:0:
51,192,210612,1,0,0:0:0:0:
358,192,210612,1,0,0:0:0:0:
51,192,211025,1,0,0:0:0:0:
153,192,211025,1,0,0:0:0:0:
460,192,211025,1,0,0:0:0:0:
256,192,211163,1,0,0:0:0:0:
358,192,211163,1,0,0:0:0:0:
153,192,211301,1,0,0:0:0:0:
51,192,211301,1,0,0:0:0:0:
358,192,211439,1,0,0:0:0:0:
460,192,211439,1,0,0:0:0:0:
51,192,211439,1,0,0:0:0:0:
153,192,211577,1,0,0:0:0:0:
256,192,211577,1,0,0:0:0:0:
358,192,211715,1,0,0:0:0:0:
460,192,211715,1,0,0:0:0:0:
256,192,211784,1,0,0:0:0:0:
153,192,211853,1,0,0:0:0:0:
51,192,211853,1,0,0:0:0:0:
460,192,211853,1,0,0:0:0:0:
358,192,211991,1,0,0:0:0:0:
256,192,211991,1,0,0:0:0:0:
51,192,212129,1,0,0:0:0:0:
153,192,212129,1,0,0:0:0:0:
358,192,212267,1,0,0:0:0:0:
460,192,212267,1,0,0:0:0:0:
51,192,212267,1,0,0:0:0:0:
256,192,212405,1,0,0:0:0:0:
153,192,212405,1,0,0:0:0:0:
358,192,212543,1,0,0:0:0:0:
460,192,212543,1,0,0:0:0:0:
460,192,212681,128,0,212819:0:0:0:0:
51,192,212681,1,0,0:0:0:0:
153,192,212681,1,0,0:0:0:0:
256,192,212819,1,0,0:0:0:0:
358,192,212819,128,0,212956:0:0:0:0:
153,192,212956,1,0,0:0:0:0:
51,192,212956,128,0,213094:0:0:0:0:
256,192,213094,1,0,0:0:0:0:
358,192,213094,1,0,0:0:0:0:
460,192,213094,128,0,213232:0:0:0:0:
51,192,213232,1,0,0:0:0:0:
153,192,213232,128,0,213370:0:0:0:0:
460,192,213370,1,0,0:0:0:0:
358,192,213370,128,0,213508:0:0:0:0:
153,192,213508,1,0,0:0:0:0:
256,192,213508,1,0,0:0:0:0:
51,192,213508,128,0,213646:0:0:0:0:
358,192,213646,1,0,0:0:0:0:
460,192,213646,128,0,213784:0:0:0:0:
256,192,213784,1,0,0:0:0:0:
153,192,213784,128,0,213922:0:0:0:0:
51,192,213922,128,0,214198:0:0:0:0:
460,192,213922,128,0,214198:0:0:0:0:
358,192,213922,128,0,214198:0:0:0:0:
256,192,214198,128,0,214336:0:0:0:0:
153,192,214198,128,0,214336:0:0:0:0:
51,192,214336,1,0,0:0:0:0:
358,192,214336,1,0,0:0:0:0:
460,192,214336,128,0,214474:0:0:0:0:
256,192,214474,1,0,0:0:0:0:
153,192,214474,128,0,214612:0:0:0:0:
358,192,214612,1,0,0:0:0:0:
460,192,214612,128,0,214750:0:0:0:0:
153,192,214750,1,0,0:0:0:0:
256,192,214750,1,0,0:0:0:0:
51,192,214750,128,0,214887:0:0:0:0:
358,192,214887,128,0,215025:0:0:0:0:
460,192,214887,1,0,0:0:0:0:
51,192,215025,128,0,215163:0:0:0:0:
153,192,215025,1,0,0:0:0:0:
358,192,215163,1,0,0:0:0:0:
256,192,215163,128,0,215853:0:0:0:0:
460,192,215163,128,0,215301:0:0:0:0:
153,192,215301,128,0,215439:0:0:0:0:
358,192,215439,128,0,215577:0:0:0:0:
51,192,215577,128,0,215715:0:0:0:0:
460,192,215715,128,0,215853:0:0:0:0:
153,192,215853,128,0,215991:0:0:0:0:
358,192,215991,1,0,0:0:0:0:
51,192,215991,128,0,216129:0:0:0:0:
256,192,215991,1,0,0:0:0:0:
460,192,216129,128,0,216267:0:0:0:0:
358,192,216267,128,0,216405:0:0:0:0:
256,192,216405,1,0,0:0:0:0:
153,192,216405,1,0,0:0:0:0:
51,192,216405,128,0,216543:0:0:0:0:
460,192,216543,128,0,216681:0:0:0:0:
358,192,216681,128,0,216819:0:0:0:0:
153,192,216819,1,0,0:0:0:0:
256,192,216819,1,0,0:0:0:0:
460,192,216819,128,0,216956:0:0:0:0:
51,192,216956,128,0,217094:0:0:0:0:
153,192,217094,128,0,217232:0:0:0:0:
358,192,217232,1,0,0:0:0:0:
256,192,217232,1,0,0:0:0:0:
460,192,217232,1,0,0:0:0:0:
51,192,217370,128,0,217508:0:0:0:0:
358,192,217370,1,0,0:0:0:0:
460,192,217370,1,0,0:0:0:0:
153,192,217508,128,0,217646:0:0:0:0:
358,192,217508,1,0,0:0:0:0:
460,192,217508,1,0,0:0:0:0:
256,192,217646,1,0,0:0:0:0:
460,192,217646,1,0,0:0:0:0:
358,192,217646,128,0,217784:0:0:0:0:
460,192,217784,128,0,217922:0:0:0:0:
358,192,217922,128,0,218060:0:0:0:0:
51,192,218060,1,0,0:0:0:0:
153,192,218060,1,0,0:0:0:0:
256,192,218060,1,0,0:0:0:0:
51,192,218198,1,0,0:0:0:0:
153,192,218198,1,0,0:0:0:0:
460,192,218198,128,0,218336:0:0:0:0:
51,192,218336,1,0,0:0:0:0:
153,192,218336,1,0,0:0:0:0:
358,192,218336,128,0,218474:0:0:0:0:
256,192,218474,1,0,0:0:0:0:
153,192,218474,128,0,218750:0:0:0:0:
51,192,218474,1,0,0:0:0:0:
51,192,218750,128,0,218887:0:0:0:0:
460,192,218887,1,0,0:0:0:0:
358,192,218887,1,0,0:0:0:0:
153,192,218887,1,0,0:0:0:0:
256,192,219025,1,0,0:0:0:0:
51,192,219025,1,0,0:0:0:0:
153,192,219163,1,0,0:0:0:0:
358,192,219163,1,0,0:0:0:0:
460,192,219301,1,0,0:0:0:0:
358,192,219353,1,0,0:0:0:0:
153,192,219405,1,0,0:0:0:0:
51,192,219456,1,0,0:0:0:0:
460,192,219508,1,0,0:0:0:0:
358,192,219560,1,0,0:0:0:0:
153,192,219612,1,0,0:0:0:0:
51,192,219663,1,0,0:0:0:0:
460,192,219715,1,0,0:0:0:0:
358,192,219767,1,0,0:0:0:0:
153,192,219819,1,0,0:0:0:0:
51,192,219870,1,0,0:0:0:0:
460,192,219922,1,0,0:0:0:0:
358,192,219974,1,0,0:0:0:0:
153,192,220025,1,0,0:0:0:0:
51,192,220077,1,0,0:0:0:0:
460,192,220129,1,0,0:0:0:0:
358,192,220181,1,0,0:0:0:0:
153,192,220232,1,0,0:0:0:0:
51,192,220284,1,0,0:0:0:0:
460,192,220336,1,0,0:0:0:0:
358,192,220387,1,0,0:0:0:0:
153,192,220439,1,0,0:0:0:0:
51,192,220491,1,0,0:0:0:0:
460,192,220543,1,0,0:0:0:0:
358,192,220594,1,0,0:0:0:0:
153,192,220646,1,0,0:0:0:0:
51,192,220698,1,0,0:0:0:0:
460,192,220750,1,0,0:0:0:0:
358,192,220801,1,0,0:0:0:0:
256,192,220853,1,0,0:0:0:0:
153,192,220905,1,0,0:0:0:0:
51,192,220956,1,0,0:0:0:0:
153,192,221008,1,0,0:0:0:0:
358,192,221060,1,0,0:0:0:0:
460,192,221112,1,0,0:0:0:0:
51,192,221163,1,0,0:0:0:0:
153,192,221215,1,0,0:0:0:0:
358,192,221267,1,0,0:0:0:0:
460,192,221319,1,0,0:0:0:0:
51,192,221370,1,0,0:0:0:0:
153,192,221422,1,0,0:0:0:0:
358,192,221474,1,0,0:0:0:0:
460,192,221525,1,0,0:0:0:0:
51,192,221577,1,0,0:0:0:0:
153,192,221629,1,0,0:0:0:0:
256,192,221681,1,0,0:0:0:0:
358,192,221732,1,0,0:0:0:0:
460,192,221784,1,0,0:0:0:0:
358,192,221836,1,0,0:0:0:0:
153,192,221887,1,0,0:0:0:0:
51,192,221939,1,0,0:0:0:0:
460,192,221991,1,0,0:0:0:0:
358,192,222043,1,0,0:0:0:0:
153,192,222094,1,0,0:0:0:0:
51,192,222146,1,0,0:0:0:0:
460,192,222198,1,0,0:0:0:0:
358,192,222250,1,0,0:0:0:0:
153,192,222301,1,0,0:0:0:0:
51,192,222353,1,0,0:0:0:0:
460,192,222405,1,0,0:0:0:0:
358,192,222456,1,0,0:0:0:0:
153,192,222508,1,0,0:0:0:0:
51,192,222560,1,0,0:0:0:0:
153,192,222612,1,0,0:0:0:0:
256,192,222612,1,0,0:0:0:0:
358,192,222612,1,0,0:0:0:0:
460,192,222612,1,0,0:0:0:0:
51,192,223025,1,0,0:0:0:0:
153,192,223025,1,0,0:0:0:0:
256,192,223025,1,0,0:0:0:0:
358,192,223025,1,0,0:0:0:0:
51,192,223439,1,0,0:0:0:0:
153,192,223439,1,0,0:0:0:0:
460,192,223439,1,0,0:0:0:0:
256,192,223439,1,0,0:0:0:0:
256,192,223715,1,0,0:0:0:0:
51,192,223853,1,0,0:0:0:0:
358,192,223853,1,0,0:0:0:0:
460,192,223853,1,0,0:0:0:0:
153,192,223853,1,0,0:0:0:0:
51,192,224267,1,0,0:0:0:0:
153,192,224267,1,0,0:0:0:0:
460,192,224267,1,0,0:0:0:0:
256,192,224405,1,0,0:0:0:0:
153,192,224543,1,0,0:0:0:0:
358,192,224543,1,0,0:0:0:0:
51,192,224543,1,0,0:0:0:0:
358,192,224681,1,0,0:0:0:0:
460,192,224681,1,0,0:0:0:0:
51,192,224681,1,0,0:0:0:0:
256,192,224819,1,0,0:0:0:0:
358,192,224956,1,0,0:0:0:0:
460,192,224956,1,0,0:0:0:0:
153,192,224956,1,0,0:0:0:0:
460,192,225094,1,0,0:0:0:0:
51,192,225094,1,0,0:0:0:0:
256,192,225094,1,0,0:0:0:0:
153,192,225232,1,0,0:0:0:0:
358,192,225232,1,0,0:0:0:0:
460,192,225370,1,0,0:0:0:0:
51,192,225370,1,0,0:0:0:0:
256,192,225370,1,0,0:0:0:0:
153,192,225508,1,0,0:0:0:0:
358,192,225508,1,0,0:0:0:0:
460,192,225646,1,0,0:0:0:0:
51,192,225646,1,0,0:0:0:0:
256,192,225646,1,0,0:0:0:0:
358,192,225784,1,0,0:0:0:0:
153,192,225784,1,0,0:0:0:0:
51,192,225922,1,0,0:0:0:0:
153,192,225922,1,0,0:0:0:0:
358,192,225922,1,0,0:0:0:0:
460,192,225922,1,0,0:0:0:0:
256,192,225922,1,0,0:0:0:0:
460,192,226198,1,0,0:0:0:0:
51,192,226336,1,0,0:0:0:0:
256,192,226336,1,0,0:0:0:0:
51,192,226612,1,0,0:0:0:0:
358,192,226750,1,0,0:0:0:0:
460,192,226750,1,0,0:0:0:0:
358,192,227025,1,0,0:0:0:0:
460,192,227025,1,0,0:0:0:0:
153,192,227163,1,0,0:0:0:0:
256,192,227163,1,0,0:0:0:0:
153,192,227439,1,0,0:0:0:0:
460,192,227577,1,0,0:0:0:0:
51,192,227577,1,0,0:0:0:0:
51,192,227853,1,0,0:0:0:0:
460,192,227991,1,0,0:0:0:0:
256,192,227991,1,0,0:0:0:0:
460,192,228267,1,0,0:0:0:0:
153,192,228405,1,0,0:0:0:0:
51,192,228405,1,0,0:0:0:0:
51,192,228681,1,0,0:0:0:0:
153,192,228681,1,0,0:0:0:0:
358,192,228819,1,0,0:0:0:0:
256,192,228819,1,0,0:0:0:0:
358,192,229094,1,0,0:0:0:0:
460,192,229232,1,0,0:0:0:0:
51,192,229232,1,0,0:0:0:0:
460,192,229508,1,0,0:0:0:0:
51,192,229646,1,0,0:0:0:0:
256,192,229646,1,0,0:0:0:0:
51,192,229922,1,0,0:0:0:0:
358,192,230060,1,0,0:0:0:0:
460,192,230060,1,0,0:0:0:0:
358,192,230336,1,0,0:0:0:0:
460,192,230336,1,0,0:0:0:0:
153,192,230474,1,0,0:0:0:0:
256,192,230474,1,0,0:0:0:0:
153,192,230750,1,0,0:0:0:0:
460,192,230887,1,0,0:0:0:0:
51,192,230887,1,0,0:0:0:0:
51,192,231163,1,0,0:0:0:0:
460,192,231301,1,0,0:0:0:0:
256,192,231301,1,0,0:0:0:0:
460,192,231577,128,0,232129:0:0:0:0:
153,192,231715,1,0,0:0:0:0:
51,192,231715,1,0,0:0:0:0:
51,192,231991,1,0,0:0:0:0:
153,192,231991,1,0,0:0:0:0:
358,192,232129,1,0,0:0:0:0:
256,192,232129,1,0,0:0:0:0:
153,192,232267,1,0,0:0:0:0:
51,192,232267,1,0,0:0:0:0:
358,192,232405,1,0,0:0:0:0:
256,192,232405,1,0,0:0:0:0:
460,192,232543,1,0,0:0:0:0:
51,192,232543,128,0,232819:0:0:0:0:
153,192,232819,128,0,232956:0:0:0:0:
256,192,232956,128,0,233232:0:0:0:0:
358,192,233232,128,0,234060:0:0:0:0:
51,192,234198,128,0,234474:0:0:0:0:
153,192,234474,128,0,234612:0:0:0:0:
256,192,234612,128,0,234887:0:0:0:0:
460,192,234887,128,0,235715:0:0:0:0:
51,192,235853,128,0,236129:0:0:0:0:
153,192,236129,128,0,236267:0:0:0:0:
256,192,236267,128,0,236543:0:0:0:0:
358,192,236543,128,0,237370:0:0:0:0:
51,192,237508,128,0,237784:0:0:0:0:
153,192,237784,128,0,237922:0:0:0:0:
256,192,237922,128,0,238198:0:0:0:0:
358,192,238163,1,0,0:0:0:0:
460,192,238198,128,0,238612:0:0:0:0:
358,192,238612,128,0,238750:0:0:0:0:
256,192,238750,128,0,239025:0:0:0:0:
153,192,239025,128,0,239163:0:0:0:0:
