osu file format v14

[General]
AudioFilename: audio.mp3
AudioLeadIn: 0
PreviewTime: 109077
Countdown: 1
SampleSet: Soft
StackLeniency: 0.7
Mode: 0
LetterboxInBreaks: 0
WidescreenStoryboard: 0

[Editor]
DistanceSpacing: 1
BeatDivisor: 4
GridSize: 8
TimelineZoom: 1

[Metadata]
Title:I Wanna Feel Your Love (feat. shully)
TitleUnicode:I Wanna Feel Your Love (feat. shully)
Artist:Hige Driver
ArtistUnicode:ヒゲドライバー
Creator:Delis
Version:Normal
Source:
Tags:osu! MOtOLOiD HIGE DANCE featured artist
BeatmapID:1442770
BeatmapSetID:682289

[Difficulty]
HPDrainRate:4
CircleSize:3
OverallDifficulty:4
ApproachRate:5
SliderMultiplier:1.1
SliderTickRate:1

[Events]
//Background and Video events
0,0,"BG.jpg",0,0
//Break Periods
2,94863,100963
2,169863,183463
//Storyboard Layer 0 (Background)
//Storyboard Layer 1 (Fail)
//Storyboard Layer 2 (Pass)
//Storyboard Layer 3 (Foreground)
//Storyboard Sound Samples

[TimingPoints]
4663,468.75,4,2,0,30,1,0
4663,-125,4,2,0,30,0,0
19663,-100,4,2,0,40,0,0
34077,-100,4,2,0,50,0,0
34428,-100,4,2,0,60,0,0
64663,-100,4,2,0,40,0,0
102163,-100,4,2,0,50,0,0
109194,-100,4,2,0,60,0,0
139663,-100,4,2,0,40,0,0
158764,-100,4,2,0,20,0,0
158881,-100,4,2,0,40,0,0
162514,-100,4,2,0,20,0,0
162631,-100,4,2,0,40,0,0
200366,-100,4,2,0,45,0,0
207163,-100,4,2,0,50,0,0
222163,-100,4,2,0,60,0,0
252163,-100,4,2,0,40,0,0

[Colours]
Combo1 : 114,78,199
Combo2 : 52,79,171
Combo3 : 1,103,228
Combo4 : 162,66,240

[HitObjects]
88,200,4663,6,0,B|96:136|184:112|232:168,1,176,2|2,0:0|0:0,0:0:0:0:
280,232,6069,1,0,0:0:0:0:
360,200,6538,2,0,B|400:176|440:192|440:192|464:80,1,176,0|0,0:0|0:0,0:0:0:0:
288,48,8413,6,0,B|168:64,2,88,2|2|2,0:0|0:0|0:0,0:0:0:0:
352,112,9819,1,0,0:0:0:0:
304,184,10288,2,0,B|264:136|176:152|160:224,1,176,2|2,0:0|0:0,0:0:0:0:
208,296,11694,1,2,0:0:0:0:
296,288,12163,6,0,B|360:280|424:288,1,88,2|2,0:0|0:0,0:0:0:0:
472,280,13100,2,0,B|480:232|464:176,1,88,2|0,0:0|0:0,0:0:0:0:
456,104,14038,2,0,B|360:96|264:112,1,176,2|0,0:0|0:0,0:0:0:0:
200,80,15444,1,2,0:0:0:0:
128,136,15913,6,0,B|64:168|0:128|16:56,2,176,2|2|0,0:0|0:0|0:0,0:0:0:0:
176,208,18256,2,0,B|232:192|288:200,1,88,2|2,0:0|0:0,0:0:0:0:
344,160,19194,1,2,0:0:0:0:
432,176,19663,6,0,B|408:296,1,110,0|0,1:0|1:0,0:0:0:0:
312,336,20600,2,0,B|240:312|192:368,1,110,0|0,1:0|1:0,0:0:0:0:
184,344,21303,1,2,0:2:0:0:
160,336,21538,2,0,B|168:280|176:224,1,110,0|0,1:0|1:0,0:0:0:0:
192,120,22475,1,0,1:0:0:0:
288,64,22944,2,0,B|352:88|368:112,1,55,0|0,1:0|0:0,0:0:0:0:
368,88,23413,6,0,B|344:152|384:208,1,110,0|0,1:0|1:0,0:0:0:0:
472,240,24350,2,0,B|496:176|456:120,1,110,0|0,1:0|1:0,0:0:0:0:
448,104,25053,1,2,0:2:0:0:
360,40,25522,1,0,0:0:0:0:
360,40,25756,2,0,B|296:64|208:48,1,110,0|0,1:0|1:0,0:0:0:0:
144,48,26694,6,0,B|72:32,2,55,0|0|0,1:0|0:0|1:0,0:0:0:0:
208,136,27631,1,0,1:0:0:0:
120,200,28100,2,0,B|96:256|128:312,1,110,0|0,1:0|1:0,0:0:0:0:
152,328,28803,1,0,1:0:0:0:
152,328,29038,2,0,B|280:304,1,110,0|0,1:0|1:0,0:0:0:0:
368,280,29975,1,0,1:0:0:0:
400,176,30444,2,0,B|464:192,2,55,0|0|0,1:0|1:0|1:0,0:0:0:0:
256,192,31147,12,0,32788,1:0:0:0:
88,192,33725,6,0,B|88:96|80:64,1,110,8|8,0:0|0:0,0:0:0:0:
104,64,34428,1,8,0:1:0:0:
128,48,34663,6,2,B|200:56|288:40,1,110,6|10,1:0|1:0,0:1:0:0:
264,64,35366,2,2,B|352:56|408:64,1,110,2|0,0:1|0:0,0:1:0:0:
408,64,36069,1,10,1:1:0:0:
408,64,36303,1,2,0:1:0:0:
440,168,36772,1,0,0:2:0:0:
440,168,37006,2,2,B|416:232|448:280,2,110,10|2|8,1:0|1:0|1:0,0:1:0:0:
336,208,38413,6,2,B|280:240|216:216,1,110,0|8,1:0|1:0,0:1:0:0:
200,200,39116,2,2,B|82:219,1,110,2|0,0:1|0:0,0:1:0:0:
64,232,39819,2,0,B|80:152,1,55,8|2,1:0|0:1,0:0:0:0:
104,72,40522,1,2,0:1:0:0:
104,72,40756,2,2,B|152:112|224:88,1,110,8|0,1:0|1:0,0:1:0:0:
312,48,41694,1,8,1:0:0:0:
416,96,42163,6,2,B|376:224,1,110,2|8,1:0|1:0,0:1:0:0:
360,216,42866,2,2,B|296:200|256:240,1,110,2|0,0:1|0:0,0:1:0:0:
264,264,43569,1,10,1:0:0:0:
272,288,43803,2,2,B|144:264,1,110,2|0,0:1|0:0,0:1:0:0:
136,256,44506,2,0,B|88:264|64:280,2,55,10|2|2,1:0|0:1|1:0,0:0:0:0:
208,168,45444,1,8,1:0:0:0:
312,208,45913,6,2,B|328:144|408:128|464:176,2,165,2|2|8,1:0|0:1|1:0,0:1:0:0:
320,240,47553,2,2,B|152:256,1,165,2|10,0:1|1:0,0:1:0:0:
128,256,48491,1,2,3:1:0:0:
96,256,48725,2,2,B|104:192|96:96,1,110,2|0,1:0|1:0,0:1:0:0:
56,40,49663,6,2,B|104:80|176:48,1,110,6|0,1:0|0:0,0:1:0:0:
192,64,50366,2,2,B|232:32|296:48,1,110,2|0,0:1|0:0,0:1:0:0:
320,64,51069,1,10,1:0:0:0:
336,88,51303,2,2,B|296:256,1,165,2|10,0:1|1:1,0:1:0:0:
288,280,52241,1,2,0:1:0:0:
288,280,52475,2,2,B|240:240|176:256,1,110,2|8,1:0|1:0,0:1:0:0:
80,288,53413,6,2,B|72:168,1,110,2|8,1:1|1:0,0:1:0:0:
88,152,54116,2,2,B|136:192|208:168,1,110,2|0,0:1|0:0,0:1:0:0:
216,168,54819,1,10,1:0:0:0:
240,160,55053,2,2,B|296:192|352:176,1,110,2|0,0:1|0:0,0:1:0:0:
376,168,55756,2,2,B|408:56,1,110,8|2,1:0|1:1,0:1:0:0:
296,64,56694,5,8,1:0:0:0:
272,56,56928,1,2,0:1:0:0:
248,48,57163,2,2,B|112:64,1,110,2|8,1:0|1:0,0:1:0:0:
112,56,57866,2,2,B|136:112|120:176,1,110,2|0,0:1|0:0,0:1:0:0:
112,192,58569,2,0,B|176:224,1,55,8|2,1:0|0:1,0:0:0:0:
240,144,59272,1,0,0:0:0:0:
240,144,59506,2,2,B|296:136|352:136,2,110,10|2|10,1:0|1:1|1:0,0:1:0:0:
200,248,60913,6,2,B|296:248|400:232,2,165,2|2|10,1:0|0:1|1:0,0:1:0:0:
176,264,62553,2,2,B|112:264|72:192|120:136,1,165,2|10,0:1|1:0,0:1:0:0:
128,128,63491,1,2,0:1:0:0:
152,112,63725,2,2,B|216:104|272:104,1,110,2|8,1:0|1:0,0:1:0:0:
352,40,64663,6,0,B|352:128|464:160|520:80,1,220,4|0,1:2|1:0,0:0:0:0:
512,200,66069,1,8,1:2:0:0:
432,272,66538,2,0,B|336:216|208:256,1,220,0|0,1:0|1:0,0:0:0:0:
144,336,67944,1,8,1:2:0:0:
88,240,68413,6,0,B|104:96,2,110,0|8|0,1:0|1:2|1:0,0:0:0:0:
200,232,69819,2,0,B|256:216,1,55,8|0,1:2|0:0,0:0:0:0:
280,208,70288,2,0,B|344:184|392:232,1,110,0|8,1:0|1:2,0:0:0:0:
456,304,71225,1,0,1:0:0:0:
496,200,71694,5,8,1:2:0:0:
480,184,71928,1,0,0:0:0:0:
464,168,72163,2,0,B|440:32,1,110,0|8,1:0|1:2,0:0:0:0:
344,112,73100,2,0,B|280:128|232:96,1,110,0|8,1:0|1:2,0:0:0:0:
216,80,73803,1,0,0:0:0:0:
216,80,74038,2,0,B|232:224,1,110,0|8,1:0|1:2,0:0:0:0:
160,280,74975,1,0,1:0:0:0:
248,352,75444,2,0,B|296:312|368:328,1,110,8|0,1:2|1:0,0:0:0:0:
456,360,76381,5,8,1:2:0:0:
424,256,76850,2,0,B|448:120,1,110,0|8,1:0|1:2,0:0:0:0:
352,80,77788,2,0,B|328:216,1,110,0|8,1:0|1:2,0:0:0:0:
240,248,78725,2,0,B|200:200|232:128,1,110,0|8,1:0|1:2,0:0:0:0:
264,40,79663,6,0,B|208:-16|96:16|96:96,1,220,0|0,1:0|1:0,0:0:0:0:
136,200,81069,1,8,1:2:0:0:
96,304,81538,2,0,B|152:312|208:312,1,110,0|8,1:0|1:2,0:0:0:0:
304,264,82475,1,0,1:0:0:0:
376,344,82944,2,0,B|409:344|448:328,2,55,8|0|0,1:2|0:0|1:0,0:0:0:0:
400,232,83881,5,8,1:2:0:0:
304,176,84350,2,0,B|280:128|304:56,1,110,0|8,1:0|1:2,0:0:0:0:
408,80,85288,2,0,B|520:40,2,110,0|8|0,1:0|1:2|1:0,0:0:0:0:
312,32,86694,1,8,1:2:0:0:
216,80,87163,6,0,B|144:112|80:80|80:80|104:128|80:176,1,220,0|0,1:0|1:0,0:0:0:0:
56,264,88569,1,8,1:2:0:0:
144,328,89038,2,0,B|272:312,1,110,0|8,1:0|1:2,0:0:0:0:
360,296,89975,1,0,1:0:0:0:
448,224,90444,2,0,B|456:168,2,55,8|0|0,1:2|0:0|1:0,0:0:0:0:
256,192,91147,12,4,94663,0:2:0:0:
48,200,102163,6,0,B|24:104,2,82.5,8|8|8,0:0|0:0|0:0,0:0:0:0:
120,240,103217,2,0,B|160:216|200:224,1,82.5,8|8,0:0|0:0,0:0:0:0:
304,256,104038,6,0,B|360:264|408:240,2,82.5,8|8|8,0:0|0:0|0:0,0:0:0:0:
272,176,105092,2,0,B|248:80,1,82.5,8|8,0:0|0:0,0:0:0:0:
152,40,105913,6,0,B|104:32|64:56,2,82.5,8|8|8,0:0|0:0|0:0,0:0:0:0:
152,120,106967,2,0,B|168:200,1,82.5,8|8,0:0|0:0,0:0:0:0:
216,304,107788,6,0,B|96:280,1,110,4|4,3:0|3:0,0:0:0:0:
80,296,108491,2,0,B|104:232|51:157,1,110,4|4,3:0|3:0,0:0:0:0:
56,168,109194,1,10,1:2:0:0:
128,80,109663,6,2,B|184:120|256:88,1,110,6|8,1:0|1:0,0:1:0:0:
264,80,110366,1,2,0:1:0:0:
264,80,110600,2,2,B|320:48|384:72,1,110,0|10,1:0|1:0,0:1:0:0:
400,80,111303,2,2,B|376:248,1,165,2|10,0:1|1:0,0:1:0:0:
280,296,112475,2,2,B|272:168,1,110,2|8,1:0|1:0,0:1:0:0:
168,152,113413,6,2,B|176:296,1,110,2|8,1:1|0:1,0:1:0:0:
176,296,114116,1,2,0:1:0:0:
176,328,114350,2,2,B|128:288|64:304,1,110,0|10,1:0|1:1,0:1:0:0:
40,200,115288,2,2,B|98:236|168:200|160:120,1,165,0|2,1:0|0:1,0:1:0:0:
152,112,116225,2,2,B|232:120|264:136,1,110,2|8,1:1|1:0,0:1:0:0:
288,152,116928,1,2,3:1:0:0:
312,168,117163,6,2,B|368:144|432:152,1,110,4|8,1:0|1:0,0:1:0:0:
432,264,118100,2,2,B|376:288|312:280,1,110,0|10,1:0|1:0,0:1:0:0:
296,280,118803,1,2,0:1:0:0:
272,280,119038,2,2,B|216:256|160:256,1,110,0|10,1:0|1:0,0:1:0:0:
144,360,119975,2,2,B|200:384|256:376,1,110,2|8,1:0|1:0,0:1:0:0:
280,368,120678,1,2,3:1:0:0:
304,352,120913,6,2,B|368:360|416:368,1,110,2|8,1:0|1:0,0:1:0:0:
432,352,121616,2,2,B|416:280|440:216,1,110,2|0,0:1|0:0,0:1:0:0:
440,216,122319,1,10,1:0:0:0:
456,192,122553,1,2,0:1:0:0:
408,96,123022,1,0,0:0:0:0:
408,96,123256,2,2,B|288:104,1,110,10|2,1:0|1:1,0:1:0:0:
192,80,124194,2,0,L|120:96,1,55,10|2,1:0|0:1,0:0:0:0:
112,96,124663,6,2,B|72:152|112:216,1,110,6|8,1:0|1:0,0:1:0:0:
120,216,125366,1,2,0:1:0:0:
144,224,125600,2,2,B|192:184|264:200,1,110,0|10,1:0|1:1,0:1:0:0:
272,208,126303,1,2,0:1:0:0:
296,224,126538,2,2,B|320:112,1,110,0|10,1:0|1:0,0:1:0:0:
416,88,127475,2,2,B|392:200,1,110,2|8,1:0|1:0,0:1:0:0:
386,222,128178,1,2,0:1:0:0:
380,248,128413,6,2,B|444:264|484:216,1,110,2|10,1:0|1:0,0:1:0:0:
482,194,129116,2,2,B|514:26,1,165,2|10,1:0|0:1,0:1:0:0:
400,32,130288,2,2,B|328:16|288:56,1,110,0|8,1:0|1:0,0:1:0:0:
232,136,131225,2,2,B|176:168|112:144,1,110,2|8,1:0|1:0,0:1:0:0:
96,136,131928,1,2,0:1:0:0:
72,120,132163,6,2,B|48:304,2,165,6|2|10,1:1|0:1|1:1,0:1:0:0:
64,88,133803,2,2,B|192:112|152:24|288:56,1,220,2|2,0:1|0:2,0:1:0:0:
304,64,134975,1,2,1:0:0:0:
376,144,135444,1,8,1:0:0:0:
344,248,135913,6,2,B|304:304|224:288|208:216,2,165,2|2|10,1:1|0:1|1:0,0:1:0:0:
360,224,137553,2,2,B|400:168|480:184|496:256,1,165,2|10,0:1|1:0,0:1:0:0:
480,264,138491,1,2,0:1:0:0:
464,288,138725,2,2,B|408:304|352:320,1,110,2|8,1:0|1:0,0:1:0:0:
256,280,139663,6,0,B|192:352|96:312|96:224,1,220,4|0,1:2|1:0,0:0:0:0:
128,128,141069,1,8,1:2:0:0:
232,168,141538,2,0,B|296:184|344:144,2,110,0|8|0,1:0|1:2|1:0,0:0:0:0:
240,56,142944,2,0,B|304:40,1,55,8|0,1:2|0:0,0:0:0:0:
320,56,143413,6,0,B|376:72|416:24|416:24|432:144,1,220,0|0,1:0|1:0,0:0:0:0:
368,224,144819,1,8,1:2:0:0:
432,312,145288,2,0,B|392:352|336:368,2,110,0|8|0,1:0|1:2|1:0,0:0:0:0:
472,208,146694,1,8,1:2:0:0:
440,104,147163,6,0,B|400:56|328:72,1,110,0|8,1:0|1:2,0:0:0:0:
272,152,148100,2,0,B|160:160,1,110,0|8,1:0|1:2,0:0:0:0:
136,160,148803,1,0,0:0:0:0:
112,160,149038,2,0,B|112:240|120:296,2,110,0|8|0,1:0|1:2|1:0,0:0:0:0:
176,72,150444,2,0,B|128:24,2,55,8|0|0,1:2|0:0|1:0,0:0:0:0:
288,88,151381,6,0,B|336:56|400:64,2,110,8|0|8,1:2|1:0|1:2,0:0:0:0:
240,184,152788,1,0,1:0:0:0:
264,288,153256,1,8,1:2:0:0:
368,320,153725,1,0,1:0:0:0:
456,256,154194,2,0,B|480:192,1,55,8|0,1:2|0:0,0:0:0:0:
480,176,154663,6,0,B|424:216|360:192,1,110,0|8,1:0|1:2,0:0:0:0:
288,136,155600,1,0,1:0:0:0:
192,80,156069,2,0,B|120:64|80:112,1,110,8|0,1:2|1:0,0:0:0:0:
40,200,157006,1,8,1:2:0:0:
144,248,157475,1,0,1:0:0:0:
88,344,157944,2,0,B|32:304,2,55,8|0|0,1:2|0:0|1:0,0:0:0:0:
192,320,158881,5,8,1:2:0:0:
296,344,159350,2,0,B|344:304|408:320,1,110,0|8,1:0|1:2,0:0:0:0:
424,328,160053,1,0,0:0:0:0:
448,344,160288,2,0,B|432:216,1,110,0|8,1:0|1:2,0:0:0:0:
464,128,161225,1,0,1:0:0:0:
392,40,161694,2,0,B|312:32,1,55,8|0,1:2|0:0,0:0:0:0:
304,48,162163,6,0,B|248:32|192:56,1,110,0|8,1:0|1:2,0:0:0:0:
136,144,163100,1,0,1:0:0:0:
32,104,163569,2,0,B|16:32,2,55,8|0|0,1:2|0:0|1:0,0:0:0:0:
64,208,164506,1,8,1:2:0:0:
24,312,164975,1,0,1:0:0:0:
128,352,165444,2,0,B|192:320,1,55,8|0,1:2|0:0,0:0:0:0:
192,304,165913,6,0,B|240:344|304:320,1,110,0|8,1:0|1:2,0:0:0:0:
392,264,166850,1,0,1:0:0:0:
416,160,167319,1,8,1:2:0:0:
344,80,167788,2,0,B|216:104,1,110,0|8,1:0|1:2,0:0:0:0:
136,56,168725,1,0,1:0:0:0:
112,160,169194,1,8,1:2:0:0:
208,208,169663,1,2,2:0:0:0:
160,272,184663,6,0,B|136:136,1,110,2|2,0:0|0:0,0:0:0:0:
240,112,185600,2,0,B|264:248,1,110,2|2,0:0|0:0,0:0:0:0:
272,248,186303,2,0,B|336:176|428:203,1,165,2|2,0:0|0:0,0:0:0:0:
488,288,187475,2,0,B|512:176,1,110,2|2,0:0|0:0,0:0:0:0:
456,88,188413,6,0,B|400:120|336:96,1,110,2|2,0:0|0:0,0:0:0:0:
248,56,189350,1,2,0:0:0:0:
272,168,189819,1,0,0:0:0:0:
272,168,190053,2,0,B|280:232|216:272|160:256,1,165,2|2,0:0|0:0,0:0:0:0:
136,240,190991,2,0,L|104:56,1,165,2|2,0:0|0:0,0:0:0:0:
216,64,192163,6,0,B|360:48,2,110,2|2|2,0:0|0:0|0:0,0:0:0:0:
112,40,193569,1,0,0:0:0:0:
112,40,193803,2,0,B|64:136|144:200,1,165,2|2,0:0|0:0,0:0:0:0:
240,224,194975,1,2,0:0:0:0:
344,184,195444,1,2,0:0:0:0:
256,192,195913,12,4,199663,0:0:0:0:
296,288,200600,6,0,B|192:280|120:288,2,165,2|2|2,0:0|0:0|0:0,0:0:0:0:
352,192,202475,2,0,B|416:200|464:192,1,110,2|0,0:0|0:0,0:0:0:0:
464,80,203413,6,0,B|408:16|304:40|288:128,1,220,2|2,0:0|0:0,0:0:0:0:
304,224,204819,1,2,0:0:0:0:
304,224,205053,2,0,B|112:200,1,165,2|2,0:0|0:0,0:0:0:0:
120,312,206225,2,0,B|208:312|288:336,1,165,2|0,0:0|0:0,0:0:0:0:
312,352,207163,6,0,B|408:336,1,82.5,0|0,1:1|1:0,0:0:0:0:
464,288,207866,2,0,B|465:245|472:192,2,82.5,0|0|0,1:0|1:0|1:0,0:0:0:0:
368,232,209038,6,0,B|272:248,1,82.5,0|0,1:0|1:0,0:0:0:0:
224,192,209741,2,0,B|222:149|216:96,2,82.5,0|0|0,1:0|1:0|1:0,0:0:0:0:
176,288,210913,6,0,B|136:256|88:272,2,82.5,0|0|0,1:0|1:0|1:0,0:0:0:0:
248,328,211967,2,0,B|344:320,1,82.5,0|0,1:0|1:0,0:0:0:0:
408,240,212788,6,0,B|424:200|408:160,2,82.5,0|0|0,1:0|1:0|1:0,0:0:0:0:
328,224,213842,2,0,B|240:232,1,82.5,0|0,1:0|1:0,0:0:0:0:
184,144,214663,6,0,B|176:48,2,82.5,0|0|0,1:0|1:0|1:0,0:0:0:0:
128,208,215717,2,0,B|72:208|40:240,1,82.5,0|0,1:0|1:0,0:0:0:0:
112,328,216538,6,0,B|155:333|200:336,1,82.5,0|0,1:0|1:0,0:0:0:0:
272,320,217241,2,0,B|317:323|360:328,1,82.5,0|0,1:0|1:0,0:0:0:0:
432,304,217944,1,0,1:0:0:0:
352,224,218413,6,0,B|344:128,1,82.5,0|0,1:0|1:0,0:0:0:0:
264,160,219116,2,0,B|256:64,1,82.5,0|0,1:0|1:0,0:0:0:0:
176,96,219819,1,0,1:0:0:0:
256,88,221694,5,4,0:2:0:0:
320,176,222163,2,2,L|200:192,1,110,4|8,1:0|1:0,0:1:0:0:
184,176,222866,1,2,0:1:0:0:
160,160,223100,2,2,B|120:208|128:264,1,110,0|8,1:1|1:0,0:1:0:0:
136,288,223803,1,2,0:1:0:0:
152,312,224038,2,2,B|200:280|264:296,1,110,0|8,1:0|1:0,0:1:0:0:
280,312,224741,2,0,B|344:296,1,55,2|0,0:1|1:0,0:0:0:0:
440,280,225444,1,8,1:0:0:0:
424,176,225913,6,2,B|376:144|312:160,1,110,2|8,1:0|1:0,0:1:0:0:
296,168,226616,1,2,0:1:0:0:
272,176,226850,1,0,1:0:0:0:
168,136,227319,2,0,B|104:152,1,55,10|2,1:0|0:1,0:0:0:0:
88,136,227788,2,2,B|64:200|96:248,1,110,0|10,1:0|1:0,0:1:0:0:
112,256,228491,1,2,0:1:0:0:
136,272,228725,2,2,B|208:264|256:272,1,110,2|8,1:1|1:0,0:1:0:0:
344,312,229663,6,2,B|408:328|448:288,1,110,6|8,1:1|1:0,0:1:0:0:
440,264,230366,1,2,0:1:0:0:
432,240,230600,2,2,B|448:112,1,110,0|10,1:0|1:0,0:1:0:0:
451,103,231303,1,2,0:1:0:0:
455,75,231538,2,2,B|392:56|344:88,1,110,0|10,1:0|1:0,0:1:0:0:
288,176,232475,2,2,B|136:152,1,110,2|8,1:1|1:0,0:1:0:0:
72,152,233413,6,2,B|48:216|88:264,1,110,2|8,1:0|1:0,0:1:0:0:
104,272,234116,2,2,B|168:256|216:296,1,110,2|0,0:1|0:0,0:1:0:0:
232,280,234819,2,0,B|296:272,1,55,10|2,1:0|0:1,0:0:0:0:
392,240,235522,1,2,0:1:0:0:
392,240,235756,2,2,B|384:296|392:352,2,110,10|2|10,1:1|1:0|1:0,0:1:0:0:
400,216,236928,1,2,0:1:0:0:
408,192,237163,6,2,B|424:128|384:80,1,110,6|8,1:1|1:0,0:1:0:0:
304,160,238100,2,2,B|240:184|192:136,1,110,0|8,1:0|1:0,0:1:0:0:
184,120,238803,1,2,0:1:0:0:
168,96,239038,2,2,B|232:112|280:64,1,110,0|8,1:0|1:0,0:1:0:0:
288,48,239741,2,2,B|344:16|416:48|424:112,1,165,2|8,0:1|1:0,0:1:0:0:
416,128,240678,2,0,B|440:184,1,55,2|2,0:1|1:0,0:0:0:0:
408,280,241381,5,8,1:0:0:0:
408,280,241616,2,2,B|320:288|336:232|248:240,1,165,2|8,0:1|1:0,0:1:0:0:
224,256,242553,2,2,B|160:272|112:224,2,110,2|2|2,0:1|0:1|0:1,0:1:0:0:
253,240,243725,1,0,1:0:0:0:
288,136,244194,1,8,1:0:0:0:
192,80,244663,6,2,B|72:104,1,110,2|8,1:1|1:1,0:1:0:0:
56,112,245366,2,2,B|32:168|48:224,1,110,2|0,0:1|0:0,0:1:0:0:
64,248,246069,1,8,1:0:0:0:
88,264,246303,2,2,B|112:208|192:192|240:248,1,165,2|10,0:1|1:0,0:1:0:0:
304,312,247475,2,2,B|376:288|416:256,1,110,2|8,1:0|1:0,0:1:0:0:
424,248,248178,1,2,0:1:0:0:
448,232,248413,6,2,B|440:160|448:112,1,110,2|10,1:1|1:1,0:1:0:0:
456,96,249116,2,2,B|392:96|280:104,1,165,2|10,0:1|1:0,0:1:0:0:
272,120,250053,2,2,B|224:104|224:104|176:152|88:112,1,165,2|10,0:1|1:0,0:1:0:0:
16,80,251225,2,2,B|-8:144|32:200,1,110,2|8,1:0|1:0,0:1:0:0:
104,264,252163,6,0,B|232:304|200:216|320:256,1,220,4|0,1:2|1:0,0:0:0:0:
416,296,253569,1,8,1:2:0:0:
456,192,254038,2,0,B|461:135|472:72,2,110,0|8|0,1:0|1:2|1:0,0:0:0:0:
352,144,255444,1,8,1:2:0:0:
248,184,255913,6,0,B|200:152|136:160,2,110,0|8|0,1:0|1:2|1:0,0:0:0:0:
336,248,257319,1,8,1:2:0:0:
440,216,257788,2,0,B|472:168|456:112,1,110,0|8,1:0|1:2,0:0:0:0:
384,32,258725,1,0,1:0:0:0:
280,56,259194,1,8,1:2:0:0:
208,144,259663,6,0,B|176:200|216:264,1,110,0|8,1:0|1:2,0:0:0:0:
232,360,260600,2,0,B|112:336,1,110,0|8,1:0|1:2,0:0:0:0:
24,296,261538,2,0,B|40:240|24:184,1,110,0|8,1:0|1:2,0:0:0:0:
8,80,262475,1,0,1:0:0:0:
112,40,262944,1,8,1:2:0:0:
216,80,263413,6,0,B|344:64,1,110,0|8,1:0|1:2,0:0:0:0:
400,152,264350,2,0,B|272:168,1,110,0|8,1:0|1:2,0:0:0:0:
256,272,265288,2,0,B|384:256,1,110,0|8,1:0|1:2,0:0:0:0:
440,344,266225,2,0,B|312:360,1,110,0|8,1:0|1:2,0:0:0:0:
224,360,267163,1,2,0:0:0:0:
