osu file format v14

[General]
AudioFilename: audio.mp3
AudioLeadIn: 0
PreviewTime: 109077
Countdown: 1
SampleSet: Soft
StackLeniency: 0.7
Mode: 0
LetterboxInBreaks: 0
WidescreenStoryboard: 1

[Editor]
DistanceSpacing: 1
BeatDivisor: 4
GridSize: 8
TimelineZoom: 0.7999998

[Metadata]
Title:I Wanna Feel Your Love (feat. shully)
TitleUnicode:I Wanna Feel Your Love (feat. shully)
Artist:Hige Driver
ArtistUnicode:ヒゲドライバー
Creator:Delis
Version:Easy
Source:
Tags:osu! MOtOLOiD HIGE DANCE featured artist
BeatmapID:1442767
BeatmapSetID:682289

[Difficulty]
HPDrainRate:2
CircleSize:3
OverallDifficulty:2
ApproachRate:3
SliderMultiplier:0.799999999999999
SliderTickRate:1

[Events]
//Background and Video events
0,0,"BG.jpg",0,0
//Break Periods
2,94863,100723
2,169863,183223
2,199863,205723
//Storyboard Layer 0 (Background)
//Storyboard Layer 1 (Fail)
//Storyboard Layer 2 (Pass)
//Storyboard Layer 3 (Foreground)
//Storyboard Sound Samples

[TimingPoints]
4663,468.75,4,2,0,30,1,0
19663,-100,4,2,0,40,0,0
34077,-100,4,2,0,50,0,0
34428,-100,4,2,0,60,0,0
64663,-100,4,2,0,40,0,0
102163,-100,4,2,0,50,0,0
109194,-100,4,2,0,60,0,0
139663,-100,4,2,0,40,0,0
158764,-100,4,2,0,20,0,0
158881,-100,4,2,0,40,0,0
162514,-100,4,2,0,20,0,0
162631,-100,4,2,0,40,0,0
200366,-100,4,2,0,45,0,0
207163,-100,4,2,0,50,0,0
222163,-100,4,2,0,60,0,0
252163,-100,4,2,0,40,0,0

[Colours]
Combo1 : 114,78,199
Combo2 : 52,79,171
Combo3 : 1,103,228
Combo4 : 162,66,240

[HitObjects]
176,200,19663,6,0,B|248:192|344:200,1,160,0|0,1:0|1:0,0:0:0:0:
414,214,21069,1,0,1:0:0:0:
480,168,21538,2,0,B|496:104|448:48|376:64,1,160,0|0,1:0|1:0,0:0:0:0:
320,88,22944,1,0,1:0:0:0:
240,88,23413,6,0,B|184:80|136:88,2,79.9999999999999,0|0|0,1:0|1:0|1:0,0:0:0:0:
288,152,24819,1,0,1:0:0:0:
256,224,25288,2,0,B|256:272|264:328,2,79.9999999999999,0|0|0,1:0|1:0|1:0,0:0:0:0:
176,232,26694,1,0,1:0:0:0:
104,272,27163,6,0,L|72:104,1,160,0|0,1:0|1:0,0:0:0:0:
122,51,28569,1,0,1:0:0:0:
176,112,29038,2,0,B|304:176|280:56|416:120,1,240,0|0,1:0|1:0,0:0:0:0:
256,192,30913,12,0,32788,1:0:0:0:
416,288,34663,6,2,L|240:312,1,160,6|0,1:0|0:0,0:1:0:0:
181,335,36069,2,2,B|141:271|189:207|189:207|133:223|93:175,1,240,10|2,1:1|1:0,0:1:0:0:
54,111,37944,1,8,1:0:0:0:
96,40,38413,6,2,B|176:32|176:32|248:80|248:80|336:72,1,240,2|8,1:0|1:0,0:1:0:0:
392,112,40288,2,2,B|440:136|448:224|384:256,1,160,2|2,1:0|1:0,0:1:0:0:
318,258,41694,1,8,1:0:0:0:
240,232,42163,6,2,B|152:224|48:232,1,160,2|0,1:0|1:0,0:1:0:0:
72,312,43569,1,10,1:0:0:0:
144,352,44038,2,2,B|240:304|320:376,1,160,2|2,1:1|1:0,0:1:0:0:
376,368,45444,1,8,1:0:0:0:
448,328,45913,6,2,B|512:272|480:144|384:136,1,240,2|8,1:0|1:0,0:1:0:0:
320,168,47788,2,2,B|240:200|160:160,1,160,2|2,1:0|1:0,0:1:0:0:
104,112,49194,1,8,1:0:0:0:
40,160,49663,6,2,B|-8:208|16:288|80:296,1,160,6|0,1:0|1:0,0:1:0:0:
144,280,51069,2,2,B|216:240|296:272|296:272|376:240,1,240,10|2,1:0|1:0,0:1:0:0:
448,208,52944,1,10,1:0:0:0:
488,136,53413,6,2,B|472:80|384:64|344:112,1,160,2|0,1:1|1:0,0:1:0:0:
288,152,54819,2,2,B|208:160|112:160,1,160,10|8,1:0|1:0,0:1:0:0:
136,80,56225,2,2,B|80:80|24:72,1,79.9999999999999,2|10,1:1|1:1,0:1:0:0:
16,144,57163,6,2,B|16:224|16:224|56:236|88:272,1,160,2|0,1:0|1:0,0:1:0:0:
152,312,58569,2,2,B|200:312|232:288|232:288|304:312,1,160,8|10,1:0|1:0,0:1:0:0:
376,352,59975,2,0,B|424:360|464:320,1,79.9999999999999,2|2,1:1|1:0,0:0:0:0:
488,256,60913,6,2,L|464:88,1,160,2|0,1:0|1:0,0:1:0:0:
400,48,62319,1,10,1:0:0:0:
320,64,62788,2,2,B|280:64|216:72,1,79.9999999999999,2|10,1:0|1:0,0:1:0:0:
160,88,63725,2,2,B|112:96|56:96,1,79.9999999999999,2|8,1:0|1:0,0:1:0:0:
24,152,64663,6,0,B|-16:240|48:232|8:328,1,160,4|0,1:2|1:0,0:0:0:0:
88,344,66069,1,8,1:2:0:0:
160,304,66538,2,0,B|232:368|328:312,1,160,0|0,1:0|1:0,0:0:0:0:
440,232,68413,6,0,B|448:184|424:144,1,79.9999999999999,0|8,1:0|1:2,0:0:0:0:
376,96,69350,2,0,L|306:37,1,79.9999999999999,0|8,1:0|1:2,0:0:0:0:
240,72,70288,2,0,B|160:120|64:88,1,160,0|0,1:0|1:0,0:0:0:0:
24,144,71694,1,8,1:2:0:0:
88,192,72163,6,0,B|104:256|72:304|72:304|96:344,1,160,0|0,1:0|1:0,0:0:0:0:
176,344,73569,1,8,1:2:0:0:
240,296,74038,2,0,B|320:272|408:296,1,160,0|0,1:0|1:0,0:0:0:0:
488,160,75913,6,0,B|408:184|320:160,1,160,0|0,1:0|1:0,0:0:0:0:
256,128,77319,1,8,1:2:0:0:
192,176,77788,2,0,B|136:184|96:152,2,79.9999999999999,0|8|0,1:0|1:2|1:0,0:0:0:0:
256,128,79194,1,8,1:2:0:0:
208,64,79663,6,0,B|168:24|88:32|64:96,1,160,0|0,1:0|1:0,0:0:0:0:
88,160,81069,1,8,1:2:0:0:
40,224,81538,2,0,B|8:304|40:384,1,160,0|0,1:0|1:0,0:0:0:0:
200,368,83413,6,0,B|248:360|288:368,1,79.9999999999999,0|8,1:0|1:2,0:0:0:0:
344,320,84350,2,0,B|400:328|440:320,1,79.9999999999999,0|8,1:0|1:2,0:0:0:0:
480,264,85288,2,0,B|531:237|528:144|459:127,1,160,0|0,1:0|1:0,0:0:0:0:
432,200,86694,1,8,1:2:0:0:
352,216,87163,6,0,B|312:224|264:216,1,79.9999999999999,0|8,1:0|1:2,0:0:0:0:
193,201,88100,2,0,B|153:193|89:201,1,79.9999999999999,0|8,1:0|1:2,0:0:0:0:
32,200,89038,2,0,B|24:120|32:32,1,160,0|0,1:0|1:0,0:0:0:0:
208,72,90913,6,0,B|272:136|232:224,1,160,0|0,1:0|1:0,0:0:0:0:
161,252,92319,1,8,1:2:0:0:
83,271,92788,2,0,B|35:255|11:199,2,79.9999999999999,0|8|0,1:0|1:2|1:0,0:0:0:0:
128,336,94194,1,8,1:2:0:0:
206,320,94663,1,4,0:0:0:0:
144,184,102163,6,0,B|152:96|264:64|328:136,1,240,8|8,0:0|0:0,0:0:0:0:
344,216,104038,2,0,B|336:304|224:336|160:264,1,240,8|8,0:0|0:0,0:0:0:0:
256,192,105913,12,4,107788,3:0:0:0:
144,304,109194,5,10,1:2:0:0:
224,288,109663,2,2,B|312:280|416:288,1,160,6|0,1:0|1:0,0:1:0:0:
464,304,111069,1,10,1:0:0:0:
488,224,111538,2,2,B|520:144|464:72|464:72|432:104|368:88,1,240,2|8,1:0|1:0,0:1:0:0:
312,64,113413,6,2,B|272:48|208:56,1,79.9999999999999,2|8,1:1|1:0,0:1:0:0:
192,128,114350,2,2,B|232:144|296:136,1,79.9999999999999,0|10,1:0|1:1,0:1:0:0:
352,136,115288,2,2,B|400:176|384:264|312:280,1,160,0|2,1:0|1:1,0:1:0:0:
256,256,116694,2,2,L|168:264,1,79.9999999999999,8|4,1:0|1:0,0:1:0:0:
96,264,117631,5,8,1:0:0:0:
16,272,118100,2,2,B|8:207|72:160|141:192,1,160,2|0,1:1|1:0,0:1:0:0:
192,224,119506,1,10,1:0:0:0:
272,232,119975,2,2,B|320:224|360:232,1,79.9999999999999,2|8,1:0|1:0,0:1:0:0:
432,248,120913,6,2,B|456:184|424:128,2,120,2|2|10,1:0|0:1|1:0,0:1:0:0:
384,312,122788,2,2,L|288:336,1,79.9999999999999,2|10,1:1|1:0,0:1:0:0:
224,328,123725,2,2,L|120:352,1,79.9999999999999,2|10,1:1|1:0,0:1:0:0:
64,344,124663,6,2,B|16:312|24:232|80:208,1,160,6|0,1:0|1:0,0:1:0:0:
152,184,126069,1,10,1:1:0:0:
216,232,126538,2,2,B|288:176|384:200,1,160,2|2,1:1|1:0,0:1:0:0:
440,224,127944,1,8,1:0:0:0:
392,288,128413,6,2,B|344:312|296:296|296:296|256:344|256:344|208:328|168:352,1,240,2|10,1:0|0:1,0:1:0:0:
104,320,130288,2,2,B|104:272|96:216,1,79.9999999999999,0|8,1:0|1:0,0:1:0:0:
80,160,131225,2,2,B|72:112|72:64,1,79.9999999999999,2|8,1:0|1:0,0:1:0:0:
152,88,132163,6,2,B|232:104|280:32,2,120,6|2|10,1:1|0:1|1:1,0:1:0:0:
77,58,134038,2,2,L|53:226,1,160,2|2,1:0|1:0,0:1:0:0:
72,296,135444,1,10,1:0:0:0:
136,240,135913,6,2,B|192:192|264:216,2,120,2|2|10,1:1|0:1|1:0,0:1:0:0:
152,320,137788,2,2,B|200:328|248:328,1,79.9999999999999,0|10,1:0|1:0,0:1:0:0:
312,336,138725,2,2,L|319:254,1,79.9999999999999,2|8,1:0|1:1,0:1:0:0:
368,192,139663,6,0,B|400:144|376:72|328:56,1,160,4|0,1:2|1:0,1:0:0:0:
248,72,141069,1,8,1:2:0:0:
248,152,141538,2,0,L|274:232,1,79.9999999999999,0|8,1:2|1:2,0:0:0:0:
312,296,142475,1,0,1:0:0:0:
464,240,143413,6,0,B|464:200|456:144,1,79.9999999999999,0|8,1:0|1:2,0:0:0:0:
424,88,144350,2,0,B|384:96|328:96,1,79.9999999999999,0|8,1:0|1:2,0:0:0:0:
280,144,145288,2,0,B|280:192|288:240,1,79.9999999999999,0|8,1:0|1:2,0:0:0:0:
304,304,146225,2,0,B|248:312|208:312,1,79.9999999999999,0|8,1:0|1:2,0:0:0:0:
160,264,147163,5,0,1:0:0:0:
80,272,147631,1,8,1:2:0:0:
40,200,148100,2,0,B|0:144|32:72|104:64,1,160,0|0,1:0|1:0,0:0:0:0:
160,88,149506,2,0,B|208:88|256:80,2,79.9999999999999,8|0|8,1:2|1:0|1:2,0:0:0:0:
112,152,150913,6,0,B|120:240|248:272|296:184,1,240,0|8,1:0|1:2,0:0:0:0:
344,128,152788,2,0,B|384:104|432:112,1,79.9999999999999,0|8,1:0|1:2,0:0:0:0:
408,192,153725,2,0,B|464:184|496:224,1,79.9999999999999,0|8,1:0|1:2,0:0:0:0:
504,288,154663,6,0,B|440:352|352:312|352:312|272:328,1,240,0|8,1:0|1:2,0:0:0:0:
200,304,156538,2,0,L|112:320,2,79.9999999999999,0|8|0,1:0|1:2|1:0,0:0:0:0:
248,152,158413,6,0,B|200:160|168:112,1,79.9999999999999,0|8,1:0|1:2,0:0:0:0:
144,48,159350,2,0,L|40:64,1,79.9999999999999,0|8,1:0|1:2,0:0:0:0:
8,120,160288,2,0,B|88:176|48:280,1,160,0|0,1:0|1:0,0:0:0:0:
14,329,161694,1,8,1:2:0:0:
80,376,162163,6,0,L|256:344,1,160,0|0,1:0|1:0,0:0:0:0:
312,320,163569,1,8,1:2:0:0:
376,264,164038,2,0,B|336:232|280:240,1,79.9999999999999,0|8,1:0|1:2,0:0:0:0:
224,256,164975,2,0,B|176:264|128:240,1,79.9999999999999,0|8,1:0|1:2,0:0:0:0:
80,200,165913,6,0,L|96:32,1,160,0|0,1:0|1:0,0:0:0:0:
176,64,167319,1,8,1:2:0:0:
256,80,167788,2,0,B|312:88|352:72,1,79.9999999999999,0|8,1:0|1:2,0:0:0:0:
416,56,168725,2,0,L|408:144,1,79.9999999999999,0|8,1:0|1:2,0:0:0:0:
344,184,169663,1,2,2:0:0:0:
464,352,184663,5,2,0:0:0:0:
392,312,185131,2,0,L|304:336,2,79.9999999999999,2|2|2,0:0|0:0|0:0,0:0:0:0:
440,248,186538,2,0,B|480:168|424:72,1,160,0|2,0:0|0:0,0:0:0:0:
360,64,187944,1,2,0:0:0:0:
288,104,188413,6,0,B|208:112|112:112,2,160,2|2|0,0:0|0:0|0:0,0:0:0:0:
341,163,190756,1,2,0:0:0:0:
320,240,191225,2,0,B|280:248|208:248,1,79.9999999999999,2|2,0:0|0:0,0:0:0:0:
160,232,192163,6,0,B|96:240|72:312|120:368,2,160,2|2|0,0:0|0:0|0:0,0:0:0:0:
312,184,194975,1,2,0:0:0:0:
432,288,195913,1,0,0:0:0:0:
256,192,196381,12,4,199663,0:0:0:0:
96,232,207163,6,0,L|72:88,2,120,0|0|0,1:1|1:0|1:0,0:0:0:0:
176,208,209038,2,0,L|312:216,2,120,0|0|0,1:0|1:0|1:0,0:0:0:0:
136,280,210913,6,0,B|176:376|280:352|280:352|344:296,1,240,0|0,1:0|1:0,0:0:0:0:
384,256,212788,2,0,B|325:220|344:147|344:147|336:77|259:67,1,240,0|0,1:0|1:0,0:0:0:0:
216,128,214663,6,0,L|96:136,1,120,0|0,1:0|1:0,0:0:0:0:
8,208,216069,1,0,1:0:0:0:
56,272,216538,2,0,L|200:256,1,120,0|0,1:0|1:0,0:0:0:0:
272,184,217944,1,0,1:0:0:0:
320,248,218413,6,0,B|376:176|496:208|496:320,1,240,0|0,1:0|1:0,0:0:0:0:
254,165,221694,5,4,0:2:0:0:
200,104,222163,6,2,B|160:96|112:104,1,79.9999999999999,6|8,1:0|1:1,0:1:0:0:
48,144,223100,2,2,L|64:224,1,79.9999999999999,2|10,1:0|1:0,0:1:0:0:
112,288,224038,2,2,B|160:296|216:264,1,79.9999999999999,2|8,1:0|1:0,0:1:0:0:
264,240,224975,2,2,L|368:224,1,79.9999999999999,2|8,1:1|1:0,0:0:0:0:
416,264,225913,6,2,B|472:240|472:160|416:128,1,160,2|0,1:1|1:0,0:1:0:0:
344,104,227319,1,10,1:0:0:0:
264,120,227788,2,2,B|176:160|112:80,1,160,2|2,1:1|1:0,0:1:0:0:
40,99,229194,1,8,1:0:0:0:
12,174,229663,6,2,L|36:350,1,160,6|0,1:1|1:0,0:1:0:0:
112,320,231069,1,10,1:0:0:0:
184,352,231538,2,2,B|240:344|296:344,1,79.9999999999999,2|10,1:1|1:0,0:1:0:0:
338,315,232475,2,2,B|386:315|426:307,1,79.9999999999999,2|8,1:1|1:0,0:1:0:0:
480,256,233413,6,2,B|520:200|488:128,2,120,2|2|10,1:0|0:1|1:0,0:1:0:0:
416,208,235288,2,2,L|320:232,1,79.9999999999999,2|10,1:1|1:1,0:1:0:0:
264,256,236225,2,2,B|240:216|256:168,1,79.9999999999999,2|10,1:0|1:0,0:1:0:0:
280,104,237163,6,2,B|200:56|112:96,1,160,4|0,1:1|1:0,0:1:0:0:
56,128,238569,1,8,1:0:0:0:
104,192,239038,2,2,L|96:288,1,79.9999999999999,2|8,1:1|1:0,0:1:0:0:
136,344,239975,2,2,B|192:376|256:352|272:280,1,160,2|2,1:1|1:0,0:1:0:0:
240,224,241381,5,8,1:0:0:0:
248,144,241850,2,2,B|232:96|272:48,1,79.9999999999999,2|8,1:1|1:0,0:1:0:0:
336,88,242788,2,2,B|384:88|416:80,1,79.9999999999999,2|10,1:1|1:0,0:1:0:0:
480,136,243725,2,2,B|432:152|416:208,1,79.9999999999999,2|8,1:1|1:0,0:1:0:0:
392,264,244663,6,2,B|320:288|320:288|240:264,1,160,2|0,1:1|1:0,0:1:0:0:
168,224,246069,1,8,1:0:0:0:
88,248,246538,2,2,L|-8:240,2,79.9999999999999,2|10|2,1:1|1:0|1:1,0:1:0:0:
152,304,247944,1,10,1:1:0:0:
232,288,248413,6,2,B|280:248|344:264|344:264|384:232,1,160,2|0,1:1|1:0,0:1:0:0:
440,184,249819,1,10,1:0:0:0:
376,128,250288,2,2,B|336:120|288:128,1,79.9999999999999,2|10,1:1|1:0,0:1:0:0:
216,152,251225,1,2,1:0:0:0:
144,192,251694,1,8,1:0:0:0:
64,168,252163,6,0,B|16:128|32:48|104:40,1,160,4|0,1:2|1:0,0:0:0:0:
168,64,253569,1,8,1:2:0:0:
248,56,254038,2,0,B|328:64|416:48,1,160,0|0,1:0|1:0,0:0:0:0:
440,206,255913,6,0,B|496:238|480:326|424:342,1,160,0|0,1:0|1:0,0:0:0:0:
352,328,257319,1,8,1:2:0:0:
280,288,257788,2,0,B|192:256|120:320,1,160,0|0,1:0|1:0,0:0:0:0:
64,360,259194,1,8,1:2:0:0:
48,280,259663,6,0,B|80:144|80:144|136:168|200:128,1,240,0|8,1:0|1:2,0:0:0:0:
248,96,261538,2,0,B|288:80|344:88,1,79.9999999999999,0|8,1:0|1:2,0:0:0:0:
408,104,262475,1,0,1:0:0:0:
491,240,263413,6,0,B|507:368|507:368|459:328|379:352,1,240,0|8,1:0|1:2,0:0:0:0:
323,360,265288,2,0,B|283:376|235:368,1,79.9999999999999,0|8,1:0|1:2,0:0:0:0:
179,320,266225,2,0,B|171:272|203:224,1,79.9999999999999,0|8,1:0|1:2,0:0:0:0:
259,192,267163,1,2,0:2:0:0:
