osu file format v14

[General]
AudioFilename: audio.mp3
AudioLeadIn: 0
PreviewTime: 64123
Countdown: 0
SampleSet: Soft
StackLeniency: 0.7
Mode: 0
LetterboxInBreaks: 0
WidescreenStoryboard: 0

[Editor]
Bookmarks: 3161,12777,13931,15085,15469,21238,21623,27777,40085,64700,68738,72392,73931,75469,76911,77008,89315,113161,113931,126238,138450,138546,150854,163161,175469,186238,187777,199988,200085,212392,215469,217392,218546,223161,224700,230469,249315
DistanceSpacing: 1.1
BeatDivisor: 4
GridSize: 8
TimelineZoom: 1.3

[Metadata]
Title:Deathly Loneliness Attacks(feat. Mafumafu)
TitleUnicode:猛独が襲う (feat. 初音ミク)
Artist:Hifumi
ArtistUnicode:一二三
Creator:TsukinoseTillot
Version:Emotions
Source:
Tags:
BeatmapID:1901567
BeatmapSetID:911156

[Difficulty]
HPDrainRate:5
CircleSize:3.5
OverallDifficulty:8.5
ApproachRate:9
SliderMultiplier:1.74
SliderTickRate:1

[Events]
//Background and Video events
0,0,"background.jpg",0,0
//Break Periods
2,152392,162520
//Storyboard Layer 0 (Background)
//Storyboard Layer 1 (Fail)
//Storyboard Layer 2 (Pass)
//Storyboard Layer 3 (Foreground)
//Storyboard Layer 4 (Overlay)
//Storyboard Sound Samples

[TimingPoints]
85,384.615384615385,4,2,1,50,1,0
3161,-100,4,2,1,50,0,0
4700,-100,4,2,1,50,0,0
5085,-100,4,2,1,30,0,0
5469,-100,4,2,1,40,0,0
5854,-100,4,2,1,50,0,0
7777,-100,4,2,1,50,0,0
8161,-100,4,2,1,30,0,0
8546,-100,4,2,1,40,0,0
8931,-100,4,2,1,50,0,0
9315,-100,4,2,1,50,0,0
10854,-100,4,2,1,50,0,0
11238,-100,4,2,1,30,0,0
11623,-100,4,2,1,40,0,0
12008,-100,4,2,1,50,0,0
12392,-100,4,2,1,50,0,0
13931,-100,4,2,1,20,0,0
14123,-100,4,2,1,25,0,0
14315,-100,4,2,1,30,0,0
14411,-100,4,2,1,35,0,0
14508,-100,4,2,1,40,0,0
14604,-100,4,2,1,45,0,0
14700,-100,4,2,1,50,0,0
14796,-100,4,2,1,55,0,0
14892,-100,4,2,1,60,0,0
14988,-100,4,2,1,65,0,0
15085,-100,4,2,1,70,0,0
15469,-83.3333333333333,4,2,1,50,0,0
64700,-83.3333333333333,4,2,1,50,0,1
76911,-83.3333333333333,4,2,1,50,0,0
77008,-83.3333333333333,4,2,1,50,0,1
89315,-90.9090909090909,4,2,1,50,0,0
126238,-83.3333333333333,4,2,1,50,0,1
138450,-83.3333333333333,4,2,1,50,0,0
138546,-83.3333333333333,4,2,1,50,0,1
150854,-100,4,2,1,50,0,0
163161,-125,4,2,1,50,0,0
175469,-100,4,2,1,50,0,0
187777,-83.3333333333333,4,2,1,50,0,1
199988,-83.3333333333333,4,2,1,50,0,0
200085,-83.3333333333333,4,2,1,50,0,1
212392,-83.3333333333333,4,2,1,50,0,0
215469,-83.3333333333333,4,2,1,50,0,1
217008,-83.3333333333333,4,2,1,50,0,0
218546,-83.3333333333333,4,2,1,50,0,1
223161,-83.3333333333333,4,2,1,50,0,0
223546,-100,4,2,1,50,0,0
223931,-125,4,2,1,50,0,0
224315,-142.857142857143,4,2,1,50,0,0
224700,-83.3333333333333,4,2,1,50,0,0
252392,-83.3333333333333,4,2,1,5,0,0

[Colours]
Combo1 : 162,169,240
Combo2 : 23,113,179
Combo3 : 18,124,255
Combo4 : 117,159,238

[HitObjects]
212,171,3161,5,2,0:0:0:0:
251,258,3546,2,0,P|315:234|333:215,1,87,2|0,0:0|0:0,0:0:0:0:
294,151,3931,2,0,P|340:118|388:113,1,87,2|0,0:0|0:0,0:0:0:0:
432,186,4315,2,0,P|448:229|442:283,1,87,2|0,0:0|0:0,0:0:0:0:
320,250,4700,5,2,0:0:0:0:
178,308,5085,1,2,0:0:0:0:
251,203,5469,1,2,0:0:0:0:
266,344,5854,1,2,0:0:0:0:
158,200,6238,5,2,0:0:0:0:
51,243,6623,2,0,P|75:179|94:161,1,87,2|0,0:0|0:0,0:0:0:0:
158,200,7008,2,0,P|191:154|196:106,1,87,2|0,0:0|0:0,0:0:0:0:
123,62,7392,2,0,P|80:46|26:52,1,87,2|0,0:0|0:0,0:0:0:0:
65,198,7777,5,2,0:0:0:0:
223,156,8161,1,2,0:0:0:0:
398,195,8546,1,2,0:0:0:0:
310,83,8931,1,2,0:0:0:0:
103,183,9315,5,2,0:0:0:0:
185,364,9701,2,0,P|228:365|268:349,1,87,2|0,0:0|0:0,0:0:0:0:
343,286,10085,2,0,P|331:244|304:211,1,87,2|0,0:0|0:0,0:0:0:0:
233,245,10470,2,0,P|206:210|196:168,1,87,2|0,0:0|0:0,0:0:0:0:
352,117,10854,5,2,0:0:0:0:
125,82,11238,1,2,0:0:0:0:
273,144,11623,1,2,0:0:0:0:
245,33,12008,1,2,0:0:0:0:
343,245,12392,5,2,0:0:0:0:
263,305,12777,2,0,P|199:281|181:262,1,87,2|0,0:0|0:0,0:0:0:0:
220,198,13162,2,0,P|174:165|126:160,1,87,2|0,0:0|0:0,0:0:0:0:
82,233,13546,2,0,P|66:276|72:330,1,87,2|0,0:0|0:0,0:0:0:0:
222,348,13931,6,0,P|263:321|298:261,1,87,2|0,0:0|0:0,0:0:0:0:
279,200,14315,1,2,0:0:0:0:
261,201,14411,1,0,0:0:0:0:
244,204,14508,1,0,0:0:0:0:
228,210,14604,1,0,0:0:0:0:
212,217,14700,5,2,0:0:0:0:
197,226,14796,1,0,0:0:0:0:
183,237,14892,1,0,0:0:0:0:
171,249,14988,1,0,0:0:0:0:
151,264,15085,1,2,0:0:0:0:
96,192,15469,6,0,P|80:128|96:64,1,104.399996813965,4|0,0:0|0:0,0:0:0:0:
208,32,15854,1,8,0:0:0:0:
90,273,16046,1,0,0:0:0:0:
293,184,16238,1,2,0:0:0:0:
112,48,16431,5,0,0:0:0:0:
208,256,16623,1,8,0:0:0:0:
32,176,16815,1,0,0:0:0:0:
227,73,17008,2,0,P|291:41|323:9,1,104.399996813965,2|0,0:0|0:0,0:0:0:0:
448,144,17392,5,8,0:0:0:0:
360,323,17585,1,0,0:0:0:0:
256,192,17777,1,2,0:0:0:0:
448,288,17969,1,0,0:0:0:0:
314,123,18161,2,0,P|308:66|321:0,1,104.399996813965,8|0,0:0|0:0,0:0:0:0:
272,314,18546,5,4,0:0:0:0:
432,160,18738,1,0,0:0:0:0:
208,256,18931,1,8,0:0:0:0:
426,269,19123,1,0,0:0:0:0:
314,123,19315,2,0,P|254:82|211:70,1,104.399996813965,2|0,0:0|0:0,0:0:0:0:
48,81,19700,2,0,P|80:113|176:145,1,104.399996813965,8|0,0:0|0:0,0:0:0:0:
321,53,20085,2,0,L|371:26,2,52.1999984069825,2|0|0,0:0|0:0|0:0,0:0:0:0:
194,309,20469,5,8,0:0:0:0:
349,138,20661,1,0,0:0:0:0:
91,215,20854,1,2,0:0:0:0:
294,266,21046,1,0,0:0:0:0:
112,112,21238,5,8,0:0:0:0:
112,112,21335,1,0,0:0:0:0:
112,112,21431,1,0,0:0:0:0:
208,176,21623,6,0,P|288:192|336:192,1,104.399996813965,4|0,0:0|0:0,0:0:0:0:
401,36,22008,1,8,0:0:0:0:
199,50,22200,1,0,0:0:0:0:
310,192,22392,2,0,P|294:272|278:304,1,104.399996813965,2|0,0:0|0:0,0:0:0:0:
310,192,22777,2,0,P|312:139|326:89,1,104.399996813965,8|0,0:0|0:0,0:0:0:0:
470,116,23161,5,2,0:0:0:0:
359,300,23354,1,0,0:0:0:0:
355,64,23546,1,8,0:0:0:0:
476,221,23738,1,0,0:0:0:0:
177,197,23931,6,0,P|246:181|296:175,1,104.399996813965,2|0,0:0|0:0,0:0:0:0:
381,156,24315,2,0,P|312:172|262:178,1,104.399996813965,8|0,0:0|0:0,0:0:0:0:
107,241,24700,2,0,L|28:232,2,52.1999984069825,4|0|0,0:0|0:0|0:0,0:0:0:0:
381,312,25085,5,8,0:0:0:0:
208,128,25277,1,0,0:0:0:0:
481,133,25469,2,0,P|398:155|345:151,1,104.399996813965,2|0,0:0|0:0,0:0:0:0:
310,230,25854,6,0,P|342:182|390:150,1,104.399996813965,8|0,0:0|0:0,0:0:0:0:
460,90,26238,2,0,L|501:42,2,52.1999984069825,2|0|0,0:0|0:0|0:0,0:0:0:0:
384,288,26623,5,8,0:0:0:0:
272,128,26815,1,0,0:0:0:0:
416,192,27008,1,2,0:0:0:0:
208,256,27200,1,0,0:0:0:0:
352,144,27392,5,8,0:0:0:0:
352,144,27488,1,0,0:0:0:0:
352,144,27585,1,0,0:0:0:0:
309,293,27777,6,0,P|229:325|174:328,1,104.399996813965,2|0,0:0|0:0,0:0:0:0:
72,277,28161,2,0,P|154:243|209:240,1,104.399996813965,2|0,0:0|0:0,0:0:0:0:
440,169,28546,5,2,0:0:0:0:
232,125,28738,1,0,0:0:0:0:
383,293,28931,1,2,0:0:0:0:
388,87,29123,1,0,0:0:0:0:
296,240,29315,6,0,P|243:272|186:285,1,104.399996813965,2|0,0:0|0:0,0:0:0:0:
43,251,29700,2,0,P|106:223|156:215,1,104.399996813965,2|0,0:0|0:0,0:0:0:0:
289,76,30085,5,2,0:0:0:0:
386,249,30277,1,0,0:0:0:0:
365,36,30469,1,2,0:0:0:0:
274,244,30661,1,0,0:0:0:0:
444,182,30854,6,0,P|464:233|475:291,1,104.399996813965,2|0,0:0|0:0,0:0:0:0:
405,347,31238,2,0,P|317:331|263:334,1,104.399996813965,2|0,0:0|0:0,0:0:0:0:
221,355,31623,2,0,P|175:300|151:255,2,104.399996813965,2|0|2,0:0|0:0|0:0,0:0:0:0:
274,244,32200,1,0,0:0:0:0:
37,226,32392,5,2,0:0:0:0:
187,61,32585,1,0,0:0:0:0:
45,65,32777,1,2,0:0:0:0:
251,137,32969,1,0,0:0:0:0:
48,159,33161,5,2,0:0:0:0:
218,222,33354,1,0,0:0:0:0:
86,261,33546,1,2,0:0:0:0:
86,261,33642,1,0,0:0:0:0:
86,261,33738,1,0,0:0:0:0:
26,325,33931,6,0,P|81:348|134:346,1,104.399996813965,4|0,0:0|0:0,0:0:0:0:
181,282,34315,2,0,P|235:264|284:257,1,104.399996813965,2|0,0:0|0:0,0:0:0:0:
428,317,34700,5,2,0:0:0:0:
319,140,34892,1,0,0:0:0:0:
475,206,35085,1,2,0:0:0:0:
219,198,35277,1,0,0:0:0:0:
368,186,35469,6,0,P|423:140|448:96,1,104.399996813965,2|0,0:0|0:0,0:0:0:0:
436,3,35854,2,0,P|381:49|356:93,1,104.399996813965,2|0,0:0|0:0,0:0:0:0:
233,289,36238,5,2,0:0:0:0:
270,117,36431,1,0,0:0:0:0:
129,248,36623,1,2,0:0:0:0:
320,189,36815,1,0,0:0:0:0:
255,91,37008,6,0,P|188:56|120:57,1,104.399996813965,2|0,0:0|0:0,0:0:0:0:
116,128,37392,2,0,P|140:185|144:245,1,104.399996813965,2|0,0:0|0:0,0:0:0:0:
81,294,37777,2,0,P|179:332|214:335,2,104.399996813965,2|0|2,0:0|0:0|0:0,0:0:0:0:
212,154,38354,1,0,0:0:0:0:
426,220,38546,5,2,0:0:0:0:
212,154,38738,1,0,0:0:0:0:
399,105,38931,1,2,0:0:0:0:
377,290,39123,1,0,0:0:0:0:
260,86,39315,5,2,0:0:0:0:
426,243,39508,1,0,0:0:0:0:
219,210,39700,1,0,0:0:0:0:
219,210,39796,1,0,0:0:0:0:
219,210,39892,1,0,0:0:0:0:
416,192,40085,6,0,P|432:256|416:320,1,104.399996813965,4|0,0:0|0:0,0:0:0:0:
304,352,40469,1,8,0:0:0:0:
266,140,40661,1,0,0:0:0:0:
360,249,40854,1,2,0:0:0:0:
211,352,41046,5,0,0:0:0:0:
335,132,41238,1,8,0:0:0:0:
351,306,41431,1,0,0:0:0:0:
205,180,41623,2,0,P|140:149|95:143,1,104.399996813965,2|0,0:0|0:0,0:0:0:0:
55,266,42008,5,8,0:0:0:0:
190,32,42200,1,0,0:0:0:0:
249,210,42392,1,2,0:0:0:0:
99,69,42585,1,0,0:0:0:0:
174,256,42777,2,0,P|238:296|301:281,1,104.399996813965,8|0,0:0|0:0,0:0:0:0:
192,64,43161,5,4,0:0:0:0:
80,224,43354,1,0,0:0:0:0:
304,128,43546,1,8,0:0:0:0:
96,112,43738,1,0,0:0:0:0:
264,296,43931,6,0,P|232:328|136:360,1,104.399996813965,2|0,0:0|0:0,0:0:0:0:
82,315,44315,2,0,P|50:251|50:187,1,104.399996813965,8|0,0:0|0:0,0:0:0:0:
99,128,44700,2,0,L|131:80,2,52.1999984069825,2|0|0,0:0|0:0|0:0,0:0:0:0:
240,224,45085,5,8,0:0:0:0:
448,160,45277,1,0,0:0:0:0:
288,288,45469,1,2,0:0:0:0:
256,112,45661,1,0,0:0:0:0:
400,272,45854,5,8,0:0:0:0:
400,272,45950,1,0,0:0:0:0:
400,272,46046,1,0,0:0:0:0:
304,208,46238,6,0,P|224:192|176:192,1,104.399996813965,4|0,0:0|0:0,0:0:0:0:
80,336,46623,1,8,0:0:0:0:
288,304,46815,1,0,0:0:0:0:
112,192,47008,2,0,P|128:112|144:80,1,104.399996813965,2|0,0:0|0:0,0:0:0:0:
224,96,47392,2,0,P|288:112|336:112,1,104.399996813965,8|0,0:0|0:0,0:0:0:0:
480,240,47777,5,2,0:0:0:0:
384,64,47969,1,0,0:0:0:0:
352,288,48161,1,8,0:0:0:0:
480,144,48354,1,0,0:0:0:0:
320,160,48546,6,0,P|256:192|224:192,1,104.399996813965,2|0,0:0|0:0,0:0:0:0:
176,112,48931,2,0,P|112:176|112:224,1,104.399996813965,8|0,0:0|0:0,0:0:0:0:
112,288,49315,2,0,L|112:368,2,52.1999984069825,4|0|0,0:0|0:0|0:0,0:0:0:0:
160,96,49700,5,8,0:0:0:0:
304,256,49892,1,0,0:0:0:0:
110,185,50085,2,0,L|167:85,1,104.399996813965,2|0,0:0|0:0,0:0:0:0:
208,240,50469,6,0,P|176:288|128:320,1,104.399996813965,8|0,0:0|0:0,0:0:0:0:
64,272,50854,2,0,L|16:320,2,52.1999984069825,2|0|0,0:0|0:0|0:0,0:0:0:0:
128,96,51238,5,8,0:0:0:0:
240,256,51431,1,0,0:0:0:0:
47,178,51623,1,2,0:0:0:0:
266,149,51815,1,0,0:0:0:0:
160,240,52008,5,8,0:0:0:0:
160,240,52104,1,0,0:0:0:0:
160,240,52200,1,0,0:0:0:0:
204,93,52392,6,0,P|284:61|339:58,1,104.399996813965,2|0,0:0|0:0,0:0:0:0:
430,219,52777,1,2,0:0:0:0:
236,168,52969,1,0,0:0:0:0:
377,117,53161,1,2,0:0:0:0:
338,354,53354,1,0,0:0:0:0:
258,269,53546,2,0,P|196:231|156:225,1,104.399996813965,2|0,0:0|0:0,0:0:0:0:
42,102,53931,5,2,0:0:0:0:
107,296,54123,1,0,0:0:0:0:
145,75,54315,1,2,0:0:0:0:
9,192,54508,1,0,0:0:0:0:
201,137,54700,5,2,0:0:0:0:
52,69,54892,1,0,0:0:0:0:
243,38,55085,1,2,0:0:0:0:
130,182,55277,1,0,0:0:0:0:
287,122,55469,6,0,P|344:98|386:87,1,104.399996813965,2|0,0:0|0:0,0:0:0:0:
455,154,55854,2,0,P|418:201|399:246,1,104.399996813965,2|0,0:0|0:0,0:0:0:0:
440,314,56238,2,0,P|380:337|318:337,2,104.399996813965,2|0|2,0:0|0:0|0:0,0:0:0:0:
368,217,56815,1,0,0:0:0:0:
89,328,57008,5,2,0:0:0:0:
28,148,57200,1,0,0:0:0:0:
42,260,57392,1,2,0:0:0:0:
143,79,57585,1,0,0:0:0:0:
38,105,57777,5,2,0:0:0:0:
232,119,57969,1,0,0:0:0:0:
137,178,58161,1,2,0:0:0:0:
137,178,58258,1,0,0:0:0:0:
137,178,58354,1,0,0:0:0:0:
187,36,58546,6,0,P|248:21|325:21,1,104.399996813965,4|0,0:0|0:0,0:0:0:0:
365,52,58931,2,0,P|401:131|414:172,1,104.399996813965,2|0,0:0|0:0,0:0:0:0:
337,196,59315,2,0,P|275:214|218:234,2,104.399996813965,2|0|2,0:0|0:0|0:0,0:0:0:0:
452,230,59892,1,0,0:0:0:0:
189,121,60085,5,2,0:0:0:0:
376,262,60277,1,0,0:0:0:0:
248,28,60469,1,2,0:0:0:0:
150,211,60661,1,0,0:0:0:0:
376,68,60854,5,2,0:0:0:0:
110,105,61046,1,0,0:0:0:0:
292,235,61238,1,2,0:0:0:0:
312,38,61431,1,0,0:0:0:0:
193,205,61623,6,0,P|232:282|266:313,1,104.399996813965,2|0,0:0|0:0,0:0:0:0:
321,342,62008,2,0,P|373:300|419:272,1,104.399996813965,2|0,0:0|0:0,0:0:0:0:
473,319,62392,2,0,P|495:239|497:179,2,104.399996813965,2|0|2,0:0|0:0|0:0,0:0:0:0:
321,342,62969,1,0,0:0:0:0:
234,71,63161,5,2,0:0:0:0:
100,213,63546,1,2,0:0:0:0:
246,297,63931,1,2,0:0:0:0:
337,164,64123,5,0,0:0:0:0:
312,151,64219,1,0,0:0:0:0:
288,136,64315,1,0,0:0:0:0:
264,124,64411,1,0,0:0:0:0:
240,114,64508,1,0,0:0:0:0:
215,105,64604,1,0,0:0:0:0:
190,98,64700,6,0,P|134:118|60:120,1,104.399996813965,4|0,0:0|0:0,0:0:0:0:
73,325,65085,1,8,0:0:0:0:
202,220,65277,2,0,P|153:202|77:205,1,104.399996813965,0|8,0:0|0:0,0:0:0:0:
186,318,65661,2,0,P|235:336|311:333,1,104.399996813965,0|8,0:0|0:0,0:0:0:0:
372,273,66046,6,0,P|323:255|247:258,2,104.399996813965,0|8|0,0:0|0:0|0:0,0:0:0:0:
227,161,66623,1,8,0:0:0:0:
227,374,66815,1,0,0:0:0:0:
36,189,67008,2,0,L|156:156,1,104.399996813965,8|0,0:0|0:0,0:0:0:0:
252,341,67392,1,8,0:0:0:0:
375,162,67584,1,0,0:0:0:0:
137,162,67777,6,0,P|121:112|122:60,1,104.399996813965,4|0,0:0|0:0,0:0:0:0:
261,314,68161,1,8,0:0:0:0:
375,162,68354,2,0,P|390:112|389:60,1,104.399996813965,0|8,0:0|0:0,0:0:0:0:
270,264,68738,5,0,0:0:0:0:
137,162,68931,2,0,P|121:112|122:60,1,104.399996813965,8|0,0:0|0:0,0:0:0:0:
280,225,69315,1,8,0:0:0:0:
389,60,69508,1,0,0:0:0:0:
387,288,69700,5,8,0:0:0:0:
175,71,69892,1,0,0:0:0:0:
443,161,70085,1,8,0:0:0:0:
144,194,70277,1,0,0:0:0:0:
342,60,70469,5,8,0:0:0:0:
249,276,70661,1,0,0:0:0:0:
175,71,70854,2,0,P|101:54|48:54,1,104.399996813965,4|0,0:0|0:0,0:0:0:0:
57,243,71238,5,8,0:0:0:0:
273,118,71431,1,0,0:0:0:0:
45,137,71623,1,8,0:0:0:0:
169,300,71815,1,0,0:0:0:0:
175,71,72008,5,8,0:0:0:0:
90,268,72200,1,0,0:0:0:0:
257,292,72392,6,0,P|209:309|157:306,1,104.399996813965,8|0,0:0|0:0,0:0:0:0:
184,151,72777,1,8,0:0:0:0:
41,210,72970,1,0,0:0:0:0:
178,34,73162,6,0,P|128:49|83:75,1,104.399996813965,8|0,0:0|0:0,0:0:0:0:
153,260,73547,2,0,P|203:245|249:220,1,104.399996813965,8|0,0:0|0:0,0:0:0:0:
247,113,73931,2,0,P|214:72|177:34,1,104.399996813965,8|0,0:0|0:0,0:0:0:0:
83,182,74316,2,0,P|116:223|153:261,1,104.399996813965,8|0,0:0|0:0,0:0:0:0:
340,155,74700,6,0,P|289:141|246:112,1,104.399996813965,8|0,0:0|0:0,0:0:0:0:
406,70,75085,2,0,P|454:50|505:37,1,104.399996813965,8|0,0:0|0:0,0:0:0:0:
421,185,75470,2,0,P|371:199|320:207,1,104.399996813965,8|0,0:0|0:0,0:0:0:0:
226,50,75854,1,8,0:0:0:0:
227,334,76046,1,0,0:0:0:0:
320,208,76238,5,8,0:0:0:0:
290,211,76334,1,0,0:0:0:0:
262,217,76430,1,0,0:0:0:0:
234,226,76526,1,0,0:0:0:0:
209,240,76622,1,8,0:0:0:0:
185,257,76718,1,0,0:0:0:0:
160,273,76814,1,0,0:0:0:0:
132,279,76911,1,0,0:0:0:0:
95,286,77008,6,0,P|33:237|11:187,1,104.399996813965,4|0,0:0|0:0,0:0:0:0:
68,55,77392,1,8,0:0:0:0:
68,55,77585,2,0,P|133:85|170:114,1,104.399996813965,0|8,0:0|0:0,0:0:0:0:
311,257,77969,1,0,0:0:0:0:
311,257,78161,2,0,P|239:222|205:197,1,104.399996813965,8|0,0:0|0:0,0:0:0:0:
314,58,78546,5,8,0:0:0:0:
444,234,78738,1,0,0:0:0:0:
219,208,78931,1,8,0:0:0:0:
333,357,79123,1,0,0:0:0:0:
315,83,79315,5,8,0:0:0:0:
224,253,79508,1,0,0:0:0:0:
445,186,79700,1,8,0:0:0:0:
380,357,79892,1,0,0:0:0:0:
276,351,80085,6,0,P|335:359|382:356,1,104.399996813965,4|0,0:0|0:0,0:0:0:0:
468,175,80469,1,8,0:0:0:0:
310,280,80661,1,0,0:0:0:0:
470,355,80854,2,0,L|401:237,1,104.399996813965,8|0,0:0|0:0,0:0:0:0:
362,189,81238,6,0,L|293:307,1,104.399996813965,8|0,0:0|0:0,0:0:0:0:
72,256,81623,2,0,P|144:288|208:288,1,104.399996813965,8|0,0:0|0:0,0:0:0:0:
362,189,82008,2,0,P|316:164|265:154,1,104.399996813965,8|0,0:0|0:0,0:0:0:0:
168,290,82392,1,8,0:0:0:0:
224,60,82585,5,0,0:0:0:0:
224,60,82777,2,0,P|261:125|257:198,1,104.399996813965,8|0,0:0|0:0,0:0:0:0:
363,123,83161,2,0,P|291:150|229:150,1,104.399996813965,4|0,0:0|0:0,0:0:0:0:
224,60,83546,2,0,P|170:85|132:124,1,104.399996813965,8|0,0:0|0:0,0:0:0:0:
190,202,83931,2,0,P|136:224|68:194,1,104.399996813965,8|0,0:0|0:0,0:0:0:0:
35,126,84315,2,0,P|67:70|73:25,1,104.399996813965,8|0,0:0|0:0,0:0:0:0:
164,37,84700,2,0,P|252:61|275:60,1,104.399996813965,8|0,0:0|0:0,0:0:0:0:
346,30,85085,2,0,P|388:113|390:161,1,104.399996813965,8|0,0:0|0:0,0:0:0:0:
293,144,85469,6,0,P|263:221|308:348,1,208.79999362793,8|8,0:0|0:0,0:0:0:0:
412,319,86046,1,0,0:0:0:0:
412,319,86238,2,0,P|427:245|430:208,1,104.399996813965,8|0,0:0|0:0,0:0:0:0:
352,62,86623,5,8,0:0:0:0:
477,157,86815,1,0,0:0:0:0:
257,107,87008,2,0,L|367:54,1,104.399996813965,8|0,0:0|0:0,0:0:0:0:
288,231,87392,5,8,0:0:0:0:
373,121,87585,1,0,0:0:0:0:
370,294,87777,2,0,L|268:215,1,104.399996813965,8|0,0:0|0:0,0:0:0:0:
181,63,88161,5,8,0:0:0:0:
192,228,88354,1,0,0:0:0:0:
337,142,88546,1,8,0:0:0:0:
304,310,88642,5,0,0:0:0:0:
263,341,88738,1,0,0:0:0:0:
212,354,88834,1,0,0:0:0:0:
161,344,88930,1,8,0:0:0:0:
119,314,89026,1,0,0:0:0:0:
92,270,89122,1,0,0:0:0:0:
87,218,89218,1,0,0:0:0:0:
86,170,89315,6,0,P|85:99|87:44,1,95.7000029205323,4|0,0:0|0:0,0:0:0:0:
257,9,89700,1,0,0:0:0:0:
178,292,89892,1,0,0:0:0:0:
125,118,90085,1,0,0:0:0:0:
249,196,90277,5,0,0:0:0:0:
57,196,90469,1,0,0:0:0:0:
234,77,90661,1,0,0:0:0:0:
100,274,90854,2,0,P|34:302|-4:306,1,95.7000029205323,0|0,0:0|0:0,0:0:0:0:
65,100,91238,5,0,0:0:0:0:
192,234,91431,1,0,0:0:0:0:
169,50,91623,1,0,0:0:0:0:
124,266,91815,1,0,0:0:0:0:
246,70,92008,2,0,L|269:21,2,47.8500014602662,0|0|0,0:0|0:0|0:0,0:0:0:0:
122,177,92392,5,0,0:0:0:0:
317,285,92585,1,0,0:0:0:0:
202,112,92777,1,0,0:0:0:0:
264,315,92969,1,0,0:0:0:0:
282,77,93161,6,0,P|250:45|177:20,1,95.7000029205323,0|0,0:0|0:0,0:0:0:0:
144,97,93546,2,0,P|176:161|175:218,1,95.7000029205323,0|0,0:0|0:0,0:0:0:0:
105,241,93931,2,0,L|76:282,2,47.8500014602662,0|0|0,0:0|0:0|0:0,0:0:0:0:
275,161,94315,5,0,0:0:0:0:
51,166,94508,1,0,0:0:0:0:
242,273,94700,1,0,0:0:0:0:
218,89,94892,1,0,0:0:0:0:
132,265,95085,5,0,0:0:0:0:
132,265,95181,1,0,0:0:0:0:
132,265,95277,1,0,0:0:0:0:
208,176,95469,6,0,P|291:179|331:194,1,95.7000029205323,0|0,0:0|0:0,0:0:0:0:
487,102,95854,1,0,0:0:0:0:
287,63,96046,1,0,0:0:0:0:
394,245,96238,2,0,P|378:325|360:353,1,95.7000029205323,0|0,0:0|0:0,0:0:0:0:
286,300,96623,2,0,P|222:284|175:284,1,95.7000029205323,0|0,0:0|0:0,0:0:0:0:
32,144,97008,5,0,0:0:0:0:
128,320,97200,1,0,0:0:0:0:
160,96,97392,1,0,0:0:0:0:
32,240,97585,1,0,0:0:0:0:
194,226,97777,6,0,P|258:194|290:183,1,95.7000029205323,0|0,0:0|0:0,0:0:0:0:
362,251,98161,2,0,P|397:219|429:183,1,95.7000029205323,0|0,0:0|0:0,0:0:0:0:
478,89,98546,2,0,L|498:17,2,47.8500014602662,0|0|0,0:0|0:0|0:0,0:0:0:0:
256,272,98931,5,0,0:0:0:0:
304,144,99123,1,0,0:0:0:0:
464,159,99315,1,0,0:0:0:0:
256,272,99508,1,0,0:0:0:0:
304,144,99700,6,0,P|333:97|384:64,1,95.7000029205323,0|0,0:0|0:0,0:0:0:0:
464,159,100085,2,0,L|510:113,2,47.8500014602662,0|0|0,0:0|0:0|0:0,0:0:0:0:
256,272,100469,5,0,0:0:0:0:
455,268,100661,1,0,0:0:0:0:
341,142,100854,1,0,0:0:0:0:
342,354,101046,1,0,0:0:0:0:
249,176,101238,5,0,0:0:0:0:
249,176,101335,1,0,0:0:0:0:
249,176,101431,1,0,0:0:0:0:
374,282,101623,6,0,P|412:241|433:195,1,95.7000029205323,2|0,0:0|0:0,0:0:0:0:
432,106,102008,2,0,P|374:130|339:137,1,95.7000029205323,2|0,0:0|0:0,0:0:0:0:
176,254,102392,5,2,0:0:0:0:
272,110,102585,1,0,0:0:0:0:
101,200,102777,1,2,0:0:0:0:
312,213,102969,1,0,0:0:0:0:
129,59,103161,6,0,P|86:109|59:161,1,95.7000029205323,2|0,0:0|0:0,0:0:0:0:
93,260,103546,2,0,P|136:210|163:158,1,95.7000029205323,2|0,0:0|0:0,0:0:0:0:
129,59,103931,5,2,0:0:0:0:
7,210,104123,1,0,0:0:0:0:
109,337,104315,1,2,0:0:0:0:
71,134,104508,1,0,0:0:0:0:
192,242,104700,6,0,P|245:261|288:260,1,95.7000029205323,2|0,0:0|0:0,0:0:0:0:
408,218,105085,2,0,P|369:188|316:175,1,95.7000029205323,2|0,0:0|0:0,0:0:0:0:
155,176,105469,5,2,0:0:0:0:
365,300,105661,1,0,0:0:0:0:
226,82,105854,1,2,0:0:0:0:
287,292,106046,1,0,0:0:0:0:
115,111,106238,6,0,P|53:92|2:81,1,95.7000029205323,2|0,0:0|0:0,0:0:0:0:
91,248,106623,2,0,P|153:267|204:278,1,95.7000029205323,2|0,0:0|0:0,0:0:0:0:
186,119,107008,5,2,0:0:0:0:
251,310,107200,1,0,0:0:0:0:
259,56,107392,1,2,0:0:0:0:
158,193,107585,1,0,0:0:0:0:
314,119,107777,6,0,P|374:82|412:64,1,95.7000029205323,4|0,0:0|0:0,0:0:0:0:
505,109,108161,2,0,P|445:146|407:164,1,95.7000029205323,2|0,0:0|0:0,0:0:0:0:
207,233,108546,5,2,0:0:0:0:
405,318,108738,1,0,0:0:0:0:
269,151,108931,1,2,0:0:0:0:
269,331,109123,1,0,0:0:0:0:
362,221,109315,6,0,P|426:197|458:174,1,95.7000029205323,2|0,0:0|0:0,0:0:0:0:
476,90,109700,2,0,P|412:114|380:137,1,95.7000029205323,2|0,0:0|0:0,0:0:0:0:
244,206,110085,5,2,0:0:0:0:
72,266,110277,1,0,0:0:0:0:
266,229,110469,1,2,0:0:0:0:
64,183,110661,1,0,0:0:0:0:
214,120,110854,6,0,P|305:64|322:58,1,95.7000029205323,2|0,0:0|0:0,0:0:0:0:
434,186,111238,2,0,P|399:131|371:90,1,95.7000029205323,2|0,0:0|0:0,0:0:0:0:
286,169,111623,2,0,P|234:201|187:209,1,95.7000029205323,2|0,0:0|0:0,0:0:0:0:
106,203,112008,2,0,P|143:277|189:300,1,95.7000029205323,2|0,0:0|0:0,0:0:0:0:
234,80,112392,5,2,0:0:0:0:
206,339,112585,1,0,0:0:0:0:
338,146,112777,1,2,0:0:0:0:
109,106,112969,1,0,0:0:0:0:
284,317,113161,5,2,0:0:0:0:
115,182,113450,1,0,0:0:0:0:
324,225,113738,1,0,0:0:0:0:
342,59,113931,6,0,P|272:84|224:95,1,95.7000029205323,4|0,0:0|0:0,0:0:0:0:
149,141,114315,2,0,P|212:173|282:173,1,95.7000029205323,8|0,0:0|0:0,0:0:0:0:
295,283,114700,2,0,P|340:220|348:186,1,95.7000029205323,2|0,0:0|0:0,0:0:0:0:
296,64,115085,2,0,P|274:116|272:163,1,95.7000029205323,8|0,0:0|0:0,0:0:0:0:
381,313,115469,5,2,0:0:0:0:
325,131,115661,1,0,0:0:0:0:
251,355,115854,1,8,0:0:0:0:
443,241,116046,1,0,0:0:0:0:
155,176,116238,5,2,0:0:0:0:
319,347,116431,1,0,0:0:0:0:
265,78,116623,1,8,0:0:0:0:
139,261,116815,1,0,0:0:0:0:
336,226,117008,6,0,P|377:183|417:153,1,95.7000029205323,4|0,0:0|0:0,0:0:0:0:
457,55,117392,2,0,P|365:40|328:45,1,95.7000029205323,8|0,0:0|0:0,0:0:0:0:
215,297,117777,5,2,0:0:0:0:
321,133,117969,1,0,0:0:0:0:
371,302,118161,1,8,0:0:0:0:
227,184,118354,1,0,0:0:0:0:
394,34,118546,5,2,0:0:0:0:
183,122,118738,1,0,0:0:0:0:
267,25,118931,1,8,0:0:0:0:
195,231,119123,1,0,0:0:0:0:
163,47,119315,5,2,0:0:0:0:
263,227,119508,1,0,0:0:0:0:
149,160,119700,1,8,0:0:0:0:
149,160,119796,1,0,0:0:0:0:
149,160,119892,1,0,0:0:0:0:
345,205,120085,6,0,P|398:255|423:308,1,95.7000029205323,4|0,0:0|0:0,0:0:0:0:
350,340,120469,2,0,P|283:360|236:360,1,95.7000029205323,8|0,0:0|0:0,0:0:0:0:
219,279,120854,2,0,P|156:259|118:253,2,95.7000029205323,2|0|8,0:0|0:0|0:0,0:0:0:0:
328,240,121431,1,0,0:0:0:0:
280,23,121623,5,2,0:0:0:0:
182,186,121815,1,0,0:0:0:0:
338,81,122008,1,8,0:0:0:0:
176,44,122200,1,0,0:0:0:0:
272,189,122392,6,0,P|324:228|382:257,1,95.7000029205323,2|0,0:0|0:0,0:0:0:0:
471,254,122777,1,8,0:0:0:0:
391,364,122969,1,0,0:0:0:0:
441,40,123161,6,0,P|369:80|326:89,1,95.7000029205323,4|0,0:0|0:0,0:0:0:0:
266,124,123546,2,0,P|319:165|347:211,1,95.7000029205323,8|0,0:0|0:0,0:0:0:0:
396,274,123931,2,0,P|331:304|283:310,2,95.7000029205323,2|0|8,0:0|0:0|0:0,0:0:0:0:
400,96,124508,1,0,0:0:0:0:
287,180,124700,5,2,0:0:0:0:
164,48,125085,1,8,0:0:0:0:
135,264,125469,2,0,P|193:296|242:308,1,95.7000029205323,2|0,0:0|0:0,0:0:0:0:
243,305,125758,1,0,0:0:0:0:
271,300,125854,1,8,0:0:0:0:
298,291,125950,1,0,0:0:0:0:
323,278,126046,1,0,0:0:0:0:
346,260,126142,1,0,0:0:0:0:
375,241,126238,6,0,P|431:221|505:219,1,104.399996813965,4|0,0:0|0:0,0:0:0:0:
463,33,126623,1,8,0:0:0:0:
312,153,126815,1,0,0:0:0:0:
500,155,127007,1,8,0:0:0:0:
350,40,127199,6,0,P|301:22|225:25,1,104.399996813965,0|8,0:0|0:0,0:0:0:0:
164,85,127584,2,0,P|213:103|289:100,1,104.399996813965,0|8,0:0|0:0,0:0:0:0:
398,34,127969,5,0,0:0:0:0:
309,197,128161,1,8,0:0:0:0:
347,67,128353,1,0,0:0:0:0:
369,288,128546,1,8,0:0:0:0:
322,95,128738,6,0,P|283:48|227:19,1,104.399996813965,0|8,0:0|0:0,0:0:0:0:
147,35,129123,2,0,P|182:78|240:121,1,104.399996813965,0|4,0:0|0:0,0:0:0:0:
428,215,129507,1,0,0:0:0:0:
271,279,129699,1,8,0:0:0:0:
464,201,129892,5,0,0:0:0:0:
322,95,130085,2,0,P|402:54|426:48,1,104.399996813965,8|0,0:0|0:0,0:0:0:0:
482,193,130469,1,8,0:0:0:0:
308,274,130661,2,0,P|383:321|436:340,1,104.399996813965,0|8,0:0|0:0,0:0:0:0:
499,172,131046,1,0,0:0:0:0:
415,50,131238,2,0,P|370:77|321:94,1,104.399996813965,8|0,0:0|0:0,0:0:0:0:
187,59,131623,5,8,0:0:0:0:
92,256,131815,1,0,0:0:0:0:
53,112,132008,1,8,0:0:0:0:
265,195,132199,5,0,0:0:0:0:
337,70,132392,2,0,P|387:57|439:52,1,104.399996813965,4|0,0:0|0:0,0:0:0:0:
426,286,132776,5,8,0:0:0:0:
231,145,132969,1,0,0:0:0:0:
475,189,133161,1,8,0:0:0:0:
332,311,133353,1,0,0:0:0:0:
221,99,133546,5,8,0:0:0:0:
426,286,133738,1,0,0:0:0:0:
257,292,133930,6,0,P|209:309|157:306,1,104.399996813965,8|0,0:0|0:0,0:0:0:0:
41,210,134315,1,8,0:0:0:0:
184,151,134508,1,0,0:0:0:0:
83,75,134700,6,0,P|166:37|197:32,1,104.399996813965,8|0,0:0|0:0,0:0:0:0:
249,221,135085,2,0,P|203:246|153:261,1,104.399996813965,8|0,0:0|0:0,0:0:0:0:
179,35,135469,2,0,P|245:109|263:135,1,104.399996813965,8|0,0:0|0:0,0:0:0:0:
153,261,135854,2,0,P|87:187|69:161,1,104.399996813965,8|0,0:0|0:0,0:0:0:0:
247,113,136238,6,0,P|306:148|374:156,1,104.399996813965,8|0,0:0|0:0,0:0:0:0:
505,37,136623,2,0,P|449:52|380:85,1,104.399996813965,8|0,0:0|0:0,0:0:0:0:
376,238,137008,2,0,P|252:262|230:262,1,104.399996813965,8|0,0:0|0:0,0:0:0:0:
120,108,137392,5,8,0:0:0:0:
143,259,137585,1,0,0:0:0:0:
234,128,137777,1,8,0:0:0:0:
70,195,137969,5,0,0:0:0:0:
47,241,138065,1,0,0:0:0:0:
53,292,138161,1,8,0:0:0:0:
85,332,138257,1,0,0:0:0:0:
134,348,138353,1,0,0:0:0:0:
184,335,138449,1,0,0:0:0:0:
226,295,138546,6,0,P|282:275|356:273,1,104.399996813965,4|0,0:0|0:0,0:0:0:0:
476,219,138931,1,8,0:0:0:0:
371,130,139123,1,0,0:0:0:0:
409,311,139315,1,8,0:0:0:0:
445,86,139507,6,0,P|397:45|319:63,1,104.399996813965,0|8,0:0|0:0,0:0:0:0:
133,89,139892,2,0,P|182:107|258:104,1,104.399996813965,0|8,0:0|0:0,0:0:0:0:
316,23,140277,5,0,0:0:0:0:
257,267,140469,1,8,0:0:0:0:
262,131,140661,1,0,0:0:0:0:
353,323,140854,1,8,0:0:0:0:
390,190,141046,6,0,L|431:75,1,104.399996813965,0|8,0:0|0:0,0:0:0:0:
160,155,141431,2,0,P|195:198|253:241,1,104.399996813965,0|4,0:0|0:0,0:0:0:0:
390,190,141815,1,0,0:0:0:0:
274,333,142007,1,8,0:0:0:0:
304,128,142200,5,0,0:0:0:0:
304,128,142393,2,0,P|384:87|408:81,1,104.399996813965,8|0,0:0|0:0,0:0:0:0:
352,219,142777,2,0,P|272:260|248:266,1,104.399996813965,8|0,0:0|0:0,0:0:0:0:
89,136,143162,2,0,P|164:183|217:202,1,104.399996813965,8|0,0:0|0:0,0:0:0:0:
397,83,143546,2,0,P|352:110|303:127,1,104.399996813965,8|0,0:0|0:0,0:0:0:0:
194,84,143931,5,8,0:0:0:0:
113,231,144123,1,0,0:0:0:0:
112,230,144315,2,0,P|83:188|72:137,1,104.399996813965,8|0,0:0|0:0,0:0:0:0:
95,55,144699,6,0,P|142:76|193:84,1,104.399996813965,4|0,0:0|0:0,0:0:0:0:
259,40,145084,2,0,P|306:60|344:95,1,104.399996813965,8|0,0:0|0:0,0:0:0:0:
315,169,145469,2,0,P|345:212|393:229,1,104.399996813965,8|0,0:0|0:0,0:0:0:0:
470,168,145853,2,0,P|443:125|432:74,1,104.399996813965,8|0,0:0|0:0,0:0:0:0:
354,45,146238,2,0,P|306:63|254:68,1,104.399996813965,8|0,0:0|0:0,0:0:0:0:
176,31,146623,2,0,P|147:74|133:124,1,104.399996813965,8|0,0:0|0:0,0:0:0:0:
219,144,147007,2,0,P|249:241|173:326,1,208.79999362793,8|8,0:0|0:0,0:0:0:0:
151,227,147584,1,0,0:0:0:0:
151,226,147776,2,0,P|118:186|106:124,1,104.399996813965,8|0,0:0|0:0,0:0:0:0:
159,24,148161,5,8,0:0:0:0:
17,168,148353,1,0,0:0:0:0:
212,156,148546,2,0,L|329:137,1,104.399996813965,8|0,0:0|0:0,0:0:0:0:
80,217,148930,5,8,0:0:0:0:
138,50,149123,1,0,0:0:0:0:
230,249,149315,2,0,L|265:373,1,104.399996813965,8|0,0:0|0:0,0:0:0:0:
85,191,149699,5,8,0:0:0:0:
258,349,149892,1,0,0:0:0:0:
234,80,150084,1,8,0:0:0:0:
172,239,150277,5,0,0:0:0:0:
157,260,150373,1,0,0:0:0:0:
140,279,150469,1,8,0:0:0:0:
119,295,150565,1,0,0:0:0:0:
95,306,150661,1,0,0:0:0:0:
70,313,150757,1,0,0:0:0:0:
44,315,150853,1,4,0:0:0:0:
238,220,163161,5,2,0:0:0:0:
241,206,163546,1,0,0:0:0:0:
249,194,163931,1,0,0:0:0:0:
258,183,164315,1,0,0:0:0:0:
258,169,164700,1,0,0:0:0:0:
250,157,165085,1,0,0:0:0:0:
241,146,165469,1,0,0:0:0:0:
227,142,165854,1,0,0:0:0:0:
119,100,166238,6,0,P|101:159|114:255,1,139.2,2|0,0:0|0:0,0:0:0:0:
166,313,167008,2,0,P|228:287|325:271,1,139.2,0|0,0:0|0:0,0:0:0:0:
376,221,167777,2,0,P|405:132|406:57,2,139.2,0|0|2,0:0|0:0|0:0,0:0:0:0:
314,280,168738,1,0,0:0:0:0:
261,234,168931,5,2,0:0:0:0:
261,234,169027,1,0,0:0:0:0:
261,234,169123,1,0,0:0:0:0:
376,221,169315,6,0,P|422:188|474:103,1,139.2,6|0,0:0|0:0,0:0:0:0:
426,50,170085,2,0,P|365:70|284:82,1,139.2,0|0,0:0|0:0,0:0:0:0:
173,107,170854,2,0,P|110:182|90:251,2,139.2,2|0|0,0:0|0:0|0:0,0:0:0:0:
258,68,172008,1,0,0:0:0:0:
350,132,172392,6,0,P|385:198|386:266,1,139.2,2|0,0:0|0:0,0:0:0:0:
335,322,172969,1,0,0:0:0:0:
258,292,173161,2,0,P|216:261|123:240,1,139.2,0|0,0:0|0:0,0:0:0:0:
69,294,173738,1,0,0:0:0:0:
46,215,173931,2,0,P|27:170|27:65,1,139.2,2|2,0:0|0:0,0:0:0:0:
139,58,174700,5,2,0:0:0:0:
212,231,174892,1,0,0:0:0:0:
236,44,175085,1,2,0:0:0:0:
88,128,175277,1,0,0:0:0:0:
266,182,175469,6,0,P|345:220|373:218,1,87,12|0,0:0|0:0,0:0:0:0:
419,199,175854,1,8,0:0:0:0:
419,199,176046,2,0,P|450:129|458:91,2,87,0|8|0,0:0|0:0|0:0,0:0:0:0:
294,309,176623,2,0,P|307:267|327:229,1,87,8|0,0:0|0:0,0:0:0:0:
355,128,177008,5,8,0:0:0:0:
396,317,177200,1,0,0:0:0:0:
185,206,177392,1,8,0:0:0:0:
182,370,177585,1,0,0:0:0:0:
309,81,177777,5,8,0:0:0:0:
330,278,177969,1,0,0:0:0:0:
145,158,178161,1,8,0:0:0:0:
118,342,178354,1,0,0:0:0:0:
113,77,178546,6,0,P|138:132|150:189,1,87,8|0,0:0|0:0,0:0:0:0:
85,233,178931,1,8,0:0:0:0:
164,285,179123,1,0,0:0:0:0:
252,248,179315,2,0,P|271:209|283:167,1,87,8|0,0:0|0:0,0:0:0:0:
175,41,179700,2,0,P|200:96|212:153,1,87,8|0,0:0|0:0,0:0:0:0:
102,202,180085,2,0,P|133:239|264:239,1,174,8|8,0:0|0:0,0:0:0:0:
278,172,180661,5,0,0:0:0:0:
278,172,180854,2,0,P|312:137|367:106,1,87,8|0,0:0|0:0,0:0:0:0:
428,96,181238,1,8,0:0:0:0:
427,95,181335,1,0,0:0:0:0:
427,95,181431,1,0,0:0:0:0:
451,191,181623,6,0,P|385:213|354:231,1,87,8|0,0:0|0:0,0:0:0:0:
369,303,182008,2,0,P|318:326|262:327,1,87,8|0,0:0|0:0,0:0:0:0:
226,267,182392,2,0,P|165:241|112:226,1,87,8|0,0:0|0:0,0:0:0:0:
66,288,182777,2,0,P|55:229|53:170,1,87,8|0,0:0|0:0,0:0:0:0:
55,87,183161,2,0,P|105:111|176:108,1,87,8|0,0:0|0:0,0:0:0:0:
185,175,183546,2,0,P|254:144|305:140,1,87,8|0,0:0|0:0,0:0:0:0:
365,168,183931,2,0,P|386:111|384:73,1,87,8|0,0:0|0:0,0:0:0:0:
310,32,184315,2,0,P|251:56|197:62,1,87,8|0,0:0|0:0,0:0:0:0:
143,38,184700,6,0,P|121:96|127:239,1,174,8|8,0:0|0:0,0:0:0:0:
174,282,185277,1,0,0:0:0:0:
174,282,185469,2,0,P|261:246|362:232,1,174,8|8,0:0|0:0,0:0:0:0:
415,275,186046,2,0,P|448:206|450:164,1,87,0|8,0:0|0:0,0:0:0:0:
342,93,186623,5,0,0:0:0:0:
196,188,187008,1,0,0:0:0:0:
189,295,187777,6,0,P|130:299|61:326,1,104.399996813965,4|0,0:0|0:0,0:0:0:0:
27,138,188162,1,8,0:0:0:0:
213,190,188354,1,0,0:0:0:0:
41,265,188546,1,8,0:0:0:0:
134,101,188738,6,0,P|172:65|243:38,1,104.399996813965,0|8,0:0|0:0,0:0:0:0:
323,69,189123,2,0,P|284:105|213:132,1,104.399996813965,0|8,0:0|0:0,0:0:0:0:
68,130,189508,5,0,0:0:0:0:
233,229,189700,1,8,0:0:0:0:
147,124,189892,1,0,0:0:0:0:
213,336,190085,1,8,0:0:0:0:
224,143,190277,6,0,P|242:84|282:35,1,104.399996813965,0|8,0:0|0:0,0:0:0:0:
362,19,190662,2,0,P|347:72|310:134,1,104.399996813965,0|4,0:0|0:0,0:0:0:0:
252,277,191046,1,0,0:0:0:0:
59,199,191239,5,8,0:0:0:0:
201,93,191432,2,0,P|121:52|97:46,1,104.399996813965,0|0,0:0|0:0,0:0:0:0:
41,191,191816,1,0,0:0:0:0:
215,272,192008,2,0,P|140:319|87:338,1,104.399996813965,8|0,0:0|0:0,0:0:0:0:
20,212,192393,1,8,0:0:0:0:
108,48,192585,2,0,P|153:75|202:92,1,104.399996813965,0|8,0:0|0:0,0:0:0:0:
435,51,192969,5,0,0:0:0:0:
290,135,193162,1,8,0:0:0:0:
442,227,193354,1,0,0:0:0:0:
435,51,193547,1,8,0:0:0:0:
290,135,193738,5,0,0:0:0:0:
163,250,193931,2,0,P|112:242|62:227,1,104.399996813965,4|0,0:0|0:0,0:0:0:0:
133,48,194315,5,8,0:0:0:0:
290,135,194508,1,0,0:0:0:0:
62,227,194700,1,8,0:0:0:0:
256,343,194892,1,0,0:0:0:0:
133,48,195085,5,8,0:0:0:0:
167,232,195277,1,0,0:0:0:0:
318,296,195469,6,0,P|369:293|415:270,1,104.399996813965,8|0,0:0|0:0,0:0:0:0:
485,136,195854,1,8,0:0:0:0:
330,138,196047,1,0,0:0:0:0:
392,31,196239,6,0,P|301:29|270:36,1,104.399996813965,8|0,0:0|0:0,0:0:0:0:
297,228,196624,2,0,P|350:233|401:227,1,104.399996813965,8|0,0:0|0:0,0:0:0:0:
288,31,197008,2,0,P|256:125|250:156,1,104.399996813965,8|0,0:0|0:0,0:0:0:0:
401,227,197393,2,0,P|433:133|440:102,1,104.399996813965,8|0,0:0|0:0,0:0:0:0:
254,129,197777,6,0,P|214:184|154:218,1,104.399996813965,8|0,0:0|0:0,0:0:0:0:
0,158,198162,2,0,P|47:150|124:154,1,104.399996813965,8|0,0:0|0:0,0:0:0:0:
187,293,198547,2,0,P|311:267|331:258,1,104.399996813965,8|0,0:0|0:0,0:0:0:0:
372,73,198931,5,8,0:0:0:0:
410,221,199124,1,0,0:0:0:0:
254,129,199316,1,8,0:0:0:0:
452,134,199508,5,0,0:0:0:0:
491,167,199604,1,0,0:0:0:0:
506,217,199700,1,8,0:0:0:0:
492,266,199796,1,0,0:0:0:0:
453,300,199892,1,0,0:0:0:0:
402,307,199988,1,0,0:0:0:0:
347,287,200085,6,0,P|288:290|219:317,1,104.399996813965,4|0,0:0|0:0,0:0:0:0:
88,315,200470,1,8,0:0:0:0:
150,192,200662,1,0,0:0:0:0:
185,373,200854,1,8,0:0:0:0:
64,180,201046,6,0,P|92:124|171:110,1,104.399996813965,0|8,0:0|0:0,0:0:0:0:
353,61,201431,2,0,P|315:97|243:124,1,104.399996813965,0|8,0:0|0:0,0:0:0:0:
158,72,201816,5,0,0:0:0:0:
308,273,202008,1,8,0:0:0:0:
250,150,202200,1,0,0:0:0:0:
242,362,202393,1,8,0:0:0:0:
155,254,202585,6,0,L|73:164,1,104.399996813965,0|8,0:0|0:0,0:0:0:0:
354,132,202970,2,0,P|338:185|302:248,1,104.399996813965,0|4,0:0|0:0,0:0:0:0:
162,267,203354,1,0,0:0:0:0:
318,341,203546,1,8,0:0:0:0:
210,164,203739,5,0,0:0:0:0:
210,164,203932,2,0,P|121:157|96:161,1,104.399996813965,8|0,0:0|0:0,0:0:0:0:
202,266,204316,2,0,P|291:273|316:269,1,104.399996813965,8|0,0:0|0:0,0:0:0:0:
411,87,204701,2,0,P|361:160|319:198,1,104.399996813965,8|0,0:0|0:0,0:0:0:0:
106,159,205085,6,0,P|158:166|210:162,1,104.399996813965,8|0,0:0|0:0,0:0:0:0:
359,207,205470,1,8,0:0:0:0:
230,258,205661,5,0,0:0:0:0:
339,140,205853,1,8,0:0:0:0:
433,278,206046,2,0,P|370:214|335:195,1,104.399996813965,0|4,0:0|0:0,0:0:0:0:
276,75,206431,5,0,0:0:0:0:
236,232,206623,1,8,0:0:0:0:
433,181,206816,2,0,P|389:155|339:140,1,104.399996813965,0|8,0:0|0:0,0:0:0:0:
200,28,207200,5,0,0:0:0:0:
216,189,207392,1,8,0:0:0:0:
385,74,207585,2,0,P|333:64|281:67,1,104.399996813965,0|8,0:0|0:0,0:0:0:0:
104,25,207969,5,0,0:0:0:0:
174,170,208161,1,8,0:0:0:0:
293,4,208354,2,0,P|241:12|193:32,1,104.399996813965,0|8,0:0|0:0,0:0:0:0:
84,168,208738,2,0,P|113:240|148:261,2,104.399996813965,0|8|0,0:0|0:0|0:0,0:0:0:0:
398,113,209315,5,8,0:0:0:0:
277,347,209508,1,0,0:0:0:0:
295,75,209700,1,8,0:0:0:0:
418,240,209892,1,0,0:0:0:0:
222,152,210085,6,0,L|351:199,1,104.399996813965,8|0,0:0|0:0,0:0:0:0:
496,269,210469,1,8,0:0:0:0:
249,312,210661,1,0,0:0:0:0:
321,188,210854,6,0,P|389:168|445:173,1,104.399996813965,8|0,0:0|0:0,0:0:0:0:
351,297,211238,2,0,P|278:315|232:309,1,104.399996813965,8|0,0:0|0:0,0:0:0:0:
162,161,211623,2,0,P|246:170|291:195,1,104.399996813965,8|0,0:0|0:0,0:0:0:0:
110,290,212008,2,0,P|54:268|10:231,1,104.399996813965,8|0,0:0|0:0,0:0:0:0:
124,98,212392,5,4,0:0:0:0:
249,312,212585,1,0,0:0:0:0:
374,98,213931,5,4,0:0:0:0:
249,312,214124,1,0,0:0:0:0:
250,208,214508,6,0,P|311:155|381:137,1,104.399996813965,0|0,0:0|0:0,0:0:0:0:
420,165,214892,1,0,0:0:0:0:
420,165,215085,2,0,P|437:89|437:24,1,104.399996813965,0|0,0:0|0:0,0:0:0:0:
304,55,215469,5,12,0:0:0:0:
152,179,215661,1,0,0:0:0:0:
310,139,215854,1,12,0:0:0:0:
78,99,216046,1,0,0:0:0:0:
255,242,216238,5,12,0:0:0:0:
212,29,216431,1,0,0:0:0:0:
125,273,216623,1,12,0:0:0:0:
336,105,216815,1,0,0:0:0:0:
80,151,217008,1,12,0:0:0:0:
307,50,218546,6,0,P|261:85|232:160,1,104.399996813965,8|0,0:0|0:0,0:0:0:0:
298,182,218931,2,0,P|251:249|226:276,1,104.399996813965,8|0,0:0|0:0,0:0:0:0:
150,311,219315,2,0,P|93:275|61:239,1,104.399996813965,8|0,0:0|0:0,0:0:0:0:
35,158,219700,2,0,P|98:96|154:71,1,104.399996813965,8|0,0:0|0:0,0:0:0:0:
299,187,220085,5,8,0:0:0:0:
187,38,220277,1,0,0:0:0:0:
211,213,220469,1,8,0:0:0:0:
297,60,220661,1,0,0:0:0:0:
107,202,220854,6,0,L|249:217,1,104.399996813965,8|0,0:0|0:0,0:0:0:0:
96,89,221238,1,8,0:0:0:0:
155,302,221431,1,0,0:0:0:0:
250,128,221623,6,0,L|365:82,1,104.399996813965,8|0,0:0|0:0,0:0:0:0:
454,49,222008,1,8,0:0:0:0:
409,154,222200,1,0,0:0:0:0:
490,235,222392,2,0,P|458:288|404:319,1,104.399996813965,8|0,0:0|0:0,0:0:0:0:
335,237,222777,2,0,P|262:221|216:226,1,104.399996813965,8|0,0:0|0:0,0:0:0:0:
136,304,223546,6,0,L|54:244,1,87,0|0,0:0|0:0,0:0:0:0:
133,242,223931,2,0,L|61:186,1,69.6,0|0,0:0|0:0,0:0:0:0:
133,194,224315,2,0,L|69:146,1,60.8999981414796,0|0,0:0|0:0,0:0:0:0:
197,116,224700,6,0,P|281:83|323:69,1,104.399996813965,4|0,0:0|0:0,0:0:0:0:
464,112,225085,1,8,0:0:0:0:
289,148,225277,1,0,0:0:0:0:
399,31,225469,1,2,0:0:0:0:
363,252,225661,5,0,0:0:0:0:
299,62,225854,1,8,0:0:0:0:
451,210,226046,1,0,0:0:0:0:
279,180,226238,2,0,P|212:168|164:167,1,104.399996813965,2|0,0:0|0:0,0:0:0:0:
90,291,226623,5,8,0:0:0:0:
232,116,226815,1,0,0:0:0:0:
184,306,227008,1,2,0:0:0:0:
63,144,227200,1,0,0:0:0:0:
272,242,227392,5,8,0:0:0:0:
35,251,227585,1,0,0:0:0:0:
185,114,227777,2,0,P|233:77|279:58,1,104.399996813965,4|0,0:0|0:0,0:0:0:0:
451,195,228161,5,8,0:0:0:0:
356,33,228354,1,0,0:0:0:0:
354,222,228546,1,2,0:0:0:0:
453,37,228738,1,0,0:0:0:0:
223,153,228931,5,8,0:0:0:0:
451,195,229123,1,0,0:0:0:0:
297,68,229315,2,0,L|271:14,2,52.1999984069825,2|0|0,0:0|0:0|0:0,0:0:0:0:
310,268,229700,5,8,0:0:0:0:
394,83,229892,1,0,0:0:0:0:
194,231,230085,1,2,0:0:0:0:
407,233,230277,1,0,0:0:0:0:
215,95,230469,5,8,0:0:0:0:
215,95,230565,1,0,0:0:0:0:
215,95,230661,1,0,0:0:0:0:
318,145,230854,6,0,P|250:191|192:200,1,104.399996813965,4|0,0:0|0:0,0:0:0:0:
48,139,231238,1,8,0:0:0:0:
248,117,231431,1,0,0:0:0:0:
162,281,231623,1,2,0:0:0:0:
142,118,231815,5,0,0:0:0:0:
283,289,232008,1,8,0:0:0:0:
86,202,232200,1,0,0:0:0:0:
299,148,232392,2,0,P|385:121|423:113,1,104.399996813965,2|0,0:0|0:0,0:0:0:0:
475,254,232777,5,8,0:0:0:0:
343,48,232969,1,0,0:0:0:0:
357,285,233161,1,2,0:0:0:0:
436,28,233354,1,0,0:0:0:0:
249,215,233546,5,8,0:0:0:0:
482,114,233738,1,0,0:0:0:0:
303,293,233931,2,0,P|221:330|188:332,1,104.399996813965,4|0,0:0|0:0,0:0:0:0:
61,173,234315,5,8,0:0:0:0:
237,251,234508,1,0,0:0:0:0:
124,102,234700,1,2,0:0:0:0:
72,284,234892,1,0,0:0:0:0:
225,128,235085,5,8,0:0:0:0:
25,198,235277,1,0,0:0:0:0:
215,223,235469,2,0,P|279:240|340:248,1,104.399996813965,2|0,0:0|0:0,0:0:0:0:
464,144,235854,5,8,0:0:0:0:
255,78,236046,1,0,0:0:0:0:
389,247,236238,1,2,0:0:0:0:
364,50,236431,1,0,0:0:0:0:
281,203,236623,1,0,0:0:0:0:
256,247,236719,1,0,0:0:0:0:
263,298,236815,1,0,0:0:0:0:
300,334,236911,1,0,0:0:0:0:
352,332,237008,6,0,P|402:315|461:317,1,104.399996813965
368,187,237392,1,8,0:0:0:0:
441,78,237585,1,0,0:0:0:0:
215,152,237777,5,2,0:0:0:0:
92,76,237969,1,0,0:0:0:0:
141,275,238161,1,8,0:0:0:0:
231,48,238354,1,0,0:0:0:0:
55,180,238546,6,0,P|30:248|27:304,1,104.399996813965,2|0,0:0|0:0,0:0:0:0:
213,346,238931,1,8,0:0:0:0:
94,125,239123,1,0,0:0:0:0:
102,345,239315,1,2,0:0:0:0:
290,276,239508,5,0,0:0:0:0:
80,235,239700,1,8,0:0:0:0:
286,350,239892,1,0,0:0:0:0:
202,149,240085,2,0,L|192:93,2,52.1999984069825,4|0|0,0:0|0:0|0:0,0:0:0:0:
157,318,240469,5,8,0:0:0:0:
379,204,240661,1,0,0:0:0:0:
111,215,240854,1,2,0:0:0:0:
247,348,241046,1,0,0:0:0:0:
305,80,241238,5,8,0:0:0:0:
144,273,241431,1,0,0:0:0:0:
356,304,241623,2,0,P|446:316|465:313,1,104.399996813965,2|0,0:0|0:0,0:0:0:0:
477,108,242008,5,8,0:0:0:0:
289,222,242200,1,0,0:0:0:0:
480,229,242392,1,2,0:0:0:0:
230,135,242585,2,0,L|310:253,1,104.399996813965,0|8,0:0|0:0,0:0:0:0:
335,251,242873,1,0,0:0:0:0:
383,268,242969,1,0,0:0:0:0:
433,258,243065,1,0,0:0:0:0:
480,229,243161,2,0,P|478:176|466:126,1,104.399996813965,4|0,0:0|0:0,0:0:0:0:
223,351,243546,5,8,0:0:0:0:
433,258,243738,1,0,0:0:0:0:
161,246,243931,1,2,0:0:0:0:
420,290,244123,1,0,0:0:0:0:
175,108,244315,5,8,0:0:0:0:
397,314,244508,1,0,0:0:0:0:
338,63,244700,2,0,P|395:37|443:37,1,104.399996813965,2|0,0:0|0:0,0:0:0:0:
491,158,245085,5,8,0:0:0:0:
236,137,245277,1,0,0:0:0:0:
472,129,245469,1,2,0:0:0:0:
222,246,245661,1,0,0:0:0:0:
435,93,245854,5,8,0:0:0:0:
282,333,246046,1,0,0:0:0:0:
396,69,246238,2,0,L|336:55,2,52.1999984069825,4|0|0,0:0|0:0|0:0,0:0:0:0:
391,287,246623,5,8,0:0:0:0:
102,166,246815,1,0,0:0:0:0:
419,147,247008,1,2,0:0:0:0:
110,206,247200,1,0,0:0:0:0:
345,57,247392,5,8,0:0:0:0:
136,251,247585,1,0,0:0:0:0:
245,43,247777,2,0,L|205:164,1,104.399996813965,2|0,0:0|0:0,0:0:0:0:
186,286,248161,5,8,0:0:0:0:
189,35,248354,1,0,0:0:0:0:
300,218,248546,1,2,0:0:0:0:
67,128,248738,1,0,0:0:0:0:
309,94,248931,5,8,0:0:0:0:
94,249,249123,1,0,0:0:0:0:
