osu file format v14

[General]
AudioFilename: audio.mp3
AudioLeadIn: 0
PreviewTime: 64123
Countdown: 0
SampleSet: Soft
StackLeniency: 0.7
Mode: 0
LetterboxInBreaks: 0
WidescreenStoryboard: 1

[Editor]
Bookmarks: 3161,13931,15085,15469,21238,21623,27777,40085,64700,72392,73931,75469,76911,77008,89315,113161,113931,126238,138450,138546,150854,163161,175469,186238,187777,199988,200085,212392,215469,217392,218546,223161,224700,230469,249315
DistanceSpacing: 1
BeatDivisor: 4
GridSize: 16
TimelineZoom: 1.3

[Metadata]
Title:Deathly Loneliness Attacks(feat. Mafumafu)
TitleUnicode:猛独が襲う (feat. 初音ミク)
Artist:Hifumi
ArtistUnicode:一二三
Creator:TsukinoseTillot
Version:Easy
Source:
Tags:
BeatmapID:1901745
BeatmapSetID:911156

[Difficulty]
HPDrainRate:3
CircleSize:3
OverallDifficulty:2
ApproachRate:2
SliderMultiplier:0.799999999999999
SliderTickRate:1

[Events]
//Background and Video events
0,0,"background.ex.jpg",0,0
//Break Periods
2,89515,100063
2,152392,161601
//Storyboard Layer 0 (Background)
//Storyboard Layer 1 (Fail)
//Storyboard Layer 2 (Pass)
//Storyboard Layer 3 (Foreground)
//Storyboard Sound Samples

[TimingPoints]
85,384.615384615385,4,2,1,50,1,0
3161,-100,4,2,1,50,0,0
4700,-100,4,2,1,50,0,0
5085,-100,4,2,1,30,0,0
5469,-100,4,2,1,40,0,0
5854,-100,4,2,1,50,0,0
7777,-100,4,2,1,50,0,0
8161,-100,4,2,1,30,0,0
8546,-100,4,2,1,40,0,0
8931,-100,4,2,1,50,0,0
9315,-100,4,2,1,50,0,0
10854,-100,4,2,1,50,0,0
11238,-100,4,2,1,30,0,0
11623,-100,4,2,1,40,0,0
12008,-100,4,2,1,50,0,0
12392,-100,4,2,1,50,0,0
13931,-100,4,2,1,20,0,0
14123,-100,4,2,1,25,0,0
14315,-100,4,2,1,30,0,0
14411,-100,4,2,1,35,0,0
14508,-100,4,2,1,40,0,0
14604,-100,4,2,1,45,0,0
14700,-100,4,2,1,50,0,0
14796,-100,4,2,1,55,0,0
14892,-100,4,2,1,60,0,0
14988,-100,4,2,1,65,0,0
15085,-100,4,2,1,70,0,0
15469,-100,4,2,1,50,0,0
64700,-100,4,2,1,50,0,1
76911,-100,4,2,1,50,0,0
77008,-100,4,2,1,50,0,1
89315,-100,4,2,1,50,0,0
126238,-100,4,2,1,50,0,1
138450,-100,4,2,1,50,0,0
138546,-100,4,2,1,50,0,1
150854,-100,4,2,1,50,0,0
163161,-100,4,2,1,50,0,0
175469,-100,4,2,1,50,0,0
187777,-100,4,2,1,50,0,1
199988,-100,4,2,1,50,0,0
200085,-100,4,2,1,50,0,1
212392,-100,4,2,1,50,0,0
215469,-100,4,2,1,50,0,1
217008,-100,4,2,1,50,0,0
218546,-100,4,2,1,50,0,1
223161,-100,4,2,1,50,0,0
252392,-100,4,2,1,5,0,0

[Colours]
Combo1 : 162,169,240
Combo2 : 23,113,179
Combo3 : 18,124,255
Combo4 : 117,159,238

[HitObjects]
76,84,3161,6,0,P|135:62|241:59,1,160,2|2,0:0|0:0,0:0:0:0:
299,99,4315,1,2,0:0:0:0:
347,162,4700,2,0,P|367:233|368:250,2,79.9999999999999,2|2|2,0:0|0:0|0:0,0:0:0:0:
274,127,5854,1,2,0:0:0:0:
210,175,6238,6,0,P|171:190|39:189,1,160,2|2,0:0|0:0,0:0:0:0:
5,129,7392,1,2,0:0:0:0:
55,66,7777,2,0,P|106:49|137:45,2,79.9999999999999,2|2|2,0:0|0:0|0:0,0:0:0:0:
40,144,8931,1,2,0:0:0:0:
76,214,9315,6,0,P|130:238|232:240,1,160,2|2,0:0|0:0,0:0:0:0:
289,186,10469,1,2,0:0:0:0:
357,227,10854,2,0,P|383:280|389:310,2,79.9999999999999,2|2|2,0:0|0:0|0:0,0:0:0:0:
343,148,12008,1,2,0:0:0:0:
266,123,12392,6,0,P|227:122|99:92,1,160,2|2,0:0|0:0,0:0:0:0:
65,29,13546,1,2,0:0:0:0:
144,20,13931,2,0,P|196:14|237:17,1,79.9999999999999,2|2,0:0|0:0,0:0:0:0:
292,55,14700,2,0,P|326:74|370:75,1,79.9999999999999,2|2,0:0|0:0,0:0:0:0:
413,140,15469,6,0,P|430:208|385:314,1,160,4|2,0:0|0:0,0:0:0:0:
330,323,16623,1,8,0:0:0:0:
252,303,17008,2,0,P|179:282|142:284,2,79.9999999999999,2|8|2,0:0|0:0|0:0,0:0:0:0:
324,269,18161,1,8,0:0:0:0:
380,211,18546,6,0,P|374:137|308:71,1,160,4|2,0:0|0:0,0:0:0:0:
247,112,19700,1,8,0:0:0:0:
173,81,20085,2,0,P|107:70|63:66,2,79.9999999999999,2|8|2,0:0|0:0|0:0,0:0:0:0:
239,36,21238,1,8,0:0:0:0:
318,32,21623,6,0,P|372:102|341:191,1,160,4|2,0:0|0:0,0:0:0:0:
280,166,22777,1,8,0:0:0:0:
203,142,23161,2,0,P|142:164|114:183,2,79.9999999999999,2|8|2,0:0|0:0|0:0,0:0:0:0:
265,92,24315,1,8,0:0:0:0:
323,146,24700,6,0,P|324:193|215:251,1,160,4|2,0:0|0:0,0:0:0:0:
167,222,25854,1,8,0:0:0:0:
105,171,26238,2,0,P|78:126|68:76,2,79.9999999999999,2|8|2,0:0|0:0|0:0,0:0:0:0:
109,250,27392,1,8,0:0:0:0:
180,286,27777,6,0,P|221:303|357:306,1,160,2|2,0:0|0:0,0:0:0:0:
394,257,28931,1,2,0:0:0:0:
449,199,29315,2,0,P|441:139|424:84,1,79.9999999999999,2|2,0:0|0:0,0:0:0:0:
365,81,30085,2,0,P|300:64|258:45,1,79.9999999999999,2|2,0:0|0:0,0:0:0:0:
210,80,30854,6,0,P|144:155|170:231,1,160,2|2,0:0|0:0,0:0:0:0:
229,231,32008,1,2,0:0:0:0:
225,310,32392,2,0,P|159:326|109:325,1,79.9999999999999,2|2,0:0|0:0,0:0:0:0:
89,270,33161,2,0,P|56:218|49:174,1,79.9999999999999,2|2,0:0|0:0,0:0:0:0:
85,128,33931,6,0,P|160:139|252:106,1,160,4|2,0:0|0:0,0:0:0:0:
290,52,35085,1,2,0:0:0:0:
362,85,35469,2,0,P|392:136|412:177,1,79.9999999999999,2|2,0:0|0:0,0:0:0:0:
398,234,36238,2,0,P|362:288|333:315,1,79.9999999999999,2|2,0:0|0:0,0:0:0:0:
272,308,37008,6,0,P|206:275|114:266,1,160,2|2,0:0|0:0,0:0:0:0:
59,214,38161,1,2,0:0:0:0:
108,150,38546,2,0,P|148:112|176:78,1,79.9999999999999,2|2,0:0|0:0,0:0:0:0:
230,47,39315,2,0,P|298:80|336:80,1,79.9999999999999,2|0,0:0|0:0,0:0:0:0:
337,152,40085,6,0,P|342:232|381:303,1,160,4|2,0:0|0:0,0:0:0:0:
458,309,41238,1,8,0:0:0:0:
477,231,41623,2,0,P|492:166|499:116,2,79.9999999999999,2|8|2,0:0|0:0|0:0,0:0:0:0:
411,277,42777,1,8,0:0:0:0:
349,327,43161,6,0,P|282:343|180:329,1,160,4|2,0:0|0:0,0:0:0:0:
151,264,44315,1,8,0:0:0:0:
92,209,44700,2,0,P|66:149|65:102,1,79.9999999999999,2|8,0:0|0:0,0:0:0:0:
100,63,45469,2,0,P|158:37|199:33,1,79.9999999999999,2|8,0:0|0:0,0:0:0:0:
219,100,46238,6,0,P|288:130|389:128,1,160,4|2,0:0|0:0,0:0:0:0:
443,97,47392,1,8,0:0:0:0:
493,159,47777,2,0,P|510:210|509:274,2,79.9999999999999,2|8|2,0:0|0:0|0:0,0:0:0:0:
412,159,48931,1,8,0:0:0:0:
352,212,49315,6,0,P|277:248|181:270,1,160,4|2,0:0|0:0,0:0:0:0:
127,240,50469,1,8,0:0:0:0:
78,176,50854,2,0,P|63:120|70:71,1,79.9999999999999,2|8,0:0|0:0,0:0:0:0:
126,48,51623,2,0,P|175:81|233:82,1,79.9999999999999,2|8,0:0|0:0,0:0:0:0:
269,57,52392,6,0,P|332:40|443:42,1,160,2|2,0:0|0:0,0:0:0:0:
472,104,53546,1,2,0:0:0:0:
433,174,53931,2,0,P|379:217|350:242,1,79.9999999999999,2|2,0:0|0:0,0:0:0:0:
335,295,54700,2,0,P|258:307|226:307,1,79.9999999999999,2|2,0:0|0:0,0:0:0:0:
186,267,55469,6,0,P|174:217|109:115,1,160,2|2,0:0|0:0,0:0:0:0:
52,78,56623,1,2,0:0:0:0:
105,18,57008,2,0,P|162:4|219:2,2,79.9999999999999,2|2|0,0:0|0:0|0:0,0:0:0:0:
33,53,58161,1,2,0:0:0:0:
16,131,58546,6,0,P|59:205|143:198,1,160,4|2,0:0|0:0,0:0:0:0:
96,133,59700,1,2,0:0:0:0:
151,75,60085,2,0,P|206:57|282:130,1,160,2|0,0:0|0:0,0:0:0:0:
202,138,61238,1,2,0:0:0:0:
223,215,61623,6,0,P|259:269|286:290,1,79.9999999999999,2|2,0:0|0:0,0:0:0:0:
309,348,62392,2,0,P|375:337|416:310,1,79.9999999999999,2|2,0:0|0:0,0:0:0:0:
405,253,63161,2,0,P|423:197|447:151,2,79.9999999999999,2|2|2,0:0|0:0|0:0,0:0:0:0:
246,287,64700,6,0,P|193:302|98:226,1,160,4|8,0:0|0:0,0:0:0:0:
103,171,65854,1,8,0:0:0:0:
169,126,66238,2,0,P|231:145|348:116,1,160,8|8,0:0|0:0,0:0:0:0:
358,57,67392,1,8,0:0:0:0:
279,43,67777,6,0,P|217:31|163:23,2,79.9999999999999,4|8|8,0:0|0:0|0:0,0:0:0:0:
334,101,68931,1,8,0:0:0:0:
376,168,69315,2,0,P|378:252|306:300,1,160,8|8,0:0|0:0,0:0:0:0:
243,293,70469,1,8,0:0:0:0:
173,253,70854,6,0,P|138:226|84:208,1,79.9999999999999,4|8,0:0|0:0,0:0:0:0:
33,176,71623,2,0,P|26:124|30:77,1,79.9999999999999,8|8,0:0|0:0,0:0:0:0:
78,35,72392,1,8,0:0:0:0:
154,57,72777,2,0,P|217:87|262:90,2,79.9999999999999,8|8|8,0:0|0:0|0:0,0:0:0:0:
77,81,73931,6,0,P|52:124|97:233,1,160,8|8,0:0|0:0,0:0:0:0:
161,209,75085,1,8,0:0:0:0:
219,154,75469,2,0,P|263:128|384:185,1,160,8|8,0:0|0:0,0:0:0:0:
412,217,76623,1,8,0:0:0:0:
413,297,77008,6,0,P|324:333|234:338,1,160,4|8,0:0|0:0,0:0:0:0:
186,309,78161,1,8,0:0:0:0:
152,236,78546,2,0,P|105:195|59:173,2,79.9999999999999,8|8|8,0:0|0:0|0:0,0:0:0:0:
217,282,79700,1,8,0:0:0:0:
292,308,80085,6,0,P|344:311|431:231,1,160,4|8,0:0|0:0,0:0:0:0:
446,170,81238,1,8,0:0:0:0:
406,100,81623,2,0,P|370:62|327:39,2,79.9999999999999,8|8|8,0:0|0:0|0:0,0:0:0:0:
373,173,82777,1,8,0:0:0:0:
325,237,83161,6,0,P|270:265|166:253,1,160,4|8,0:0|0:0,0:0:0:0:
106,214,84315,2,0,P|90:170|91:132,1,79.9999999999999,8|8,0:0|0:0,0:0:0:0:
149,83,85085,2,0,P|189:54|222:18,2,79.9999999999999,8|8|0,0:0|0:0|0:0,0:0:0:0:
77,117,86238,2,0,P|68:193|154:244,1,160,8|8,0:0|0:0,0:0:0:0:
196,203,87392,5,8,0:0:0:0:
250,143,87777,2,0,P|316:118|415:137,1,160,8|8,0:0|0:0,0:0:0:0:
452,193,88931,1,8,0:0:0:0:
484,265,89315,1,4,0:0:0:0:
332,98,101623,6,0,P|291:81|155:78,1,160,2|2,0:0|0:0,0:0:0:0:
118,127,102777,1,2,0:0:0:0:
63,185,103161,2,0,P|71:245|88:300,1,79.9999999999999,2|2,0:0|0:0,0:0:0:0:
147,303,103931,2,0,P|212:320|254:339,1,79.9999999999999,2|2,0:0|0:0,0:0:0:0:
302,304,104700,6,0,P|368:229|342:153,1,160,2|2,0:0|0:0,0:0:0:0:
283,153,105854,1,2,0:0:0:0:
287,74,106238,2,0,P|353:58|403:59,1,79.9999999999999,2|2,0:0|0:0,0:0:0:0:
423,114,107007,2,0,P|456:166|463:210,1,79.9999999999999,2|2,0:0|0:0,0:0:0:0:
427,256,107777,6,0,P|352:245|260:278,1,160,4|2,0:0|0:0,0:0:0:0:
222,332,108931,1,2,0:0:0:0:
150,299,109315,2,0,P|120:248|100:207,1,79.9999999999999,2|2,0:0|0:0,0:0:0:0:
114,150,110084,2,0,P|150:96|179:69,1,79.9999999999999,2|2,0:0|0:0,0:0:0:0:
240,76,110854,6,0,P|306:109|398:118,1,160,2|2,0:0|0:0,0:0:0:0:
453,170,112007,1,2,0:0:0:0:
404,234,112392,2,0,P|364:272|336:306,1,79.9999999999999,2|2,0:0|0:0,0:0:0:0:
279,332,113161,1,2,0:0:0:0:
193,196,113931,6,0,P|190:144|89:119,1,160,4|2,0:0|0:0,0:0:0:0:
47,173,115085,1,8,0:0:0:0:
23,249,115469,2,0,P|64:300|96:316,1,79.9999999999999,2|8,0:0|0:0,0:0:0:0:
149,277,116238,2,0,P|214:255|251:260,1,79.9999999999999,2|8,0:0|0:0,0:0:0:0:
293,295,117008,6,0,P|358:303|439:220,1,160,4|2,0:0|0:0,0:0:0:0:
431,168,118161,1,8,0:0:0:0:
400,93,118546,2,0,P|346:45|325:32,2,79.9999999999999,2|8|2,0:0|0:0|0:0,0:0:0:0:
390,172,119700,1,8,0:0:0:0:
337,232,120085,6,0,P|301:264|159:275,1,160,4|2,0:0|0:0,0:0:0:0:
129,239,121238,1,8,0:0:0:0:
83,173,121623,2,0,P|61:134|53:91,1,79.9999999999999,2|8,0:0|0:0,0:0:0:0:
64,20,122392,2,0,P|128:10|181:14,1,79.9999999999999,2|8,0:0|0:0,0:0:0:0:
179,81,123161,6,0,P|242:117|336:124,1,160,4|2,0:0|0:0,0:0:0:0:
385,69,124315,1,8,0:0:0:0:
443,124,124700,2,0,P|464:179|468:225,2,79.9999999999999,2|8|2,0:0|0:0|0:0,0:0:0:0:
298,54,126238,6,0,P|221:42|159:89,1,160,4|8,0:0|0:0,0:0:0:0:
142,168,127392,1,8,0:0:0:0:
181,237,127776,2,0,P|257:216|335:233,1,160,8|8,0:0|0:0,0:0:0:0:
398,282,128930,1,8,0:0:0:0:
343,340,129315,6,0,P|303:347|264:354,2,79.9999999999999,4|8|8,0:0|0:0|0:0,0:0:0:0:
378,268,130469,1,8,0:0:0:0:
418,198,130853,2,0,P|423:120|365:69,1,160,8|8,0:0|0:0,0:0:0:0:
286,58,132007,1,8,0:0:0:0:
221,105,132392,6,0,P|189:129|153:145,1,79.9999999999999,4|8,0:0|0:0,0:0:0:0:
79,177,133161,2,0,P|72:216|73:256,1,79.9999999999999,8|8,0:0|0:0,0:0:0:0:
72,336,133930,1,8,0:0:0:0:
145,305,134315,2,0,P|179:284|217:273,2,79.9999999999999,8|8|8,0:0|0:0|0:0,0:0:0:0:
64,301,135469,6,0,P|35:228|69:158,1,160,8|8,0:0|0:0,0:0:0:0:
149,149,136623,1,8,0:0:0:0:
208,202,137007,2,0,P|279:231|351:201,1,160,8|8,0:0|0:0,0:0:0:0:
393,133,138161,1,8,0:0:0:0:
397,53,138546,6,0,P|323:20|244:10,1,160,4|8,0:0|0:0,0:0:0:0:
186,65,139699,1,8,0:0:0:0:
154,138,140084,2,0,P|125:165|91:187,2,79.9999999999999,8|8|8,0:0|0:0|0:0,0:0:0:0:
220,92,141238,1,8,0:0:0:0:
291,56,141623,6,0,P|369:61|424:116,1,160,4|8,0:0|0:0,0:0:0:0:
438,195,142776,1,8,0:0:0:0:
420,273,143161,2,0,P|393:303|360:325,2,79.9999999999999,8|8|8,0:0|0:0|0:0,0:0:0:0:
389,198,144315,1,8,0:0:0:0:
345,130,144699,6,0,P|272:98|194:109,1,160,4|8,0:0|0:0,0:0:0:0:
135,164,145853,2,0,P|120:200|119:240,1,79.9999999999999,8|8,0:0|0:0,0:0:0:0:
182,290,146623,2,0,P|214:312|243:340,2,79.9999999999999,8|8|0,0:0|0:0|0:0,0:0:0:0:
119,240,147776,2,0,P|110:163|168:114,1,160,8|8,0:0|0:0,0:0:0:0:
191,191,148930,5,8,0:0:0:0:
243,251,149315,2,0,P|317:276|395:263,1,160,8|8,0:0|0:0,0:0:0:0:
440,196,150469,1,8,0:0:0:0:
478,125,150853,1,4,0:0:0:0:
292,52,163161,6,0,B|346:79|397:51|397:51|304:167|397:283|397:283|338:256|286:297,1,479.999999999999,2|0,0:0|0:0,0:0:0:0:
128,290,166238,2,0,B|109:207|49:143|49:143|109:175|177:78|241:124|273:130|273:130|268:166|277:232,1,479.999999999999,2|2,0:0|0:0,0:0:0:0:
195,331,169315,2,0,B|246:293|298:312|298:312|319:273|385:208|385:208|337:210|323:173|417:87|319:44|239:45,1,479.999999999999,6|0,0:0|0:0,0:0:0:0:
249,207,172392,2,0,P|182:246|156:70,1,320,2|2,0:0|0:0,0:0:0:0:
377,283,175469,6,0,P|427:224|439:122,1,160,12|8,0:0|0:0,0:0:0:0:
400,75,176623,1,8,0:0:0:0:
324,47,177008,2,0,P|252:36|218:34,1,79.9999999999999,8|8,0:0|0:0,0:0:0:0:
173,70,177777,2,0,P|99:91|66:88,1,79.9999999999999,8|8,0:0|0:0,0:0:0:0:
27,130,178546,6,0,P|12:193|81:274,1,160,8|8,0:0|0:0,0:0:0:0:
139,241,179700,1,8,0:0:0:0:
207,200,180085,2,0,P|278:179|314:176,1,79.9999999999999,8|8,0:0|0:0,0:0:0:0:
350,222,180854,2,0,P|397:240|448:248,1,79.9999999999999,8|8,0:0|0:0,0:0:0:0:
469,178,181623,6,0,P|481:126|478:69,1,79.9999999999999,8|8,0:0|0:0,0:0:0:0:
401,93,182392,2,0,P|330:115|291:124,1,79.9999999999999,8|8,0:0|0:0,0:0:0:0:
284,46,183161,2,0,P|209:34|183:33,1,79.9999999999999,8|8,0:0|0:0,0:0:0:0:
124,37,183931,2,0,P|60:90|55:104,1,79.9999999999999,8|8,0:0|0:0,0:0:0:0:
32,158,184700,6,0,P|118:222|193:198,1,160,8|8,0:0|0:0,0:0:0:0:
219,157,185854,1,8,0:0:0:0:
281,107,186238,2,0,P|340:77|363:73,2,79.9999999999999,8|0|0,0:0|0:0|0:0,0:0:0:0:
273,266,187777,6,0,P|349:277|411:230,1,160,4|8,0:0|0:0,0:0:0:0:
423,150,188931,1,8,0:0:0:0:
350,116,189315,2,0,P|273:136|195:119,1,160,8|8,0:0|0:0,0:0:0:0:
118,97,190469,1,8,0:0:0:0:
160,29,190854,6,0,P|199:21|238:14,2,79.9999999999999,4|8|8,0:0|0:0|0:0,0:0:0:0:
83,53,192008,1,8,0:0:0:0:
22,105,192392,2,0,P|16:182|74:233,1,160,8|8,0:0|0:0,0:0:0:0:
153,220,193546,1,8,0:0:0:0:
214,169,193931,6,0,P|245:144|281:128,1,79.9999999999999,4|8,0:0|0:0,0:0:0:0:
359,109,194700,2,0,P|365:69|364:29,1,79.9999999999999,8|8,0:0|0:0,0:0:0:0:
288,5,195469,1,8,0:0:0:0:
220,48,195854,2,0,P|185:68|147:79,2,79.9999999999999,8|8|8,0:0|0:0|0:0,0:0:0:0:
300,47,197008,6,0,P|328:119|294:189,1,160,8|8,0:0|0:0,0:0:0:0:
240,248,198162,1,8,0:0:0:0:
178,197,198546,2,0,P|106:167|34:197,1,160,8|8,0:0|0:0,0:0:0:0:
50,275,199700,1,8,0:0:0:0:
95,340,200085,6,0,P|168:372|247:382,1,160,4|8,0:0|0:0,0:0:0:0:
310,333,201238,1,8,0:0:0:0:
366,275,201623,2,0,P|394:247|428:225,2,79.9999999999999,8|8|8,0:0|0:0|0:0,0:0:0:0:
288,295,202777,1,8,0:0:0:0:
209,310,203162,6,0,P|130:304|75:249,1,160,4|8,0:0|0:0,0:0:0:0:
77,169,204315,1,8,0:0:0:0:
90,90,204700,2,0,P|116:59|149:37,2,79.9999999999999,8|8|8,0:0|0:0|0:0,0:0:0:0:
117,165,205854,1,8,0:0:0:0:
153,235,206238,6,0,P|225:266|303:255,1,160,4|8,0:0|0:0,0:0:0:0:
355,194,207392,2,0,P|369:157|370:117,1,79.9999999999999,8|8,0:0|0:0,0:0:0:0:
303,74,208162,2,0,P|270:51|241:23,2,79.9999999999999,8|8|0,0:0|0:0|0:0,0:0:0:0:
370,117,209315,2,0,P|378:193|320:242,1,160,8|8,0:0|0:0,0:0:0:0:
250,202,210469,5,8,0:0:0:0:
225,125,210854,2,0,P|150:99|72:112,1,160,8|8,0:0|0:0,0:0:0:0:
22,175,212008,2,0,L|-2:255,1,79.9999999999999,8|4,0:0|0:0,0:0:0:0:
313,190,213931,5,4,0:0:0:0:
28,43,215469,2,0,P|11:107|12:138,1,79.9999999999999,12|12,0:0|0:0,0:0:0:0:
54,187,216238,2,0,P|69:240|73:286,2,79.9999999999999,12|12|12,0:0|0:0|0:0,0:0:0:0:
347,58,218546,6,0,P|398:88|397:209,1,160,8|8,0:0|0:0,0:0:0:0:
361,241,219700,1,8,0:0:0:0:
288,275,220085,2,0,P|227:293|181:295,2,79.9999999999999,8|8|8,0:0|0:0|0:0,0:0:0:0:
316,200,221238,1,8,0:0:0:0:
328,120,221623,6,0,P|305:68|209:44,1,160,8|8,0:0|0:0,0:0:0:0:
147,90,222777,2,0,L|112:116,1,40,8|0,0:0|0:0,0:0:0:0:
98,129,224700,6,0,P|81:197|126:303,1,160,4|2,0:0|0:0,0:0:0:0:
178,318,225854,1,8,0:0:0:0:
253,290,226239,2,0,P|326:269|363:271,2,79.9999999999999,2|8|2,0:0|0:0|0:0,0:0:0:0:
176,267,227392,1,8,0:0:0:0:
118,211,227777,6,0,P|124:137|190:71,1,160,4|2,0:0|0:0,0:0:0:0:
253,106,228931,1,8,0:0:0:0:
329,83,229316,2,0,P|395:72|439:68,2,79.9999999999999,2|8|2,0:0|0:0|0:0,0:0:0:0:
251,65,230469,1,8,0:0:0:0:
171,60,230854,6,0,P|117:130|148:219,1,160,4|2,0:0|0:0,0:0:0:0:
208,197,232008,1,8,0:0:0:0:
282,167,232392,2,0,P|343:189|371:208,2,79.9999999999999,2|8|2,0:0|0:0|0:0,0:0:0:0:
214,124,233546,1,8,0:0:0:0:
141,158,233931,6,0,P|140:205|249:263,1,160,4|2,0:0|0:0,0:0:0:0:
295,231,235085,1,8,0:0:0:0:
352,175,235469,2,0,P|379:130|389:80,2,79.9999999999999,2|8|2,0:0|0:0|0:0,0:0:0:0:
276,202,236623,1,8,0:0:0:0:
197,219,237008,6,0,P|132:206|65:101,1,160,4|2,0:0|0:0,0:0:0:0:
77,58,238161,1,8,0:0:0:0:
139,7,238546,2,0,P|186:-3|222:-1,2,79.9999999999999,2|8|2,0:0|0:0|0:0,0:0:0:0:
67,42,239700,1,8,0:0:0:0:
11,99,240085,6,0,P|0:163|94:220,1,160,4|2,0:0|0:0,0:0:0:0:
139,190,241238,1,8,0:0:0:0:
207,148,241623,2,0,P|255:131|310:128,1,79.9999999999999,2|8,0:0|0:0,0:0:0:0:
329,192,242392,2,0,P|392:218|437:220,1,79.9999999999999,2|8,0:0|0:0,0:0:0:0:
424,296,243161,6,0,P|382:336|282:341,1,160,4|2,0:0|0:0,0:0:0:0:
227,284,244315,1,8,0:0:0:0:
153,251,244700,2,0,P|71:231|39:228,2,79.9999999999999,2|8|2,0:0|0:0|0:0,0:0:0:0:
208,308,245854,1,8,0:0:0:0:
277,346,246238,6,0,P|320:360|402:275,1,160,4|2,0:0|0:0,0:0:0:0:
375,217,247392,1,8,0:0:0:0:
326,153,247777,2,0,P|281:124|241:114,1,79.9999999999999,2|8,0:0|0:0,0:0:0:0:
191,163,248546,2,0,P|127:146|78:111,1,120,2|0,0:0|0:0,0:0:0:0:
256,192,249315,12,0,252392,0:0:0:0:
