osu file format v14

[General]
AudioFilename: audio.mp3
AudioLeadIn: 0
PreviewTime: 4
Countdown: 0
SampleSet: Soft
StackLeniency: 0.7
Mode: 0
LetterboxInBreaks: 0
WidescreenStoryboard: 1

[Editor]
Bookmarks: 20844,47697,61123,74550,87976,101403,114782,128208,141635,155061,168488,181914,198911,205624
DistanceSpacing: 1.1
BeatDivisor: 8
GridSize: 8
TimelineZoom: 2.899999

[Metadata]
Title:Kaikou
TitleUnicode:邂逅
Artist:Hierograph
ArtistUnicode:ひえろぐらふ
Creator:Halfslashed
Version:night's Lunatic
Source:東方風神録 ~ Mountain of Faith.
Tags:co2021 ro16 fm1 th10 touhou fuujinroku the gensokyo gods loved 神々が恋した幻想郷 Nitori Kawashiro 河城 にとり 悠久フォークロア -eternity folklore- lewski nightlys maid video game instrumental folk xiehou nyo. aqua style にょ。 東方Project kamigami ga koishita gensokyo wind god chronicles team shanghai alice zun encounter aquastyle
BeatmapID:3471039
BeatmapSetID:1557334

[Difficulty]
HPDrainRate:5
CircleSize:4
OverallDifficulty:8
ApproachRate:8
SliderMultiplier:1.4
SliderTickRate:1

[Events]
//Background and Video events
0,0,"touhou-1610995265516-9333.jpg",0,0
//Break Periods
2,101581,113826
//Storyboard Layer 0 (Background)
//Storyboard Layer 1 (Fail)
//Storyboard Layer 2 (Pass)
//Storyboard Layer 3 (Foreground)
//Storyboard Layer 4 (Overlay)
//Storyboard Sound Samples

[TimingPoints]
1043,638.297872340426,4,2,1,50,1,0
16362,789.473684210526,4,2,1,50,1,0
17940,1153.84615384615,4,2,1,50,1,0
19670,2352.94117647059,4,2,1,50,1,0
20846,419.454289968751,4,2,1,80,1,0
20846,-83.3333333333333,4,2,1,50,0,1
47691,-100,4,2,1,50,0,0
87978,-90.9090909090909,4,2,1,60,0,0
101396,416.666666666667,4,2,1,50,1,0
101396,-200,4,2,1,50,0,0
108071,422.535211267606,4,2,1,50,1,0
108071,-200,4,2,1,50,0,0
111451,416.666666666667,4,2,1,50,1,0
111451,-200,4,2,1,50,0,0
114576,-100,4,2,1,50,0,0
114784,419.454289968751,4,2,1,60,1,0
114784,-100,4,2,1,60,0,0
128206,-83.3333333333333,4,2,1,70,0,1
141629,-100,4,2,1,50,0,0
155051,-90.9090909090909,4,2,1,60,0,0
168474,-83.3333333333333,4,2,1,70,0,0
181896,-71.4285714285714,4,2,1,80,0,1
194690,434.782608695652,4,2,1,50,1,1
194907,-71.4285714285714,4,2,1,50,0,1
195342,833.333333333333,4,2,1,60,1,0
195967,967.741935483871,4,2,1,60,1,0
196208,1153.84615384615,4,2,1,70,1,0
196496,1538.46153846154,4,2,1,70,1,0
196880,-100,4,2,1,5,0,0
197072,1846.15384615385,4,2,1,75,1,0
197533,-100,4,2,1,5,0,0
198918,419.454289968751,4,2,1,90,1,1
198918,-66.6666666666667,4,2,1,90,0,1
205629,-66.6666666666667,4,2,1,50,0,0

[Colours]
Combo1 : 255,142,17
Combo2 : 250,237,1

[HitObjects]
321,355,20846,5,2,1:2:0:0:
407,298,21055,1,8,0:0:0:0:
407,298,21265,1,8,0:0:0:0:
487,354,21475,5,2,1:2:0:0:
403,210,21684,1,8,0:0:0:0:
403,210,21894,1,8,0:0:0:0:
485,156,22104,2,0,L|502:74,1,83.9999974365235,2|8,1:2|0:0,0:0:0:0:
507,62,22418,1,8,0:0:0:0:
511,48,22523,1,8,0:0:0:0:
376,0,22733,2,0,L|393:82,1,83.9999974365235,2|8,1:2|0:0,0:0:0:0:
398,94,23047,1,8,0:0:0:0:
402,108,23152,1,8,0:0:0:0:
332,221,23362,5,2,1:2:0:0:
266,110,23572,1,0,1:2:0:0:
154,194,23782,1,2,1:2:0:0:
88,85,23992,1,8,0:0:0:0:
88,85,24096,1,8,0:0:0:0:
87,85,24201,6,0,L|-22:107,1,83.9999974365235,2|8,1:2|0:0,0:0:0:0:
5,102,24621,1,8,0:0:0:0:
55,291,24830,2,0,L|32:181,1,83.9999974365235,2|8,1:2|0:0,0:0:0:0:
37,208,25250,1,8,0:0:0:0:
161,355,25459,6,0,L|78:372,1,83.9999974365235,2|8,1:2|0:0,0:0:0:0:
70,367,25774,1,8,0:0:0:0:
60,360,25879,1,8,0:0:0:0:
153,255,26089,2,0,L|235:272,1,83.9999974365235,2|8,1:2|0:0,0:0:0:0:
246,266,26403,1,8,0:0:0:0:
256,259,26508,1,8,0:0:0:0:
345,362,26718,5,2,1:2:0:0:
411,295,26928,1,8,0:0:0:0:
360,203,27137,1,2,1:2:0:0:
424,133,27347,1,8,0:0:0:0:
424,133,27452,1,8,0:0:0:0:
424,133,27557,6,0,L|406:50,1,83.9999974365235,2|8,1:2|0:0,0:0:0:0:
327,15,27976,1,8,0:0:0:0:
258,137,28186,2,0,L|175:119,1,83.9999974365235,2|8,1:2|0:0,0:0:0:0:
140,40,28605,1,8,0:0:0:0:
22,207,28815,2,0,L|105:225,1,83.9999974365235,2|8,1:2|0:0,0:0:0:0:
115,218,29130,1,8,0:0:0:0:
126,212,29235,1,8,0:0:0:0:
223,334,29444,2,0,L|140:316,1,83.9999974365235,2|8,1:2|0:0,0:0:0:0:
131,325,29759,1,8,0:0:0:0:
122,336,29864,1,8,0:0:0:0:
263,239,30073,5,2,1:2:0:0:
332,345,30283,1,8,0:2:0:0:
436,263,30493,1,2,1:2:0:0:
502,369,30703,1,8,0:0:0:0:
502,369,30808,1,8,0:0:0:0:
502,369,30912,6,0,L|419:351,2,83.9999974365235,2|8|8,1:2|0:0|0:0,0:0:0:0:
337,180,31542,2,0,L|355:263,2,83.9999974365235,2|8|8,1:2|0:0|0:0,0:0:0:0:
512,122,32171,2,0,L|494:205,1,83.9999974365235,2|8,1:2|0:0,0:0:0:0:
491,217,32485,1,8,0:0:0:0:
487,230,32590,1,8,0:0:0:0:
324,103,32800,2,0,L|306:20,1,83.9999974365235,2|8,1:2|0:0,0:0:0:0:
315,16,33115,1,8,0:0:0:0:
326,11,33219,1,8,0:0:0:0:
492,69,33429,5,2,1:2:0:0:
367,183,33639,1,8,0:0:0:0:
492,69,33849,1,2,1:2:0:0:
251,188,34058,5,8,0:0:0:0:
251,188,34163,1,8,0:0:0:0:
251,188,34268,2,0,L|168:170,1,83.9999974365235,6|8,1:2|0:0,0:0:0:0:
0,139,34687,1,8,0:0:0:0:
35,344,34897,1,2,1:2:0:0:
232,384,35107,1,8,0:0:0:0:
232,384,35316,1,8,0:0:0:0:
95,252,35526,6,0,L|77:169,1,83.9999974365235,2|8,1:2|0:0,0:0:0:0:
87,162,35841,1,8,0:0:0:0:
97,153,35946,1,8,0:0:0:0:
0,29,36156,1,2,1:2:0:0:
167,10,36365,2,0,L|115:2,2,41.9999987182618,8|8|8,0:0|0:0|0:0,0:0:0:0:
267,69,36785,6,0,L|275:110,3,27.9999991455078,2|0|0|0,1:2|3:0|3:0|1:2,0:0:0:0:
164,204,37204,1,2,1:2:0:0:
250,359,37414,1,8,0:0:0:0:
261,310,37519,1,8,0:0:0:0:
274,267,37624,6,0,L|285:177,2,83.9999974365235,2|8|8,1:2|0:0|0:0,0:0:0:0:
394,301,38253,2,0,L|405:391,2,83.9999974365235,2|8|8,1:2|0:0|0:0,0:0:0:0:
450,149,38882,2,0,L|461:59,1,83.9999974365235,2|8,1:2|0:0,0:0:0:0:
462,52,39197,1,8,0:0:0:0:
465,38,39301,1,8,0:0:0:0:
491,254,39511,2,0,L|501:337,1,83.9999974365235,2|8,1:2|0:0,0:0:0:0:
506,357,39826,1,8,0:0:0:0:
509,371,39930,1,8,0:0:0:0:
266,206,40140,6,0,L|264:233,3,27.9999991455078,2|0|0|8,1:2|3:0|3:0|0:0,0:0:0:0:
398,241,40560,1,2,1:2:0:0:
148,210,40770,1,8,0:0:0:0:
148,210,40874,1,8,0:0:0:0:
148,210,40979,5,2,1:2:0:0:
205,0,41189,1,8,0:0:0:0:
205,0,41399,1,8,0:0:0:0:
30,0,41608,6,0,L|21:83,1,83.9999974365235,2|8,1:2|0:0,0:0:0:0:
98,142,42028,1,8,0:0:0:0:
145,46,42238,1,2,1:2:0:0:
255,70,42447,1,8,0:0:0:0:
258,126,42552,1,8,0:0:0:0:
264,174,42657,2,0,L|370:153,1,83.9999974365235,8|2,0:0|1:2,0:0:0:0:
438,222,43077,1,8,0:0:0:0:
435,278,43182,1,8,0:0:0:0:
429,326,43287,2,0,L|323:305,1,83.9999974365235,8|2,0:0|1:2,0:0:0:0:
213,246,43706,5,8,0:2:0:0:
217,264,43775,1,0,3:0:0:0:
221,282,43845,1,0,3:0:0:0:
225,300,43915,1,2,1:2:0:0:
119,329,44125,1,8,0:0:0:0:
104,348,44230,1,8,0:0:0:0:
90,366,44335,6,0,L|111:260,1,83.9999974365235,2|8,1:2|0:0,0:0:0:0:
63,152,44754,1,8,0:0:0:0:
207,72,44964,2,0,L|228:178,1,83.9999974365235,2|8,1:2|0:0,0:0:0:0:
313,342,45383,1,8,0:0:0:0:
382,287,45593,2,0,L|403:181,1,83.9999974365235,2|8,1:2|0:0,0:0:0:0:
436,180,45908,1,8,0:0:0:0:
484,185,46013,1,8,0:0:0:0:
269,255,46222,5,2,1:2:0:0:
354,46,46432,1,8,0:0:0:0:
252,73,46642,1,8,0:0:0:0:
146,99,46852,2,0,L|136:56,3,27.9999991455078,2|0|0|8,1:2|3:0|3:0|0:0,0:0:0:0:
54,47,47271,1,2,1:2:0:0:
90,182,47481,1,8,0:0:0:0:
100,193,47586,1,8,0:0:0:0:
110,203,47691,6,0,L|276:192,1,140,6|8,1:0|0:0,0:0:0:0:
474,308,48320,2,0,L|334:317,1,140,2|8,1:2|0:0,0:0:0:0:
151,270,48949,2,0,L|225:279,1,70,2|8,1:2|0:0,0:0:0:0:
220,278,49264,1,8,0:0:0:0:
220,278,49368,1,10,0:0:0:0:
345,224,49578,2,0,P|381:150|358:84,1,140,0|8,1:2|0:0,0:0:0:0:
199,32,50207,2,0,P|174:72|181:114,1,70,0|10,1:2|0:0,0:0:0:0:
173,93,50627,2,0,P|195:134|235:149,1,70,0|10,1:2|0:0,0:0:0:0:
227,141,50941,1,0,0:0:0:0:
250,142,51046,6,0,P|279:202|241:274,1,140,2|8,1:2|0:0,0:0:0:0:
107,237,51675,2,0,P|92:266|97:292,2,35,0|0|0,1:2|0:0|0:0,0:0:0:0:
192,352,52095,2,0,L|189:311,3,23.3333333333333,8|0|0|0,0:0|0:0|0:0|1:2,0:0:0:0:
54,330,52514,5,8,0:0:0:0:
54,330,52619,1,8,0:0:0:0:
54,330,52724,2,0,P|72:357|116:371,1,70,8|0,0:0|1:2,0:0:0:0:
281,356,53143,1,0,0:0:0:0:
400,253,53353,6,0,P|382:280|338:294,1,70,8|0,0:0|1:2,0:0:0:0:
348,293,53773,2,0,P|315:290|281:259,1,70,8|0,0:0|1:2,0:0:0:0:
323,58,54192,1,8,0:0:0:0:
323,58,54297,1,8,0:0:0:0:
323,58,54402,6,0,L|332:215,1,140,2|8,1:2|0:0,0:0:0:0:
146,214,55031,2,0,L|137:371,1,140,2|8,1:2|0:0,0:0:0:0:
261,384,55660,2,0,L|249:293,1,70,2|8,1:2|0:0,0:0:0:0:
248,301,55975,1,8,0:0:0:0:
246,285,56080,1,10,0:0:0:0:
118,179,56289,2,0,L|109:336,1,140,0|10,1:2|0:0,0:0:0:0:
16,176,56919,2,0,L|4:85,1,70,0|10,1:2|0:0,0:0:0:0:
15,37,57338,2,0,L|3:128,1,70,0|10,1:2|0:0,0:0:0:0:
89,130,57653,1,0,0:0:0:0:
89,130,57757,5,2,1:2:0:0:
136,46,57967,1,0,0:0:0:0:
136,46,58177,1,8,0:0:0:0:
194,130,58387,2,0,P|215:131|251:116,2,35,0|0|0,1:2|0:0|0:0,0:0:0:0:
344,59,58806,2,0,L|308:47,3,23.3333333333333,8|0|0|0,0:0|0:0|0:0|1:2,0:0:0:0:
236,15,59226,5,8,0:0:0:0:
236,15,59330,1,8,0:0:0:0:
236,15,59435,1,8,0:0:0:0:
322,217,59645,2,0,P|403:197|429:122,1,140,0|8,1:2|0:0,0:0:0:0:
342,136,60274,1,0,1:2:0:0:
485,13,60484,1,10,0:0:0:0:
485,13,60589,1,2,0:0:0:0:
485,13,60694,1,2,1:2:0:0:
509,189,60903,5,10,0:0:0:0:
509,189,61008,1,8,0:0:0:0:
509,189,61113,2,0,L|431:179,1,70,6|0,1:2|0:0,0:0:0:0:
385,299,61428,1,0,0:0:0:0:
385,299,61533,6,0,L|463:290,1,70,8|0,0:0|1:2,0:0:0:0:
512,373,61952,1,0,0:0:0:0:
292,310,62162,2,0,L|242:315,2,35,10|0|0,0:0|0:0|1:2,0:0:0:0:
239,230,62581,1,10,0:0:0:0:
239,230,62686,1,8,0:0:0:0:
239,230,62791,2,0,L|161:239,1,70,10|0,0:0|1:2,0:0:0:0:
110,360,63106,1,0,0:0:0:0:
110,360,63211,6,0,L|101:282,1,70,0|8,0:0|0:0,0:0:0:0:
231,124,63630,1,0,1:2:0:0:
231,124,63840,1,10,0:0:0:0:
14,160,64049,1,2,1:2:0:0:
40,189,64259,5,8,0:0:0:0:
40,189,64364,1,8,0:0:0:0:
40,189,64469,2,0,P|88:114|73:60,1,140,2|8,1:2|0:0,0:0:0:0:
267,1,65098,2,0,P|219:76|234:130,1,140,0|10,1:2|0:0,0:0:0:0:
363,200,65727,2,0,P|393:170|398:128,1,70,2|8,1:2|0:0,0:0:0:0:
396,132,66042,1,8,0:0:0:0:
388,123,66147,1,10,0:0:0:0:
242,210,66356,2,0,P|253:298|299:330,1,140,0|8,1:2|0:0,0:0:0:0:
460,231,66985,6,0,P|449:263|423:286,1,70,0|10,1:2|0:0,0:0:0:0:
387,342,67405,2,0,P|397:309|423:286,1,70,2|10,1:2|0:0,0:0:0:0:
512,353,67720,1,8,0:0:0:0:
512,353,67824,2,0,L|340:348,1,140,2|8,1:2|0:0,0:0:0:0:
262,286,68454,2,0,P|251:318|234:337,2,35,0|0|0,1:2|0:0|0:0,0:0:0:0:
217,211,68873,1,10,0:0:0:0:
159,290,69083,2,0,P|148:322|125:360,1,70,2|8,1:2|0:0,0:0:0:0:
116,361,69397,1,8,0:0:0:0:
99,357,69502,6,0,P|81:327|73:266,1,70,10|0,0:0|1:2,0:0:0:0:
29,218,69817,1,0,0:0:0:0:
29,218,69922,2,0,L|105:222,1,70,0|8,0:0|0:0,0:0:0:0:
181,19,70341,2,0,L|170:173,1,140,0|0,1:2|1:2,0:0:0:0:
29,74,70970,5,10,0:0:0:0:
29,74,71075,1,8,0:0:0:0:
29,74,71180,2,0,L|105:78,1,70,2|0,1:2|0:0,0:0:0:0:
98,77,71599,1,8,0:0:0:0:
221,100,71809,1,2,1:2:0:0:
295,22,72019,2,0,P|323:65|319:110,1,70,2|0,0:0|0:0,0:0:0:0:
323,182,72438,1,0,1:2:0:0:
428,191,72648,1,10,0:0:0:0:
428,191,72753,1,8,0:0:0:0:
428,191,72858,6,0,P|458:152|456:116,2,70,10|0|0,0:0|1:2|0:0,0:0:0:0:
375,264,73487,1,8,0:0:0:0:
454,293,73697,6,0,P|484:332|482:368,1,70,0|8,1:2|0:0,0:0:0:0:
454,293,74116,2,0,P|493:263|529:265,1,70,0|8,1:2|0:0,0:0:0:0:
361,353,74431,1,8,0:0:0:0:
361,353,74536,6,0,L|202:342,1,140,6|8,1:2|0:0,0:0:0:0:
1,374,75165,2,0,L|140:364,1,140,2|10,1:2|0:0,0:0:0:0:
150,227,75794,1,2,1:2:0:0:
151,372,76004,1,8,0:0:0:0:
150,227,76213,6,0,P|139:145|101:78,1,140,10|8,0:0|0:0,0:0:0:0:
35,0,76843,1,8,0:0:0:0:
35,0,76948,1,0,0:0:0:0:
35,0,77052,2,0,L|25:87,1,70,0|10,1:2|0:0,0:0:0:0:
179,0,77472,2,0,L|189:86,1,70,2|8,1:2|0:0,0:0:0:0:
275,111,77786,1,8,0:0:0:0:
275,111,77891,6,0,P|284:78|393:36,1,140,2|8,1:2|0:0,0:0:0:0:
371,30,78520,1,0,1:2:0:0:
506,94,78730,2,0,L|419:109,1,70,0|8,0:0|0:0,0:0:0:0:
388,178,79150,2,0,L|475:193,1,70,0|8,1:2|0:0,0:0:0:0:
510,256,79464,1,8,0:0:0:0:
505,265,79569,5,8,0:0:0:0:
512,384,79779,1,0,1:2:0:0:
320,223,79989,5,8,0:0:0:0:
456,189,80198,1,8,0:0:0:0:
346,302,80408,5,2,1:2:0:0:
280,347,80618,1,8,0:0:0:0:
201,333,80827,1,0,1:2:0:0:
126,360,81037,1,8,0:0:0:0:
104,348,81142,1,8,0:0:0:0:
84,336,81247,6,0,L|-1:326,1,70,2|0,1:2|0:0,0:0:0:0:
14,327,81666,1,8,0:0:0:0:
139,239,81876,2,0,P|179:226|244:121,1,140,0|8,1:2|0:0,0:0:0:0:
166,72,82505,1,0,1:0:0:0:
59,70,82715,1,10,0:0:0:0:
54,58,82820,1,8,0:0:0:0:
49,44,82925,5,10,0:0:0:0:
239,152,83134,2,0,P|292:126|370:135,1,140,0|8,1:0|0:0,2:0:0:0:
512,90,83764,2,0,P|480:86|442:66,1,70,2|8,1:2|0:0,0:0:0:0:
512,90,84183,2,0,P|480:94|442:114,1,70,0|10,0:0|0:0,0:0:0:0:
436,192,84498,1,8,0:0:0:0:
436,192,84603,6,0,L|473:357,1,140,2|8,1:2|0:0,0:0:0:0:
297,384,85232,2,0,L|327:247,1,140,2|8,1:2|0:0,0:0:0:0:
151,108,85861,2,0,L|176:200,1,70,2|8,1:2|0:0,0:0:0:0:
188,226,86176,1,8,0:0:0:0:
209,277,86280,1,8,0:0:0:0:
48,380,86490,2,0,P|63:314|130:288,1,140,0|8,1:2|0:0,0:0:0:0:
21,175,87119,2,0,P|5:241|5:253,1,70,0|8,1:2|0:0,0:0:0:0:
87,256,87539,2,0,P|98:223|103:188,1,70,0|8,1:2|0:0,0:0:0:0:
61,110,87853,1,8,0:0:0:0:
61,110,87958,6,0,P|122:60|200:78,1,140,6|8,1:2|0:0,0:0:0:0:
362,227,88587,2,0,P|293:204|265:181,1,77.0000023498536,2|0,1:2|0:0,0:0:0:0:
290,202,89007,1,10,0:0:0:0:
272,5,89217,2,0,P|280:18|292:87,1,77.0000023498536,2|8,1:2|0:0,0:0:0:0:
217,137,89636,1,10,0:0:0:0:
165,352,89846,6,0,P|157:339|147:199,1,154.000004699707,0|8,1:2|0:0,0:0:0:0:
415,72,90475,2,0,P|402:64|333:52,1,77.0000023498536,0|10,1:2|0:0,0:0:0:0:
343,51,90894,2,0,P|330:59|261:71,1,77.0000023498536,2|8,1:2|0:0,0:0:0:0:
252,62,91209,1,8,0:0:0:0:
237,49,91314,5,2,1:2:0:0:
278,243,91524,1,0,0:0:0:0:
389,215,91733,5,8,0:0:0:0:
435,147,91943,1,0,1:2:0:0:
512,184,92153,1,0,0:0:0:0:
466,252,92363,1,8,0:0:0:0:
389,356,92572,6,0,L|466:353,1,77.0000023498536,0|8,1:2|0:0,0:0:0:0:
476,345,92887,1,8,0:0:0:0:
485,336,92992,1,8,0:0:0:0:
379,237,93201,2,0,L|304:218,1,77.0000023498536,0|8,1:2|0:0,0:0:0:0:
239,357,93621,1,8,0:0:0:0:
187,226,93831,1,2,1:2:0:0:
108,285,94040,1,8,0:0:0:0:
30,347,94250,1,0,1:2:0:0:
0,211,94460,1,8,0:0:0:0:
105,132,94669,5,2,1:2:0:0:
105,132,94774,1,0,0:0:0:0:
105,132,94879,2,0,L|206:124,1,77.0000023498536,0|8,0:0|0:0,0:0:0:0:
354,8,95299,2,0,P|289:13|217:32,1,115.50000352478,0|0,1:2|0:0,0:0:0:0:
227,45,95718,1,8,0:0:0:0:
196,220,95928,1,0,0:0:0:0:
196,220,96033,1,0,0:0:0:0:
196,220,96138,2,0,P|263:217|361:227,1,154.000004699707,10|0,0:0|1:2,0:0:0:0:
494,154,96767,1,8,0:0:0:0:
494,154,96976,1,8,0:0:0:0:
421,277,97186,6,0,L|442:358,1,77.0000023498536,2|8,1:2|0:0,0:0:0:0:
321,295,97606,2,0,L|300:376,1,77.0000023498536,0|10,0:0|0:0,0:0:0:0:
226,261,97920,1,8,0:0:0:0:
226,261,98025,2,0,L|178:329,1,77.0000023498536,2|0,1:2|0:0,0:0:0:0:
82,363,98445,1,8,0:0:0:0:
0,206,98654,6,0,P|9:169|56:51,1,154.000004699707,0|8,1:2|0:0,0:0:0:0:
217,1,99283,2,0,P|246:71|267:145,1,154.000004699707,0|8,1:2|0:0,0:0:0:0:
425,264,99913,2,0,P|454:193|475:119,1,154.000004699707,2|10,1:2|0:0,0:0:0:0:
437,72,100437,1,0,0:0:0:0:
381,63,100542,1,2,1:2:0:0:
305,220,100752,2,0,L|308:240,4,19.2500005874634,10|0|0|0|0,0:0|1:0|1:0|1:2|1:2,0:0:0:0:
213,49,101171,2,0,L|221:81,1,19.2500005874634,10|0,0:0|0:0,0:0:0:0:
203,49,101276,2,0,L|194:81,1,19.2500005874634,8|0,0:0|0:0,0:0:0:0:
189,41,101381,5,4,1:3:0:0:
255,184,114576,6,0,L|263:226,3,23.3333333333333,0|0|0|0,3:0|0:0|0:0|0:0,0:0:0:0:
357,17,114993,1,2,0:3:0:0:
357,17,115203,6,0,L|337:109,1,70,8|2,0:0|1:2,0:0:0:0:
353,95,115518,1,0,0:0:0:0:
365,108,115622,1,2,0:3:0:0:
491,176,115832,1,8,0:0:0:0:
491,176,115937,1,0,0:0:0:0:
491,176,116042,1,2,1:2:0:0:
339,183,116252,5,8,0:0:0:0:
325,226,116356,1,8,0:0:0:0:
311,268,116461,1,10,0:0:0:0:
395,340,116671,2,0,P|463:341|512:294,1,140,0|8,1:2|0:0,0:0:0:0:
316,362,117300,2,0,L|290:357,3,23.3333333333333,0|0|0|0,1:2|0:0|0:0|0:0,0:0:0:0:
208,366,117720,2,0,L|193:297,1,70,2|10,1:2|0:0,0:0:0:0:
126,253,118034,1,0,0:0:0:0:
126,253,118139,6,0,L|111:321,1,70,2|2,1:2|0:3,0:0:0:0:
0,252,118559,1,8,0:0:0:0:
261,235,118768,1,0,1:2:0:0:
261,235,118873,1,0,0:0:0:0:
261,235,118978,2,0,L|246:167,1,70,2|8,0:3|0:0,0:0:0:0:
175,131,119293,1,0,0:0:0:0:
175,131,119397,1,0,1:2:0:0:
354,0,119607,1,8,0:0:0:0:
354,0,119712,1,8,0:0:0:0:
354,0,119817,5,8,0:0:0:0:
307,124,120027,2,0,P|351:147|431:114,1,140,0|8,1:2|0:0,0:0:0:0:
485,229,120656,6,0,L|500:297,1,70,0|8,1:2|0:0,0:0:0:0:
500,297,121075,2,0,L|485:365,1,70,0|8,1:2|0:0,0:0:0:0:
467,379,121390,1,8,0:0:0:0:
445,376,121495,6,0,P|354:346|305:312,1,140,2|8,1:2|0:0,0:0:0:0:
226,206,122124,1,2,1:2:0:0:
251,216,122229,1,0,0:0:0:0:
271,225,122334,1,0,0:3:0:0:
160,352,122543,1,8,0:0:0:0:
125,319,122648,1,0,0:0:0:0:
120,280,122753,1,2,1:2:0:0:
163,146,122963,1,8,0:0:0:0:
163,146,123068,1,8,0:0:0:0:
163,146,123173,1,10,0:0:0:0:
20,268,123382,6,0,P|1:188|42:127,1,140,0|8,1:2|0:0,0:0:0:0:
121,0,124011,2,0,P|132:58|116:85,1,70,0|10,1:2|0:0,0:0:0:0:
128,66,124326,1,0,0:0:0:0:
128,66,124431,2,0,P|159:52|194:58,1,70,2|10,1:2|0:0,0:0:0:0:
269,147,124746,1,8,0:0:0:0:
269,147,124850,6,0,P|219:228|225:286,1,140,2|8,1:2|0:0,0:0:0:0:
454,359,125480,2,0,P|373:309|315:315,1,140,0|8,1:2|0:0,0:0:0:0:
159,209,126109,1,0,1:2:0:0:
159,209,126214,1,0,0:0:0:0:
159,209,126318,2,0,P|140:246|146:304,1,70,8|8,0:0|0:0,0:0:0:0:
289,199,126738,1,0,1:2:0:0:
289,199,126843,1,0,0:0:0:0:
289,199,126947,2,0,P|308:162|302:104,1,70,2|8,0:3|0:0,0:0:0:0:
274,36,127367,1,0,1:2:0:0:
418,135,127577,1,10,0:0:0:0:
512,0,127787,1,2,1:2:0:0:
448,223,127996,5,10,0:0:0:0:
448,223,128101,1,8,0:0:0:0:
448,223,128206,2,0,L|478:331,1,83.9999974365235,6|0,1:2|0:0,0:0:0:0:
462,316,128521,1,0,0:0:0:0:
453,327,128625,1,8,0:0:0:0:
323,368,128835,1,0,1:2:0:0:
268,379,128940,1,0,0:0:0:0:
230,384,129045,2,0,L|260:276,1,83.9999974365235,2|10,0:3|0:0,0:0:0:0:
241,293,129360,1,2,0:0:0:0:
229,280,129464,5,2,1:2:0:0:
81,147,129674,1,10,0:0:0:0:
81,147,129779,1,8,0:0:0:0:
81,147,129884,1,10,0:0:0:0:
25,375,130094,1,0,1:2:0:0:
25,375,130198,5,0,0:0:0:0:
25,375,130303,2,0,L|55:267,1,83.9999974365235,2|8,0:3|0:0,0:0:0:0:
185,91,130723,6,0,P|184:199|183:211,1,83.9999974365235,0|10,1:2|0:0,0:0:0:0:
270,55,131142,2,0,P|269:163|268:175,1,83.9999974365235,2|10,1:2|0:0,0:0:0:0:
312,215,131457,1,8,0:0:0:0:
312,215,131562,6,0,P|372:276|450:222,1,167.999994873047,2|8,1:2|0:0,0:0:0:0:
510,66,132191,2,0,P|450:5|372:59,1,167.999994873047,0|10,1:2|0:0,0:0:0:0:
502,153,132820,2,0,L|382:151,1,83.9999974365235,2|10,1:2|0:0,0:0:0:0:
407,141,133135,1,8,0:0:0:0:
397,130,133239,1,10,0:0:0:0:
260,12,133449,1,0,1:2:0:0:
260,12,133554,1,0,0:0:0:0:
260,12,133659,1,2,0:3:0:0:
260,12,133764,1,0,0:0:0:0:
260,12,133869,1,8,0:0:0:0:
325,227,134078,6,0,L|310:190,3,27.9999991455078,0|0|0|10,1:2|3:0|3:0|0:0,0:0:0:0:
187,151,134498,1,2,1:2:0:0:
194,162,134568,1,0,0:0:0:0:
201,173,134638,1,0,0:0:0:0:
208,182,134708,1,10,0:0:0:0:
101,283,134917,6,0,L|195:295,1,83.9999974365235,2|0,1:2|0:0,0:0:0:0:
340,222,135337,1,8,0:0:0:0:
283,56,135546,1,0,1:2:0:0:
283,56,135651,1,0,0:0:0:0:
283,56,135756,2,0,P|252:121|246:165,1,83.9999974365235,2|10,0:3|0:0,0:0:0:0:
256,144,136071,1,2,0:0:0:0:
262,158,136176,1,2,1:2:0:0:
496,245,136385,1,10,0:0:0:0:
475,292,136490,1,8,0:0:0:0:
451,335,136595,2,0,P|386:304|342:298,1,83.9999974365235,10|0,0:0|1:2,0:0:0:0:
146,274,136910,1,0,0:0:0:0:
146,274,137015,6,0,P|211:243|255:237,1,83.9999974365235,2|8,0:3|0:0,0:0:0:0:
391,42,137434,2,0,L|379:136,1,83.9999974365235,0|10,1:2|0:0,0:0:0:0:
498,40,137853,1,2,1:2:0:0:
439,256,138063,1,10,0:0:0:0:
439,256,138168,1,8,0:0:0:0:
439,256,138273,6,0,P|386:219|266:239,1,167.999994873047,2|8,1:2|0:0,0:0:0:0:
220,112,138902,1,2,1:2:0:0:
63,306,139112,2,0,P|116:269|236:289,1,167.999994873047,2|0,0:3|1:2,0:0:0:0:
466,346,139741,1,10,0:0:0:0:
466,346,139846,1,8,0:0:0:0:
466,346,139951,2,0,B|460:327|441:276,1,41.9999987182618,10|0,0:0|0:0,0:0:0:0:
466,346,140160,2,0,P|420:345|289:335,1,167.999994873047,0|8,1:2|0:0,0:0:0:0:
140,147,140790,6,0,L|155:183,3,27.9999991455078,0|0|0|0,1:2|3:0|3:0|0:0,0:0:0:0:
279,85,141209,1,0,1:2:0:0:
15,243,141419,1,8,0:0:0:0:
15,243,141524,1,8,0:0:0:0:
15,243,141629,6,0,L|31:92,1,140,6|8,1:2|0:0,0:0:0:0:
193,260,142258,2,0,L|270:249,1,70,2|0,1:2|0:0,0:0:0:0:
323,133,142677,1,10,0:0:0:0:
236,37,142887,1,2,1:2:0:0:
382,27,143097,5,8,0:0:0:0:
382,27,143202,1,8,0:0:0:0:
382,27,143306,1,10,0:0:0:0:
263,251,143516,2,0,P|346:267|411:231,1,140,0|8,1:2|0:0,0:0:0:0:
487,0,144145,2,0,P|472:44|484:92,1,70,0|10,1:2|0:0,0:0:0:0:
474,66,144565,2,0,P|489:110|477:158,1,70,2|8,1:2|0:0,0:0:0:0:
472,145,144879,1,8,0:0:0:0:
465,164,144984,5,2,1:2:0:0:
366,311,145194,2,0,P|383:259|400:239,1,70,0|8,0:0|0:0,0:0:0:0:
478,307,145613,1,0,1:2:0:0:
277,310,145823,5,0,0:0:0:0:
196,335,146033,1,8,0:0:0:0:
63,202,146243,1,0,1:2:0:0:
145,232,146453,1,8,0:0:0:0:
157,217,146557,1,8,0:0:0:0:
170,202,146662,5,8,0:0:0:0:
257,36,146872,1,0,1:2:0:0:
55,57,147081,1,8,0:0:0:0:
55,57,147291,1,8,0:0:0:0:
317,275,147501,5,2,1:2:0:0:
209,111,147711,1,8,0:0:0:0:
344,124,147920,1,0,1:2:0:0:
489,144,148130,1,8,0:0:0:0:
489,144,148235,1,8,0:0:0:0:
489,144,148340,6,0,P|529:90|500:11,1,140,2|8,1:2|0:0,0:0:0:0:
293,190,148969,2,0,P|253:244|282:323,1,140,0|8,1:2|0:0,0:0:0:0:
377,247,149598,1,0,0:0:0:0:
506,318,149808,1,10,0:0:0:0:
506,318,149913,1,8,0:0:0:0:
506,318,150018,2,0,P|511:273|513:256,1,35,10|0,0:0|0:0,0:0:0:0:
484,260,150227,6,0,P|500:325|460:380,1,140,0|8,1:0|0:0,0:0:0:0:
256,298,150857,2,0,P|244:250|248:218,1,70,2|8,1:2|0:0,0:0:0:0:
245,230,151276,2,0,P|257:181|253:149,1,70,0|10,1:0|0:0,0:0:0:0:
234,138,151591,1,8,0:0:0:0:
192,126,151695,5,2,1:2:0:0:
43,187,151905,1,0,0:0:0:0:
43,187,152115,1,8,0:0:0:0:
0,107,152325,5,2,1:2:0:0:
211,34,152535,1,0,0:0:0:0:
211,34,152745,1,8,0:0:0:0:
89,6,152954,5,2,1:2:0:0:
123,259,153164,1,8,0:0:0:0:
123,259,153268,1,8,0:0:0:0:
123,259,153373,1,8,0:0:0:0:
226,133,153583,2,0,L|368:154,1,140,0|8,1:2|0:0,0:0:0:0:
474,374,154212,2,0,L|449:274,1,70,0|8,1:2|0:0,0:0:0:0:
474,239,154632,2,0,L|457:306,1,70,0|8,1:2|0:0,0:0:0:0:
401,301,154946,1,8,0:0:0:0:
340,290,155051,6,0,L|305:116,1,154.000004699707,6|8,1:2|0:0,0:0:0:0:
69,8,155680,2,0,L|51:82,1,77.0000023498536,2|0,1:2|0:0,0:0:0:0:
89,247,156100,1,10,0:0:0:0:
251,304,156309,2,0,L|233:230,1,77.0000023498536,2|8,1:2|0:0,0:0:0:0:
193,188,156624,1,8,0:0:0:0:
142,181,156729,1,10,0:0:0:0:
22,356,156939,6,0,P|126:362|161:304,1,154.000004699707,0|0,1:2|0:0,0:0:0:0:
339,378,157568,2,0,P|376:369|408:335,1,77.0000023498536,0|10,1:2|0:0,0:0:0:0:
469,379,157987,2,0,P|431:369|404:343,1,77.0000023498536,2|8,1:2|0:0,0:0:0:0:
423,256,158302,1,8,0:0:0:0:
423,256,158407,6,0,P|445:191|432:95,1,154.000004699707,2|8,1:2|0:0,0:0:0:0:
316,10,159036,1,0,1:2:0:0:
436,107,159246,1,0,0:0:0:0:
235,99,159455,1,8,0:0:0:0:
262,257,159665,6,0,L|168:246,1,77.0000023498536,0|8,1:2|0:0,0:0:0:0:
176,237,159980,1,8,0:0:0:0:
167,224,160085,1,8,0:0:0:0:
71,321,160294,1,0,1:2:0:0:
4,212,160504,1,8,0:0:0:0:
96,113,160714,1,8,0:0:0:0:
227,173,160923,6,0,L|238:79,1,77.0000023498536,2|8,1:2|0:0,0:0:0:0:
83,308,161343,2,0,L|72:402,1,77.0000023498536,0|8,1:2|0:0,0:0:0:0:
196,286,161658,1,8,0:0:0:0:
196,286,161762,6,0,P|274:258|369:282,1,154.000004699707,2|0,1:2|0:0,0:0:0:0:
512,343,162392,2,0,P|434:371|339:347,1,154.000004699707,0|0,1:2|0:0,0:0:0:0:
298,176,163021,1,0,0:0:0:0:
440,261,163230,1,10,0:0:0:0:
440,261,163335,1,8,0:0:0:0:
440,261,163440,1,10,0:0:0:0:
325,112,163650,6,0,P|268:148|249:251,1,154.000004699707,0|8,1:2|0:0,0:0:0:0:
85,378,164279,2,0,P|142:342|159:307,1,77.0000023498536,2|0,1:2|0:0,0:0:0:0:
225,304,164594,2,0,P|260:318|295:335,1,77.0000023498536,2|0,0:0|0:0,0:0:0:0:
364,384,164908,2,0,P|387:378|428:370,1,38.5000011749268,10|8,0:0|0:0,0:0:0:0:
490,352,165118,6,0,P|525:284|493:193,1,154.000004699707,2|8,1:2|0:0,0:0:0:0:
269,54,165747,2,0,P|234:122|266:213,1,154.000004699707,0|8,1:2|0:0,0:0:0:0:
0,384,166376,2,0,P|35:316|3:225,1,154.000004699707,0|8,1:2|0:0,0:0:0:0:
54,8,167006,2,0,P|19:76|26:103,1,77.0000023498536,2|8,1:2|0:0,0:0:0:0:
86,136,167425,1,10,0:0:0:0:
180,156,167635,1,2,1:2:0:0:
189,151,167705,1,0,0:0:0:0:
199,144,167775,1,0,0:0:0:0:
209,136,167844,1,10,0:0:0:0:
276,31,168054,2,0,L|289:78,4,25.6666674499512,0|0|0|10|2,0:0|0:0|0:0|0:0|0:0,0:0:0:0:
324,266,168474,6,0,L|304:165,1,83.9999974365235,6|8,1:2|0:0,0:0:0:0:
154,50,168893,1,8,0:0:0:0:
396,16,169103,1,2,1:2:0:0:
396,16,169208,1,0,0:0:0:0:
396,16,169313,1,8,0:0:0:0:
503,97,169522,1,8,0:0:0:0:
494,122,169627,1,0,0:0:0:0:
487,146,169732,1,2,1:2:0:0:
346,216,169942,1,8,0:0:0:0:
378,255,170047,1,8,0:0:0:0:
433,267,170151,5,8,0:0:0:0:
501,384,170361,2,0,P|398:352|334:373,1,167.999994873047,2|8,1:2|0:0,0:0:0:0:
211,384,170990,2,0,P|223:372|248:362,3,27.9999991455078,2|0|0|8,1:2|3:0|3:0|0:0,0:0:0:0:
286,272,171410,2,0,P|249:246|197:252,1,83.9999974365235,2|8,1:2|0:0,0:0:0:0:
185,248,171724,1,8,0:0:0:0:
166,237,171829,6,0,P|154:198|249:83,1,167.999994873047,2|8,1:2|0:0,0:0:0:0:
320,1,172458,1,2,1:2:0:0:
384,122,172668,1,8,0:0:0:0:
503,28,172878,1,8,0:0:0:0:
480,178,173088,5,2,1:2:0:0:
405,252,173298,1,8,0:0:0:0:
405,252,173402,1,8,0:0:0:0:
405,252,173507,1,8,0:0:0:0:
462,342,173717,1,2,1:2:0:0:
369,379,173927,2,0,L|318:368,2,41.9999987182618,8|8|8,0:0|0:0|0:0,0:0:0:0:
276,270,174346,5,2,1:2:0:0:
268,272,174416,1,0,3:0:0:0:
260,275,174486,1,0,3:0:0:0:
250,278,174556,1,8,0:0:0:0:
162,329,174765,1,2,1:2:0:0:
84,273,174975,1,8,0:0:0:0:
73,223,175080,1,8,0:0:0:0:
65,174,175185,6,0,L|238:148,1,167.999994873047,2|8,1:2|0:0,0:0:0:0:
312,79,175814,1,2,1:2:0:0:
296,73,175919,1,0,0:0:0:0:
284,67,176024,1,8,0:0:0:0:
204,13,176234,1,8,0:0:0:0:
142,90,176443,1,2,1:2:0:0:
65,34,176653,1,8,0:0:0:0:
47,83,176758,1,8,0:0:0:0:
32,132,176863,6,0,L|49:223,1,83.9999974365235,8|2,0:0|1:2,0:0:0:0:
143,263,177282,1,8,0:0:0:0:
53,377,177492,1,8,0:0:0:0:
143,263,177702,1,2,1:2:0:0:
248,377,177911,1,8,0:2:0:0:
143,263,178121,1,2,1:2:0:0:
229,153,178331,1,8,0:0:0:0:
236,166,178436,1,0,0:0:0:0:
247,179,178541,6,0,P|276:204|350:199,1,83.9999974365235,2|8,1:2|0:0,0:0:0:0:
366,82,178960,1,8,0:0:0:0:
431,36,179170,6,0,P|394:48|362:115,1,83.9999974365235,2|8,1:2|0:0,0:0:0:0:
448,198,179589,1,8,0:0:0:0:
457,277,179799,6,0,P|464:239|422:177,1,83.9999974365235,2|8,1:2|0:0,0:0:0:0:
374,162,180114,1,8,0:0:0:0:
374,162,180218,1,8,0:0:0:0:
279,111,180428,1,2,1:2:0:0:
168,61,180638,5,8,0:0:0:0:
168,61,180743,1,0,0:0:0:0:
168,61,180848,1,8,0:0:0:0:
219,281,181057,2,0,L|234:327,3,27.9999991455078,2|0|0|8,1:2|3:0|3:0|0:0,0:0:0:0:
332,316,181477,1,2,1:2:0:0:
140,368,181686,1,8,0:0:0:0:
140,368,181791,1,8,0:0:0:0:
140,368,181896,2,0,P|125:285|210:183,1,195.999994018555,6|8,1:2|0:0,0:0:0:0:
227,94,182525,5,2,1:2:0:0:
306,212,182735,1,8,0:0:0:0:
398,234,182945,5,10,0:0:0:0:
512,154,183155,1,2,1:2:0:0:
425,50,183364,1,10,0:0:0:0:
425,50,183469,1,8,0:0:0:0:
425,50,183574,2,0,P|430:98|396:138,1,97.9999970092774,8|2,0:0|1:2,0:0:0:0:
165,102,183993,1,8,0:0:0:0:
326,69,184203,1,8,0:0:0:0:
475,248,184413,5,2,1:2:0:0:
470,240,184483,1,0,3:0:0:0:
464,234,184553,1,0,3:0:0:0:
459,226,184623,1,8,0:0:0:0:
204,276,184832,1,2,1:2:0:0:
317,201,185042,1,10,0:0:0:0:
317,201,185147,1,8,0:0:0:0:
317,201,185252,6,0,P|346:274|270:377,1,195.999994018555,2|8,1:2|0:0,0:0:0:0:
96,238,185881,2,0,P|125:311|109:354,1,97.9999970092774,2|8,1:2|0:0,0:0:0:0:
21,334,186300,1,8,0:0:0:0:
130,131,186510,1,0,1:2:0:0:
41,175,186720,1,10,0:0:0:0:
41,175,186825,1,8,0:0:0:0:
41,175,186930,6,0,L|56:51,1,97.9999970092774,8|2,0:0|1:2,0:0:0:0:
98,49,187244,1,0,0:0:0:0:
145,18,187349,1,8,0:0:0:0:
212,175,187559,1,8,0:0:0:0:
314,42,187769,2,0,L|324:1,3,32.6666656697591,2|0|0|10,1:2|3:0|3:0|0:0,0:0:0:0:
404,115,188188,1,2,1:2:0:0:
204,79,188398,1,10,0:0:0:0:
204,78,188503,1,8,0:0:0:0:
204,79,188607,6,0,P|178:160|230:273,1,195.999994018555,2|8,1:2|0:0,0:0:0:0:
512,222,189237,2,0,P|454:219|392:247,1,97.9999970092774,2|8,1:2|0:0,0:0:0:0:
345,375,189656,1,10,0:0:0:0:
216,259,189866,6,0,P|168:255|121:269,1,97.9999970092774,2|10,1:2|0:0,0:0:0:0:
80,345,190180,1,8,0:0:0:0:
80,345,190285,1,8,0:0:0:0:
9,75,190495,1,2,1:2:0:0:
79,181,190705,1,8,0:0:0:0:
206,112,190914,1,8,0:0:0:0:
274,252,191124,5,2,1:2:0:0:
274,252,191194,1,0,0:0:0:0:
274,252,191264,1,0,0:0:0:0:
274,252,191334,1,8,0:0:0:0:
82,81,191544,1,2,1:2:0:0:
254,15,191753,1,8,0:0:0:0:
245,25,191858,1,8,0:0:0:0:
233,39,191963,6,0,P|235:103|269:157,2,97.9999970092774,2|8|8,1:2|0:0|0:0,0:0:0:0:
427,162,192592,2,0,P|363:164|309:198,1,97.9999970092774,2|10,1:2|0:0,0:0:0:0:
274,252,193012,1,8,0:0:0:0:
175,240,193221,1,2,1:2:0:0:
127,330,193431,1,10,0:0:0:0:
127,330,193536,1,8,0:0:0:0:
127,330,193641,2,0,L|192:345,1,48.9999985046387,8|0,0:0|0:0,0:0:0:0:
390,356,193851,6,0,P|313:360|274:396,1,97.9999970092774,2|8,1:2|0:0,0:0:0:0:
297,370,194270,1,8,0:0:0:0:
241,165,194480,2,0,L|273:159,3,32.6666656697591,0|0|0|0,1:2|0:0|0:0|0:0,0:0:0:0:
136,224,194798,1,2,0:0:0:0:
136,224,194907,2,0,P|132:147|115:123,1,97.9999970092774,2|10,0:0|0:0,0:0:0:0:
85,98,195233,1,0,0:0:0:0:
92,41,195342,5,2,1:2:0:0:
443,156,195967,1,0,0:0:0:0:
443,156,196208,1,2,1:2:0:0:
459,265,198918,5,6,1:2:0:0:
89,340,199127,2,0,L|225:316,1,105.000004005432,8|8,0:0|0:0,0:0:0:0:
381,179,199547,1,2,1:2:0:0:
1,251,199756,2,0,L|137:227,1,105.000004005432,8|8,0:0|0:0,0:0:0:0:
145,105,200176,5,2,1:2:0:0:
404,69,200386,1,8,0:0:0:0:
404,69,200490,1,8,0:0:0:0:
404,69,200595,1,8,0:0:0:0:
407,286,200805,5,2,1:2:0:0:
274,85,201015,1,8,0:0:0:0:
274,85,201225,1,8,0:0:0:0:
188,307,201434,5,2,1:2:0:0:
346,218,201644,1,8,0:0:0:0:
349,376,201854,1,2,1:2:0:0:
507,287,202064,1,8,0:0:0:0:
507,287,202168,1,8,0:0:0:0:
507,287,202273,5,2,1:2:0:0:
409,72,202483,1,8,0:0:0:0:
409,72,202588,1,0,0:0:0:0:
409,72,202693,1,8,0:0:0:0:
314,302,202902,5,2,1:2:0:0:
216,87,203112,1,8,0:0:0:0:
216,87,203217,1,0,0:0:0:0:
216,87,203322,1,8,0:0:0:0:
121,317,203531,5,2,1:2:0:0:
22,103,203741,1,8,0:0:0:0:
22,103,203846,1,8,0:0:0:0:
22,103,203951,1,8,0:0:0:0:
187,7,204161,5,2,1:2:0:0:
269,231,204370,1,8,0:0:0:0:
269,231,204580,1,8,0:0:0:0:
153,365,204790,6,0,P|145:315|161:246,1,105.000004005432,2|8,1:2|0:0,0:0:0:0:
372,10,205209,2,0,P|380:60|364:129,1,105.000004005432,2|8,1:2|0:0,0:0:0:0:
512,384,205629,5,6,0:2:0:0:
