osu file format v14

[General]
AudioFilename: audio.mp3
AudioLeadIn: 0
PreviewTime: 4
Countdown: 0
SampleSet: Soft
StackLeniency: 0.7
Mode: 0
LetterboxInBreaks: 0
WidescreenStoryboard: 0

[Editor]
Bookmarks: 20844,47697,61123,74550,87976,101403,114782,128208,141635,155061,168488,181914,198911,205624
DistanceSpacing: 1.3
BeatDivisor: 12
GridSize: 8
TimelineZoom: 1.6

[Metadata]
Title:Kaikou
TitleUnicode:邂逅
Artist:Hierograph
ArtistUnicode:ひえろぐらふ
Creator:Halfslashed
Version:Extra Stage
Source:東方風神録 ~ Mountain of Faith.
Tags:co2021 ro16 fm1 th10 touhou fuujinroku the gensokyo gods loved 神々が恋した幻想郷 Nitori Kawashiro 河城 にとり 悠久フォークロア -eternity folklore- lewski nightlys maid video game instrumental folk xiehou nyo. aqua style にょ。 東方Project kamigami ga koishita gensokyo wind god chronicles team shanghai alice zun encounter aquastyle
BeatmapID:3181379
BeatmapSetID:1557334

[Difficulty]
HPDrainRate:3.8
CircleSize:3.8
OverallDifficulty:8.8
ApproachRate:8.8
SliderMultiplier:2
SliderTickRate:1

[Events]
//Background and Video events
0,0,"touhou-1610995265516-9333.jpg",0,0
//Break Periods
2,101581,113947
//Storyboard Layer 0 (Background)
//Storyboard Layer 1 (Fail)
//Storyboard Layer 2 (Pass)
//Storyboard Layer 3 (Foreground)
//Storyboard Layer 4 (Overlay)
//Storyboard Sound Samples

[TimingPoints]
1043,638.297872340426,4,2,1,50,1,0
16362,789.473684210526,4,2,1,50,1,0
17940,1153.84615384615,4,2,1,50,1,0
19670,2352.94117647059,4,2,1,50,1,0
20846,419.454289968751,4,2,1,80,1,0
20846,-83.3333333333333,4,2,1,50,0,1
47691,-100,4,2,1,50,0,0
87978,-90.9090909090909,4,2,1,60,0,0
101396,416.666666666667,4,2,1,50,1,0
101396,-200,4,2,1,50,0,0
108071,422.535211267606,4,2,1,50,1,0
108071,-200,4,2,1,50,0,0
111451,416.666666666667,4,2,1,50,1,0
111451,-200,4,2,1,50,0,0
114784,419.454289968751,4,2,1,60,1,0
114784,-100,4,2,1,60,0,0
128206,-83.3333333333333,4,2,1,70,0,1
141629,-100,4,2,1,50,0,0
155051,-90.9090909090909,4,2,1,60,0,0
168474,-83.3333333333333,4,2,1,70,0,0
181896,-71.4285714285714,4,2,1,80,0,1
194690,434.782608695652,4,2,1,50,1,1
195342,833.333333333333,4,2,1,60,1,0
195967,967.741935483871,4,2,1,60,1,0
196208,1153.84615384615,4,2,1,70,1,0
196496,1538.46153846154,4,2,1,70,1,0
196880,-100,4,2,1,5,0,0
197072,1846.15384615385,4,2,1,75,1,0
197533,-100,4,2,1,5,0,0
198918,419.454289968751,4,2,1,90,1,1
198918,-66.6666666666667,4,2,1,90,0,1
205629,-66.6666666666667,4,2,1,50,0,0
205734,-66.6666666666667,4,2,1,30,0,0
208984,-66.6666666666667,4,2,1,5,0,0

[Colours]
Combo1 : 255,142,17
Combo2 : 250,237,1

[HitObjects]
63,322,20846,5,2,1:2:0:0:
138,94,21055,1,8,0:0:0:0:
149,55,21265,1,8,0:0:0:0:
190,384,21475,1,2,1:2:0:0:
83,154,21684,1,8,0:0:0:0:
61,119,21894,1,8,0:0:0:0:
28,384,22104,1,2,1:2:0:0:
267,337,22314,1,8,0:0:0:0:
320,349,22418,1,8,0:0:0:0:
371,362,22523,1,8,0:0:0:0:
189,19,22733,5,2,1:2:0:0:
189,19,22943,1,8,0:0:0:0:
170,70,23048,1,8,0:0:0:0:
151,121,23152,1,8,0:0:0:0:
58,217,23362,5,2,1:2:0:0:
195,280,23572,1,0,1:2:0:0:
372,79,23782,1,2,1:2:0:0:
512,23,23991,1,8,0:0:0:0:
440,50,24096,1,8,0:0:0:0:
372,79,24201,5,2,1:2:0:0:
424,224,24411,1,8,0:0:0:0:
437,132,24621,1,8,0:0:0:0:
105,72,24830,1,2,1:2:0:0:
273,33,25040,1,8,0:0:0:0:
202,102,25250,1,8,0:0:0:0:
368,337,25459,1,2,1:2:0:0:
313,167,25669,1,8,0:0:0:0:
297,218,25774,1,8,0:0:0:0:
280,269,25879,1,8,0:0:0:0:
0,209,26089,5,2,1:2:0:0:
0,209,26298,1,8,0:0:0:0:
54,214,26403,1,8,0:0:0:0:
108,220,26508,1,8,0:0:0:0:
385,131,26718,5,2,1:2:0:0:
306,0,26928,1,8,0:0:0:0:
230,239,27137,5,2,1:2:0:0:
151,370,27347,1,8,0:0:0:0:
190,306,27452,1,8,0:0:0:0:
230,239,27557,5,2,1:2:0:0:
471,361,27766,1,8,0:0:0:0:
512,384,27976,1,8,0:0:0:0:
512,143,28186,1,2,1:2:0:0:
234,200,28396,1,8,0:0:0:0:
189,214,28605,1,8,0:0:0:0:
59,0,28815,1,2,1:2:0:0:
282,59,29025,1,8,0:0:0:0:
334,74,29130,1,8,0:0:0:0:
387,86,29235,1,8,0:0:0:0:
47,244,29444,5,2,1:2:0:0:
47,244,29654,1,8,0:0:0:0:
35,192,29759,1,8,0:0:0:0:
24,140,29864,1,8,0:0:0:0:
66,361,30073,5,2,1:2:0:0:
219,384,30283,1,8,0:2:0:0:
473,207,30493,1,2,1:2:0:0:
492,51,30703,1,8,0:0:0:0:
482,129,30808,1,8,0:0:0:0:
473,207,30912,5,2,1:2:0:0:
506,366,31123,1,8,0:0:0:0:
425,293,31332,1,8,0:0:0:0:
188,81,31542,1,2,1:2:0:0:
347,48,31751,1,8,0:0:0:0:
261,0,31961,1,8,0:0:0:0:
189,289,32171,1,2,1:2:0:0:
344,339,32380,1,8,0:0:0:0:
293,357,32485,1,8,0:0:0:0:
241,374,32590,1,8,0:0:0:0:
0,384,32800,5,2,1:2:0:0:
0,384,33010,1,8,0:0:0:0:
29,338,33115,1,8,0:0:0:0:
57,291,33219,1,8,0:0:0:0:
0,83,33429,5,2,1:2:0:0:
98,119,33639,1,8,0:0:0:0:
51,101,33744,1,0,0:0:0:0:
0,83,33849,1,2,1:2:0:0:
376,19,34058,1,8,0:0:0:0:
452,0,34163,1,8,0:0:0:0:
430,74,34268,5,6,1:2:0:0:
370,330,34478,1,8,0:0:0:0:
491,384,34687,1,8,0:0:0:0:
507,57,34897,1,2,1:2:0:0:
253,140,35107,1,8,0:0:0:0:
169,37,35317,1,8,0:0:0:0:
2,245,35526,1,2,1:2:0:0:
256,305,35736,1,8,0:0:0:0:
293,344,35841,1,8,0:0:0:0:
329,383,35946,1,8,0:0:0:0:
58,148,36156,5,2,1:2:0:0:
58,148,36365,1,8,0:0:0:0:
31,75,36470,1,8,0:0:0:0:
9,0,36575,1,8,0:0:0:0:
30,276,36785,5,2,1:2:0:0:
27,287,36855,1,0,3:0:0:0:
25,299,36925,1,0,3:0:0:0:
22,311,36994,1,0,1:2:0:0:
5,384,37204,1,2,1:2:0:0:
239,124,37414,1,8,0:0:0:0:
293,67,37519,1,8,0:0:0:0:
314,142,37624,5,2,1:2:0:0:
0,206,37833,1,8,0:0:0:0:
76,188,38043,1,8,0:0:0:0:
337,380,38253,1,2,1:2:0:0:
23,316,38463,1,8,0:0:0:0:
96,336,38672,1,8,0:0:0:0:
290,57,38882,1,2,1:2:0:0:
495,239,39092,1,8,0:0:0:0:
457,201,39197,1,8,0:0:0:0:
419,164,39301,1,8,0:0:0:0:
155,267,39511,5,2,1:2:0:0:
155,267,39721,1,8,0:0:0:0:
173,191,39826,1,8,0:0:0:0:
190,116,39931,1,8,0:0:0:0:
461,347,40139,5,2,1:2:0:0:
449,349,40210,1,0,3:0:0:0:
437,351,40280,1,0,3:0:0:0:
425,354,40350,1,8,0:0:0:0:
352,366,40560,1,2,1:2:0:0:
88,192,40770,1,8,0:0:0:0:
23,150,40874,1,8,0:0:0:0:
19,226,40979,5,2,1:2:0:0:
276,346,41189,1,8,0:0:0:0:
409,313,41399,1,8,0:0:0:0:
162,0,41608,1,2,1:2:0:0:
186,282,41818,1,8,0:0:0:0:
281,381,42028,1,8,0:0:0:0:
512,130,42238,1,2,1:2:0:0:
296,177,42447,1,8,0:0:0:0:
245,156,42552,1,8,0:0:0:0:
194,135,42657,1,8,0:0:0:0:
9,372,42867,5,2,1:2:0:0:
9,372,43077,1,8,0:0:0:0:
86,361,43181,1,8,0:0:0:0:
164,351,43286,1,8,0:0:0:0:
164,351,43496,1,2,1:2:0:0:
39,146,43706,6,0,L|-4:137,2,39.9999987792969,8|0|0,0:2|3:0|3:0,0:0:0:0:
61,151,43915,1,2,1:2:0:0:
281,17,44125,1,8,0:0:0:0:
204,7,44230,1,8,0:0:0:0:
233,78,44335,5,2,1:2:0:0:
332,376,44545,1,8,0:0:0:0:
306,302,44754,1,8,0:0:0:0:
481,53,44964,1,2,1:2:0:0:
235,264,45174,1,8,0:0:0:0:
291,211,45384,1,8,0:0:0:0:
512,357,45593,1,2,1:2:0:0:
325,135,45803,1,8,0:0:0:0:
357,177,45908,1,8,0:0:0:0:
391,220,46013,1,8,0:0:0:0:
264,0,46222,5,2,1:2:0:0:
264,0,46432,1,8,0:0:0:0:
251,74,46537,1,8,0:0:0:0:
240,150,46642,1,8,0:0:0:0:
16,356,46852,5,2,1:2:0:0:
27,358,46922,1,0,3:0:0:0:
39,360,46991,1,0,3:0:0:0:
51,363,47061,2,0,L|122:380,1,59.9999981689454,8|0,0:0|0:0,0:0:0:0:
145,381,47271,1,2,1:2:0:0:
222,247,47481,1,8,0:0:0:0:
127,268,47586,1,8,0:0:0:0:
45,219,47691,6,0,P|67:164|62:15,1,200,6|8,1:0|0:0,0:0:0:0:
0,316,48320,1,2,1:2:0:0:
17,363,48425,1,0,0:0:0:0:
67,358,48529,1,2,0:0:0:0:
159,298,48739,1,8,0:0:0:0:
187,316,48949,1,2,1:2:0:0:
455,379,49159,1,8,0:0:0:0:
455,379,49264,1,8,0:0:0:0:
455,379,49368,1,10,0:0:0:0:
455,379,49578,6,0,P|407:342|294:312,1,150,0|0,1:2|0:0,0:0:0:0:
322,313,49998,1,8,0:0:0:0:
411,28,50207,1,0,1:2:0:0:
505,273,50417,5,10,0:0:0:0:
359,181,50627,1,0,1:2:0:0:
148,295,50836,2,0,L|107:255,1,50,10|0,0:0|0:0,0:0:0:0:
44,191,51046,6,0,P|66:245|61:394,1,200,2|8,1:2|0:0,0:0:0:0:
14,66,51675,1,0,1:2:0:0:
8,0,51780,1,0,0:0:0:0:
66,28,51885,1,0,0:0:0:0:
163,112,52095,2,0,P|167:143|162:170,3,33.3333333333333,8|0|0|0,0:0|0:0|0:0|1:2,0:0:0:0:
156,179,52514,1,8,0:0:0:0:
183,125,52619,1,8,0:0:0:0:
214,74,52724,1,8,0:0:0:0:
214,74,52934,6,0,L|398:-12,1,200,0|8,1:2|0:0,0:0:0:0:
100,72,53563,1,0,1:2:0:0:
21,23,53773,1,8,0:0:0:0:
147,277,53982,1,0,1:2:0:0:
66,366,54192,1,8,0:0:0:0:
109,324,54297,1,8,0:0:0:0:
147,277,54402,6,0,P|93:254|-8:146,1,200,2|8,1:2|0:0,0:0:0:0:
310,278,55031,1,2,1:2:0:0:
346,313,55136,1,0,0:0:0:0:
335,362,55241,1,2,0:0:0:0:
231,382,55450,1,8,0:0:0:0:
249,354,55660,1,2,1:2:0:0:
301,132,55870,1,8,0:0:0:0:
301,132,55975,1,8,0:0:0:0:
301,132,56080,1,10,0:0:0:0:
301,132,56289,6,0,P|314:68|275:-11,1,150,0|0,1:2|0:0,0:0:0:0:
437,0,56709,2,0,P|385:40|331:40,1,100,10|0,0:0|1:2,0:0:0:0:
238,0,57128,1,10,0:0:0:0:
59,35,57338,1,0,1:2:0:0:
11,252,57548,2,0,L|46:314,1,50,10|0,0:0|0:0,0:0:0:0:
299,383,57757,6,0,P|337:313|463:261,1,200,2|8,1:2|0:0,0:0:0:0:
173,119,58387,1,0,1:2:0:0:
177,178,58492,1,0,0:0:0:0:
123,151,58596,1,0,0:0:0:0:
104,66,58806,2,0,L|113:22,3,33.3333333333333,8|0|0|0,0:0|0:0|0:0|1:2,0:0:0:0:
186,13,59226,1,8,0:0:0:0:
186,13,59330,1,8,0:0:0:0:
186,13,59435,1,8,0:0:0:0:
186,13,59645,6,0,L|155:215,1,200,0|8,1:2|0:0,0:0:0:0:
0,253,60274,1,0,1:2:0:0:
302,75,60484,1,10,0:0:0:0:
351,62,60589,1,2,0:0:0:0:
399,80,60694,1,2,1:2:0:0:
432,6,60903,1,10,0:0:0:0:
423,80,61008,1,8,0:0:0:0:
417,155,61113,6,0,P|428:212|519:330,1,200,6|8,1:2|0:0,0:0:0:0:
249,384,61742,2,0,P|238:327|160:226,1,150,0|0,1:2|0:0,0:0:0:0:
189,250,62162,1,10,0:0:0:0:
6,26,62371,1,0,1:2:0:0:
62,80,62581,1,10,0:0:0:0:
122,32,62686,1,8,0:0:0:0:
201,31,62791,1,10,0:0:0:0:
201,31,63001,6,0,P|190:88|112:189,1,150,0|0,1:2|0:0,0:0:0:0:
141,165,63420,1,8,0:0:0:0:
1,310,63630,1,0,1:2:0:0:
129,283,63840,1,10,0:0:0:0:
374,370,64049,1,2,1:2:0:0:
493,279,64259,1,8,0:0:0:0:
433,323,64364,1,8,0:0:0:0:
374,370,64469,6,0,P|317:359|199:268,1,200,2|8,1:2|0:0,0:0:0:0:
460,146,65098,2,0,P|455:88|507:-37,1,150,0|0,1:2|0:0,0:0:0:0:
482,1,65517,1,10,0:0:0:0:
352,111,65727,1,2,1:2:0:0:
164,153,65937,1,8,0:0:0:0:
206,126,66042,1,8,0:0:0:0:
252,149,66147,2,0,L|276:80,1,50,10|0,0:0|0:0,0:0:0:0:
249,55,66356,2,0,P|193:19|175:-30,1,100,0|0,1:2|0:0,0:0:0:0:
0,74,66776,1,8,0:0:0:0:
96,374,66985,5,0,1:2:0:0:
135,246,67195,1,10,0:0:0:0:
388,173,67405,1,2,1:2:0:0:
437,31,67615,1,10,0:0:0:0:
413,102,67720,1,8,0:0:0:0:
388,173,67824,6,0,P|339:140|192:121,1,200,2|8,1:2|0:0,0:0:0:0:
0,309,68454,2,0,P|44:339|183:357,1,150,0|0,1:2|0:0,0:0:0:0:
137,361,68873,1,10,0:0:0:0:
442,166,69083,1,2,1:2:0:0:
390,230,69292,1,8,0:0:0:0:
417,301,69397,1,8,0:0:0:0:
453,372,69502,1,10,0:0:0:0:
453,372,69712,6,0,P|483:327|501:188,1,150,0|0,1:2|0:0,0:0:0:0:
506,235,70131,1,8,0:0:0:0:
218,257,70341,1,0,1:2:0:0:
143,142,70551,1,10,0:0:0:0:
425,20,70761,1,0,1:2:0:0:
397,167,70970,1,10,0:0:0:0:
411,94,71075,1,8,0:0:0:0:
425,20,71180,6,0,P|370:1|222:20,1,200,2|8,1:2|0:0,0:0:0:0:
145,252,71809,1,2,1:2:0:0:
0,95,72019,2,0,P|57:90|195:148,1,200,2|0,0:0|1:2,0:0:0:0:
225,381,72648,1,10,0:0:0:0:
259,314,72753,1,8,0:0:0:0:
228,247,72858,1,10,0:0:0:0:
228,247,73068,6,0,P|260:314|314:365,1,150,0|0,1:2|0:0,0:0:0:0:
314,365,73487,1,8,0:0:0:0:
477,78,73697,1,0,1:2:0:0:
512,10,73906,1,8,0:0:0:0:
323,331,74116,1,0,1:2:0:0:
438,285,74326,1,8,0:0:0:0:
512,266,74431,1,8,0:0:0:0:
492,342,74536,6,0,P|461:293|305:234,1,200,6|8,1:2|0:0,0:0:0:0:
107,292,75165,2,0,P|58:261|4:143,1,150,2|0,1:2|0:0,0:0:0:0:
13,21,75584,1,10,0:0:0:0:
223,230,75794,1,2,1:2:0:0:
92,375,76004,1,8,0:0:0:0:
47,352,76109,1,8,0:0:0:0:
6,332,76213,1,10,0:0:0:0:
6,332,76423,5,0,1:2:0:0:
249,113,76633,2,0,P|264:55|257:-13,1,100,8|8,0:0|0:0,0:0:0:0:
16,59,77052,1,0,1:2:0:0:
94,64,77262,1,10,0:0:0:0:
456,238,77472,1,2,1:2:0:0:
456,238,77682,1,8,0:0:0:0:
379,226,77786,1,8,0:0:0:0:
305,216,77891,5,2,1:2:0:0:
501,54,78101,1,0,0:0:0:0:
507,15,78311,1,8,0:0:0:0:
196,140,78520,5,0,1:2:0:0:
397,302,78730,1,0,0:0:0:0:
403,341,78940,1,8,0:0:0:0:
355,62,79150,5,0,1:2:0:0:
174,313,79359,1,8,0:0:0:0:
127,332,79464,1,8,0:0:0:0:
82,353,79569,5,8,0:0:0:0:
13,150,79779,1,0,1:2:0:0:
1,230,79989,1,8,0:0:0:0:
112,49,80198,1,8,0:0:0:0:
499,121,80408,1,2,1:2:0:0:
340,231,80618,1,8,0:0:0:0:
262,223,80827,1,0,1:2:0:0:
154,111,81037,1,8,0:0:0:0:
112,49,81142,1,8,0:0:0:0:
187,43,81247,6,0,P|147:85|131:251,1,200,2|8,1:2|0:0,0:0:0:0:
253,349,81876,1,0,1:2:0:0:
0,384,82086,2,0,P|45:344|52:276,1,100,2|8,0:0|0:0,0:0:0:0:
30,233,82400,2,0,P|31:170|63:118,1,100,2|0,0:0|0:0,0:0:0:0:
215,17,82715,1,10,0:0:0:0:
211,67,82820,1,8,0:0:0:0:
240,108,82925,6,0,P|266:159|254:288,1,150,10|0,0:0|0:0,0:0:0:0:
186,384,83344,2,0,P|172:331|201:274,1,100,10|8,0:0|0:0,0:0:0:0:
313,379,83764,2,0,P|365:363|400:311,1,100,2|8,1:2|0:0,0:0:0:0:
494,340,84078,2,0,P|507:287|479:230,1,100,2|0,0:0|0:0,0:0:0:0:
502,69,84393,1,10,0:0:0:0:
470,30,84498,1,8,0:0:0:0:
422,16,84603,5,2,1:2:0:0:
123,30,84812,1,0,0:0:0:0:
97,3,85022,1,8,0:0:0:0:
0,191,85232,5,2,1:2:0:0:
277,225,85441,1,0,0:0:0:0:
303,198,85651,1,8,0:0:0:0:
422,375,85861,5,2,1:2:0:0:
164,384,86071,1,8,0:0:0:0:
121,358,86176,1,8,0:0:0:0:
78,332,86280,1,8,0:0:0:0:
231,56,86490,5,0,1:2:0:0:
164,384,86700,1,8,0:0:0:0:
179,310,86910,1,8,0:0:0:0:
509,377,87119,5,0,1:2:0:0:
477,250,87329,1,8,0:0:0:0:
146,151,87539,5,0,1:2:0:0:
107,279,87748,1,8,0:0:0:0:
87,351,87853,1,8,0:0:0:0:
34,299,87958,6,0,P|98:261|256:278,1,200,6|8,1:2|0:0,0:0:0:0:
512,136,88587,2,0,P|467:103|439:43,1,110.000003356934,2|0,1:2|0:0,0:0:0:0:
220,1,89007,1,10,0:0:0:0:
453,17,89217,1,2,1:2:0:0:
391,241,89426,1,8,0:0:0:0:
402,300,89531,1,8,0:0:0:0:
451,338,89636,1,10,0:0:0:0:
451,338,89846,5,0,1:2:0:0:
267,112,90055,2,0,P|226:160|217:222,1,110.000003356934,8|8,0:0|0:0,0:0:0:0:
301,364,90475,1,0,1:2:0:0:
170,322,90685,1,10,0:0:0:0:
0,76,90894,1,2,1:2:0:0:
118,16,91104,1,8,0:0:0:0:
98,88,91209,1,8,0:0:0:0:
79,160,91314,5,2,1:2:0:0:
15,384,91524,1,0,0:0:0:0:
25,350,91733,1,8,0:0:0:0:
210,135,91943,5,0,1:2:0:0:
511,187,92153,1,0,0:0:0:0:
474,180,92362,1,8,0:0:0:0:
154,16,92572,5,0,1:2:0:0:
206,267,92782,1,8,0:0:0:0:
221,325,92887,1,8,0:0:0:0:
236,384,92992,1,8,0:0:0:0:
508,101,93201,5,0,1:2:0:0:
349,127,93411,1,8,0:0:0:0:
210,0,93621,1,8,0:0:0:0:
124,271,93831,5,2,1:2:0:0:
1,329,94040,1,8,0:0:0:0:
213,28,94250,5,0,1:2:0:0:
336,86,94460,1,8,0:0:0:0:
258,91,94565,1,8,0:0:0:0:
290,22,94669,6,0,P|354:59|510:33,1,220.000006713867,2|8,1:2|0:0,0:0:0:0:
461,383,95299,1,0,1:2:0:0:
461,383,95508,2,0,P|458:298|432:272,1,110.000003356934,2|8,0:0|0:0,0:0:0:0:
313,222,95823,2,0,P|237:261|204:252,1,110.000003356934,2|0,0:0|0:0,0:0:0:0:
91,255,96138,1,10,0:0:0:0:
40,285,96242,1,8,0:0:0:0:
28,347,96347,1,10,0:0:0:0:
28,347,96557,6,0,L|10:223,1,110.000003356934,0|8,1:2|0:0,0:0:0:0:
1,5,96976,1,8,0:0:0:0:
1,5,97186,2,0,P|-9:66|13:124,1,110.000003356934,2|8,1:2|0:0,0:0:0:0:
113,101,97501,2,0,P|169:127|227:122,1,110.000003356934,2|0,0:0|0:0,0:0:0:0:
325,222,97815,1,10,0:0:0:0:
402,212,97920,1,8,0:0:0:0:
454,152,98025,5,2,1:2:0:0:
75,47,98235,1,0,0:0:0:0:
169,6,98445,1,8,0:0:0:0:
301,334,98654,5,0,1:2:0:0:
395,22,98864,1,0,0:0:0:0:
436,118,99074,1,8,0:0:0:0:
49,211,99283,5,0,1:2:0:0:
373,206,99493,1,8,0:0:0:0:
316,188,99598,1,8,0:0:0:0:
259,170,99703,1,8,0:0:0:0:
225,0,99913,5,2,1:2:0:0:
240,91,100122,1,8,0:0:0:0:
180,232,100332,1,10,0:0:0:0:
2,270,100542,5,2,1:2:0:0:
127,311,100752,2,0,L|119:346,4,27.5000008392334,10|0|0|0|0,0:0|1:0|1:0|1:0|1:2,0:0:0:0:
421,384,101171,2,0,L|396:343,1,27.5000008392334,10|0,0:0|0:0,0:0:0:0:
483,345,101276,2,0,L|440:315,1,27.5000008392334,8|0,0:0|0:0,0:0:0:0:
512,276,101381,5,4,1:3:0:0:
5,353,114576,5,0,3:0:0:0:
5,353,114645,1,0,3:0:0:0:
5,353,114714,1,0,3:0:0:0:
5,353,114784,2,0,P|46:304|49:254,2,100,6|2|8,1:2|0:3|0:0,0:0:0:0:
23,79,115413,1,2,1:2:0:0:
67,18,115518,1,0,0:0:0:0:
142,11,115622,1,2,0:3:0:0:
35,152,115832,1,8,0:0:0:0:
96,197,116042,1,2,1:2:0:0:
295,51,116252,1,8,0:0:0:0:
329,7,116356,1,8,0:0:0:0:
384,0,116461,1,10,0:0:0:0:
240,193,116671,6,0,P|248:259|266:299,1,100,0|2,1:2|0:3,0:0:0:0:
500,318,117090,1,8,0:0:0:0:
230,111,117300,1,0,1:2:0:0:
239,112,117370,1,0,3:0:0:0:
249,114,117440,1,0,3:0:0:0:
259,116,117510,1,10,0:0:0:0:
161,146,117720,1,2,1:2:0:0:
184,384,117929,1,10,0:0:0:0:
247,344,118034,1,0,0:0:0:0:
218,275,118139,6,0,P|192:212|164:179,2,100,2|2|8,1:2|0:3|0:0,0:0:0:0:
66,210,118768,1,0,1:2:0:0:
19,183,118873,1,0,0:0:0:0:
68,158,118978,1,2,0:3:0:0:
50,23,119188,2,0,L|20:-6,3,33.3333333333333,8|0|0|0,0:0|0:0|0:0|1:2,0:0:0:0:
4,125,119607,1,8,0:0:0:0:
57,112,119712,1,8,0:0:0:0:
105,138,119817,1,8,0:0:0:0:
59,302,120027,6,0,P|39:347|6:384,1,100,0|2,1:2|0:3,0:0:0:0:
213,168,120446,1,8,0:0:0:0:
254,102,120656,1,0,1:2:0:0:
253,93,120726,1,0,3:0:0:0:
251,83,120796,1,0,3:0:0:0:
249,73,120866,1,8,0:0:0:0:
202,7,121075,1,0,1:2:0:0:
322,236,121285,1,8,0:0:0:0:
394,214,121390,1,8,0:0:0:0:
467,195,121495,6,0,P|508:145|510:95,2,100,2|2|8,1:2|0:3|0:0,0:0:0:0:
240,264,122124,1,2,1:2:0:0:
298,311,122229,1,0,0:0:0:0:
316,384,122334,1,0,0:3:0:0:
167,250,122543,1,8,0:0:0:0:
96,277,122753,1,2,1:2:0:0:
320,211,122963,1,8,0:0:0:0:
349,165,123068,1,8,0:0:0:0:
345,111,123173,1,10,0:0:0:0:
127,0,123382,6,0,P|176:41|226:43,1,100,0|2,1:2|0:3,0:0:0:0:
501,58,123802,1,8,0:0:0:0:
198,127,124011,1,0,1:2:0:0:
198,127,124221,1,10,0:0:0:0:
188,124,124291,1,0,3:0:0:0:
178,122,124361,1,0,3:0:0:0:
168,120,124431,1,2,1:2:0:0:
104,75,124641,1,10,0:0:0:0:
87,148,124746,1,8,0:0:0:0:
14,163,124850,6,0,P|2:99|26:55,2,100,2|2|8,1:2|0:3|0:0,0:0:0:0:
72,336,125480,1,0,1:2:0:0:
116,369,125584,1,0,0:0:0:0:
63,384,125689,1,2,0:3:0:0:
228,305,125899,2,0,L|263:283,3,33.3333333333333,8|0|0|0,0:0|0:0|0:0|1:2,0:0:0:0:
455,301,126318,1,8,0:0:0:0:
402,318,126423,1,8,0:0:0:0:
384,370,126528,1,8,0:0:0:0:
428,166,126738,6,0,P|477:207|527:209,1,100,0|2,1:2|0:3,0:0:0:0:
342,0,127157,1,8,0:0:0:0:
169,289,127367,2,0,L|114:275,2,33.3333333333333,0|0|0,1:2|3:0|3:0,0:0:0:0:
186,277,127577,1,10,0:0:0:0:
130,196,127682,1,2,0:0:0:0:
165,103,127787,1,2,1:2:0:0:
375,68,127996,1,10,0:0:0:0:
417,6,128101,1,8,0:0:0:0:
342,0,128206,6,0,P|327:76|341:196,1,179.999994506836,6|0,1:2|0:0,0:0:0:0:
510,211,128625,1,8,0:0:0:0:
117,382,128835,2,0,P|167:323|196:245,1,119.999996337891,0|2,1:2|0:3,0:0:0:0:
0,86,129255,1,10,0:0:0:0:
90,119,129360,1,2,0:0:0:0:
170,66,129464,1,2,1:2:0:0:
88,307,129674,1,10,0:0:0:0:
39,364,129779,1,8,0:0:0:0:
16,293,129884,1,10,0:0:0:0:
66,234,130094,5,0,1:2:0:0:
430,339,130303,1,2,0:3:0:0:
343,384,130513,1,8,0:0:0:0:
512,289,130723,1,0,1:2:0:0:
507,278,130793,1,0,3:0:0:0:
502,267,130863,1,0,3:0:0:0:
497,256,130932,1,10,0:0:0:0:
469,183,131142,1,2,1:2:0:0:
152,0,131352,1,10,0:0:0:0:
117,90,131457,1,8,0:0:0:0:
82,181,131562,5,2,1:2:0:0:
348,85,131771,1,2,0:3:0:0:
422,11,131981,1,8,0:0:0:0:
512,268,132191,5,0,1:2:0:0:
234,150,132401,1,2,0:3:0:0:
202,50,132610,1,10,0:0:0:0:
406,294,132820,1,2,1:2:0:0:
23,384,133030,1,10,0:0:0:0:
1,312,133135,1,8,0:0:0:0:
75,326,133239,1,10,0:0:0:0:
50,252,133449,5,0,1:2:0:0:
268,2,133659,1,2,0:3:0:0:
169,27,133869,1,8,0:0:0:0:
278,256,134078,2,0,L|306:289,2,39.9999987792969,0|0|0,1:2|3:0|3:0,0:0:0:0:
290,246,134288,1,10,0:0:0:0:
212,199,134393,1,2,0:0:0:0:
125,225,134498,1,2,1:2:0:0:
3,41,134708,1,10,0:0:0:0:
66,2,134812,1,8,0:0:0:0:
70,77,134917,6,0,P|146:92|266:78,1,179.999994506836,2|0,1:2|0:0,0:0:0:0:
431,5,135337,1,8,0:0:0:0:
342,314,135546,2,0,P|391:368|445:386,1,119.999996337891,0|2,1:2|0:3,0:0:0:0:
512,134,135966,1,10,0:0:0:0:
420,151,136071,1,2,0:0:0:0:
345,93,136176,1,2,1:2:0:0:
56,142,136385,1,10,0:0:0:0:
129,160,136490,1,8,0:0:0:0:
77,215,136595,1,10,0:0:0:0:
1,195,136805,5,0,1:2:0:0:
337,3,137015,1,2,0:3:0:0:
241,2,137224,1,8,0:0:0:0:
329,384,137434,1,0,1:2:0:0:
302,278,137644,1,10,0:0:0:0:
304,289,137714,1,0,3:0:0:0:
307,301,137784,1,0,3:0:0:0:
310,312,137853,1,2,1:2:0:0:
281,384,138063,1,10,0:0:0:0:
203,331,138168,1,8,0:0:0:0:
117,373,138273,5,2,1:2:0:0:
77,81,138483,1,2,0:3:0:0:
0,16,138692,1,8,0:0:0:0:
17,299,138902,5,2,1:2:0:0:
413,181,139112,1,2,0:3:0:0:
49,154,139322,1,8,0:0:0:0:
4,59,139531,5,0,1:2:0:0:
372,40,139741,1,10,0:0:0:0:
440,75,139846,1,8,0:0:0:0:
438,0,139951,1,10,0:0:0:0:
374,118,140160,5,0,1:2:0:0:
127,373,140370,1,2,0:3:0:0:
136,333,140580,1,8,0:0:0:0:
284,199,140790,1,0,1:2:0:0:
282,188,140860,1,0,3:0:0:0:
279,176,140929,1,0,3:0:0:0:
276,164,140999,1,8,0:0:0:0:
216,113,141209,1,0,1:2:0:0:
406,384,141419,1,8,0:0:0:0:
455,329,141524,1,8,0:0:0:0:
509,277,141629,6,0,P|484:203|507:72,1,200,6|8,1:2|0:0,0:0:0:0:
251,3,142258,2,0,P|171:50|89:47,1,150,2|0,1:2|0:0,0:0:0:0:
27,0,142677,1,10,0:0:0:0:
307,187,142887,1,2,1:2:0:0:
87,172,143097,1,8,0:0:0:0:
42,149,143202,1,8,0:0:0:0:
0,132,143306,1,10,0:0:0:0:
0,132,143516,5,0,1:2:0:0:
189,383,143726,2,0,P|252:357|285:316,1,100,8|8,0:0|0:0,0:0:0:0:
278,44,144145,1,0,1:2:0:0:
176,6,144355,1,10,0:0:0:0:
443,238,144565,1,2,1:2:0:0:
443,238,144774,1,8,0:0:0:0:
366,248,144879,1,8,0:0:0:0:
290,257,144984,5,2,1:2:0:0:
512,38,145194,1,0,0:0:0:0:
484,8,145404,1,8,0:0:0:0:
366,248,145613,5,0,1:2:0:0:
64,326,145823,1,0,0:0:0:0:
89,365,146033,1,8,0:0:0:0:
210,69,146243,1,0,1:2:0:0:
0,152,146452,1,8,0:0:0:0:
13,201,146557,1,8,0:0:0:0:
24,250,146662,5,8,0:0:0:0:
296,384,146872,1,0,1:2:0:0:
202,353,147081,1,8,0:0:0:0:
395,299,147291,1,8,0:0:0:0:
512,50,147501,1,2,1:2:0:0:
279,3,147711,1,8,0:0:0:0:
206,26,147920,1,0,1:2:0:0:
185,200,148130,1,8,0:0:0:0:
124,156,148235,1,8,0:0:0:0:
193,125,148340,6,0,P|263:159|339:268,1,200,2|8,1:2|0:0,0:0:0:0:
170,384,148969,1,0,1:2:0:0:
369,282,149179,2,0,P|395:242|395:183,1,100,2|8,0:0|0:0,0:0:0:0:
331,116,149493,2,0,P|362:80|419:65,1,100,2|0,0:0|0:0,0:0:0:0:
512,150,149808,1,10,0:0:0:0:
464,135,149913,1,8,0:0:0:0:
421,162,150018,6,0,P|413:222|423:330,1,150,10|0,0:0|0:0,0:0:0:0:
503,384,150437,2,0,P|493:337|451:295,1,100,10|8,0:0|0:0,0:0:0:0:
296,249,150857,2,0,P|249:258|207:300,1,100,2|8,1:2|0:0,0:0:0:0:
142,374,151171,2,0,P|105:342|90:285,1,100,2|0,0:0|0:0,0:0:0:0:
62,146,151486,1,10,0:0:0:0:
44,98,151591,1,8,0:0:0:0:
0,73,151695,5,2,1:2:0:0:
38,353,151905,1,0,0:0:0:0:
28,384,152115,1,8,0:0:0:0:
301,329,152325,5,2,1:2:0:0:
263,49,152534,1,0,0:0:0:0:
273,18,152744,1,8,0:0:0:0:
507,41,152954,5,2,1:2:0:0:
458,288,153164,1,8,0:0:0:0:
475,335,153268,1,8,0:0:0:0:
492,382,153373,5,8,0:0:0:0:
175,159,153583,1,0,1:2:0:0:
252,146,153793,1,8,0:0:0:0:
512,180,154002,5,8,0:0:0:0:
417,211,154212,1,0,1:2:0:0:
249,31,154422,5,8,0:0:0:0:
154,2,154632,1,0,1:2:0:0:
0,227,154841,1,8,0:0:0:0:
50,281,154946,1,8,0:0:0:0:
101,338,155051,6,0,P|162:365|297:306,1,220.000006713867,6|8,1:2|0:0,0:0:0:0:
512,150,155680,2,0,P|480:123|405:111,1,110.000003356934,2|0,1:2|0:0,0:0:0:0:
218,159,156100,1,10,0:0:0:0:
428,9,156309,1,2,1:2:0:0:
390,293,156519,1,8,0:0:0:0:
449,282,156624,1,8,0:0:0:0:
512,274,156729,1,10,0:0:0:0:
512,274,156939,5,0,1:2:0:0:
276,384,157148,2,0,P|249:352|237:277,1,110.000003356934,8|0,0:0|0:0,0:0:0:0:
382,147,157568,1,0,1:2:0:0:
348,48,157778,1,10,0:0:0:0:
26,109,157987,1,2,1:2:0:0:
26,109,158197,1,8,0:0:0:0:
12,169,158302,1,8,0:0:0:0:
0,228,158407,5,2,1:2:0:0:
317,12,158616,1,0,0:0:0:0:
279,30,158826,1,8,0:0:0:0:
118,207,159036,5,0,1:2:0:0:
476,322,159246,1,0,0:0:0:0:
435,314,159455,1,8,0:0:0:0:
113,357,159665,1,0,1:2:0:0:
171,109,159875,1,8,0:0:0:0:
145,55,159980,1,8,0:0:0:0:
120,0,160085,1,8,0:0:0:0:
0,268,160294,5,0,1:2:0:0:
120,233,160504,1,8,0:0:0:0:
210,334,160714,1,8,0:0:0:0:
350,88,160923,5,2,1:2:0:0:
316,0,161133,1,8,0:0:0:0:
297,286,161343,5,0,1:2:0:0:
425,332,161553,1,8,0:0:0:0:
348,346,161658,1,8,0:0:0:0:
374,275,161762,6,0,P|363:208|455:93,1,220.000006713867,2|0,1:2|0:0,0:0:0:0:
152,4,162392,1,0,1:2:0:0:
152,4,162601,2,0,P|123:42|53:57,1,110.000003356934,2|0,0:0|0:0,0:0:0:0:
5,173,162916,2,0,P|34:211|104:226,1,110.000003356934,2|0,0:0|0:0,0:0:0:0:
206,161,163230,1,10,0:0:0:0:
258,130,163335,1,8,0:0:0:0:
317,142,163440,1,10,0:0:0:0:
317,142,163650,6,0,L|272:264,1,110.000003356934,0|0,1:2|0:0,0:0:0:0:
20,363,164069,1,8,0:0:0:0:
20,363,164279,2,0,P|49:325|119:310,1,110.000003356934,2|0,1:2|0:0,0:0:0:0:
195,205,164594,2,0,P|242:198|302:237,1,110.000003356934,2|0,0:0|0:0,0:0:0:0:
449,184,164908,1,10,0:0:0:0:
504,237,165013,1,8,0:0:0:0:
499,313,165118,5,2,1:2:0:0:
261,48,165328,1,0,0:0:0:0:
366,72,165537,1,8,0:0:0:0:
360,311,165747,5,0,1:2:0:0:
11,384,165957,1,0,0:0:0:0:
84,305,166167,1,8,0:0:0:0:
0,64,166376,5,0,1:2:0:0:
279,358,166586,1,8,0:0:0:0:
260,284,166691,1,8,0:0:0:0:
241,211,166796,1,8,0:0:0:0:
512,148,167006,5,2,1:2:0:0:
381,189,167215,1,8,0:0:0:0:
223,133,167425,1,10,0:0:0:0:
93,0,167635,1,2,1:2:0:0:
31,188,167844,6,0,L|40:234,4,27.5000008392334,10|0|0|0|0,0:0|0:0|0:0|0:0|0:0,0:0:0:0:
223,133,168264,2,0,L|243:175,1,27.5000008392334,10|0,0:0|0:0,0:0:0:0:
260,144,168369,2,0,L|256:190,1,27.5000008392334,8|0,0:0|0:0,0:0:0:0:
284,173,168474,5,6,1:2:0:0:
80,384,168683,1,8,0:0:0:0:
0,335,168893,1,8,0:0:0:0:
313,200,169103,1,2,1:2:0:0:
273,284,169208,1,0,0:0:0:0:
326,357,169313,1,8,0:0:0:0:
175,247,169522,1,8,0:0:0:0:
429,2,169732,1,2,1:2:0:0:
509,253,169942,1,8,0:0:0:0:
490,197,170047,1,8,0:0:0:0:
469,141,170151,1,8,0:0:0:0:
280,3,170361,5,2,1:2:0:0:
280,3,170571,1,8,0:0:0:0:
235,41,170676,1,8,0:0:0:0:
189,79,170781,1,8,0:0:0:0:
0,222,170990,5,2,1:2:0:0:
10,227,171060,1,0,3:0:0:0:
21,232,171130,1,0,3:0:0:0:
32,238,171200,1,8,0:0:0:0:
95,281,171410,1,2,1:2:0:0:
64,97,171620,1,8,0:0:0:0:
45,25,171724,1,8,0:0:0:0:
117,44,171829,5,2,1:2:0:0:
482,74,172039,1,8,0:0:0:0:
387,22,172249,1,8,0:0:0:0:
512,324,172458,1,2,1:2:0:0:
113,192,172668,1,8,0:0:0:0:
218,165,172878,1,8,0:0:0:0:
387,22,173088,1,2,1:2:0:0:
348,314,173297,1,8,0:0:0:0:
383,265,173402,1,8,0:0:0:0:
414,213,173507,1,8,0:0:0:0:
149,384,173717,5,2,1:2:0:0:
149,384,173927,1,8,0:0:0:0:
72,360,174031,1,8,0:0:0:0:
1,336,174136,1,8,0:0:0:0:
170,112,174346,5,2,1:2:0:0:
172,100,174416,1,0,3:0:0:0:
175,88,174486,1,0,3:0:0:0:
178,76,174556,1,8,0:0:0:0:
193,1,174765,1,2,1:2:0:0:
8,256,174975,1,8,0:0:0:0:
80,236,175080,1,8,0:0:0:0:
27,183,175185,5,2,1:2:0:0:
343,82,175395,1,8,0:0:0:0:
383,0,175604,1,8,0:0:0:0:
512,304,175814,1,2,1:2:0:0:
449,229,175919,1,0,0:0:0:0:
359,254,176024,1,8,0:0:0:0:
512,110,176234,1,8,0:0:0:0:
304,380,176443,1,2,1:2:0:0:
259,131,176653,1,8,0:0:0:0:
246,72,176758,1,8,0:0:0:0:
232,14,176863,1,8,0:0:0:0:
1,213,177072,5,2,1:2:0:0:
1,213,177282,1,8,0:0:0:0:
74,231,177387,1,8,0:0:0:0:
147,249,177492,1,8,0:0:0:0:
147,249,177702,1,2,1:2:0:0:
22,365,177911,6,0,L|6:321,2,39.9999987792969,8|0|0,0:2|3:0|3:0,0:0:0:0:
28,384,178121,1,2,1:2:0:0:
299,298,178331,1,8,0:0:0:0:
369,271,178436,1,8,0:0:0:0:
309,226,178541,5,2,1:2:0:0:
66,8,178750,1,8,0:0:0:0:
52,111,178960,1,8,0:0:0:0:
202,204,179170,1,2,1:2:0:0:
512,102,179379,1,8,0:0:0:0:
430,38,179589,1,8,0:0:0:0:
375,370,179799,1,2,1:2:0:0:
390,134,180009,1,8,0:0:0:0:
333,115,180114,1,8,0:0:0:0:
276,96,180218,1,8,0:0:0:0:
1,368,180428,5,2,1:2:0:0:
354,228,180638,1,8,0:0:0:0:
446,193,180848,1,8,0:0:0:0:
248,345,181057,6,0,L|242:387,2,39.9999987792969,2|0|0,1:2|3:0|3:0,0:0:0:0:
268,335,181267,1,8,0:0:0:0:
217,256,181372,1,0,0:0:0:0:
249,164,181477,1,2,1:2:0:0:
1,302,181686,1,8,0:0:0:0:
0,377,181791,1,8,0:0:0:0:
65,340,181896,6,0,P|21:256|35:187,1,139.999995727539,6|8,1:2|0:0,0:0:0:0:
48,14,182316,1,8,0:0:0:0:
180,275,182525,2,0,P|254:331|364:331,1,139.999995727539,2|8,1:2|0:0,0:0:0:0:
511,171,182945,5,10,0:0:0:0:
422,210,183050,1,2,0:0:0:0:
334,156,183155,1,2,1:2:0:0:
428,17,183364,1,10,0:0:0:0:
505,9,183469,1,8,0:0:0:0:
472,80,183574,1,8,0:0:0:0:
395,86,183784,5,2,1:2:0:0:
98,29,183993,1,8,0:0:0:0:
0,9,184203,1,8,0:0:0:0:
39,260,184413,1,2,1:2:0:0:
35,273,184483,1,0,3:0:0:0:
31,286,184553,1,0,3:0:0:0:
27,300,184623,1,8,0:0:0:0:
63,193,184832,1,2,1:2:0:0:
297,331,185042,1,10,0:0:0:0:
240,384,185147,1,8,0:0:0:0:
225,308,185252,5,2,1:2:0:0:
511,98,185462,1,8,0:0:0:0:
435,155,185671,1,8,0:0:0:0:
354,311,185881,5,2,1:2:0:0:
270,11,186091,1,8,0:0:0:0:
294,96,186300,2,0,P|201:107|105:52,1,139.999995727539,8|0,0:0|1:2,0:0:0:0:
354,311,186720,1,10,0:0:0:0:
421,346,186825,1,8,0:0:0:0:
488,384,186930,1,8,0:0:0:0:
206,212,187139,5,2,1:2:0:0:
206,212,187349,1,8,0:0:0:0:
143,256,187454,1,8,0:0:0:0:
79,299,187559,1,8,0:0:0:0:
46,111,187769,6,0,L|2:93,2,46.6666652425131,2|0|0,1:2|3:0|3:0,0:0:0:0:
59,96,187978,1,10,0:0:0:0:
124,169,188083,1,2,0:0:0:0:
221,167,188188,1,2,1:2:0:0:
79,299,188398,1,10,0:0:0:0:
87,375,188503,1,8,0:0:0:0:
17,344,188607,6,0,P|109:332|205:387,1,139.999995727539,2|8,1:2|0:0,0:0:0:0:
402,382,189027,1,8,0:0:0:0:
512,109,189237,2,0,P|426:73|371:-23,1,139.999995727539,2|8,1:2|0:0,0:0:0:0:
145,3,189656,1,10,0:0:0:0:
221,62,189761,1,2,0:0:0:0:
213,161,189866,1,2,1:2:0:0:
336,275,190076,1,10,0:0:0:0:
313,352,190180,1,8,0:0:0:0:
387,330,190285,1,8,0:0:0:0:
415,258,190495,5,2,1:2:0:0:
512,0,190705,1,8,0:0:0:0:
442,31,190810,1,8,0:0:0:0:
371,59,190914,1,8,0:0:0:0:
69,16,191124,1,2,1:2:0:0:
437,163,191334,5,8,0:0:0:0:
449,168,191404,1,0,3:0:0:0:
462,173,191474,1,0,3:0:0:0:
473,179,191544,1,2,1:2:0:0:
282,241,191753,1,8,0:0:0:0:
206,251,191858,1,8,0:0:0:0:
233,179,191963,5,2,1:2:0:0:
506,373,192173,1,8,0:0:0:0:
430,318,192383,1,8,0:0:0:0:
171,128,192592,5,2,1:2:0:0:
21,370,192802,1,10,0:0:0:0:
71,298,193012,1,8,0:0:0:0:
0,35,193221,5,2,1:2:0:0:
274,122,193431,1,10,0:0:0:0:
344,153,193536,1,8,0:0:0:0:
337,76,193641,1,8,0:0:0:0:
279,201,193851,5,2,1:2:0:0:
0,230,194060,1,8,0:0:0:0:
235,207,194270,1,8,0:0:0:0:
492,187,194480,1,0,1:2:0:0:
494,173,194550,1,0,3:0:0:0:
497,159,194620,1,0,3:0:0:0:
500,145,194690,2,0,P|451:69|446:52,2,100,10|2|10,0:0|0:0|0:0,0:0:0:0:
361,345,195342,6,0,P|270:323|213:323,1,150,2|0,1:2|0:0,0:0:0:0:
14,287,196209,2,0,P|41:274|63:251,1,50,2|0,1:2|0:0,0:0:0:0:
190,162,196689,2,0,P|214:171|229:180,1,25,2|0,0:0|0:0,0:0:0:0:
257,55,197073,2,0,P|254:42|261:-3,1,50,2|0,0:0|0:0,0:0:0:0:
511,180,198919,5,6,1:2:0:0:
184,118,199127,1,8,0:0:0:0:
111,99,199232,1,8,0:0:0:0:
39,80,199337,1,8,0:0:0:0:
495,155,199547,5,2,1:2:0:0:
145,221,199756,1,8,0:0:0:0:
72,240,199861,1,0,0:0:0:0:
0,259,199966,1,8,0:0:0:0:
435,375,200176,5,2,1:2:0:0:
346,59,200386,1,8,0:0:0:0:
401,7,200490,1,8,0:0:0:0:
416,81,200595,1,8,0:0:0:0:
0,5,200805,5,2,1:2:0:0:
137,66,201015,1,8,0:0:0:0:
68,36,201120,1,8,0:0:0:0:
0,5,201224,1,8,0:0:0:0:
26,366,201434,5,2,1:2:0:0:
23,384,201644,1,8,0:0:0:0:
512,281,201854,5,2,1:2:0:0:
509,263,202063,1,8,0:0:0:0:
418,288,202168,1,8,0:0:0:0:
484,352,202273,5,2,1:2:0:0:
421,7,202483,1,8,0:0:0:0:
407,81,202588,1,0,0:0:0:0:
391,155,202693,1,8,0:0:0:0:
421,7,202902,5,2,1:2:0:0:
358,352,203112,1,8,0:0:0:0:
344,278,203217,1,0,0:0:0:0:
328,204,203322,1,8,0:0:0:0:
328,204,203531,5,2,1:2:0:0:
0,384,203741,1,8,0:0:0:0:
68,353,203846,1,8,0:0:0:0:
137,323,203951,1,8,0:0:0:0:
479,158,204161,5,2,1:2:0:0:
29,70,204370,1,8,0:0:0:0:
19,87,204580,1,8,0:0:0:0:
294,378,204790,5,2,1:2:0:0:
291,363,204860,1,0,3:0:0:0:
289,348,204930,1,0,3:0:0:0:
286,333,205000,2,0,L|271:260,1,75.0000028610231,8|0,0:0|0:0,0:0:0:0:
265,225,205209,1,2,1:2:0:0:
15,167,205419,1,8,0:0:0:0:
0,260,205524,1,8,0:0:0:0:
87,225,205629,5,6,0:2:0:0:
256,192,205734,12,0,208984,0:0:0:0:
