osu file format v14

[General]
AudioFilename: audio.mp3
AudioLeadIn: 0
PreviewTime: 65399
Countdown: 1
SampleSet: Normal
StackLeniency: 0.7
Mode: 1
LetterboxInBreaks: 0
WidescreenStoryboard: 0

[Editor]
DistanceSpacing: 1.2
BeatDivisor: 4
GridSize: 32
TimelineZoom: 2.4

[Metadata]
Title:REFUSE
TitleUnicode:REFUSE
Artist:Hie
ArtistUnicode:ひえ
Creator:Front
Version:REFUSE ONI
Source:
Tags:VOCALOID ボーカロイド 初音ミク hatsune miku
BeatmapID:2058393
BeatmapSetID:983732

[Difficulty]
HPDrainRate:5
CircleSize:5
OverallDifficulty:5
ApproachRate:5
SliderMultiplier:1.4
SliderTickRate:1

[Events]
//Background and Video events
0,0,"fndggrjbsin0lvbq_20170401223839_0740_0500.jpg",0,0
//Break Periods
//Storyboard Layer 0 (Background)
//Storyboard Layer 1 (Fail)
//Storyboard Layer 2 (Pass)
//Storyboard Layer 3 (Foreground)
//Storyboard Sound Samples

[TimingPoints]
1400,333.333333333333,4,1,0,100,1,0
65399,-100,4,1,0,100,0,1
86733,-100,4,1,0,100,0,0
129399,-100,4,1,0,100,0,1
150733,-100,4,1,0,100,0,0
185399,-100,4,1,0,100,0,1
204066,-100,4,1,0,100,0,0
204399,-100,4,1,0,100,0,1
225399,-100,4,1,0,100,0,0

[HitObjects]
256,192,1400,1,0,0:0:0:0:
256,192,1899,1,0,0:0:0:0:
256,192,2399,1,8,0:0:0:0:
256,192,2899,1,8,0:0:0:0:
256,192,3399,1,0,0:0:0:0:
256,192,3733,1,0,0:0:0:0:
256,192,4066,1,0,0:0:0:0:
256,192,4565,1,0,0:0:0:0:
256,192,5065,1,8,0:0:0:0:
256,192,5565,1,8,0:0:0:0:
256,192,6065,1,0,0:0:0:0:
256,192,6399,1,0,0:0:0:0:
256,192,6733,1,0,0:0:0:0:
256,192,7232,1,0,0:0:0:0:
256,192,7732,1,8,0:0:0:0:
256,192,8232,1,8,0:0:0:0:
256,192,8732,1,0,0:0:0:0:
256,192,9066,1,0,0:0:0:0:
256,192,9399,1,0,0:0:0:0:
256,192,9898,1,0,0:0:0:0:
256,192,10398,1,8,0:0:0:0:
256,192,10898,1,8,0:0:0:0:
256,192,11398,1,0,0:0:0:0:
256,192,11732,1,0,0:0:0:0:
256,192,12066,1,8,0:0:0:0:
256,192,12399,1,0,0:0:0:0:
256,192,12566,1,8,0:0:0:0:
256,192,12900,1,0,0:0:0:0:
256,192,13067,1,8,0:0:0:0:
256,192,13400,1,0,0:0:0:0:
256,192,13567,1,8,0:0:0:0:
256,192,13900,1,0,0:0:0:0:
256,192,14067,1,8,0:0:0:0:
256,192,14400,1,0,0:0:0:0:
256,192,14733,1,8,0:0:0:0:
256,192,15066,1,0,0:0:0:0:
256,192,15233,1,8,0:0:0:0:
256,192,15567,1,0,0:0:0:0:
256,192,15734,1,8,0:0:0:0:
256,192,16067,1,0,0:0:0:0:
256,192,16234,1,8,0:0:0:0:
256,192,16567,1,0,0:0:0:0:
256,192,16734,1,8,0:0:0:0:
256,192,17067,1,0,0:0:0:0:
256,192,17399,1,8,0:0:0:0:
256,192,17732,1,0,0:0:0:0:
256,192,17899,1,8,0:0:0:0:
256,192,18233,1,0,0:0:0:0:
256,192,18400,1,8,0:0:0:0:
256,192,18733,1,0,0:0:0:0:
256,192,18900,1,8,0:0:0:0:
256,192,19233,1,0,0:0:0:0:
256,192,19400,1,8,0:0:0:0:
256,192,19733,1,0,0:0:0:0:
256,192,20066,1,8,0:0:0:0:
256,192,20399,1,0,0:0:0:0:
256,192,20566,1,8,0:0:0:0:
256,192,20900,1,0,0:0:0:0:
256,192,21067,1,8,0:0:0:0:
256,192,21400,1,0,0:0:0:0:
256,192,21567,1,8,0:0:0:0:
256,192,21900,1,0,0:0:0:0:
256,192,22067,1,8,0:0:0:0:
256,192,22233,1,8,0:0:0:0:
256,192,22399,1,0,0:0:0:0:
256,192,22566,1,0,0:0:0:0:
256,192,22733,1,8,0:0:0:0:
256,192,22899,1,0,0:0:0:0:
256,192,22983,1,0,0:0:0:0:
256,192,23066,1,8,0:0:0:0:
256,192,23233,1,8,0:0:0:0:
256,192,23399,1,0,0:0:0:0:
256,192,23483,1,0,0:0:0:0:
256,192,23566,1,0,0:0:0:0:
256,192,23733,1,8,0:0:0:0:
256,192,23899,1,0,0:0:0:0:
256,192,23983,1,8,0:0:0:0:
256,192,24066,1,8,0:0:0:0:
256,192,24233,1,8,0:0:0:0:
256,192,24399,1,0,0:0:0:0:
256,192,24483,1,8,0:0:0:0:
256,192,24566,1,0,0:0:0:0:
256,192,24733,1,8,0:0:0:0:
256,192,24899,1,0,0:0:0:0:
256,192,24983,1,0,0:0:0:0:
256,192,25066,1,8,0:0:0:0:
256,192,25233,1,0,0:0:0:0:
256,192,25399,1,8,0:0:0:0:
256,192,25565,1,0,0:0:0:0:
256,192,25649,1,0,0:0:0:0:
256,192,25732,1,8,0:0:0:0:
256,192,25899,1,8,0:0:0:0:
256,192,26065,1,0,0:0:0:0:
256,192,26149,1,0,0:0:0:0:
256,192,26232,1,0,0:0:0:0:
256,192,26399,1,8,0:0:0:0:
256,192,26566,1,0,0:0:0:0:
256,192,26649,1,8,0:0:0:0:
256,192,26732,1,8,0:0:0:0:
256,192,26899,1,8,0:0:0:0:
256,192,27065,1,0,0:0:0:0:
256,192,27149,1,8,0:0:0:0:
256,192,27232,1,0,0:0:0:0:
256,192,27399,1,8,0:0:0:0:
256,192,27565,1,0,0:0:0:0:
256,192,27649,1,0,0:0:0:0:
256,192,27732,1,8,0:0:0:0:
256,192,27899,1,0,0:0:0:0:
256,192,28066,1,8,0:0:0:0:
256,192,28232,1,0,0:0:0:0:
256,192,28316,1,0,0:0:0:0:
256,192,28399,1,8,0:0:0:0:
256,192,28566,1,8,0:0:0:0:
256,192,28732,1,0,0:0:0:0:
256,192,28816,1,0,0:0:0:0:
256,192,28899,1,0,0:0:0:0:
256,192,29066,1,8,0:0:0:0:
256,192,29232,1,0,0:0:0:0:
256,192,29316,1,8,0:0:0:0:
256,192,29399,1,8,0:0:0:0:
256,192,29566,1,8,0:0:0:0:
256,192,29732,1,0,0:0:0:0:
256,192,29816,1,8,0:0:0:0:
256,192,29899,1,0,0:0:0:0:
256,192,30066,1,8,0:0:0:0:
256,192,30232,1,0,0:0:0:0:
256,192,30316,1,0,0:0:0:0:
256,192,30399,1,8,0:0:0:0:
256,192,30483,1,8,0:0:0:0:
256,192,30566,1,0,0:0:0:0:
256,192,30732,1,8,0:0:0:0:
256,192,30898,1,0,0:0:0:0:
256,192,30982,1,0,0:0:0:0:
256,192,31065,1,8,0:0:0:0:
256,192,31232,1,8,0:0:0:0:
256,192,31398,1,0,0:0:0:0:
256,192,31482,1,0,0:0:0:0:
256,192,31565,1,0,0:0:0:0:
256,192,31732,1,8,0:0:0:0:
256,192,31899,1,0,0:0:0:0:
256,192,31982,1,8,0:0:0:0:
256,192,32065,1,8,0:0:0:0:
256,192,32232,1,8,0:0:0:0:
256,192,32398,1,0,0:0:0:0:
256,192,32482,1,8,0:0:0:0:
256,192,32565,1,0,0:0:0:0:
256,192,32732,1,8,0:0:0:0:
256,192,32899,1,0,0:0:0:0:
256,192,33066,1,8,0:0:0:0:
256,192,33233,1,0,0:0:0:0:
256,192,33399,1,0,0:0:0:0:
256,192,33733,1,8,0:0:0:0:
256,192,33899,1,0,0:0:0:0:
256,192,34399,1,8,0:0:0:0:
256,192,34899,1,0,0:0:0:0:
256,192,35399,1,0,0:0:0:0:
256,192,35733,1,8,0:0:0:0:
256,192,36066,1,0,0:0:0:0:
256,192,36400,1,8,0:0:0:0:
256,192,36566,1,0,0:0:0:0:
256,192,37066,1,8,0:0:0:0:
256,192,37566,1,0,0:0:0:0:
256,192,37733,1,0,0:0:0:0:
256,192,38066,1,0,0:0:0:0:
256,192,38400,1,8,0:0:0:0:
256,192,38566,1,8,0:0:0:0:
256,192,38733,1,0,0:0:0:0:
256,192,39067,1,8,0:0:0:0:
256,192,39233,1,0,0:0:0:0:
256,192,39399,1,8,0:0:0:0:
256,192,39733,1,8,0:0:0:0:
256,192,39899,1,0,0:0:0:0:
256,192,40233,1,0,0:0:0:0:
256,192,40400,1,0,0:0:0:0:
256,192,40733,1,0,0:0:0:0:
256,192,41067,1,8,0:0:0:0:
256,192,41233,1,0,0:0:0:0:
256,192,41399,1,8,0:0:0:0:
256,192,41733,1,8,0:0:0:0:
256,192,41899,1,0,0:0:0:0:
256,192,42066,1,0,0:0:0:0:
256,192,42399,1,0,0:0:0:0:
256,192,42733,1,0,0:0:0:0:
256,192,42899,1,0,0:0:0:0:
256,192,43066,1,8,0:0:0:0:
256,192,43233,1,8,0:0:0:0:
256,192,43399,1,0,0:0:0:0:
256,192,43733,1,8,0:0:0:0:
256,192,44066,1,0,0:0:0:0:
256,192,44233,1,0,0:0:0:0:
256,192,44316,1,0,0:0:0:0:
256,192,44399,1,8,0:0:0:0:
256,192,44566,1,0,0:0:0:0:
256,192,44733,1,8,0:0:0:0:
256,192,44899,1,8,0:0:0:0:
256,192,45066,1,0,0:0:0:0:
256,192,45233,1,8,0:0:0:0:
256,192,45399,1,0,0:0:0:0:
256,192,45566,1,0,0:0:0:0:
256,192,45733,1,8,0:0:0:0:
256,192,45899,1,8,0:0:0:0:
256,192,46066,1,0,0:0:0:0:
256,192,46399,1,8,0:0:0:0:
256,192,46566,1,0,0:0:0:0:
256,192,46733,1,8,0:0:0:0:
256,192,46900,1,8,0:0:0:0:
256,192,46983,1,0,0:0:0:0:
256,192,47066,1,8,0:0:0:0:
256,192,47233,1,0,0:0:0:0:
256,192,47400,1,8,0:0:0:0:
256,192,47566,1,8,0:0:0:0:
256,192,47733,1,0,0:0:0:0:
256,192,47900,1,8,0:0:0:0:
256,192,48066,1,0,0:0:0:0:
256,192,48233,1,8,0:0:0:0:
256,192,48400,1,8,0:0:0:0:
256,192,48566,1,0,0:0:0:0:
256,192,48733,1,0,0:0:0:0:
256,192,49066,1,8,0:0:0:0:
256,192,49233,1,0,0:0:0:0:
256,192,49399,1,8,0:0:0:0:
256,192,49733,1,8,0:0:0:0:
256,192,49899,1,0,0:0:0:0:
256,192,50066,1,8,0:0:0:0:
256,192,50399,1,8,0:0:0:0:
256,192,50566,1,8,0:0:0:0:
256,192,50649,1,8,0:0:0:0:
256,192,50733,1,0,0:0:0:0:
256,192,51066,1,8,0:0:0:0:
256,192,51399,1,0,0:0:0:0:
256,192,51733,1,0,0:0:0:0:
256,192,51899,1,0,0:0:0:0:
256,192,52066,1,8,0:0:0:0:
256,192,52399,1,8,0:0:0:0:
256,192,52566,1,8,0:0:0:0:
256,192,52649,1,8,0:0:0:0:
256,192,52733,1,0,0:0:0:0:
256,192,52899,1,8,0:0:0:0:
256,192,53066,1,0,0:0:0:0:
256,192,53233,1,8,0:0:0:0:
256,192,53399,1,0,0:0:0:0:
256,192,53566,1,0,0:0:0:0:
256,192,53733,1,8,0:0:0:0:
256,192,53899,1,0,0:0:0:0:
256,192,54066,1,0,0:0:0:0:
256,192,54733,1,0,0:0:0:0:
256,192,54899,1,8,0:0:0:0:
256,192,55066,1,0,0:0:0:0:
256,192,55233,1,8,0:0:0:0:
256,192,55399,1,8,0:0:0:0:
256,192,55566,1,0,0:0:0:0:
256,192,55733,1,8,0:0:0:0:
256,192,55899,1,8,0:0:0:0:
256,192,56066,1,0,0:0:0:0:
256,192,56233,1,8,0:0:0:0:
256,192,56399,1,8,0:0:0:0:
256,192,56566,1,0,0:0:0:0:
256,192,56733,1,8,0:0:0:0:
256,192,56899,1,0,0:0:0:0:
256,192,57066,1,0,0:0:0:0:
256,192,57399,1,0,0:0:0:0:
256,192,57565,1,8,0:0:0:0:
256,192,57732,1,8,0:0:0:0:
256,192,57899,1,0,0:0:0:0:
256,192,58065,1,8,0:0:0:0:
256,192,58232,1,8,0:0:0:0:
256,192,58399,1,0,0:0:0:0:
256,192,58565,1,8,0:0:0:0:
256,192,58732,1,0,0:0:0:0:
256,192,58899,1,8,0:0:0:0:
256,192,59065,1,8,0:0:0:0:
256,192,59232,1,0,0:0:0:0:
256,192,59399,1,8,0:0:0:0:
256,192,59565,1,0,0:0:0:0:
256,192,59732,1,0,0:0:0:0:
256,192,60066,1,0,0:0:0:0:
256,192,60232,1,8,0:0:0:0:
256,192,60399,1,0,0:0:0:0:
256,192,60566,1,8,0:0:0:0:
256,192,60732,1,8,0:0:0:0:
256,192,60899,1,0,0:0:0:0:
256,192,61066,1,8,0:0:0:0:
256,192,61232,1,8,0:0:0:0:
256,192,61399,1,0,0:0:0:0:
256,192,61566,1,8,0:0:0:0:
256,192,61732,1,0,0:0:0:0:
256,192,61899,1,8,0:0:0:0:
256,192,62066,1,8,0:0:0:0:
256,192,62232,1,8,0:0:0:0:
256,192,62399,1,0,0:0:0:0:
256,192,62733,1,0,0:0:0:0:
256,192,62899,1,8,0:0:0:0:
256,192,63066,1,0,0:0:0:0:
256,192,63233,1,8,0:0:0:0:
256,192,63399,1,8,0:0:0:0:
256,192,63566,1,0,0:0:0:0:
256,192,63733,1,8,0:0:0:0:
256,192,63899,1,8,0:0:0:0:
256,192,64066,1,0,0:0:0:0:
256,192,64233,1,8,0:0:0:0:
256,192,64399,1,8,0:0:0:0:
256,192,64566,1,8,0:0:0:0:
256,192,64733,1,8,0:0:0:0:
256,192,64899,1,0,0:0:0:0:
256,192,65066,1,0,0:0:0:0:
256,192,65399,1,4,0:0:0:0:
256,192,65733,1,0,0:0:0:0:
256,192,65899,1,8,0:0:0:0:
256,192,66066,1,0,0:0:0:0:
256,192,66149,1,0,0:0:0:0:
256,192,66233,1,0,0:0:0:0:
256,192,66399,1,0,0:0:0:0:
256,192,66566,1,8,0:0:0:0:
256,192,66733,1,0,0:0:0:0:
256,192,67066,1,8,0:0:0:0:
256,192,67233,1,8,0:0:0:0:
256,192,67399,1,8,0:0:0:0:
256,192,67483,1,8,0:0:0:0:
256,192,67566,1,0,0:0:0:0:
256,192,67733,1,0,0:0:0:0:
256,192,67899,1,0,0:0:0:0:
256,192,68066,1,8,0:0:0:0:
256,192,68233,1,0,0:0:0:0:
256,192,68316,1,0,0:0:0:0:
256,192,68399,1,8,0:0:0:0:
256,192,68733,1,0,0:0:0:0:
256,192,68899,1,8,0:0:0:0:
256,192,68983,1,8,0:0:0:0:
256,192,69066,1,0,0:0:0:0:
256,192,69233,1,0,0:0:0:0:
256,192,69399,1,8,0:0:0:0:
256,192,69483,1,0,0:0:0:0:
256,192,69566,1,0,0:0:0:0:
256,192,69733,1,0,0:0:0:0:
256,192,70066,1,0,0:0:0:0:
256,192,70399,1,8,0:0:0:0:
256,192,70566,1,0,0:0:0:0:
256,192,70733,1,8,0:0:0:0:
256,192,71066,1,8,0:0:0:0:
256,192,71233,1,0,0:0:0:0:
256,192,71316,1,0,0:0:0:0:
256,192,71399,1,8,0:0:0:0:
256,192,71566,1,8,0:0:0:0:
256,192,71733,1,0,0:0:0:0:
256,192,71816,1,8,0:0:0:0:
256,192,71899,1,0,0:0:0:0:
256,192,72066,1,8,0:0:0:0:
256,192,72399,1,8,0:0:0:0:
256,192,72566,1,8,0:0:0:0:
256,192,72649,1,0,0:0:0:0:
256,192,72733,1,0,0:0:0:0:
256,192,72899,1,0,0:0:0:0:
256,192,73066,1,8,0:0:0:0:
256,192,73233,1,0,0:0:0:0:
256,192,73399,1,8,0:0:0:0:
256,192,73733,1,8,0:0:0:0:
256,192,73899,1,0,0:0:0:0:
256,192,73983,1,8,0:0:0:0:
256,192,74066,1,0,0:0:0:0:
256,192,74233,1,0,0:0:0:0:
256,192,74399,1,8,0:0:0:0:
256,192,74566,1,0,0:0:0:0:
256,192,74733,1,8,0:0:0:0:
256,192,75066,1,8,0:0:0:0:
256,192,75233,1,8,0:0:0:0:
256,192,75316,1,0,0:0:0:0:
256,192,75399,1,8,0:0:0:0:
256,192,75566,1,8,0:0:0:0:
256,192,75733,1,0,0:0:0:0:
256,192,75899,1,0,0:0:0:0:
256,192,76066,1,12,0:0:0:0:
256,192,76399,1,0,0:0:0:0:
256,192,76565,1,8,0:0:0:0:
256,192,76732,1,0,0:0:0:0:
256,192,76815,1,0,0:0:0:0:
256,192,76899,1,0,0:0:0:0:
256,192,77065,1,0,0:0:0:0:
256,192,77232,1,8,0:0:0:0:
256,192,77399,1,0,0:0:0:0:
256,192,77732,1,8,0:0:0:0:
256,192,77899,1,8,0:0:0:0:
256,192,78065,1,8,0:0:0:0:
256,192,78149,1,8,0:0:0:0:
256,192,78232,1,0,0:0:0:0:
256,192,78399,1,0,0:0:0:0:
256,192,78565,1,0,0:0:0:0:
256,192,78732,1,8,0:0:0:0:
256,192,78899,1,0,0:0:0:0:
256,192,78982,1,0,0:0:0:0:
256,192,79065,1,8,0:0:0:0:
256,192,79399,1,0,0:0:0:0:
256,192,79565,1,8,0:0:0:0:
256,192,79649,1,8,0:0:0:0:
256,192,79732,1,0,0:0:0:0:
256,192,79899,1,0,0:0:0:0:
256,192,80065,1,8,0:0:0:0:
256,192,80149,1,0,0:0:0:0:
256,192,80232,1,0,0:0:0:0:
256,192,80399,1,0,0:0:0:0:
256,192,80732,1,0,0:0:0:0:
256,192,81065,1,8,0:0:0:0:
256,192,81232,1,0,0:0:0:0:
256,192,81399,1,8,0:0:0:0:
256,192,81732,1,8,0:0:0:0:
256,192,81899,1,0,0:0:0:0:
256,192,81982,1,0,0:0:0:0:
256,192,82065,1,8,0:0:0:0:
256,192,82232,1,8,0:0:0:0:
256,192,82399,1,0,0:0:0:0:
256,192,82482,1,8,0:0:0:0:
256,192,82565,1,0,0:0:0:0:
256,192,82732,1,8,0:0:0:0:
256,192,83065,1,8,0:0:0:0:
256,192,83232,1,8,0:0:0:0:
256,192,83315,1,0,0:0:0:0:
256,192,83399,1,0,0:0:0:0:
256,192,83565,1,0,0:0:0:0:
256,192,83732,1,8,0:0:0:0:
256,192,83899,1,0,0:0:0:0:
256,192,84065,1,8,0:0:0:0:
256,192,84399,1,8,0:0:0:0:
256,192,84565,1,0,0:0:0:0:
256,192,84649,1,8,0:0:0:0:
256,192,84732,1,0,0:0:0:0:
256,192,84899,1,0,0:0:0:0:
256,192,85065,1,8,0:0:0:0:
256,192,85232,1,0,0:0:0:0:
256,192,85399,1,8,0:0:0:0:
256,192,85566,1,0,0:0:0:0:
256,192,85649,1,0,0:0:0:0:
256,192,85732,1,8,0:0:0:0:
256,192,85899,1,8,0:0:0:0:
256,192,86065,1,8,0:0:0:0:
256,192,86149,1,0,0:0:0:0:
256,192,86232,1,8,0:0:0:0:
256,192,86399,1,8,0:0:0:0:
256,192,86566,1,0,0:0:0:0:
256,192,86733,1,12,0:0:0:0:
256,192,87233,1,0,0:0:0:0:
256,192,87733,1,0,0:0:0:0:
256,192,88233,1,8,0:0:0:0:
256,192,88733,1,8,0:0:0:0:
256,192,89066,1,0,0:0:0:0:
256,192,89399,1,8,0:0:0:0:
256,192,89899,1,0,0:0:0:0:
256,192,90399,1,0,0:0:0:0:
256,192,90899,1,8,0:0:0:0:
256,192,91399,1,8,0:0:0:0:
256,192,91732,1,0,0:0:0:0:
256,192,92066,1,12,0:0:0:0:
256,192,92566,1,0,0:0:0:0:
256,192,93066,1,0,0:0:0:0:
256,192,93566,1,8,0:0:0:0:
256,192,94066,1,8,0:0:0:0:
256,192,94399,1,0,0:0:0:0:
256,192,94732,1,8,0:0:0:0:
256,192,95232,1,0,0:0:0:0:
256,192,95732,1,0,0:0:0:0:
256,192,96232,1,8,0:0:0:0:
256,192,96732,1,8,0:0:0:0:
256,192,96899,1,0,0:0:0:0:
256,192,97065,1,0,0:0:0:0:
256,192,97233,1,0,0:0:0:0:
256,192,97399,1,0,0:0:0:0:
256,192,97733,1,8,0:0:0:0:
256,192,97899,1,0,0:0:0:0:
256,192,98399,1,8,0:0:0:0:
256,192,98899,1,0,0:0:0:0:
256,192,99399,1,0,0:0:0:0:
256,192,99733,1,8,0:0:0:0:
256,192,100066,1,0,0:0:0:0:
256,192,100400,1,8,0:0:0:0:
256,192,100566,1,0,0:0:0:0:
256,192,101066,1,8,0:0:0:0:
256,192,101566,1,0,0:0:0:0:
256,192,101733,1,0,0:0:0:0:
256,192,102066,1,0,0:0:0:0:
256,192,102400,1,8,0:0:0:0:
256,192,102566,1,8,0:0:0:0:
256,192,102733,1,0,0:0:0:0:
256,192,103067,1,8,0:0:0:0:
256,192,103233,1,0,0:0:0:0:
256,192,103399,1,8,0:0:0:0:
256,192,103733,1,8,0:0:0:0:
256,192,103899,1,0,0:0:0:0:
256,192,104233,1,0,0:0:0:0:
256,192,104400,1,0,0:0:0:0:
256,192,104733,1,0,0:0:0:0:
256,192,105067,1,8,0:0:0:0:
256,192,105233,1,0,0:0:0:0:
256,192,105399,1,8,0:0:0:0:
256,192,105733,1,8,0:0:0:0:
256,192,105899,1,0,0:0:0:0:
256,192,106066,1,0,0:0:0:0:
256,192,106399,1,0,0:0:0:0:
256,192,106733,1,0,0:0:0:0:
256,192,106899,1,0,0:0:0:0:
256,192,107066,1,8,0:0:0:0:
256,192,107233,1,8,0:0:0:0:
256,192,107399,1,0,0:0:0:0:
256,192,107733,1,8,0:0:0:0:
256,192,108066,1,0,0:0:0:0:
256,192,108233,1,0,0:0:0:0:
256,192,108316,1,0,0:0:0:0:
256,192,108399,1,8,0:0:0:0:
256,192,108566,1,0,0:0:0:0:
256,192,108733,1,8,0:0:0:0:
256,192,108899,1,8,0:0:0:0:
256,192,109066,1,0,0:0:0:0:
256,192,109233,1,8,0:0:0:0:
256,192,109399,1,0,0:0:0:0:
256,192,109566,1,0,0:0:0:0:
256,192,109733,1,8,0:0:0:0:
256,192,109899,1,8,0:0:0:0:
256,192,110066,1,0,0:0:0:0:
256,192,110399,1,8,0:0:0:0:
256,192,110566,1,0,0:0:0:0:
256,192,110733,1,8,0:0:0:0:
256,192,110900,1,8,0:0:0:0:
256,192,110983,1,0,0:0:0:0:
256,192,111066,1,8,0:0:0:0:
256,192,111233,1,0,0:0:0:0:
256,192,111400,1,8,0:0:0:0:
256,192,111566,1,8,0:0:0:0:
256,192,111733,1,0,0:0:0:0:
256,192,111900,1,8,0:0:0:0:
256,192,112066,1,0,0:0:0:0:
256,192,112233,1,8,0:0:0:0:
256,192,112400,1,8,0:0:0:0:
256,192,112566,1,0,0:0:0:0:
256,192,112733,1,0,0:0:0:0:
256,192,113066,1,8,0:0:0:0:
256,192,113233,1,0,0:0:0:0:
256,192,113399,1,8,0:0:0:0:
256,192,113733,1,8,0:0:0:0:
256,192,113899,1,0,0:0:0:0:
256,192,114066,1,8,0:0:0:0:
256,192,114399,1,8,0:0:0:0:
256,192,114566,1,8,0:0:0:0:
256,192,114649,1,8,0:0:0:0:
256,192,114733,1,0,0:0:0:0:
256,192,115066,1,8,0:0:0:0:
256,192,115399,1,0,0:0:0:0:
256,192,115733,1,0,0:0:0:0:
256,192,115899,1,0,0:0:0:0:
256,192,116066,1,8,0:0:0:0:
256,192,116399,1,8,0:0:0:0:
256,192,116566,1,8,0:0:0:0:
256,192,116649,1,8,0:0:0:0:
256,192,116733,1,0,0:0:0:0:
256,192,116899,1,8,0:0:0:0:
256,192,117066,1,0,0:0:0:0:
256,192,117233,1,8,0:0:0:0:
256,192,117399,1,0,0:0:0:0:
256,192,117566,1,0,0:0:0:0:
256,192,117733,1,8,0:0:0:0:
256,192,117899,1,0,0:0:0:0:
256,192,118066,1,0,0:0:0:0:
256,192,118733,1,0,0:0:0:0:
256,192,118899,1,8,0:0:0:0:
256,192,119066,1,0,0:0:0:0:
256,192,119233,1,8,0:0:0:0:
256,192,119399,1,8,0:0:0:0:
256,192,119566,1,0,0:0:0:0:
256,192,119733,1,8,0:0:0:0:
256,192,119899,1,8,0:0:0:0:
256,192,120066,1,0,0:0:0:0:
256,192,120233,1,8,0:0:0:0:
256,192,120399,1,8,0:0:0:0:
256,192,120566,1,0,0:0:0:0:
256,192,120733,1,8,0:0:0:0:
256,192,120899,1,0,0:0:0:0:
256,192,121066,1,0,0:0:0:0:
256,192,121399,1,0,0:0:0:0:
256,192,121565,1,8,0:0:0:0:
256,192,121732,1,8,0:0:0:0:
256,192,121899,1,0,0:0:0:0:
256,192,122065,1,8,0:0:0:0:
256,192,122232,1,8,0:0:0:0:
256,192,122399,1,0,0:0:0:0:
256,192,122565,1,8,0:0:0:0:
256,192,122732,1,0,0:0:0:0:
256,192,122899,1,8,0:0:0:0:
256,192,123065,1,8,0:0:0:0:
256,192,123232,1,0,0:0:0:0:
256,192,123399,1,8,0:0:0:0:
256,192,123565,1,0,0:0:0:0:
256,192,123732,1,0,0:0:0:0:
256,192,124066,1,0,0:0:0:0:
256,192,124232,1,8,0:0:0:0:
256,192,124399,1,0,0:0:0:0:
256,192,124566,1,8,0:0:0:0:
256,192,124732,1,8,0:0:0:0:
256,192,124899,1,0,0:0:0:0:
256,192,125066,1,8,0:0:0:0:
256,192,125232,1,8,0:0:0:0:
256,192,125399,1,0,0:0:0:0:
256,192,125566,1,8,0:0:0:0:
256,192,125732,1,0,0:0:0:0:
256,192,125899,1,8,0:0:0:0:
256,192,126066,1,8,0:0:0:0:
256,192,126232,1,8,0:0:0:0:
256,192,126399,1,0,0:0:0:0:
256,192,126733,1,0,0:0:0:0:
256,192,126899,1,8,0:0:0:0:
256,192,127066,1,0,0:0:0:0:
256,192,127233,1,8,0:0:0:0:
256,192,127399,1,8,0:0:0:0:
256,192,127566,1,0,0:0:0:0:
256,192,127733,1,8,0:0:0:0:
256,192,127899,1,8,0:0:0:0:
256,192,128066,1,0,0:0:0:0:
256,192,128233,1,8,0:0:0:0:
256,192,128399,1,8,0:0:0:0:
256,192,128566,1,8,0:0:0:0:
256,192,128733,1,8,0:0:0:0:
256,192,128899,1,0,0:0:0:0:
256,192,129066,1,0,0:0:0:0:
256,192,129399,1,4,0:0:0:0:
256,192,129733,1,0,0:0:0:0:
256,192,129899,1,8,0:0:0:0:
256,192,130066,1,0,0:0:0:0:
256,192,130149,1,0,0:0:0:0:
256,192,130233,1,0,0:0:0:0:
256,192,130399,1,0,0:0:0:0:
256,192,130566,1,8,0:0:0:0:
256,192,130649,1,8,0:0:0:0:
256,192,130733,1,0,0:0:0:0:
256,192,131066,1,8,0:0:0:0:
256,192,131233,1,8,0:0:0:0:
256,192,131399,1,8,0:0:0:0:
256,192,131483,1,8,0:0:0:0:
256,192,131566,1,0,0:0:0:0:
256,192,131733,1,0,0:0:0:0:
256,192,131899,1,0,0:0:0:0:
256,192,131983,1,0,0:0:0:0:
256,192,132066,1,8,0:0:0:0:
256,192,132233,1,0,0:0:0:0:
256,192,132399,1,0,0:0:0:0:
256,192,132733,1,0,0:0:0:0:
256,192,132899,1,8,0:0:0:0:
256,192,132983,1,8,0:0:0:0:
256,192,133066,1,0,0:0:0:0:
256,192,133233,1,0,0:0:0:0:
256,192,133399,1,8,0:0:0:0:
256,192,133483,1,0,0:0:0:0:
256,192,133566,1,0,0:0:0:0:
256,192,133733,1,0,0:0:0:0:
256,192,134066,1,0,0:0:0:0:
256,192,134399,1,8,0:0:0:0:
256,192,134483,1,8,0:0:0:0:
256,192,134566,1,0,0:0:0:0:
256,192,134733,1,8,0:0:0:0:
256,192,135066,1,8,0:0:0:0:
256,192,135233,1,0,0:0:0:0:
256,192,135316,1,0,0:0:0:0:
256,192,135399,1,8,0:0:0:0:
256,192,135566,1,8,0:0:0:0:
256,192,135733,1,0,0:0:0:0:
256,192,135816,1,8,0:0:0:0:
256,192,135899,1,0,0:0:0:0:
256,192,136066,1,8,0:0:0:0:
256,192,136399,1,8,0:0:0:0:
256,192,136566,1,8,0:0:0:0:
256,192,136649,1,0,0:0:0:0:
256,192,136733,1,0,0:0:0:0:
256,192,136899,1,0,0:0:0:0:
256,192,137066,1,8,0:0:0:0:
256,192,137149,1,8,0:0:0:0:
256,192,137233,1,0,0:0:0:0:
256,192,137399,1,8,0:0:0:0:
256,192,137733,1,8,0:0:0:0:
256,192,137899,1,0,0:0:0:0:
256,192,137983,1,8,0:0:0:0:
256,192,138066,1,0,0:0:0:0:
256,192,138233,1,0,0:0:0:0:
256,192,138399,1,8,0:0:0:0:
256,192,138483,1,0,0:0:0:0:
256,192,138566,1,0,0:0:0:0:
256,192,138733,1,8,0:0:0:0:
256,192,139066,1,8,0:0:0:0:
256,192,139233,1,8,0:0:0:0:
256,192,139316,1,0,0:0:0:0:
256,192,139399,1,8,0:0:0:0:
256,192,139566,1,8,0:0:0:0:
256,192,139733,1,0,0:0:0:0:
256,192,139816,1,8,0:0:0:0:
256,192,139899,1,0,0:0:0:0:
256,192,140066,1,12,0:0:0:0:
256,192,140399,1,0,0:0:0:0:
256,192,140565,1,8,0:0:0:0:
256,192,140732,1,0,0:0:0:0:
256,192,140815,1,0,0:0:0:0:
256,192,140899,1,0,0:0:0:0:
256,192,141065,1,0,0:0:0:0:
256,192,141232,1,8,0:0:0:0:
256,192,141315,1,8,0:0:0:0:
256,192,141399,1,0,0:0:0:0:
256,192,141732,1,8,0:0:0:0:
256,192,141899,1,8,0:0:0:0:
256,192,142065,1,8,0:0:0:0:
256,192,142149,1,8,0:0:0:0:
256,192,142232,1,0,0:0:0:0:
256,192,142399,1,0,0:0:0:0:
256,192,142565,1,0,0:0:0:0:
256,192,142649,1,0,0:0:0:0:
256,192,142732,1,8,0:0:0:0:
256,192,142899,1,0,0:0:0:0:
256,192,143065,1,0,0:0:0:0:
256,192,143399,1,0,0:0:0:0:
256,192,143565,1,8,0:0:0:0:
256,192,143649,1,8,0:0:0:0:
256,192,143732,1,0,0:0:0:0:
256,192,143899,1,0,0:0:0:0:
256,192,144065,1,8,0:0:0:0:
256,192,144149,1,0,0:0:0:0:
256,192,144232,1,0,0:0:0:0:
256,192,144399,1,0,0:0:0:0:
256,192,144732,1,0,0:0:0:0:
256,192,145065,1,8,0:0:0:0:
256,192,145149,1,8,0:0:0:0:
256,192,145232,1,0,0:0:0:0:
256,192,145399,1,8,0:0:0:0:
256,192,145732,1,8,0:0:0:0:
256,192,145899,1,0,0:0:0:0:
256,192,145982,1,0,0:0:0:0:
256,192,146065,1,8,0:0:0:0:
256,192,146232,1,8,0:0:0:0:
256,192,146399,1,0,0:0:0:0:
256,192,146482,1,8,0:0:0:0:
256,192,146565,1,0,0:0:0:0:
256,192,146732,1,8,0:0:0:0:
256,192,147065,1,8,0:0:0:0:
256,192,147232,1,8,0:0:0:0:
256,192,147315,1,0,0:0:0:0:
256,192,147399,1,0,0:0:0:0:
256,192,147565,1,0,0:0:0:0:
256,192,147732,1,8,0:0:0:0:
256,192,147815,1,8,0:0:0:0:
256,192,147899,1,0,0:0:0:0:
256,192,148066,1,4,0:0:0:0:
256,192,148233,1,4,0:0:0:0:
256,192,148732,1,4,0:0:0:0:
256,192,148899,1,4,0:0:0:0:
256,192,149399,1,4,0:0:0:0:
256,192,149566,1,8,0:0:0:0:
256,192,149733,1,4,0:0:0:0:
256,192,149899,1,8,0:0:0:0:
256,192,150066,1,0,0:0:0:0:
256,192,150233,1,8,0:0:0:0:
256,192,150399,1,8,0:0:0:0:
256,192,150566,1,8,0:0:0:0:
256,192,150733,12,8,155733,0:0:0:0:
256,192,156066,5,0,0:0:0:0:
256,192,158066,5,8,0:0:0:0:
256,192,158733,1,0,0:0:0:0:
256,192,158899,12,0,160733,0:0:0:0:
256,192,161399,5,8,0:0:0:0:
256,192,162066,1,8,0:0:0:0:
256,192,162399,1,0,0:0:0:0:
256,192,162733,1,0,0:0:0:0:
256,192,162899,1,0,0:0:0:0:
256,192,163066,1,8,0:0:0:0:
256,192,163233,1,0,0:0:0:0:
256,192,163399,1,8,0:0:0:0:
256,192,164066,1,8,0:0:0:0:
256,192,164399,1,8,0:0:0:0:
256,192,164566,1,0,0:0:0:0:
256,192,164733,1,8,0:0:0:0:
256,192,165066,1,0,0:0:0:0:
256,192,165399,1,0,0:0:0:0:
256,192,165566,1,0,0:0:0:0:
256,192,165733,1,8,0:0:0:0:
256,192,165899,1,0,0:0:0:0:
256,192,166066,1,8,0:0:0:0:
256,192,166733,1,8,0:0:0:0:
256,192,167232,1,0,0:0:0:0:
256,192,167399,1,8,0:0:0:0:
256,192,167733,1,0,0:0:0:0:
256,192,168066,1,8,0:0:0:0:
256,192,168233,1,8,0:0:0:0:
256,192,168399,1,8,0:0:0:0:
256,192,168566,1,0,0:0:0:0:
256,192,168733,1,8,0:0:0:0:
256,192,169399,1,8,0:0:0:0:
256,192,169566,1,8,0:0:0:0:
256,192,169733,1,8,0:0:0:0:
256,192,169899,1,0,0:0:0:0:
256,192,170066,1,8,0:0:0:0:
256,192,170233,1,8,0:0:0:0:
256,192,170399,1,8,0:0:0:0:
256,192,170733,1,0,0:0:0:0:
256,192,170899,1,8,0:0:0:0:
256,192,171066,1,8,0:0:0:0:
256,192,171233,1,8,0:0:0:0:
256,192,171399,1,0,0:0:0:0:
256,192,171733,1,8,0:0:0:0:
256,192,172066,1,0,0:0:0:0:
256,192,172399,1,8,0:0:0:0:
256,192,172733,1,0,0:0:0:0:
256,192,173066,1,8,0:0:0:0:
256,192,173399,1,0,0:0:0:0:
256,192,173733,1,0,0:0:0:0:
256,192,173899,1,8,0:0:0:0:
256,192,174399,1,8,0:0:0:0:
256,192,174733,1,0,0:0:0:0:
256,192,175066,1,8,0:0:0:0:
256,192,175399,1,0,0:0:0:0:
256,192,175733,1,8,0:0:0:0:
256,192,176066,1,8,0:0:0:0:
256,192,176399,1,0,0:0:0:0:
256,192,176566,1,8,0:0:0:0:
256,192,177066,1,8,0:0:0:0:
256,192,177399,1,0,0:0:0:0:
256,192,177733,1,8,0:0:0:0:
256,192,178066,1,0,0:0:0:0:
256,192,178233,1,0,0:0:0:0:
256,192,178399,1,8,0:0:0:0:
256,192,178733,1,0,0:0:0:0:
256,192,179066,1,8,0:0:0:0:
256,192,179399,1,0,0:0:0:0:
256,192,179566,1,0,0:0:0:0:
256,192,179733,1,8,0:0:0:0:
256,192,179899,1,8,0:0:0:0:
256,192,180066,1,0,0:0:0:0:
256,192,180149,1,0,0:0:0:0:
256,192,180233,1,0,0:0:0:0:
256,192,180399,1,8,0:0:0:0:
256,192,180483,1,8,0:0:0:0:
256,192,180566,1,8,0:0:0:0:
256,192,180733,1,0,0:0:0:0:
256,192,180816,1,0,0:0:0:0:
256,192,180899,1,0,0:0:0:0:
256,192,181066,1,8,0:0:0:0:
256,192,181149,1,8,0:0:0:0:
256,192,181233,1,8,0:0:0:0:
256,192,181399,1,0,0:0:0:0:
256,192,181483,1,0,0:0:0:0:
256,192,181566,1,8,0:0:0:0:
256,192,181733,1,8,0:0:0:0:
256,192,181816,1,0,0:0:0:0:
256,192,181899,1,8,0:0:0:0:
256,192,182066,1,0,0:0:0:0:
256,192,182733,1,0,0:0:0:0:
256,192,183066,1,0,0:0:0:0:
256,192,183399,1,8,0:0:0:0:
256,192,183566,1,0,0:0:0:0:
256,192,183733,1,0,0:0:0:0:
256,192,183899,1,8,0:0:0:0:
256,192,184233,1,0,0:0:0:0:
256,192,184400,1,8,0:0:0:0:
256,192,184566,1,0,0:0:0:0:
256,192,184733,1,8,0:0:0:0:
256,192,184899,1,8,0:0:0:0:
256,192,185066,1,8,0:0:0:0:
256,192,185233,1,0,0:0:0:0:
256,192,185400,1,8,0:0:0:0:
256,192,185567,1,0,0:0:0:0:
256,192,185733,1,0,0:0:0:0:
256,192,186067,1,0,0:0:0:0:
256,192,186233,1,8,0:0:0:0:
256,192,186317,1,8,0:0:0:0:
256,192,186400,1,0,0:0:0:0:
256,192,186567,1,0,0:0:0:0:
256,192,186733,1,8,0:0:0:0:
256,192,186817,1,0,0:0:0:0:
256,192,186900,1,0,0:0:0:0:
256,192,187067,1,0,0:0:0:0:
256,192,187400,1,0,0:0:0:0:
256,192,187733,1,8,0:0:0:0:
256,192,187817,1,8,0:0:0:0:
256,192,187900,1,0,0:0:0:0:
256,192,187983,1,0,0:0:0:0:
256,192,188067,1,8,0:0:0:0:
256,192,188400,1,8,0:0:0:0:
256,192,188567,1,0,0:0:0:0:
256,192,188650,1,0,0:0:0:0:
256,192,188733,1,8,0:0:0:0:
256,192,188900,1,8,0:0:0:0:
256,192,189067,1,0,0:0:0:0:
256,192,189150,1,8,0:0:0:0:
256,192,189233,1,0,0:0:0:0:
256,192,189316,1,0,0:0:0:0:
256,192,189400,1,8,0:0:0:0:
256,192,189733,1,8,0:0:0:0:
256,192,189900,1,8,0:0:0:0:
256,192,189983,1,0,0:0:0:0:
256,192,190067,1,0,0:0:0:0:
256,192,190233,1,0,0:0:0:0:
256,192,190400,1,8,0:0:0:0:
256,192,190483,1,8,0:0:0:0:
256,192,190567,1,0,0:0:0:0:
256,192,190649,1,0,0:0:0:0:
256,192,190733,1,8,0:0:0:0:
256,192,191067,1,8,0:0:0:0:
256,192,191233,1,0,0:0:0:0:
256,192,191317,1,8,0:0:0:0:
256,192,191400,1,0,0:0:0:0:
256,192,191567,1,0,0:0:0:0:
256,192,191733,1,8,0:0:0:0:
256,192,191817,1,0,0:0:0:0:
256,192,191900,1,0,0:0:0:0:
256,192,191983,1,0,0:0:0:0:
256,192,192067,1,8,0:0:0:0:
256,192,192400,1,8,0:0:0:0:
256,192,192567,1,8,0:0:0:0:
256,192,192650,1,0,0:0:0:0:
256,192,192733,1,8,0:0:0:0:
256,192,192900,1,8,0:0:0:0:
256,192,193067,1,0,0:0:0:0:
256,192,193150,1,8,0:0:0:0:
256,192,193233,1,0,0:0:0:0:
256,192,193400,1,12,0:0:0:0:
256,192,193733,1,0,0:0:0:0:
256,192,193899,1,8,0:0:0:0:
256,192,194066,1,0,0:0:0:0:
256,192,194149,1,0,0:0:0:0:
256,192,194233,1,0,0:0:0:0:
256,192,194399,1,0,0:0:0:0:
256,192,194566,1,8,0:0:0:0:
256,192,194649,1,8,0:0:0:0:
256,192,194733,1,0,0:0:0:0:
256,192,195066,1,8,0:0:0:0:
256,192,195233,1,8,0:0:0:0:
256,192,195399,1,8,0:0:0:0:
256,192,195483,1,8,0:0:0:0:
256,192,195566,1,0,0:0:0:0:
256,192,195733,1,0,0:0:0:0:
256,192,195899,1,0,0:0:0:0:
256,192,195983,1,0,0:0:0:0:
256,192,196066,1,8,0:0:0:0:
256,192,196233,1,0,0:0:0:0:
256,192,196316,1,8,0:0:0:0:
256,192,196399,1,0,0:0:0:0:
256,192,196733,1,0,0:0:0:0:
256,192,196899,1,8,0:0:0:0:
256,192,196983,1,8,0:0:0:0:
256,192,197066,1,0,0:0:0:0:
256,192,197233,1,0,0:0:0:0:
256,192,197399,1,8,0:0:0:0:
256,192,197483,1,0,0:0:0:0:
256,192,197566,1,0,0:0:0:0:
256,192,197649,1,0,0:0:0:0:
256,192,197733,1,0,0:0:0:0:
256,192,198066,1,0,0:0:0:0:
256,192,198399,1,8,0:0:0:0:
256,192,198483,1,8,0:0:0:0:
256,192,198566,1,0,0:0:0:0:
256,192,198733,1,8,0:0:0:0:
256,192,199066,1,8,0:0:0:0:
256,192,199233,1,0,0:0:0:0:
256,192,199316,1,0,0:0:0:0:
256,192,199399,1,8,0:0:0:0:
256,192,199566,1,8,0:0:0:0:
256,192,199733,1,0,0:0:0:0:
256,192,199816,1,8,0:0:0:0:
256,192,199899,1,0,0:0:0:0:
256,192,199983,1,0,0:0:0:0:
256,192,200066,1,8,0:0:0:0:
256,192,200399,1,8,0:0:0:0:
256,192,200566,1,8,0:0:0:0:
256,192,200649,1,0,0:0:0:0:
256,192,200733,1,0,0:0:0:0:
256,192,200899,1,0,0:0:0:0:
256,192,201066,1,8,0:0:0:0:
256,192,201149,1,8,0:0:0:0:
256,192,201233,1,0,0:0:0:0:
256,192,201316,1,0,0:0:0:0:
256,192,201399,1,8,0:0:0:0:
256,192,201733,1,8,0:0:0:0:
256,192,201899,1,0,0:0:0:0:
256,192,201983,1,8,0:0:0:0:
256,192,202066,1,0,0:0:0:0:
256,192,202233,1,0,0:0:0:0:
256,192,202399,1,8,0:0:0:0:
256,192,202566,1,0,0:0:0:0:
256,192,202649,1,0,0:0:0:0:
256,192,202733,1,8,0:0:0:0:
256,192,202900,1,0,0:0:0:0:
256,192,202983,1,8,0:0:0:0:
256,192,203066,1,0,0:0:0:0:
256,192,203233,1,8,0:0:0:0:
256,192,203399,1,0,0:0:0:0:
256,192,203483,1,0,0:0:0:0:
256,192,203566,1,8,0:0:0:0:
256,192,203733,1,8,0:0:0:0:
256,192,203816,1,8,0:0:0:0:
256,192,203900,1,0,0:0:0:0:
256,192,204066,1,0,0:0:0:0:
256,192,204399,1,12,0:0:0:0:
256,192,204566,1,0,0:0:0:0:
256,192,204732,1,0,0:0:0:0:
256,192,204815,1,0,0:0:0:0:
256,192,204899,1,0,0:0:0:0:
256,192,205065,1,0,0:0:0:0:
256,192,205232,1,8,0:0:0:0:
256,192,205315,1,8,0:0:0:0:
256,192,205399,1,0,0:0:0:0:
256,192,205733,1,8,0:0:0:0:
256,192,205816,1,0,0:0:0:0:
256,192,205899,1,0,0:0:0:0:
256,192,206066,1,8,0:0:0:0:
256,192,206233,1,0,0:0:0:0:
256,192,206316,1,0,0:0:0:0:
256,192,206399,1,8,0:0:0:0:
256,192,206566,1,0,0:0:0:0:
256,192,206733,1,8,0:0:0:0:
256,192,206816,1,8,0:0:0:0:
256,192,206900,1,0,0:0:0:0:
256,192,207066,1,0,0:0:0:0:
256,192,207400,1,0,0:0:0:0:
256,192,207566,1,8,0:0:0:0:
256,192,207650,1,8,0:0:0:0:
256,192,207733,1,0,0:0:0:0:
256,192,207900,1,0,0:0:0:0:
256,192,208066,1,8,0:0:0:0:
256,192,208150,1,0,0:0:0:0:
256,192,208233,1,0,0:0:0:0:
256,192,208400,1,0,0:0:0:0:
256,192,208733,1,0,0:0:0:0:
256,192,209066,1,8,0:0:0:0:
256,192,209150,1,8,0:0:0:0:
256,192,209233,1,0,0:0:0:0:
256,192,209316,1,0,0:0:0:0:
256,192,209400,1,8,0:0:0:0:
256,192,209733,1,8,0:0:0:0:
256,192,209900,1,0,0:0:0:0:
256,192,209983,1,0,0:0:0:0:
256,192,210066,1,8,0:0:0:0:
256,192,210233,1,8,0:0:0:0:
256,192,210400,1,0,0:0:0:0:
256,192,210483,1,8,0:0:0:0:
256,192,210566,1,0,0:0:0:0:
256,192,210649,1,0,0:0:0:0:
256,192,210733,1,8,0:0:0:0:
256,192,211066,1,8,0:0:0:0:
256,192,211233,1,8,0:0:0:0:
256,192,211316,1,0,0:0:0:0:
256,192,211400,1,0,0:0:0:0:
256,192,211566,1,0,0:0:0:0:
256,192,211733,1,8,0:0:0:0:
256,192,211816,1,8,0:0:0:0:
256,192,211900,1,0,0:0:0:0:
256,192,211982,1,0,0:0:0:0:
256,192,212066,1,8,0:0:0:0:
256,192,212400,1,8,0:0:0:0:
256,192,212566,1,0,0:0:0:0:
256,192,212650,1,8,0:0:0:0:
256,192,212733,1,0,0:0:0:0:
256,192,212900,1,0,0:0:0:0:
256,192,213066,1,8,0:0:0:0:
256,192,213150,1,0,0:0:0:0:
256,192,213233,1,0,0:0:0:0:
256,192,213316,1,0,0:0:0:0:
256,192,213400,1,8,0:0:0:0:
256,192,213733,1,8,0:0:0:0:
256,192,213900,1,8,0:0:0:0:
256,192,213983,1,0,0:0:0:0:
256,192,214066,1,8,0:0:0:0:
256,192,214233,1,8,0:0:0:0:
256,192,214400,1,0,0:0:0:0:
256,192,214483,1,8,0:0:0:0:
256,192,214566,1,0,0:0:0:0:
256,192,214733,1,12,0:0:0:0:
256,192,215066,1,0,0:0:0:0:
256,192,215232,1,8,0:0:0:0:
256,192,215399,1,0,0:0:0:0:
256,192,215482,1,0,0:0:0:0:
256,192,215566,1,0,0:0:0:0:
256,192,215732,1,0,0:0:0:0:
256,192,215899,1,8,0:0:0:0:
256,192,215982,1,8,0:0:0:0:
256,192,216066,1,0,0:0:0:0:
256,192,216399,1,8,0:0:0:0:
256,192,216566,1,8,0:0:0:0:
256,192,216732,1,8,0:0:0:0:
256,192,216816,1,8,0:0:0:0:
256,192,216899,1,0,0:0:0:0:
256,192,217066,1,0,0:0:0:0:
256,192,217232,1,0,0:0:0:0:
256,192,217316,1,0,0:0:0:0:
256,192,217399,1,8,0:0:0:0:
256,192,217566,1,0,0:0:0:0:
256,192,217649,1,8,0:0:0:0:
256,192,217732,1,0,0:0:0:0:
256,192,218066,1,0,0:0:0:0:
256,192,218232,1,8,0:0:0:0:
256,192,218316,1,8,0:0:0:0:
256,192,218399,1,0,0:0:0:0:
256,192,218566,1,0,0:0:0:0:
256,192,218732,1,8,0:0:0:0:
256,192,218816,1,0,0:0:0:0:
256,192,218899,1,0,0:0:0:0:
256,192,218982,1,0,0:0:0:0:
256,192,219066,1,0,0:0:0:0:
256,192,219399,1,0,0:0:0:0:
256,192,219732,1,8,0:0:0:0:
256,192,219816,1,8,0:0:0:0:
256,192,219899,1,0,0:0:0:0:
256,192,220066,1,8,0:0:0:0:
256,192,220399,1,8,0:0:0:0:
256,192,220566,1,0,0:0:0:0:
256,192,220649,1,0,0:0:0:0:
256,192,220732,1,8,0:0:0:0:
256,192,220899,1,8,0:0:0:0:
256,192,221066,1,0,0:0:0:0:
256,192,221149,1,8,0:0:0:0:
256,192,221232,1,0,0:0:0:0:
256,192,221316,1,0,0:0:0:0:
256,192,221399,1,8,0:0:0:0:
256,192,221732,1,8,0:0:0:0:
256,192,221899,1,8,0:0:0:0:
256,192,221982,1,0,0:0:0:0:
256,192,222066,1,0,0:0:0:0:
256,192,222232,1,0,0:0:0:0:
256,192,222399,1,8,0:0:0:0:
256,192,222482,1,8,0:0:0:0:
256,192,222566,1,0,0:0:0:0:
256,192,222649,1,0,0:0:0:0:
256,192,222732,1,8,0:0:0:0:
256,192,223066,1,8,0:0:0:0:
256,192,223232,1,0,0:0:0:0:
256,192,223316,1,8,0:0:0:0:
256,192,223399,1,0,0:0:0:0:
256,192,223566,1,0,0:0:0:0:
256,192,223732,1,8,0:0:0:0:
256,192,223899,1,0,0:0:0:0:
256,192,223982,1,0,0:0:0:0:
256,192,224066,1,8,0:0:0:0:
256,192,224233,1,0,0:0:0:0:
256,192,224316,1,8,0:0:0:0:
256,192,224399,1,0,0:0:0:0:
256,192,224566,1,8,0:0:0:0:
256,192,224732,1,0,0:0:0:0:
256,192,224816,1,0,0:0:0:0:
256,192,224899,1,8,0:0:0:0:
256,192,225066,1,0,0:0:0:0:
256,192,225149,1,8,0:0:0:0:
256,192,225233,1,0,0:0:0:0:
256,192,225399,1,8,0:0:0:0:
256,192,225565,1,0,0:0:0:0:
256,192,225649,1,0,0:0:0:0:
256,192,225732,1,8,0:0:0:0:
256,192,225899,1,8,0:0:0:0:
256,192,226065,1,0,0:0:0:0:
256,192,226149,1,0,0:0:0:0:
256,192,226232,1,0,0:0:0:0:
256,192,226399,1,8,0:0:0:0:
256,192,226565,1,0,0:0:0:0:
256,192,226649,1,8,0:0:0:0:
256,192,226732,1,8,0:0:0:0:
256,192,226899,1,8,0:0:0:0:
256,192,227065,1,0,0:0:0:0:
256,192,227149,1,8,0:0:0:0:
256,192,227232,1,0,0:0:0:0:
256,192,227399,1,8,0:0:0:0:
256,192,227565,1,0,0:0:0:0:
256,192,227649,1,0,0:0:0:0:
256,192,227732,1,8,0:0:0:0:
256,192,227899,1,0,0:0:0:0:
256,192,228065,1,8,0:0:0:0:
256,192,228233,1,0,0:0:0:0:
256,192,228315,1,0,0:0:0:0:
256,192,228398,1,8,0:0:0:0:
256,192,228565,1,8,0:0:0:0:
256,192,228733,1,0,0:0:0:0:
256,192,228815,1,0,0:0:0:0:
256,192,228898,1,0,0:0:0:0:
256,192,229065,1,8,0:0:0:0:
256,192,229232,1,0,0:0:0:0:
256,192,229315,1,8,0:0:0:0:
256,192,229398,1,8,0:0:0:0:
256,192,229565,1,8,0:0:0:0:
256,192,229733,1,0,0:0:0:0:
256,192,229815,1,8,0:0:0:0:
256,192,229898,1,0,0:0:0:0:
256,192,230065,1,8,0:0:0:0:
256,192,230233,1,0,0:0:0:0:
256,192,230315,1,0,0:0:0:0:
256,192,230398,1,8,0:0:0:0:
256,192,230565,1,0,0:0:0:0:
256,192,230732,1,8,0:0:0:0:
256,192,230898,1,0,0:0:0:0:
256,192,230982,1,0,0:0:0:0:
256,192,231065,1,8,0:0:0:0:
256,192,231232,1,8,0:0:0:0:
256,192,231398,1,0,0:0:0:0:
256,192,231482,1,0,0:0:0:0:
256,192,231565,1,0,0:0:0:0:
256,192,231732,1,8,0:0:0:0:
256,192,231898,1,0,0:0:0:0:
256,192,231982,1,8,0:0:0:0:
256,192,232065,1,8,0:0:0:0:
256,192,232232,1,8,0:0:0:0:
256,192,232398,1,0,0:0:0:0:
256,192,232482,1,8,0:0:0:0:
256,192,232565,1,0,0:0:0:0:
256,192,232732,1,8,0:0:0:0:
256,192,232898,1,0,0:0:0:0:
256,192,232982,1,0,0:0:0:0:
256,192,233065,1,8,0:0:0:0:
256,192,233149,1,8,0:0:0:0:
256,192,233232,1,0,0:0:0:0:
256,192,233398,1,8,0:0:0:0:
256,192,233566,1,0,0:0:0:0:
256,192,233648,1,0,0:0:0:0:
256,192,233733,1,8,0:0:0:0:
256,192,233898,1,8,0:0:0:0:
256,192,234066,1,0,0:0:0:0:
256,192,234148,1,0,0:0:0:0:
256,192,234233,1,0,0:0:0:0:
256,192,234398,1,8,0:0:0:0:
256,192,234565,1,0,0:0:0:0:
256,192,234648,1,8,0:0:0:0:
256,192,234733,1,8,0:0:0:0:
256,192,234898,1,8,0:0:0:0:
256,192,235066,1,0,0:0:0:0:
256,192,235148,1,8,0:0:0:0:
256,192,235233,1,0,0:0:0:0:
256,192,235398,1,8,0:0:0:0:
256,192,235483,1,8,0:0:0:0:
256,192,235565,1,0,0:0:0:0:
256,192,235732,1,8,0:0:0:0:
256,192,235899,1,0,0:0:0:0:
256,192,236066,1,8,0:0:0:0:
256,192,236232,1,0,0:0:0:0:
256,192,236316,1,0,0:0:0:0:
256,192,236399,1,8,0:0:0:0:
256,192,236566,1,8,0:0:0:0:
256,192,236732,1,0,0:0:0:0:
256,192,236899,1,0,0:0:0:0:
256,192,237066,1,8,0:0:0:0:
256,192,237232,1,0,0:0:0:0:
256,192,237316,1,8,0:0:0:0:
256,192,237399,1,8,0:0:0:0:
256,192,237566,1,8,0:0:0:0:
256,192,237732,1,0,0:0:0:0:
256,192,237899,1,0,0:0:0:0:
256,192,238066,1,8,0:0:0:0:
256,192,238232,1,0,0:0:0:0:
256,192,238316,1,0,0:0:0:0:
256,192,238399,1,8,0:0:0:0:
256,192,238566,1,0,0:0:0:0:
256,192,238732,1,8,0:0:0:0:
256,192,238898,1,0,0:0:0:0:
256,192,238982,1,0,0:0:0:0:
256,192,239065,1,8,0:0:0:0:
256,192,239232,1,8,0:0:0:0:
256,192,239398,1,0,0:0:0:0:
256,192,239565,1,0,0:0:0:0:
256,192,239732,1,8,0:0:0:0:
256,192,239899,1,0,0:0:0:0:
256,192,239982,1,8,0:0:0:0:
256,192,240065,1,8,0:0:0:0:
256,192,240232,1,8,0:0:0:0:
256,192,240398,1,0,0:0:0:0:
256,192,240565,1,0,0:0:0:0:
256,192,240732,1,8,0:0:0:0:
256,192,240898,1,0,0:0:0:0:
256,192,240982,1,0,0:0:0:0:
256,192,241065,1,8,0:0:0:0:
256,192,241232,1,0,0:0:0:0:
256,192,241399,1,8,0:0:0:0:
256,192,241565,1,0,0:0:0:0:
256,192,241649,1,0,0:0:0:0:
256,192,241732,1,8,0:0:0:0:
256,192,241899,1,8,0:0:0:0:
256,192,242065,1,0,0:0:0:0:
256,192,242232,1,0,0:0:0:0:
256,192,242399,1,8,0:0:0:0:
256,192,242565,1,0,0:0:0:0:
256,192,242649,1,0,0:0:0:0:
256,192,242732,1,8,0:0:0:0:
256,192,242899,1,8,0:0:0:0:
256,192,243065,1,0,0:0:0:0:
256,192,243232,1,0,0:0:0:0:
256,192,243399,1,8,0:0:0:0:
256,192,243565,1,0,0:0:0:0:
256,192,243732,1,8,0:0:0:0:
256,192,243816,1,8,0:0:0:0:
256,192,243899,1,0,0:0:0:0:
256,192,244065,1,8,0:0:0:0:
256,192,244233,1,0,0:0:0:0:
256,192,244315,1,0,0:0:0:0:
256,192,244398,1,8,0:0:0:0:
256,192,244565,1,8,0:0:0:0:
256,192,244733,1,0,0:0:0:0:
256,192,244898,1,0,0:0:0:0:
256,192,245065,1,8,0:0:0:0:
256,192,245232,1,0,0:0:0:0:
256,192,245315,1,8,0:0:0:0:
256,192,245398,1,8,0:0:0:0:
256,192,245565,1,0,0:0:0:0:
256,192,245649,1,8,0:0:0:0:
256,192,245733,1,0,0:0:0:0:
256,192,245899,1,0,0:0:0:0:
256,192,246065,1,12,0:0:0:0:
256,192,246232,1,4,0:0:0:0:
256,192,246399,1,12,0:0:0:0:
256,192,246566,1,12,0:0:0:0:
