osu file format v14

[General]
AudioFilename: emerge_great_three.ogg
AudioLeadIn: 0
PreviewTime: 13900
Countdown: 0
SampleSet: Soft
StackLeniency: 0.7
Mode: 3
LetterboxInBreaks: 0
SpecialStyle: 0
WidescreenStoryboard: 1

[Editor]
Bookmarks: 157723
DistanceSpacing: 0.8
BeatDivisor: 4
GridSize: 32
TimelineZoom: 0.9

[Metadata]
Title:Kengen / great three
TitleUnicode:顕現/great three
Artist:Hideyuki Fukasawa
ArtistUnicode:深澤秀行
Creator:richardfeder
Version:Normal
Source:魔法使いの夜
Tags:SVWC-7853 オリジナル サウンドトラック original soundtracks video game instrumental visual novel mahoyo witch on the holy night mahou tsukai no yoru OST BGM TYPE-MOON ArcherLove
BeatmapID:1782442
BeatmapSetID:365716

[Difficulty]
HPDrainRate:6
CircleSize:7
OverallDifficulty:6
ApproachRate:5
SliderMultiplier:1.4
SliderTickRate:1

[Events]
//Background and Video events
0,0,"BG.jpg",0,0
//Break Periods
//Storyboard Layer 0 (Background)
//Storyboard Layer 1 (Fail)
//Storyboard Layer 2 (Pass)
//Storyboard Layer 3 (Foreground)
//Storyboard Layer 4 (Overlay)
//Storyboard Sound Samples

[TimingPoints]
649,441.176470588235,4,2,1,30,1,0
14766,-100,4,2,1,30,0,1
32413,-100,4,2,1,30,0,0
125943,-100,4,2,1,30,0,1
143590,-100,4,2,1,30,0,0

[HitObjects]
329,192,649,5,0,0:0:0:0:
329,192,869,1,0,0:0:0:0:
182,192,1090,1,0,0:0:0:0:
36,192,1090,1,0,0:0:0:0:
182,192,1531,1,0,0:0:0:0:
182,192,1751,1,0,0:0:0:0:
329,192,1972,1,0,0:0:0:0:
475,192,1972,1,0,0:0:0:0:
109,192,2413,1,0,0:0:0:0:
109,192,2634,1,0,0:0:0:0:
329,192,2854,1,0,0:0:0:0:
402,192,2854,1,0,0:0:0:0:
329,192,3296,1,0,0:0:0:0:
329,192,3516,1,0,0:0:0:0:
256,192,3737,1,0,0:0:0:0:
182,192,3737,1,0,0:0:0:0:
36,192,4178,1,0,0:0:0:0:
36,192,4398,1,0,0:0:0:0:
329,192,4619,1,0,0:0:0:0:
475,192,4619,1,0,0:0:0:0:
182,192,5060,1,0,0:0:0:0:
182,192,5281,1,0,0:0:0:0:
329,192,5501,1,0,0:0:0:0:
475,192,5501,1,0,0:0:0:0:
402,192,5943,1,0,0:0:0:0:
402,192,6163,1,0,0:0:0:0:
182,192,6384,1,0,0:0:0:0:
36,192,6384,1,0,0:0:0:0:
256,192,6825,1,0,0:0:0:0:
256,192,7046,1,0,0:0:0:0:
182,192,7266,5,0,0:0:0:0:
36,192,7266,1,0,0:0:0:0:
109,192,7707,1,0,0:0:0:0:
109,192,7928,1,0,0:0:0:0:
475,192,8148,1,0,0:0:0:0:
329,192,8148,1,0,0:0:0:0:
182,192,8369,128,0,8590:0:0:0:0:
329,192,8810,128,0,9031:0:0:0:0:
109,192,9251,128,0,9472:0:0:0:0:
329,192,9472,1,0,0:0:0:0:
329,192,9693,1,0,0:0:0:0:
182,192,9913,1,0,0:0:0:0:
36,192,9913,1,0,0:0:0:0:
402,192,10354,1,0,0:0:0:0:
402,192,10575,1,0,0:0:0:0:
182,192,10796,1,0,0:0:0:0:
36,192,10796,1,0,0:0:0:0:
256,192,11237,1,0,0:0:0:0:
256,192,11457,1,0,0:0:0:0:
36,192,11678,1,0,0:0:0:0:
109,192,11678,1,0,0:0:0:0:
329,192,11898,128,0,12119:0:0:0:0:
109,192,12340,128,0,12560:0:0:0:0:
475,192,12781,128,0,13001:0:0:0:0:
36,192,14766,1,0,0:0:0:0:
182,192,14766,1,0,0:0:0:0:
329,192,14987,1,0,0:0:0:0:
109,192,15207,1,0,0:0:0:0:
402,192,15207,1,0,0:0:0:0:
182,192,15318,1,0,0:0:0:0:
256,192,15428,1,0,0:0:0:0:
182,192,15648,1,0,0:0:0:0:
329,192,15869,1,0,0:0:0:0:
109,192,16090,1,0,0:0:0:0:
402,192,16090,1,0,0:0:0:0:
182,192,16200,1,0,0:0:0:0:
256,192,16310,1,0,0:0:0:0:
182,192,16531,1,0,0:0:0:0:
402,192,16531,1,0,0:0:0:0:
329,192,16751,1,0,0:0:0:0:
256,192,16972,1,0,0:0:0:0:
36,192,16972,1,0,0:0:0:0:
329,192,17082,1,0,0:0:0:0:
402,192,17193,1,0,0:0:0:0:
182,192,17413,1,0,0:0:0:0:
329,192,17634,1,0,0:0:0:0:
256,192,17854,1,0,0:0:0:0:
36,192,17854,1,0,0:0:0:0:
329,192,17965,1,0,0:0:0:0:
402,192,18075,1,0,0:0:0:0:
256,192,18296,1,0,0:0:0:0:
475,192,18296,1,0,0:0:0:0:
402,192,18516,1,0,0:0:0:0:
329,192,18737,1,0,0:0:0:0:
109,192,18737,1,0,0:0:0:0:
402,192,18847,1,0,0:0:0:0:
475,192,18957,1,0,0:0:0:0:
256,192,19178,1,0,0:0:0:0:
402,192,19398,1,0,0:0:0:0:
329,192,19619,1,0,0:0:0:0:
109,192,19619,1,0,0:0:0:0:
402,192,19729,1,0,0:0:0:0:
475,192,19840,1,0,0:0:0:0:
475,192,20060,1,0,0:0:0:0:
182,192,20060,1,0,0:0:0:0:
402,192,20171,1,0,0:0:0:0:
329,192,20281,1,0,0:0:0:0:
329,192,20501,1,0,0:0:0:0:
109,192,20501,1,0,0:0:0:0:
256,192,20612,1,0,0:0:0:0:
182,192,20722,1,0,0:0:0:0:
182,192,20943,1,0,0:0:0:0:
36,192,21163,1,0,0:0:0:0:
109,192,21273,1,0,0:0:0:0:
182,192,21384,1,0,0:0:0:0:
475,192,21384,1,0,0:0:0:0:
256,192,21494,1,0,0:0:0:0:
329,192,21604,1,0,0:0:0:0:
402,192,21715,1,0,0:0:0:0:
182,192,21825,1,0,0:0:0:0:
475,192,21825,1,0,0:0:0:0:
329,192,22266,1,0,0:0:0:0:
182,192,22266,1,0,0:0:0:0:
402,192,22376,1,0,0:0:0:0:
475,192,22487,1,0,0:0:0:0:
182,192,22707,1,0,0:0:0:0:
109,192,22818,1,0,0:0:0:0:
36,192,22928,1,0,0:0:0:0:
329,192,23148,1,0,0:0:0:0:
182,192,23148,1,0,0:0:0:0:
402,192,23259,1,0,0:0:0:0:
475,192,23369,1,0,0:0:0:0:
36,192,23590,1,0,0:0:0:0:
256,192,23590,1,0,0:0:0:0:
182,192,23700,1,0,0:0:0:0:
329,192,23810,1,0,0:0:0:0:
109,192,24031,1,0,0:0:0:0:
475,192,24031,1,0,0:0:0:0:
256,192,24141,1,0,0:0:0:0:
402,192,24251,1,0,0:0:0:0:
36,192,24472,1,0,0:0:0:0:
182,192,24582,1,0,0:0:0:0:
329,192,24693,1,0,0:0:0:0:
109,192,24913,1,0,0:0:0:0:
475,192,24913,1,0,0:0:0:0:
256,192,25023,1,0,0:0:0:0:
402,192,25134,1,0,0:0:0:0:
109,192,25354,1,0,0:0:0:0:
475,192,25354,1,0,0:0:0:0:
256,192,25465,1,0,0:0:0:0:
329,192,25575,1,0,0:0:0:0:
36,192,25796,1,0,0:0:0:0:
182,192,25796,1,0,0:0:0:0:
329,192,25906,1,0,0:0:0:0:
475,192,26016,1,0,0:0:0:0:
109,192,26237,1,0,0:0:0:0:
256,192,26347,1,0,0:0:0:0:
329,192,26457,1,0,0:0:0:0:
182,192,26678,1,0,0:0:0:0:
36,192,26678,1,0,0:0:0:0:
329,192,26788,1,0,0:0:0:0:
475,192,26898,1,0,0:0:0:0:
182,192,27119,1,0,0:0:0:0:
402,192,27119,1,0,0:0:0:0:
109,192,27229,1,0,0:0:0:0:
36,192,27340,1,0,0:0:0:0:
329,192,27560,1,0,0:0:0:0:
475,192,27560,1,0,0:0:0:0:
256,192,27671,1,0,0:0:0:0:
182,192,27781,1,0,0:0:0:0:
329,192,28001,1,0,0:0:0:0:
402,192,28112,1,0,0:0:0:0:
475,192,28222,1,0,0:0:0:0:
182,192,28443,1,0,0:0:0:0:
329,192,28443,1,0,0:0:0:0:
109,192,28553,1,0,0:0:0:0:
36,192,28663,1,0,0:0:0:0:
475,192,28884,128,0,29766:0:0:0:0:
256,192,28884,1,0,0:0:0:0:
36,192,29325,1,0,0:0:0:0:
182,192,29325,1,0,0:0:0:0:
329,192,29766,128,0,30648:0:0:0:0:
109,192,29766,1,0,0:0:0:0:
36,192,30207,1,0,0:0:0:0:
182,192,30207,1,0,0:0:0:0:
182,192,30648,128,0,31531:0:0:0:0:
402,192,30648,1,0,0:0:0:0:
329,192,31090,1,0,0:0:0:0:
475,192,31090,1,0,0:0:0:0:
36,192,31531,128,0,32413:0:0:0:0:
402,192,31531,1,0,0:0:0:0:
329,192,31972,1,0,0:0:0:0:
475,192,31972,1,0,0:0:0:0:
182,192,32413,128,0,32854:0:0:0:0:
402,192,32413,1,0,0:0:0:0:
256,192,32413,1,0,0:0:0:0:
329,192,32854,128,0,33296:0:0:0:0:
36,192,32854,1,0,0:0:0:0:
109,192,33296,1,0,0:0:0:0:
475,192,33296,1,0,0:0:0:0:
256,192,33516,1,0,0:0:0:0:
182,192,33737,128,0,34178:0:0:0:0:
36,192,33737,1,0,0:0:0:0:
402,192,33737,1,0,0:0:0:0:
402,192,34178,128,0,34619:0:0:0:0:
256,192,34178,1,0,0:0:0:0:
256,192,34619,128,0,35060:0:0:0:0:
109,192,34619,1,0,0:0:0:0:
402,192,35060,1,0,0:0:0:0:
329,192,35060,1,0,0:0:0:0:
109,192,35281,1,0,0:0:0:0:
475,192,35501,1,0,0:0:0:0:
256,192,35501,1,0,0:0:0:0:
36,192,35722,1,0,0:0:0:0:
402,192,35943,128,0,36384:0:0:0:0:
256,192,35943,1,0,0:0:0:0:
182,192,36384,128,0,36825:0:0:0:0:
36,192,36384,1,0,0:0:0:0:
475,192,36825,1,0,0:0:0:0:
256,192,36825,1,0,0:0:0:0:
329,192,37046,1,0,0:0:0:0:
109,192,37266,128,0,37707:0:0:0:0:
182,192,37266,1,0,0:0:0:0:
402,192,37266,1,0,0:0:0:0:
329,192,37487,1,0,0:0:0:0:
256,192,37707,128,0,38148:0:0:0:0:
475,192,37707,1,0,0:0:0:0:
36,192,38148,128,0,38590:0:0:0:0:
329,192,38148,1,0,0:0:0:0:
256,192,38590,1,0,0:0:0:0:
475,192,38590,1,0,0:0:0:0:
329,192,38810,1,0,0:0:0:0:
402,192,39031,1,0,0:0:0:0:
109,192,39031,1,0,0:0:0:0:
402,192,39251,1,0,0:0:0:0:
182,192,39472,128,0,39913:0:0:0:0:
36,192,39472,1,0,0:0:0:0:
329,192,39913,128,0,40354:0:0:0:0:
475,192,39913,1,0,0:0:0:0:
36,192,40354,1,0,0:0:0:0:
402,192,40354,1,0,0:0:0:0:
109,192,40575,1,0,0:0:0:0:
182,192,40796,128,0,41237:0:0:0:0:
329,192,40796,1,0,0:0:0:0:
475,192,41237,128,0,41678:0:0:0:0:
36,192,41237,1,0,0:0:0:0:
109,192,41678,128,0,42119:0:0:0:0:
256,192,41678,1,0,0:0:0:0:
329,192,42119,1,0,0:0:0:0:
475,192,42119,1,0,0:0:0:0:
182,192,42340,1,0,0:0:0:0:
402,192,42560,1,0,0:0:0:0:
256,192,42560,1,0,0:0:0:0:
109,192,42781,1,0,0:0:0:0:
329,192,43001,128,0,43884:0:0:0:0:
475,192,43001,1,0,0:0:0:0:
36,192,43222,1,0,0:0:0:0:
182,192,43443,1,0,0:0:0:0:
182,192,43884,128,0,44766:0:0:0:0:
36,192,43884,1,0,0:0:0:0:
475,192,44104,1,0,0:0:0:0:
329,192,44325,1,0,0:0:0:0:
36,192,44766,128,0,45207:0:0:0:0:
475,192,44766,1,0,0:0:0:0:
402,192,45207,128,0,45648:0:0:0:0:
182,192,45207,1,0,0:0:0:0:
109,192,45648,128,0,46090:0:0:0:0:
475,192,45648,1,0,0:0:0:0:
475,192,46090,128,0,46531:0:0:0:0:
182,192,46090,1,0,0:0:0:0:
182,192,46531,128,0,46972:0:0:0:0:
256,192,46531,1,0,0:0:0:0:
36,192,46531,1,0,0:0:0:0:
329,192,46972,128,0,47413:0:0:0:0:
402,192,46972,1,0,0:0:0:0:
109,192,47413,1,0,0:0:0:0:
475,192,47413,1,0,0:0:0:0:
256,192,47634,1,0,0:0:0:0:
182,192,47854,128,0,48296:0:0:0:0:
402,192,47854,1,0,0:0:0:0:
36,192,47854,1,0,0:0:0:0:
475,192,48296,128,0,48737:0:0:0:0:
256,192,48296,1,0,0:0:0:0:
109,192,48737,128,0,49178:0:0:0:0:
182,192,48737,1,0,0:0:0:0:
329,192,49178,1,0,0:0:0:0:
475,192,49178,1,0,0:0:0:0:
182,192,49398,1,0,0:0:0:0:
256,192,49619,1,0,0:0:0:0:
402,192,49619,1,0,0:0:0:0:
109,192,49840,1,0,0:0:0:0:
329,192,50060,128,0,50501:0:0:0:0:
182,192,50060,1,0,0:0:0:0:
36,192,50501,128,0,50943:0:0:0:0:
475,192,50501,1,0,0:0:0:0:
256,192,50943,1,0,0:0:0:0:
402,192,50943,1,0,0:0:0:0:
182,192,51163,1,0,0:0:0:0:
109,192,51384,128,0,51825:0:0:0:0:
475,192,51384,1,0,0:0:0:0:
256,192,51825,128,0,52266:0:0:0:0:
402,192,51825,1,0,0:0:0:0:
36,192,52266,128,0,52707:0:0:0:0:
182,192,52266,1,0,0:0:0:0:
256,192,52707,1,0,0:0:0:0:
475,192,52707,1,0,0:0:0:0:
329,192,52928,1,0,0:0:0:0:
402,192,53148,1,0,0:0:0:0:
182,192,53148,1,0,0:0:0:0:
402,192,53369,1,0,0:0:0:0:
402,192,53590,1,0,0:0:0:0:
109,192,53590,1,0,0:0:0:0:
329,192,54031,1,0,0:0:0:0:
36,192,54031,1,0,0:0:0:0:
256,192,54251,1,0,0:0:0:0:
182,192,54472,1,0,0:0:0:0:
182,192,54693,1,0,0:0:0:0:
182,192,54913,1,0,0:0:0:0:
402,192,54913,1,0,0:0:0:0:
182,192,55134,1,0,0:0:0:0:
329,192,55354,1,0,0:0:0:0:
475,192,55354,1,0,0:0:0:0:
109,192,55575,1,0,0:0:0:0:
256,192,55796,1,0,0:0:0:0:
475,192,55796,1,0,0:0:0:0:
109,192,56016,1,0,0:0:0:0:
402,192,56237,1,0,0:0:0:0:
256,192,56237,1,0,0:0:0:0:
109,192,56457,1,0,0:0:0:0:
109,192,56678,1,0,0:0:0:0:
329,192,56678,1,0,0:0:0:0:
109,192,56898,1,0,0:0:0:0:
36,192,57119,128,0,58001:0:0:0:0:
402,192,57119,1,0,0:0:0:0:
182,192,57119,1,0,0:0:0:0:
256,192,57340,1,0,0:0:0:0:
329,192,57560,1,0,0:0:0:0:
475,192,57560,1,0,0:0:0:0:
182,192,57781,1,0,0:0:0:0:
475,192,58001,128,0,58884:0:0:0:0:
256,192,58001,1,0,0:0:0:0:
109,192,58222,1,0,0:0:0:0:
182,192,58443,1,0,0:0:0:0:
36,192,58663,1,0,0:0:0:0:
109,192,58884,128,0,59325:0:0:0:0:
402,192,58884,1,0,0:0:0:0:
256,192,58884,1,0,0:0:0:0:
402,192,59325,128,0,59766:0:0:0:0:
182,192,59325,1,0,0:0:0:0:
182,192,59766,128,0,60207:0:0:0:0:
329,192,59766,1,0,0:0:0:0:
329,192,60207,128,0,60648:0:0:0:0:
36,192,60207,1,0,0:0:0:0:
109,192,60648,1,0,0:0:0:0:
475,192,60648,1,0,0:0:0:0:
182,192,60869,1,0,0:0:0:0:
256,192,61090,1,0,0:0:0:0:
402,192,61090,1,0,0:0:0:0:
36,192,61310,1,0,0:0:0:0:
109,192,61531,128,0,61751:0:0:0:0:
329,192,61531,1,0,0:0:0:0:
182,192,61751,128,0,61972:0:0:0:0:
256,192,61972,128,0,62193:0:0:0:0:
475,192,61972,1,0,0:0:0:0:
36,192,62193,128,0,62413:0:0:0:0:
182,192,62413,1,0,0:0:0:0:
402,192,62413,1,0,0:0:0:0:
256,192,62634,1,0,0:0:0:0:
329,192,62854,1,0,0:0:0:0:
475,192,62854,1,0,0:0:0:0:
109,192,63075,1,0,0:0:0:0:
182,192,63296,128,0,63516:0:0:0:0:
402,192,63296,1,0,0:0:0:0:
256,192,63516,128,0,63737:0:0:0:0:
329,192,63737,128,0,63957:0:0:0:0:
36,192,63737,1,0,0:0:0:0:
109,192,63957,128,0,64178:0:0:0:0:
256,192,64178,1,0,0:0:0:0:
475,192,64178,1,0,0:0:0:0:
329,192,64398,1,0,0:0:0:0:
402,192,64619,1,0,0:0:0:0:
109,192,64619,1,0,0:0:0:0:
182,192,64840,1,0,0:0:0:0:
256,192,65060,128,0,65281:0:0:0:0:
36,192,65060,1,0,0:0:0:0:
329,192,65281,128,0,65501:0:0:0:0:
402,192,65501,128,0,65722:0:0:0:0:
109,192,65501,1,0,0:0:0:0:
182,192,65722,128,0,65943:0:0:0:0:
36,192,65943,1,0,0:0:0:0:
475,192,65943,128,0,66163:0:0:0:0:
256,192,66163,128,0,66384:0:0:0:0:
109,192,66384,1,0,0:0:0:0:
402,192,66384,128,0,66604:0:0:0:0:
182,192,66604,128,0,66825:0:0:0:0:
36,192,66825,1,0,0:0:0:0:
329,192,66825,128,0,67046:0:0:0:0:
109,192,67046,128,0,67266:0:0:0:0:
475,192,67266,1,0,0:0:0:0:
402,192,67266,128,0,67487:0:0:0:0:
256,192,67487,1,0,0:0:0:0:
182,192,67487,128,0,67707:0:0:0:0:
475,192,67707,1,0,0:0:0:0:
36,192,67707,1,0,0:0:0:0:
402,192,67928,1,0,0:0:0:0:
329,192,68148,1,0,0:0:0:0:
109,192,68148,1,0,0:0:0:0:
475,192,68369,1,0,0:0:0:0:
402,192,68590,128,0,68810:0:0:0:0:
182,192,68590,1,0,0:0:0:0:
329,192,68810,128,0,69031:0:0:0:0:
256,192,69031,128,0,69251:0:0:0:0:
36,192,69031,1,0,0:0:0:0:
475,192,69251,128,0,69472:0:0:0:0:
329,192,69472,1,0,0:0:0:0:
109,192,69472,1,0,0:0:0:0:
256,192,69693,1,0,0:0:0:0:
182,192,69913,1,0,0:0:0:0:
475,192,69913,1,0,0:0:0:0:
402,192,70134,1,0,0:0:0:0:
329,192,70354,128,0,70575:0:0:0:0:
109,192,70354,1,0,0:0:0:0:
256,192,70575,128,0,70796:0:0:0:0:
182,192,70796,128,0,71016:0:0:0:0:
475,192,70796,1,0,0:0:0:0:
402,192,71016,128,0,71237:0:0:0:0:
256,192,71237,1,0,0:0:0:0:
36,192,71237,1,0,0:0:0:0:
182,192,71457,1,0,0:0:0:0:
109,192,71678,1,0,0:0:0:0:
402,192,71678,1,0,0:0:0:0:
329,192,71898,1,0,0:0:0:0:
256,192,72119,128,0,72340:0:0:0:0:
475,192,72119,1,0,0:0:0:0:
182,192,72340,128,0,72560:0:0:0:0:
109,192,72560,128,0,72781:0:0:0:0:
402,192,72560,1,0,0:0:0:0:
329,192,72781,128,0,73001:0:0:0:0:
182,192,73001,1,0,0:0:0:0:
475,192,73001,128,0,73222:0:0:0:0:
256,192,73222,128,0,73443:0:0:0:0:
109,192,73443,1,0,0:0:0:0:
402,192,73443,128,0,73663:0:0:0:0:
182,192,73663,128,0,73884:0:0:0:0:
36,192,73884,1,0,0:0:0:0:
329,192,73884,128,0,74104:0:0:0:0:
475,192,74104,128,0,74325:0:0:0:0:
329,192,74325,1,0,0:0:0:0:
256,192,74435,1,0,0:0:0:0:
182,192,74546,1,0,0:0:0:0:
109,192,74656,1,0,0:0:0:0:
36,192,74766,128,0,75428:0:0:0:0:
475,192,74766,1,0,0:0:0:0:
329,192,74766,1,0,0:0:0:0:
256,192,75207,1,0,0:0:0:0:
402,192,75207,1,0,0:0:0:0:
475,192,75428,128,0,75869:0:0:0:0:
109,192,75648,1,0,0:0:0:0:
182,192,75869,128,0,76531:0:0:0:0:
475,192,76090,1,0,0:0:0:0:
329,192,76090,1,0,0:0:0:0:
402,192,76531,128,0,76972:0:0:0:0:
475,192,76531,1,0,0:0:0:0:
256,192,76972,128,0,77413:0:0:0:0:
36,192,76972,1,0,0:0:0:0:
182,192,76972,1,0,0:0:0:0:
475,192,77413,1,0,0:0:0:0:
109,192,77413,1,0,0:0:0:0:
402,192,77523,1,0,0:0:0:0:
329,192,77634,1,0,0:0:0:0:
182,192,77854,1,0,0:0:0:0:
36,192,77854,1,0,0:0:0:0:
256,192,77965,1,0,0:0:0:0:
329,192,78075,1,0,0:0:0:0:
475,192,78296,128,0,78957:0:0:0:0:
109,192,78296,1,0,0:0:0:0:
182,192,78737,1,0,0:0:0:0:
329,192,78737,1,0,0:0:0:0:
36,192,78957,128,0,79398:0:0:0:0:
402,192,79178,1,0,0:0:0:0:
329,192,79398,128,0,80060:0:0:0:0:
182,192,79619,1,0,0:0:0:0:
36,192,79619,1,0,0:0:0:0:
109,192,80060,128,0,80501:0:0:0:0:
475,192,80060,1,0,0:0:0:0:
256,192,80501,128,0,80722:0:0:0:0:
36,192,80501,1,0,0:0:0:0:
402,192,80501,1,0,0:0:0:0:
182,192,80943,1,0,0:0:0:0:
402,192,80943,1,0,0:0:0:0:
109,192,81053,1,0,0:0:0:0:
36,192,81163,1,0,0:0:0:0:
256,192,81384,1,0,0:0:0:0:
475,192,81384,1,0,0:0:0:0:
182,192,81494,1,0,0:0:0:0:
109,192,81604,1,0,0:0:0:0:
36,192,81825,128,0,82487:0:0:0:0:
329,192,81825,1,0,0:0:0:0:
182,192,82266,1,0,0:0:0:0:
402,192,82266,1,0,0:0:0:0:
475,192,82487,128,0,82928:0:0:0:0:
329,192,82707,1,0,0:0:0:0:
256,192,82928,128,0,83590:0:0:0:0:
36,192,83148,1,0,0:0:0:0:
109,192,83148,1,0,0:0:0:0:
402,192,83590,128,0,84031:0:0:0:0:
475,192,83590,1,0,0:0:0:0:
182,192,84031,128,0,84472:0:0:0:0:
36,192,84031,1,0,0:0:0:0:
329,192,84031,1,0,0:0:0:0:
402,192,84472,1,0,0:0:0:0:
109,192,84472,1,0,0:0:0:0:
329,192,84582,1,0,0:0:0:0:
256,192,84693,1,0,0:0:0:0:
182,192,84913,1,0,0:0:0:0:
475,192,84913,1,0,0:0:0:0:
109,192,85023,1,0,0:0:0:0:
36,192,85134,1,0,0:0:0:0:
329,192,85354,128,0,86016:0:0:0:0:
256,192,85354,1,0,0:0:0:0:
475,192,85796,1,0,0:0:0:0:
36,192,85796,1,0,0:0:0:0:
182,192,86016,128,0,86678:0:0:0:0:
402,192,86237,1,0,0:0:0:0:
256,192,86678,128,0,87119:0:0:0:0:
475,192,86678,1,0,0:0:0:0:
36,192,86678,1,0,0:0:0:0:
329,192,87119,128,0,87781:0:0:0:0:
109,192,87119,1,0,0:0:0:0:
475,192,87560,1,0,0:0:0:0:
36,192,87560,1,0,0:0:0:0:
109,192,87781,128,0,88443:0:0:0:0:
402,192,88001,1,0,0:0:0:0:
256,192,88443,128,0,88884:0:0:0:0:
475,192,88443,1,0,0:0:0:0:
329,192,88443,1,0,0:0:0:0:
36,192,88884,128,0,90648:0:0:0:0:
182,192,88884,1,0,0:0:0:0:
475,192,89325,1,0,0:0:0:0:
329,192,89325,1,0,0:0:0:0:
182,192,89546,1,0,0:0:0:0:
329,192,89656,1,0,0:0:0:0:
475,192,89766,1,0,0:0:0:0:
329,192,89876,1,0,0:0:0:0:
182,192,89987,1,0,0:0:0:0:
329,192,90097,1,0,0:0:0:0:
475,192,90207,1,0,0:0:0:0:
256,192,90428,1,0,0:0:0:0:
402,192,90648,1,0,0:0:0:0:
182,192,90759,1,0,0:0:0:0:
329,192,90869,1,0,0:0:0:0:
182,192,90979,1,0,0:0:0:0:
329,192,91090,1,0,0:0:0:0:
402,192,91310,1,0,0:0:0:0:
256,192,91421,1,0,0:0:0:0:
402,192,91531,1,0,0:0:0:0:
109,192,91751,1,0,0:0:0:0:
256,192,91862,1,0,0:0:0:0:
109,192,91972,1,0,0:0:0:0:
182,192,92193,1,0,0:0:0:0:
329,192,92303,1,0,0:0:0:0:
256,192,92413,1,0,0:0:0:0:
182,192,94178,1,0,0:0:0:0:
329,192,95060,1,0,0:0:0:0:
329,192,95943,1,0,0:0:0:0:
182,192,97707,1,0,0:0:0:0:
109,192,98590,1,0,0:0:0:0:
36,192,99472,1,0,0:0:0:0:
475,192,99472,1,0,0:0:0:0:
182,192,101237,1,0,0:0:0:0:
329,192,102119,1,0,0:0:0:0:
402,192,103001,1,0,0:0:0:0:
329,192,104766,1,0,0:0:0:0:
256,192,105648,1,0,0:0:0:0:
109,192,106531,1,0,0:0:0:0:
402,192,106531,1,0,0:0:0:0:
182,192,108296,1,0,0:0:0:0:
402,192,109178,1,0,0:0:0:0:
256,192,110060,1,0,0:0:0:0:
475,192,111825,1,0,0:0:0:0:
402,192,112707,1,0,0:0:0:0:
36,192,113590,1,0,0:0:0:0:
475,192,113590,1,0,0:0:0:0:
329,192,115354,1,0,0:0:0:0:
256,192,116237,1,0,0:0:0:0:
256,192,117119,1,0,0:0:0:0:
182,192,120648,1,0,0:0:0:0:
256,192,122413,1,0,0:0:0:0:
36,192,124178,1,0,0:0:0:0:
475,192,124178,1,0,0:0:0:0:
36,192,125943,1,0,0:0:0:0:
182,192,125943,1,0,0:0:0:0:
329,192,126163,1,0,0:0:0:0:
109,192,126384,1,0,0:0:0:0:
402,192,126384,1,0,0:0:0:0:
182,192,126494,1,0,0:0:0:0:
256,192,126604,1,0,0:0:0:0:
182,192,126825,1,0,0:0:0:0:
329,192,127046,1,0,0:0:0:0:
109,192,127266,1,0,0:0:0:0:
402,192,127266,1,0,0:0:0:0:
182,192,127376,1,0,0:0:0:0:
256,192,127487,1,0,0:0:0:0:
182,192,127707,1,0,0:0:0:0:
402,192,127707,1,0,0:0:0:0:
329,192,127928,1,0,0:0:0:0:
256,192,128148,1,0,0:0:0:0:
36,192,128148,1,0,0:0:0:0:
329,192,128259,1,0,0:0:0:0:
402,192,128369,1,0,0:0:0:0:
182,192,128590,1,0,0:0:0:0:
329,192,128810,1,0,0:0:0:0:
256,192,129031,1,0,0:0:0:0:
109,192,129031,1,0,0:0:0:0:
329,192,129141,1,0,0:0:0:0:
402,192,129251,1,0,0:0:0:0:
256,192,129472,1,0,0:0:0:0:
36,192,129472,1,0,0:0:0:0:
402,192,129693,1,0,0:0:0:0:
329,192,129913,1,0,0:0:0:0:
109,192,129913,1,0,0:0:0:0:
402,192,130023,1,0,0:0:0:0:
475,192,130134,1,0,0:0:0:0:
256,192,130354,1,0,0:0:0:0:
402,192,130575,1,0,0:0:0:0:
329,192,130796,1,0,0:0:0:0:
109,192,130796,1,0,0:0:0:0:
402,192,130906,1,0,0:0:0:0:
475,192,131016,1,0,0:0:0:0:
402,192,131237,1,0,0:0:0:0:
182,192,131237,1,0,0:0:0:0:
329,192,131347,1,0,0:0:0:0:
256,192,131457,1,0,0:0:0:0:
329,192,131678,1,0,0:0:0:0:
475,192,131678,1,0,0:0:0:0:
256,192,131788,1,0,0:0:0:0:
182,192,131898,1,0,0:0:0:0:
109,192,132119,1,0,0:0:0:0:
475,192,132340,1,0,0:0:0:0:
402,192,132450,1,0,0:0:0:0:
329,192,132560,1,0,0:0:0:0:
36,192,132560,1,0,0:0:0:0:
256,192,132671,1,0,0:0:0:0:
182,192,132781,1,0,0:0:0:0:
109,192,132891,1,0,0:0:0:0:
329,192,133001,1,0,0:0:0:0:
36,192,133001,1,0,0:0:0:0:
182,192,133443,1,0,0:0:0:0:
402,192,133443,1,0,0:0:0:0:
256,192,133553,1,0,0:0:0:0:
329,192,133663,1,0,0:0:0:0:
36,192,133884,1,0,0:0:0:0:
109,192,133994,1,0,0:0:0:0:
182,192,134104,1,0,0:0:0:0:
182,192,134325,1,0,0:0:0:0:
402,192,134325,1,0,0:0:0:0:
256,192,134435,1,0,0:0:0:0:
329,192,134546,1,0,0:0:0:0:
109,192,134766,1,0,0:0:0:0:
402,192,134766,1,0,0:0:0:0:
182,192,134876,1,0,0:0:0:0:
256,192,134987,1,0,0:0:0:0:
256,192,135207,1,0,0:0:0:0:
475,192,135207,1,0,0:0:0:0:
329,192,135318,1,0,0:0:0:0:
402,192,135428,1,0,0:0:0:0:
109,192,135648,1,0,0:0:0:0:
182,192,135759,1,0,0:0:0:0:
256,192,135869,1,0,0:0:0:0:
256,192,136090,1,0,0:0:0:0:
475,192,136090,1,0,0:0:0:0:
329,192,136200,1,0,0:0:0:0:
402,192,136310,1,0,0:0:0:0:
256,192,136531,1,0,0:0:0:0:
109,192,136531,1,0,0:0:0:0:
329,192,136641,1,0,0:0:0:0:
402,192,136751,1,0,0:0:0:0:
329,192,136972,1,0,0:0:0:0:
182,192,136972,1,0,0:0:0:0:
402,192,137082,1,0,0:0:0:0:
475,192,137193,1,0,0:0:0:0:
256,192,137413,1,0,0:0:0:0:
329,192,137523,1,0,0:0:0:0:
402,192,137634,1,0,0:0:0:0:
329,192,137854,1,0,0:0:0:0:
182,192,137854,1,0,0:0:0:0:
402,192,137965,1,0,0:0:0:0:
475,192,138075,1,0,0:0:0:0:
475,192,138296,1,0,0:0:0:0:
256,192,138296,1,0,0:0:0:0:
402,192,138406,1,0,0:0:0:0:
329,192,138516,1,0,0:0:0:0:
402,192,138737,1,0,0:0:0:0:
109,192,138737,1,0,0:0:0:0:
329,192,138847,1,0,0:0:0:0:
256,192,138957,1,0,0:0:0:0:
329,192,139178,1,0,0:0:0:0:
256,192,139288,1,0,0:0:0:0:
182,192,139398,1,0,0:0:0:0:
256,192,139619,1,0,0:0:0:0:
36,192,139619,1,0,0:0:0:0:
182,192,139729,1,0,0:0:0:0:
109,192,139840,1,0,0:0:0:0:
475,192,140060,128,0,140943:0:0:0:0:
182,192,140060,1,0,0:0:0:0:
256,192,140501,1,0,0:0:0:0:
36,192,140501,1,0,0:0:0:0:
329,192,140943,128,0,141825:0:0:0:0:
109,192,140943,1,0,0:0:0:0:
36,192,141384,1,0,0:0:0:0:
182,192,141384,1,0,0:0:0:0:
182,192,141825,128,0,142707:0:0:0:0:
475,192,141825,1,0,0:0:0:0:
329,192,142266,1,0,0:0:0:0:
475,192,142266,1,0,0:0:0:0:
36,192,142707,128,0,143590:0:0:0:0:
402,192,142707,1,0,0:0:0:0:
329,192,143148,1,0,0:0:0:0:
475,192,143148,1,0,0:0:0:0:
182,192,143590,128,0,144031:0:0:0:0:
402,192,143590,1,0,0:0:0:0:
256,192,143590,1,0,0:0:0:0:
329,192,144031,128,0,144472:0:0:0:0:
36,192,144031,1,0,0:0:0:0:
109,192,144472,1,0,0:0:0:0:
475,192,144472,1,0,0:0:0:0:
256,192,144693,1,0,0:0:0:0:
182,192,144913,128,0,145354:0:0:0:0:
36,192,144913,1,0,0:0:0:0:
402,192,144913,1,0,0:0:0:0:
402,192,145354,128,0,145796:0:0:0:0:
256,192,145354,1,0,0:0:0:0:
256,192,145796,128,0,146237:0:0:0:0:
109,192,145796,1,0,0:0:0:0:
402,192,146237,1,0,0:0:0:0:
329,192,146237,1,0,0:0:0:0:
109,192,146457,1,0,0:0:0:0:
475,192,146678,1,0,0:0:0:0:
256,192,146678,1,0,0:0:0:0:
36,192,146898,1,0,0:0:0:0:
402,192,147119,128,0,147560:0:0:0:0:
182,192,147119,1,0,0:0:0:0:
256,192,147560,128,0,148001:0:0:0:0:
36,192,147560,1,0,0:0:0:0:
475,192,148001,1,0,0:0:0:0:
182,192,148001,1,0,0:0:0:0:
329,192,148222,1,0,0:0:0:0:
109,192,148443,128,0,148884:0:0:0:0:
36,192,148443,1,0,0:0:0:0:
402,192,148443,1,0,0:0:0:0:
329,192,148663,1,0,0:0:0:0:
256,192,148884,128,0,149325:0:0:0:0:
475,192,148884,1,0,0:0:0:0:
36,192,149325,128,0,149766:0:0:0:0:
329,192,149325,1,0,0:0:0:0:
182,192,149766,1,0,0:0:0:0:
402,192,149766,1,0,0:0:0:0:
256,192,149987,1,0,0:0:0:0:
329,192,150207,1,0,0:0:0:0:
109,192,150207,1,0,0:0:0:0:
329,192,150428,1,0,0:0:0:0:
182,192,150648,128,0,151090:0:0:0:0:
36,192,150648,1,0,0:0:0:0:
329,192,151090,128,0,151531:0:0:0:0:
475,192,151090,1,0,0:0:0:0:
256,192,151531,1,0,0:0:0:0:
36,192,151531,1,0,0:0:0:0:
109,192,151751,1,0,0:0:0:0:
182,192,151972,128,0,152413:0:0:0:0:
329,192,151972,1,0,0:0:0:0:
475,192,151972,1,0,0:0:0:0:
402,192,152413,128,0,152854:0:0:0:0:
36,192,152413,1,0,0:0:0:0:
109,192,152854,128,0,153296:0:0:0:0:
256,192,152854,1,0,0:0:0:0:
329,192,153296,1,0,0:0:0:0:
475,192,153296,1,0,0:0:0:0:
182,192,153516,1,0,0:0:0:0:
402,192,153737,1,0,0:0:0:0:
256,192,153737,1,0,0:0:0:0:
109,192,153957,1,0,0:0:0:0:
36,192,154178,128,0,155060:0:0:0:0:
329,192,154178,1,0,0:0:0:0:
182,192,154398,1,0,0:0:0:0:
402,192,154619,1,0,0:0:0:0:
256,192,154840,1,0,0:0:0:0:
475,192,155060,128,0,155943:0:0:0:0:
329,192,155060,1,0,0:0:0:0:
182,192,155281,1,0,0:0:0:0:
256,192,155501,1,0,0:0:0:0:
109,192,155722,1,0,0:0:0:0:
36,192,155943,128,0,156384:0:0:0:0:
329,192,155943,1,0,0:0:0:0:
402,192,156384,1,0,0:0:0:0:
256,192,156384,128,0,156825:0:0:0:0:
475,192,156825,128,0,157266:0:0:0:0:
36,192,156825,1,0,0:0:0:0:
256,192,157266,128,0,157707:0:0:0:0:
109,192,157266,1,0,0:0:0:0:
182,192,157707,128,0,159472:0:0:0:0:
475,192,157707,1,0,0:0:0:0:
36,192,157707,1,0,0:0:0:0:
36,192,158590,1,0,0:0:0:0:
475,192,159472,128,0,160354:0:0:0:0:
329,192,160354,128,0,161237:0:0:0:0:
36,192,160354,1,0,0:0:0:0:
36,192,160575,1,0,0:0:0:0:
256,192,161237,128,0,163001:0:0:0:0:
475,192,161237,1,0,0:0:0:0:
109,192,161678,1,0,0:0:0:0:
475,192,162119,1,0,0:0:0:0:
109,192,163001,128,0,163884:0:0:0:0:
402,192,163001,1,0,0:0:0:0:
256,192,163443,1,0,0:0:0:0:
475,192,163884,1,0,0:0:0:0:
329,192,163884,128,0,164766:0:0:0:0:
475,192,164104,1,0,0:0:0:0:
36,192,164766,1,0,0:0:0:0:
402,192,164766,128,0,166531:0:0:0:0:
182,192,165207,1,0,0:0:0:0:
36,192,165648,1,0,0:0:0:0:
182,192,166531,128,0,167413:0:0:0:0:
475,192,166531,1,0,0:0:0:0:
475,192,166972,1,0,0:0:0:0:
36,192,167413,1,0,0:0:0:0:
329,192,167413,128,0,168296:0:0:0:0:
109,192,168296,128,0,170060:0:0:0:0:
475,192,168296,1,0,0:0:0:0:
256,192,168737,1,0,0:0:0:0:
329,192,169178,1,0,0:0:0:0:
256,192,170060,128,0,170943:0:0:0:0:
402,192,170060,1,0,0:0:0:0:
36,192,170501,1,0,0:0:0:0:
475,192,170943,128,0,171825:0:0:0:0:
182,192,170943,1,0,0:0:0:0:
36,192,171163,1,0,0:0:0:0:
182,192,171384,1,0,0:0:0:0:
109,192,171604,1,0,0:0:0:0:
36,192,171825,1,0,0:0:0:0:
256,192,171825,128,0,173590:0:0:0:0:
475,192,172707,1,0,0:0:0:0:
402,192,173590,128,0,174472:0:0:0:0:
109,192,173590,1,0,0:0:0:0:
256,192,174031,1,0,0:0:0:0:
36,192,174472,1,0,0:0:0:0:
182,192,174472,128,0,175354:0:0:0:0:
36,192,174693,1,0,0:0:0:0:
36,192,175354,128,0,177119:0:0:0:0:
402,192,175354,1,0,0:0:0:0:
256,192,175796,1,0,0:0:0:0:
475,192,176237,1,0,0:0:0:0:
402,192,177119,128,0,178001:0:0:0:0:
182,192,177119,1,0,0:0:0:0:
182,192,177560,1,0,0:0:0:0:
109,192,178001,128,0,178884:0:0:0:0:
256,192,178001,1,0,0:0:0:0:
256,192,178222,1,0,0:0:0:0:
329,192,178884,128,0,180648:0:0:0:0:
36,192,178884,1,0,0:0:0:0:
182,192,179325,1,0,0:0:0:0:
475,192,179766,1,0,0:0:0:0:
182,192,180648,128,0,181531:0:0:0:0:
475,192,180648,1,0,0:0:0:0:
329,192,181090,1,0,0:0:0:0:
402,192,181531,128,0,182413:0:0:0:0:
36,192,181531,1,0,0:0:0:0:
36,192,181751,1,0,0:0:0:0:
256,192,182413,1,0,0:0:0:0:
109,192,182413,128,0,185943:0:0:0:0:
36,192,182854,1,0,0:0:0:0:
475,192,183296,1,0,0:0:0:0:
256,192,184178,1,0,0:0:0:0:
256,192,184619,1,0,0:0:0:0:
475,192,185060,1,0,0:0:0:0:
475,192,185281,1,0,0:0:0:0:
182,192,185943,128,0,187707:0:0:0:0:
402,192,185943,1,0,0:0:0:0:
475,192,186384,1,0,0:0:0:0:
36,192,186825,1,0,0:0:0:0:
256,192,187707,128,0,189472:0:0:0:0:
475,192,187707,1,0,0:0:0:0:
475,192,188148,1,0,0:0:0:0:
109,192,188590,1,0,0:0:0:0:
109,192,188810,1,0,0:0:0:0:
36,192,189472,1,0,0:0:0:0:
475,192,189472,1,0,0:0:0:0:
