osu file format v14

[General]
AudioFilename: 19 - EMIYA ~UBW Extended.mp3
AudioLeadIn: 0
PreviewTime: 98513
Countdown: 0
SampleSet: Soft
StackLeniency: 0.7
Mode: 0
LetterboxInBreaks: 1
WidescreenStoryboard: 1

[Editor]
Bookmarks: 6221,10805,11117,15492,21430,26013,31013,36325,95596,98513,109346
DistanceSpacing: 1.1
BeatDivisor: 4
GridSize: 4
TimelineZoom: 1.2

[Metadata]
Title:EMIYA ~UBW Extended~
TitleUnicode:EMIYA ~UBW Extended~
Artist:Hideyuki Fukasawa
ArtistUnicode:Hideyuki Fukasawa
Creator:polunochnik
Version:Beginner
Source:Fate/Stay Night
Tags:Emiya, unlimited blade works
BeatmapID:954745
BeatmapSetID:443972

[Difficulty]
HPDrainRate:2
CircleSize:3
OverallDifficulty:3
ApproachRate:3
SliderMultiplier:0.7
SliderTickRate:1

[Events]
//Background and Video events
0,0,"background.jpg",0,0
//Break Periods
2,95430,97123
2,152096,163790
2,218763,220456
//Storyboard Layer 0 (Background)
//Storyboard Layer 1 (Fail)
//Storyboard Layer 2 (Pass)
//Storyboard Layer 3 (Foreground)
//Storyboard Sound Samples

[TimingPoints]
230,416.666666666667,4,2,1,50,1,0
41688,-100,4,2,1,25,0,0
42000,-100,4,2,1,5,0,0
43146,-100,4,2,1,25,0,0
45334,-100,4,2,1,5,0,0
46480,-100,4,2,1,25,0,0
48667,-100,4,2,1,5,0,0
49813,-100,4,2,1,25,0,0
52000,-100,4,2,1,5,0,0
53146,-100,4,2,1,25,0,0
55021,-100,4,2,1,35,0,0
81792,-100,4,2,1,50,0,0
95125,-100,4,3,1,50,0,0
95334,-100,4,2,1,50,0,0
165230,-100,4,2,1,50,0,1
218560,-100,4,2,1,50,0,0

[Colours]
Combo1 : 0,120,240
Combo2 : 255,0,0
Combo3 : 128,128,255
SliderBorder : 255,255,255

[HitObjects]
68,96,41896,6,0,P|88:192|212:212,1,227.5
308,304,45230,2,0,P|392:264|368:140,1,227.5
208,72,48563,2,0,P|124:112|140:236,1,227.5
200,288,51896,2,0,B|316:356|380:216,1,227.5
152,152,55230,6,0,P|120:124|108:92,2,70,2|2|2,0:0|0:0|0:0,0:0:0:0:
280,240,56896,2,0,P|364:260|428:252,1,140,2|2,0:0|0:0,0:0:0:0:
440,104,58563,2,0,P|356:84|292:92,1,140,2|0,0:0|0:0,0:0:0:0:
152,124,60230,1,0,0:0:0:0:
140,276,61063,6,0,P|184:328|264:336,2,140,2|2|0,0:0|0:0|0:0,0:0:0:0:
288,232,63563,2,0,P|312:160|272:108,1,140,2|0,0:0|0:0,0:0:0:0:
120,124,65230,2,0,P|104:152|144:252,1,140,2|0,0:0|0:0,0:0:0:0:
288,232,66896,2,0,P|372:212|428:228,1,140,2|0,0:0|0:0,0:0:0:0:
408,72,68563,6,0,L|480:36,2,70,2|2|2,0:0|0:0|0:0,0:0:0:0:
268,136,70230,2,0,P|202:161|133:168,2,140,2|2|2,0:0|0:0|0:0,0:0:0:0:
396,56,72730,1,0,0:0:0:0:
472,192,73563,1,0,0:0:0:0:
320,224,74396,6,0,P|272:224|280:144,2,140,2|2|0,0:0|0:0|0:0,0:0:0:0:
456,148,76896,2,0,P|472:207|404:256,1,140,2|0,0:0|0:0,0:0:0:0:
280,320,78563,2,0,P|212:316|180:248,1,140,2|0,0:0|0:0,0:0:0:0:
140,112,80230,2,0,P|164:52|236:60,1,140,2|0,0:0|0:0,0:0:0:0:
360,140,81896,6,0,L|432:100,2,70,2|2|2,0:0|0:0|0:0,0:0:0:0:
224,212,83563,2,0,P|136:236|80:220,2,140,2|2|2,0:0|0:0|0:0,0:0:0:0:
364,144,86063,1,0,0:0:0:0:
240,52,86896,1,0,0:0:0:0:
144,176,87730,6,0,P|128:220|176:292,2,140,2|2|0,0:0|0:0|0:0,0:0:0:0:
284,112,90230,2,0,P|312:168|384:192,1,140,2|0,0:0|0:0,0:0:0:0:
288,312,91896,2,0,P|272:256|192:224,1,140,2|0,0:0|0:0,0:0:0:0:
196,68,93563,2,0,P|136:120|72:116,1,140,2|0,0:0|0:0,0:0:0:0:
84,272,95230,5,4,0:0:0:0:
144,104,98563,6,0,L|96:36,2,70,2|2|2,0:0|0:0|0:0,0:0:0:0:
188,168,99813,1,0,0:0:0:0:
240,224,100230,2,0,P|264:248|304:260,1,70,2|0,0:0|0:0,0:0:0:0:
376,264,101063,2,0,P|408:256|432:212,1,70,2|0,0:0|0:0,0:0:0:0:
444,152,101896,6,0,P|420:116|392:100,1,70,2|0,0:0|0:0,0:0:0:0:
324,80,102730,1,0,0:0:0:0:
248,100,103146,1,0,0:0:0:0:
180,136,103563,2,0,P|152:176|160:208,1,70
172,272,104396,6,0,P|184:308|220:320,1,70,2|0,0:0|0:0,0:0:0:0:
288,324,105230,2,0,P|332:320|360:296,1,70,2|0,0:0|0:0,0:0:0:0:
408,252,106063,1,0,0:0:0:0:
408,176,106480,1,0,0:0:0:0:
364,112,106896,6,0,P|304:88|264:140,1,140,2|0,0:0|0:0,0:0:0:0:
272,216,108146,1,0,0:0:0:0:
252,292,108563,6,0,P|192:316|152:264,1,140,2|0,0:0|0:0,0:0:0:0:
144,188,109813,1,0,0:0:0:0:
156,112,110230,6,0,P|185:76|276:76,1,140,2|0,0:0|0:0,0:0:0:0:
324,132,111480,1,0,0:0:0:0:
344,208,111896,6,0,P|320:244|216:256,1,140,2|0,0:0|0:0,0:0:0:0:
88,200,113563,1,0,0:0:0:0:
208,104,114396,2,0,P|272:76|332:112,2,140,2|2|0,0:0|0:0|0:0,0:0:0:0:
296,228,116896,1,0,0:0:0:0:
172,320,117730,6,0,P|112:304|92:224,2,140,2|2|0,0:0|0:0|0:0,0:0:0:0:
328,324,120230,2,0,P|384:320|432:248,1,140,2|0,0:0|0:0,0:0:0:0:
460,104,121896,6,0,P|448:68|412:68,1,70
344,72,122730,2,0,P|304:92|308:124,1,70
308,188,123563,2,0,P|286:215|244:224,1,70
204,164,124396,2,0,P|225:136|268:128,1,70
272,208,125230,6,0,P|256:244|216:256,2,70,2|2|2,0:0|0:0|0:0,0:0:0:0:
256,132,126480,1,0,0:0:0:0:
316,84,126896,2,0,P|356:92|392:112,1,70,2|0,0:0|0:0,0:0:0:0:
396,184,127730,2,0,P|376:184|320:160,1,70,2|0,0:0|0:0,0:0:0:0:
316,92,128563,6,0,P|356:100|392:120,1,70,2|0,0:0|0:0,0:0:0:0:
448,156,129396,1,0,0:0:0:0:
452,232,129813,2,0,P|452:272|436:312,1,70
368,324,130646,1,0,0:0:0:0:
300,284,131063,6,0,P|268:248|268:212,1,70,2|0,0:0|0:0,0:0:0:0:
284,152,131896,2,0,P|272:124|240:100,1,70,2|0,0:0|0:0,0:0:0:0:
168,76,132730,1,0,0:0:0:0:
96,108,133146,1,0,0:0:0:0:
60,176,133563,6,0,P|48:232|112:276,1,140,2|0,0:0|0:0,0:0:0:0:
184,288,134813,1,0,0:0:0:0:
260,268,135230,6,0,P|324:252|364:184,1,140,2|0,0:0|0:0,0:0:0:0:
392,120,136480,1,0,0:0:0:0:
344,60,136896,2,0,P|280:44|208:68,1,140,2|0,0:0|0:0,0:0:0:0:
112,184,138563,6,0,P|88:224|120:312,2,140,2|0|0,0:0|0:0|0:0,0:0:0:0:
220,72,141063,2,0,P|292:48|356:80,2,140,2|2|0,0:0|0:0|0:0,0:0:0:0:
132,204,143563,1,0,0:0:0:0:
268,276,144396,6,0,P|304:292|368:224,2,140,2|2|0,0:0|0:0|0:0,0:0:0:0:
184,144,146896,2,0,P|219:88|284:99,1,140,2|0,0:0|0:0,0:0:0:0:
256,192,148563,12,4,151896,0:0:0:0:
392,176,165230,6,0,L|448:220,2,70,2|2|2,0:0|0:0|0:0,0:0:0:0:
324,128,166480,1,0,0:0:0:0:
252,100,166896,2,0,P|204:92|172:92,1,70,2|0,0:0|0:0,0:0:0:0:
108,104,167730,2,0,P|60:136|52:160,1,70,2|0,0:0|0:0,0:0:0:0:
64,220,168563,2,0,P|100:240|132:228,1,70,2|0,0:0|0:0,0:0:0:0:
172,172,169396,5,0,0:0:0:0:
220,112,169813,2,0,P|256:104|292:128,1,70
344,164,170646,1,0,0:0:0:0:
344,236,171063,6,0,P|344:260|304:292,1,70,2|0,0:0|0:0,0:0:0:0:
244,256,171896,2,0,P|244:232|284:200,1,70,2|0,0:0|0:0,0:0:0:0:
344,164,172730,1,0,0:0:0:0:
296,100,173146,1,0,0:0:0:0:
240,48,173563,6,0,P|156:52|144:108,1,140,2|0,0:0|0:0,0:0:0:0:
136,168,174813,1,0,0:0:0:0:
148,244,175230,2,0,P|192:244|252:172,1,140,2|0,0:0|0:0,0:0:0:0:
284,108,176480,1,0,0:0:0:0:
356,88,176896,2,0,P|404:100|408:184,1,140,2|0,0:0|0:0,0:0:0:0:
364,240,178146,1,0,0:0:0:0:
308,292,178563,6,0,P|232:320|164:296,1,140,2|0,0:0|0:0,0:0:0:0:
116,164,180230,1,0,0:0:0:0:
232,60,181063,2,0,P|312:52|372:88,2,140,2|2|0,0:0|0:0|0:0,0:0:0:0:
116,164,183563,1,0,0:0:0:0:
192,300,184397,6,0,P|124:312|56:268,2,140,2|2|0,0:0|0:0|0:0,0:0:0:0:
348,264,186896,2,0,P|408:228|396:160,1,140,2|0,0:0|0:0,0:0:0:0:
284,68,188563,6,0,P|252:56|204:60,1,70
144,76,189396,2,0,P|100:104|88:128,1,70
160,152,190230,2,0,P|201:151|236:160,1,70
224,236,191063,2,0,P|183:237|148:228,1,70
76,232,191896,6,0,P|84:264|112:296,2,70,2|2|2,0:0|0:0|0:0,0:0:0:0:
92,156,193146,1,0,0:0:0:0:
124,88,193563,2,0,P|156:72|196:84,1,70,2|0,0:0|0:0,0:0:0:0:
204,156,194396,2,0,P|172:172|132:160,1,70,2|0,0:0|0:0,0:0:0:0:
124,88,195230,6,0,P|156:72|196:84,1,70,2|0,0:0|0:0,0:0:0:0:
256,116,196063,1,0,0:0:0:0:
288,188,196480,2,0,P|284:216|244:244,1,70
180,264,197313,1,0,0:0:0:0:
104,248,197730,6,0,P|64:228|64:196,1,70,2|0,0:0|0:0,0:0:0:0:
72,132,198563,2,0,P|80:108|132:96,1,70,2|0,0:0|0:0,0:0:0:0:
192,116,199396,1,0,0:0:0:0:
260,152,199813,1,0,0:0:0:0:
280,228,200230,6,0,P|268:288|192:304,1,140,2|0,0:0|0:0,0:0:0:0:
128,280,201480,1,0,0:0:0:0:
108,204,201896,2,0,P|120:144|196:128,1,140,2|0,0:0|0:0,0:0:0:0:
264,148,203146,1,0,0:0:0:0:
312,208,203563,2,0,P|300:268|224:284,1,140,2|0,0:0|0:0,0:0:0:0:
128,172,205230,6,0,P|136:128|212:68,2,140,2|0|0,0:0|0:0|0:0,0:0:0:0:
228,288,207730,2,0,P|284:296|360:248,2,140,2|2|0,0:0|0:0|0:0,0:0:0:0:
84,240,210230,1,0,0:0:0:0:
168,112,211063,6,0,P|212:72|296:60,2,140,2|2|0,0:0|0:0|0:0,0:0:0:0:
160,228,213563,2,0,P|220:264|304:260,1,140,2|0,0:0|0:0,0:0:0:0:
256,192,215230,12,4,218563,0:0:0:0:
112,84,221896,6,0,P|88:136|132:208,1,140,2|0,0:0|0:0,0:0:0:0:
316,316,225230,6,0,P|376:300|408:224,1,140,2|0,0:0|0:0,0:0:0:0:
408,60,228563,6,0,P|432:112|388:184,1,140,2|0,0:0|0:0,0:0:0:0:
204,192,231896,6,0,L|148:240,2,70,2|2|2,0:0|0:0|0:0,0:0:0:0:
328,100,233563,2,0,P|404:100|444:156,2,140,2|2|2,0:0|0:0|0:0,0:0:0:0:
256,192,235646,12,0,238563,0:0:0:0:
