osu file format v14

[General]
AudioFilename: audio.mp3
AudioLeadIn: 0
PreviewTime: -1
Countdown: 0
SampleSet: Soft
StackLeniency: 0.2
Mode: 0
LetterboxInBreaks: 1
WidescreenStoryboard: 0

[Editor]
Bookmarks: 31140,41928,42666,43404,43650,44142,44879,45617,47830,48568,49551,50043,50781,51519,52748,53486,53978,55207,55699,56437,57174,57420,57666,58926,59418,60371,61324,61846,63322,64797,65535,67010,68486,69223,70699,71436,72912,75125,77338,77584,77830,78076,80289,81764,82502,83977,84715,88404,91354,93568,94797,94920,95043,95535,95658,97256,97502,97748,98240,98486,98731,98977,99223,99469,99961,100207,101805,104141,104387,104633,105371,106109,106354,106846,107584,108322,108568,108813,109059,109797,110043,110289,110535,111272,112379,112748,113486,113731,113793,113977,114223,115330,115699,116068,116436,117420,117912,118649,120125,122338,123813,124182,126027,126764,136354,137830,152584,153322,155535,157748,161436,162912,166846,167338,167461,167707,168076,168199,168445,168813,172502,173240,173977,175453,176928,182092,184059,185535,187010,188486,189961,191436,193649,195125,196846,197338,197830,198076,199551,200289,201518,202502,203977,204469,205453,206190,208404,210125,211354,212584,213568,214797,215043,217256,217994,219469,219961,220207,220330,220576,220699,220822,226723,228322,228568,228813,229059,234223,241109,241600,246272,246518,246764,247502,248977,254141,254879,255617,262256,262994,276272,277010,277748,278486,279223,279961,280699,281436,282174,282912,283649,284387,285125,285863,286600,287338,294469,294715,294961,295207,295453,295576,295945,296190,296436,296682,296928,297297,297666,298035,298404,299141,305043,305781,309223,310945,316109,316846,318568,319059,319797,320781,321272,321764,322010,322748,323486,323731,324100,324223,324961,325699,326436,327174,327297,329633,329879,330125,330863,331600,332584,333568,334551,335289,337748,337994,338731,339715,341190,342666,344141,347092,347338,347707,347830,348568,348813,349182,349305,350043,350289,350658,350781,351518,352256,353240,354469,354715,355084,355207,355453,355699,355945,356190,356559,356682,356928,357174,357420,357666,358035,358158,358404,358649,358895,359018,359264,359633,359756,360002,360371,362584,362830,363199,363322,364059,364305,364674,364797,365535,365781,366149,367010,367748,368486,368731,369223,370207,370453,370699,370945,371313,371436,372174,372420,372789,372912,373649,373895,374264,374387,375863,375986,376231,376600,378813,379059,379305,379551,379674,379797,380043,380289,380535,380781,381027,381149,381272,381518,381764,382010,382256,382502,382625,384715,385453,386190,386436,386682,387666,388404,394182,394305,395043
DistanceSpacing: 2.7
BeatDivisor: 16
GridSize: 4
TimelineZoom: 8

[Metadata]
Title:Passages
TitleUnicode:Passages
Artist:Hideous Divinity
ArtistUnicode:Hideous Divinity
Creator:Jonhyneni
Version:Adveniens
Source:
Tags:Adveniens Extreme Death Metal Hideous Divinity
BeatmapID:1926281
BeatmapSetID:922426

[Difficulty]
HPDrainRate:6
CircleSize:4.2
OverallDifficulty:10
ApproachRate:10
SliderMultiplier:0.999999904632566
SliderTickRate:1

[Events]
//Background and Video events
0,0,"Screenshot_2019-02-15-22-36-16~2.png",0,0
//Break Periods
2,266145,275822
//Storyboard Layer 0 (Background)
//Storyboard Layer 1 (Fail)
//Storyboard Layer 2 (Pass)
//Storyboard Layer 3 (Foreground)
//Storyboard Sound Samples

[TimingPoints]
31109,491.803278688525,4,2,0,40,1,0
31140,-133.333333333333,4,2,0,40,0,0
31324,-25,4,2,0,40,0,0
31754,-133.333333333333,4,2,0,40,0,0
41682,-25,4,2,0,40,0,0
58896,-80,4,2,0,40,0,0
59879,-133.333333333333,4,2,0,40,0,0
60340,-25,4,2,0,40,0,0
61805,-25,4,2,0,40,0,0
88404,-25,4,2,0,50,0,1
90084,-25,4,2,0,50,0,1
92789,-100,4,2,0,50,0,1
93527,-25,4,2,0,50,0,1
94264,-100,4,2,0,50,0,1
94510,-25,4,2,0,50,0,1
100207,-133.333333333333,4,2,0,40,0,0
100238,-25,4,2,0,40,0,0
152584,-25,4,2,0,50,0,1
157748,-25,4,2,0,40,0,0
173209,-133.333333333333,4,2,0,40,0,0
182553,-25,4,2,0,40,0,0
256846,-66.6666666666667,4,2,0,20,0,0
276272,-25,4,2,0,50,0,1
299141,-25,4,2,0,40,0,0
320781,-25,4,2,0,50,0,1
342666,-25,4,2,0,40,0,0
378813,-25,4,2,0,50,0,1
386682,-45.4545454545455,4,2,0,50,0,1
388404,-61.0500610500611,4,2,0,40,0,0

[Colours]
Combo1 : 235,152,61
Combo2 : 158,158,158
Combo3 : 171,43,20
Combo4 : 91,81,79

[HitObjects]
256,192,26928,12,0,30986,0:0:0:0:
161,53,31109,5,8,0:0:0:0:
179,80,31170,1,8,0:0:0:0:
185,113,31231,1,8,0:0:0:0:
177,145,31293,1,8,0:0:0:0:
236,208,31354,6,0,L|286:200,3,49.9999952316283
169,279,31601,5,8,0:0:0:0:
192,302,31662,1,8,0:0:0:0:
218,323,31723,1,8,0:0:0:0:
248,337,31785,2,0,B|272:340|283:253|324:244,1,121.874993026256,8|0,0:0|0:0,0:0:0:0:
321,244,33322,6,0,B|397:198|318:167,1,112.499993562698
323,168,34797,5,0,0:0:0:0:
261,106,35504,5,0,0:0:0:0:
203,189,35750,1,0,0:0:0:0:
140,268,35996,1,0,0:0:0:0:
76,346,36242,2,0,B|53:312|44:244|48:231,1,117.187493294477
90,222,37748,6,0,B|157:227|146:149|163:153,1,112.499993562698
186,147,39224,5,0,0:0:0:0:
211,141,39961,5,8,0:0:0:0:
240,134,40022,1,8,0:0:0:0:
269,127,40083,1,8,0:0:0:0:
298,120,40145,1,8,0:0:0:0:
327,113,40206,1,8,0:0:0:0:
356,107,40268,1,8,0:0:0:0:
385,100,40329,1,8,0:0:0:0:
414,93,40391,1,8,0:0:0:0:
443,86,40452,1,8,0:0:0:0:
443,86,40699,5,0,0:0:0:0:
406,223,40822,1,0,0:0:0:0:
368,345,40945,1,0,0:0:0:0:
368,345,41191,5,0,0:0:0:0:
358,336,41252,1,0,0:0:0:0:
349,327,41313,1,0,0:0:0:0:
341,317,41375,1,0,0:0:0:0:
294,324,41436,5,0,0:0:0:0:
288,313,41498,1,0,0:0:0:0:
285,304,41559,1,0,0:0:0:0:
281,292,41621,1,0,0:0:0:0:
312,250,41682,6,0,L|303:196,3,49.9999952316283
389,168,41928,5,8,0:0:0:0:
371,105,41989,1,8,0:0:0:0:
313,77,42050,1,8,0:0:0:0:
253,102,42112,1,8,0:0:0:0:
277,147,42174,5,0,0:0:0:0:
244,179,42235,1,0,0:0:0:0:
199,186,42296,1,0,0:0:0:0:
159,163,42358,1,0,0:0:0:0:
202,138,42420,5,0,0:0:0:0:
219,169,42481,1,0,0:0:0:0:
225,204,42542,1,0,0:0:0:0:
219,240,42604,1,0,0:0:0:0:
175,249,42666,5,0,0:0:0:0:
175,261,42727,1,0,0:0:0:0:
180,273,42788,1,0,0:0:0:0:
189,282,42850,1,0,0:0:0:0:
162,314,42912,5,0,0:0:0:0:
160,325,42973,1,0,0:0:0:0:
156,336,43034,1,0,0:0:0:0:
150,345,43096,1,0,0:0:0:0:
99,338,43158,6,0,L|48:311,3,49.9999952316283
99,218,43404,5,0,0:0:0:0:
129,196,43465,1,0,0:0:0:0:
144,163,43526,1,0,0:0:0:0:
141,126,43588,1,0,0:0:0:0:
92,108,43649,5,8,0:0:0:0:
148,75,43710,1,8,0:0:0:0:
214,66,43771,1,8,0:0:0:0:
277,83,43833,1,8,0:0:0:0:
235,111,43895,5,0,0:0:0:0:
226,144,43956,1,0,0:0:0:0:
235,178,44017,1,0,0:0:0:0:
260,202,44079,1,0,0:0:0:0:
227,216,44141,5,0,0:0:0:0:
223,229,44202,1,0,0:0:0:0:
219,242,44263,1,0,0:0:0:0:
215,255,44325,1,0,0:0:0:0:
241,304,44387,5,0,0:0:0:0:
249,296,44448,1,0,0:0:0:0:
258,288,44509,1,0,0:0:0:0:
267,280,44571,1,0,0:0:0:0:
317,290,44633,6,0,L|375:307,3,49.9999952316283
464,355,44879,5,8,0:0:0:0:
485,294,44940,1,8,0:0:0:0:
455,237,45001,1,8,0:0:0:0:
392,223,45063,1,8,0:0:0:0:
379,273,45125,5,0,0:0:0:0:
334,262,45186,1,0,0:0:0:0:
304,228,45247,1,0,0:0:0:0:
301,182,45309,1,0,0:0:0:0:
347,202,45371,5,0,0:0:0:0:
314,216,45432,1,0,0:0:0:0:
279,220,45493,1,0,0:0:0:0:
243,212,45555,1,0,0:0:0:0:
241,166,45617,5,0,0:0:0:0:
161,39,45740,1,0,0:0:0:0:
241,166,45863,1,0,0:0:0:0:
67,39,45986,1,0,0:0:0:0:
279,220,46109,1,0,0:0:0:0:
403,85,46354,5,8,0:0:0:0:
233,268,46600,1,8,0:0:0:0:
359,134,46846,1,8,0:0:0:0:
233,268,47092,2,0,P|240:231|228:264,1,99.9999904632566
217,269,47338,5,0,0:0:0:0:
201,275,47399,1,0,0:0:0:0:
185,280,47460,1,0,0:0:0:0:
169,284,47522,1,0,0:0:0:0:
128,262,47584,6,0,L|77:237,3,49.9999952316283
225,243,47830,5,8,0:0:0:0:
280,208,47891,1,8,0:0:0:0:
342,226,47953,1,8,0:0:0:0:
371,285,48014,1,8,0:0:0:0:
324,284,48076,5,0,0:0:0:0:
291,316,48137,1,0,0:0:0:0:
246,323,48198,1,0,0:0:0:0:
206,300,48260,1,0,0:0:0:0:
222,260,48322,5,0,0:0:0:0:
228,224,48383,1,0,0:0:0:0:
222,189,48445,1,0,0:0:0:0:
205,158,48506,1,0,0:0:0:0:
176,197,48568,5,0,0:0:0:0:
164,202,48629,1,0,0:0:0:0:
152,206,48690,1,0,0:0:0:0:
140,210,48752,1,0,0:0:0:0:
88,187,48813,5,8,0:0:0:0:
97,179,48874,1,0,0:0:0:0:
107,171,48935,1,0,0:0:0:0:
117,164,48997,1,0,0:0:0:0:
129,108,49059,5,8,0:0:0:0:
140,109,49120,1,0,0:0:0:0:
153,112,49181,1,0,0:0:0:0:
165,115,49243,1,0,0:0:0:0:
189,160,49305,6,0,L|252:139,3,49.9999952316283,8|0|0|0,0:0|0:0|0:0|0:0,0:0:0:0:
306,232,49551,5,8,0:0:0:0:
320,170,49612,1,8,0:0:0:0:
335,109,49673,1,8,0:0:0:0:
350,48,49735,1,8,0:0:0:0:
382,88,49797,5,0,0:0:0:0:
407,125,49858,1,0,0:0:0:0:
425,166,49919,1,0,0:0:0:0:
435,211,49981,1,0,0:0:0:0:
386,199,50043,5,0,0:0:0:0:
376,203,50104,1,0,0:0:0:0:
366,208,50165,1,0,0:0:0:0:
357,212,50227,1,0,0:0:0:0:
313,186,50289,5,0,0:0:0:0:
303,190,50350,1,0,0:0:0:0:
292,189,50411,1,0,0:0:0:0:
282,184,50473,1,0,0:0:0:0:
237,215,50535,6,0,L|253:280,3,49.9999952316283
167,144,50781,5,8,0:0:0:0:
222,109,50842,1,8,0:0:0:0:
284,127,50904,1,8,0:0:0:0:
313,186,50965,1,8,0:0:0:0:
274,197,51027,5,0,0:0:0:0:
296,237,51088,1,0,0:0:0:0:
291,282,51149,1,0,0:0:0:0:
258,315,51211,1,0,0:0:0:0:
245,268,51272,5,0,0:0:0:0:
219,246,51333,1,0,0:0:0:0:
194,224,51394,1,0,0:0:0:0:
169,203,51456,1,0,0:0:0:0:
145,184,51518,5,0,0:0:0:0:
1,71,51764,1,0,0:0:0:0:
169,203,52010,1,0,0:0:0:0:
194,224,52256,5,0,0:0:0:0:
219,246,52379,1,0,0:0:0:0:
245,268,52502,1,0,0:0:0:0:
478,93,52748,5,0,0:0:0:0:
465,97,52809,1,0,0:0:0:0:
452,102,52870,1,0,0:0:0:0:
440,107,52932,1,0,0:0:0:0:
392,91,52994,5,0,0:0:0:0:
379,96,53055,1,0,0:0:0:0:
367,103,53116,1,0,0:0:0:0:
355,109,53178,1,0,0:0:0:0:
362,162,53240,6,0,L|317:188,3,49.9999952316283
440,107,53486,5,8,0:0:0:0:
423,45,53547,1,8,0:0:0:0:
364,16,53608,1,8,0:0:0:0:
305,41,53670,1,8,0:0:0:0:
328,86,53732,5,0,0:0:0:0:
295,118,53793,1,0,0:0:0:0:
250,125,53854,1,0,0:0:0:0:
210,102,53916,1,0,0:0:0:0:
253,77,53978,5,0,0:0:0:0:
270,108,54039,1,0,0:0:0:0:
276,143,54100,1,0,0:0:0:0:
270,179,54162,1,0,0:0:0:0:
230,181,54223,5,0,0:0:0:0:
219,188,54284,1,0,0:0:0:0:
209,195,54345,1,0,0:0:0:0:
198,202,54407,1,0,0:0:0:0:
149,191,54469,5,8,0:0:0:0:
146,203,54530,1,0,0:0:0:0:
144,216,54591,1,0,0:0:0:0:
141,229,54653,1,0,0:0:0:0:
105,265,54715,5,8,0:0:0:0:
116,271,54776,1,0,0:0:0:0:
128,278,54837,1,0,0:0:0:0:
139,285,54899,1,0,0:0:0:0:
143,337,54961,6,0,L|194:322,3,49.9999952316283
293,338,55207,5,8,0:0:0:0:
352,360,55268,1,8,0:0:0:0:
410,331,55329,1,8,0:0:0:0:
426,267,55391,1,8,0:0:0:0:
379,288,55453,5,0,0:0:0:0:
333,287,55514,1,0,0:0:0:0:
296,260,55575,1,0,0:0:0:0:
284,215,55637,1,0,0:0:0:0:
276,168,55699,5,0,0:0:0:0:
257,162,55760,1,0,0:0:0:0:
246,149,55821,1,0,0:0:0:0:
244,129,55883,1,0,0:0:0:0:
208,103,55944,5,0,0:0:0:0:
188,103,56006,1,0,0:0:0:0:
172,117,56067,1,0,0:0:0:0:
169,136,56129,1,0,0:0:0:0:
130,158,56190,5,0,0:0:0:0:
132,173,56252,1,0,0:0:0:0:
131,189,56313,1,0,0:0:0:0:
130,211,56375,1,0,0:0:0:0:
168,240,56437,5,8,0:0:0:0:
175,268,56498,1,0,0:0:0:0:
195,288,56559,1,0,0:0:0:0:
222,299,56621,1,0,0:0:0:0:
255,338,56682,5,0,0:0:0:0:
283,331,56744,1,0,0:0:0:0:
316,326,56805,1,0,0:0:0:0:
345,317,56867,1,0,0:0:0:0:
365,271,56928,5,0,0:0:0:0:
394,270,56990,1,0,0:0:0:0:
423,266,57051,1,0,0:0:0:0:
450,256,57113,1,0,0:0:0:0:
452,213,57174,5,8,0:0:0:0:
412,203,57235,1,0,0:0:0:0:
383,177,57296,1,0,0:0:0:0:
369,140,57358,1,0,0:0:0:0:
403,117,57420,5,8,0:0:0:0:
401,73,57481,1,0,0:0:0:0:
379,38,57542,1,0,0:0:0:0:
342,16,57604,1,0,0:0:0:0:
275,64,57666,5,8,0:0:0:0:
142,267,58926,6,0,L|269:244,1,124.999988079071
150,296,59910,6,0,L|215:283,1,65.6249962449071
241,320,60371,6,0,P|237:341|259:359,1,49.9999952316283
315,292,60494,2,0,P|337:301|357:288,1,49.9999952316283
226,231,60617,6,0,P|210:227|205:191,1,49.9999952316283
277,176,60740,2,0,P|266:165|283:133,1,49.9999952316283
319,57,60863,6,0,L|331:107,3,49.9999952316283
408,34,61108,5,0,0:0:0:0:
411,37,61170,1,0,0:0:0:0:
414,41,61231,1,0,0:0:0:0:
415,46,61292,1,0,0:0:0:0:
463,58,61354,5,8,0:0:0:0:
483,77,61415,1,8,0:0:0:0:
489,108,61476,1,8,0:0:0:0:
483,134,61538,1,8,0:0:0:0:
439,160,61599,5,0,0:0:0:0:
439,192,61661,1,0,0:0:0:0:
439,224,61722,1,0,0:0:0:0:
439,253,61784,1,0,0:0:0:0:
389,289,61846,6,0,L|383:340,1,49.9999952316283,0|8,0:0|0:0,0:0:0:0:
422,104,61969,2,0,L|415:42,1,49.9999952316283,0|8,0:0|0:0,0:0:0:0:
493,242,62092,2,0,L|536:277,1,49.9999952316283,0|8,0:0|0:0,0:0:0:0:
288,238,62215,6,0,L|242:275,1,49.9999952316283,0|8,0:0|0:0,0:0:0:0:
439,160,62338,2,0,L|489:140,1,49.9999952316283,0|8,0:0|0:0,0:0:0:0:
277,176,62461,2,0,L|224:193,1,49.9999952316283,0|8,0:0|0:0,0:0:0:0:
377,74,62584,6,0,L|407:24,1,49.9999952316283,0|8,0:0|0:0,0:0:0:0:
241,320,62707,2,0,L|209:365,1,49.9999952316283,0|8,0:0|0:0,0:0:0:0:
371,159,62830,2,0,L|425:113,1,49.9999952316283,0|8,0:0|0:0,0:0:0:0:
226,231,62953,6,0,L|190:273,1,49.9999952316283,0|8,0:0|0:0,0:0:0:0:
306,105,63076,2,0,L|318:57,1,49.9999952316283,0|8,0:0|0:0,0:0:0:0:
289,240,63199,2,0,L|283:293,1,49.9999952316283,0|8,0:0|0:0,0:0:0:0:
171,158,63322,5,0,0:0:0:0:
130,149,63383,1,0,0:0:0:0:
108,126,63444,1,0,0:0:0:0:
112,89,63506,1,0,0:0:0:0:
102,50,63567,5,0,0:0:0:0:
72,63,63629,1,0,0:0:0:0:
55,91,63690,1,0,0:0:0:0:
56,124,63752,1,0,0:0:0:0:
32,172,63813,5,0,0:0:0:0:
52,195,63875,1,0,0:0:0:0:
74,220,63936,1,0,0:0:0:0:
96,246,63998,1,0,0:0:0:0:
139,216,64059,5,8,0:0:0:0:
159,241,64121,1,0,0:0:0:0:
175,271,64182,1,0,0:0:0:0:
194,297,64244,1,0,0:0:0:0:
212,326,64305,1,0,0:0:0:0:
251,342,64367,5,0,0:0:0:0:
243,311,64428,1,0,0:0:0:0:
241,279,64489,1,0,0:0:0:0:
246,241,64551,2,0,L|253:183,2,49.9999952316283
351,85,64797,6,0,L|339:31,1,49.9999952316283,0|8,0:0|0:0,0:0:0:0:
400,212,64920,2,0,L|416:271,1,49.9999952316283,0|8,0:0|0:0,0:0:0:0:
427,93,65043,2,0,L|464:55,1,49.9999952316283,0|8,0:0|0:0,0:0:0:0:
308,140,65166,2,0,L|245:149,1,49.9999952316283,0|8,0:0|0:0,0:0:0:0:
454,162,65289,2,0,L|518:136,1,49.9999952316283,0|8,0:0|0:0,0:0:0:0:
331,207,65412,2,0,L|299:270,1,49.9999952316283,0|8,0:0|0:0,0:0:0:0:
351,85,65535,6,0,L|335:38,1,49.9999952316283,0|8,0:0|0:0,0:0:0:0:
419,232,65658,2,0,L|460:269,1,49.9999952316283,0|8,0:0|0:0,0:0:0:0:
258,147,65781,2,0,L|198:127,1,49.9999952316283,0|8,0:0|0:0,0:0:0:0:
454,162,65904,2,0,L|515:180,1,49.9999952316283,0|8,0:0|0:0,0:0:0:0:
208,197,66027,2,0,L|144:204,1,49.9999952316283,0|8,0:0|0:0,0:0:0:0:
427,93,66149,2,0,L|482:91,1,49.9999952316283,0|8,0:0|0:0,0:0:0:0:
197,130,66272,2,0,L|142:119,1,49.9999952316283,0|8,0:0|0:0,0:0:0:0:
389,202,66395,2,0,L|444:236,1,49.9999952316283,0|8,0:0|0:0,0:0:0:0:
213,64,66518,2,0,L|175:17,1,49.9999952316283,0|8,0:0|0:0,0:0:0:0:
323,251,66641,2,0,L|347:298,1,49.9999952316283,0|8,0:0|0:0,0:0:0:0:
276,70,66764,2,0,L|292:17,1,49.9999952316283,0|8,0:0|0:0,0:0:0:0:
156,238,66887,2,0,L|141:307,1,49.9999952316283,0|8,0:0|0:0,0:0:0:0:
88,79,67010,6,0,P|72:45|79:92,1,149.999985694885
88,79,67256,6,0,P|72:45|76:94,1,149.999985694885
88,79,67502,6,0,P|72:45|83:88,1,149.999985694885
88,79,67748,5,0,0:0:0:0:
108,80,67809,1,0,0:0:0:0:
128,81,67870,1,0,0:0:0:0:
149,82,67932,1,0,0:0:0:0:
171,126,67993,5,0,0:0:0:0:
191,127,68055,1,0,0:0:0:0:
211,128,68116,1,0,0:0:0:0:
231,129,68178,1,0,0:0:0:0:
262,97,68240,5,0,0:0:0:0:
283,98,68301,1,0,0:0:0:0:
303,99,68362,1,0,0:0:0:0:
324,101,68424,1,0,0:0:0:0:
336,137,68486,5,8,0:0:0:0:
310,143,68547,1,0,0:0:0:0:
285,147,68608,1,0,0:0:0:0:
259,152,68670,1,0,0:0:0:0:
234,159,68731,1,0,0:0:0:0:
210,168,68793,1,0,0:0:0:0:
173,144,68854,5,0,0:0:0:0:
150,156,68916,1,0,0:0:0:0:
129,170,68977,1,0,0:0:0:0:
108,186,69039,1,0,0:0:0:0:
89,204,69100,1,0,0:0:0:0:
75,226,69162,1,0,0:0:0:0:
60,326,69223,6,0,L|117:301,1,49.9999952316283,0|8,0:0|0:0,0:0:0:0:
271,233,69346,2,0,L|317:214,1,49.9999952316283,0|8,0:0|0:0,0:0:0:0:
60,326,69469,2,0,L|125:317,1,49.9999952316283,0|8,0:0|0:0,0:0:0:0:
278,291,69592,2,0,L|332:282,1,49.9999952316283,0|8,0:0|0:0,0:0:0:0:
60,326,69715,2,0,L|119:334,1,49.9999952316283,0|8,0:0|0:0,0:0:0:0:
275,348,69838,2,0,L|327:355,1,49.9999952316283,0|8,0:0|0:0,0:0:0:0:
60,326,69960,5,0,0:0:0:0:
466,192,70206,1,0,0:0:0:0:
63,49,70452,1,0,0:0:0:0:
60,326,70699,5,8,0:0:0:0:
81,328,70760,1,8,0:0:0:0:
104,330,70821,1,8,0:0:0:0:
126,333,70883,1,8,0:0:0:0:
170,295,70944,5,0,0:0:0:0:
192,299,71006,1,0,0:0:0:0:
214,300,71067,1,0,0:0:0:0:
237,302,71129,1,0,0:0:0:0:
277,342,71190,5,0,0:0:0:0:
299,347,71252,1,0,0:0:0:0:
321,350,71313,1,0,0:0:0:0:
343,350,71375,1,0,0:0:0:0:
399,342,71436,5,0,0:0:0:0:
428,224,71682,1,0,0:0:0:0:
452,113,71928,1,0,0:0:0:0:
452,113,72174,5,8,0:0:0:0:
427,113,72235,1,0,0:0:0:0:
402,114,72296,1,0,0:0:0:0:
377,115,72358,1,0,0:0:0:0:
356,73,72419,5,0,0:0:0:0:
331,69,72481,1,0,0:0:0:0:
305,110,72542,5,0,0:0:0:0:
280,106,72604,1,0,0:0:0:0:
259,68,72665,5,0,0:0:0:0:
234,64,72727,1,0,0:0:0:0:
209,60,72788,1,0,0:0:0:0:
184,56,72850,1,0,0:0:0:0:
184,56,72912,5,8,0:0:0:0:
113,219,73158,1,0,0:0:0:0:
56,347,73404,1,0,0:0:0:0:
56,347,73649,5,0,0:0:0:0:
79,341,73710,1,0,0:0:0:0:
101,331,73771,1,0,0:0:0:0:
121,317,73833,1,0,0:0:0:0:
109,273,73894,5,0,0:0:0:0:
120,251,73956,1,0,0:0:0:0:
129,228,74017,1,0,0:0:0:0:
140,207,74079,1,0,0:0:0:0:
191,224,74140,5,0,0:0:0:0:
215,228,74202,1,0,0:0:0:0:
238,236,74263,1,0,0:0:0:0:
257,255,74325,1,0,0:0:0:0:
267,306,74387,5,8,0:0:0:0:
290,310,74449,1,0,0:0:0:0:
315,311,74510,1,0,0:0:0:0:
339,307,74571,1,0,0:0:0:0:
321,256,74633,5,0,0:0:0:0:
316,232,74694,1,0,0:0:0:0:
310,209,74755,1,0,0:0:0:0:
303,187,74817,1,0,0:0:0:0:
349,163,74880,5,0,0:0:0:0:
349,139,74941,1,0,0:0:0:0:
349,116,75002,1,0,0:0:0:0:
349,93,75064,1,0,0:0:0:0:
460,74,75125,6,0,L|479:22,1,49.9999952316283,0|8,0:0|0:0,0:0:0:0:
450,197,75248,2,0,L|465:260,1,49.9999952316283,0|8,0:0|0:0,0:0:0:0:
385,85,75371,2,0,L|370:37,1,49.9999952316283,0|8,0:0|0:0,0:0:0:0:
395,240,75494,6,0,L|387:298,1,49.9999952316283,0|8,0:0|0:0,0:0:0:0:
423,81,75617,2,0,L|419:28,1,49.9999952316283,0|8,0:0|0:0,0:0:0:0:
488,231,75740,2,0,L|522:284,1,49.9999952316283,0|8,0:0|0:0,0:0:0:0:
356,83,75863,6,0,L|344:33,1,49.9999952316283,0|8,0:0|0:0,0:0:0:0:
320,299,75986,2,0,L|317:352,1,49.9999952316283,0|8,0:0|0:0,0:0:0:0:
301,97,76109,2,0,L|293:47,1,49.9999952316283,0|8,0:0|0:0,0:0:0:0:
363,256,76231,6,0,L|395:298,1,49.9999952316283,0|8,0:0|0:0,0:0:0:0:
250,125,76354,2,0,L|245:69,1,49.9999952316283,0|8,0:0|0:0,0:0:0:0:
245,290,76477,2,0,L|226:357,1,49.9999952316283,0|8,0:0|0:0,0:0:0:0:
110,188,76600,6,0,L|207:128,1,99.9999904632566
344,40,76846,2,0,L|359:158,1,99.9999904632566,8|0,0:0|0:0,0:0:0:0:
380,281,77092,1,0,0:0:0:0:
295,207,77215,5,0,0:0:0:0:
270,191,77277,1,0,0:0:0:0:
221,175,77338,5,8,0:0:0:0:
224,199,77399,1,8,0:0:0:0:
222,224,77460,1,8,0:0:0:0:
214,248,77522,1,8,0:0:0:0:
168,247,77584,5,0,0:0:0:0:
163,271,77645,1,0,0:0:0:0:
166,296,77706,1,0,0:0:0:0:
175,319,77768,1,0,0:0:0:0:
211,315,77830,5,0,0:0:0:0:
218,328,77891,1,0,0:0:0:0:
229,341,77952,1,0,0:0:0:0:
241,353,78014,1,0,0:0:0:0:
266,333,78076,5,0,0:0:0:0:
299,334,78137,1,0,0:0:0:0:
332,332,78198,1,0,0:0:0:0:
364,324,78260,1,0,0:0:0:0:
396,312,78321,1,0,0:0:0:0:
425,296,78383,1,0,0:0:0:0:
390,269,78445,5,0,0:0:0:0:
373,244,78506,1,0,0:0:0:0:
361,216,78567,1,0,0:0:0:0:
354,187,78629,1,0,0:0:0:0:
354,157,78690,1,0,0:0:0:0:
358,128,78752,1,0,0:0:0:0:
333,91,78813,5,8,0:0:0:0:
313,72,78874,1,0,0:0:0:0:
297,33,78935,5,8,0:0:0:0:
270,28,78997,1,0,0:0:0:0:
249,67,79058,5,8,0:0:0:0:
233,89,79120,1,0,0:0:0:0:
252,118,79181,5,8,0:0:0:0:
251,145,79243,1,0,0:0:0:0:
210,167,79304,5,8,0:0:0:0:
217,193,79366,1,0,0:0:0:0:
261,200,79427,5,8,0:0:0:0:
274,223,79489,1,0,0:0:0:0:
245,255,79550,5,8,0:0:0:0:
263,274,79612,1,0,0:0:0:0:
306,260,79673,5,8,0:0:0:0:
332,266,79735,1,0,0:0:0:0:
346,302,79796,5,8,0:0:0:0:
373,308,79858,1,0,0:0:0:0:
410,297,79919,5,8,0:0:0:0:
413,269,79981,1,0,0:0:0:0:
377,243,80042,5,0,0:0:0:0:
373,215,80103,1,0,0:0:0:0:
370,184,80165,1,0,0:0:0:0:
370,157,80227,1,0,0:0:0:0:
396,93,80289,5,8,0:0:0:0:
227,302,80535,1,0,0:0:0:0:
474,89,80781,1,0,0:0:0:0:
124,341,81027,5,0,0:0:0:0:
158,347,81088,1,0,0:0:0:0:
192,350,81149,1,0,0:0:0:0:
227,350,81211,1,0,0:0:0:0:
235,306,81272,5,0,0:0:0:0:
267,285,81334,1,0,0:0:0:0:
296,265,81395,1,0,0:0:0:0:
327,246,81457,1,0,0:0:0:0:
363,261,81518,5,0,0:0:0:0:
390,239,81580,1,0,0:0:0:0:
416,217,81641,1,0,0:0:0:0:
434,188,81703,1,0,0:0:0:0:
389,185,81764,5,8,0:0:0:0:
361,204,81825,1,0,0:0:0:0:
330,218,81886,1,0,0:0:0:0:
296,224,81948,1,0,0:0:0:0:
265,191,82009,5,0,0:0:0:0:
231,191,82071,1,0,0:0:0:0:
196,195,82132,1,0,0:0:0:0:
164,205,82194,1,0,0:0:0:0:
148,244,82255,5,0,0:0:0:0:
115,255,82317,1,0,0:0:0:0:
84,246,82378,1,0,0:0:0:0:
68,216,82440,1,0,0:0:0:0:
121,75,82502,5,0,0:0:0:0:
158,182,82625,1,0,0:0:0:0:
190,47,82748,1,0,0:0:0:0:
213,223,82871,5,0,0:0:0:0:
263,47,82994,1,0,0:0:0:0:
270,239,83117,1,0,0:0:0:0:
441,79,83240,5,8,0:0:0:0:
254,174,83363,1,0,0:0:0:0:
439,148,83486,1,0,0:0:0:0:
207,126,83609,5,0,0:0:0:0:
359,322,83731,1,0,0:0:0:0:
148,196,83854,1,0,0:0:0:0:
403,54,83977,5,8,0:0:0:0:
415,75,84038,1,8,0:0:0:0:
428,96,84099,1,8,0:0:0:0:
431,121,84162,1,8,0:0:0:0:
467,146,84223,5,0,0:0:0:0:
467,170,84284,1,0,0:0:0:0:
467,195,84345,1,0,0:0:0:0:
460,218,84407,1,0,0:0:0:0:
418,227,84469,5,0,0:0:0:0:
406,249,84530,1,0,0:0:0:0:
395,271,84591,1,0,0:0:0:0:
376,285,84653,1,0,0:0:0:0:
376,285,84714,5,0,0:0:0:0:
213,311,84961,1,0,0:0:0:0:
52,339,85207,1,0,0:0:0:0:
87,241,85453,5,8,0:0:0:0:
120,219,85514,1,0,0:0:0:0:
147,189,85575,1,0,0:0:0:0:
166,154,85637,1,0,0:0:0:0:
176,116,85698,1,0,0:0:0:0:
175,76,85760,1,0,0:0:0:0:
212,97,85822,5,8,0:0:0:0:
211,137,85883,1,0,0:0:0:0:
210,178,85944,1,0,0:0:0:0:
220,217,86006,1,0,0:0:0:0:
232,256,86067,1,0,0:0:0:0:
243,295,86129,1,0,0:0:0:0:
280,264,86190,5,8,0:0:0:0:
250,90,86436,1,0,0:0:0:0:
417,59,86682,1,0,0:0:0:0:
378,271,86928,6,0,P|320:267|300:226,2,99.9999904632566
357,218,87297,2,0,L|402:128,1,99.9999904632566
342,30,87666,5,8,0:0:0:0:
285,41,87727,1,8,0:0:0:0:
260,94,87788,1,8,0:0:0:0:
241,152,87850,1,8,0:0:0:0:
281,230,87912,2,0,L|321:261,3,49.9999952316283
241,310,88158,5,8,0:0:0:0:
189,335,88219,1,8,0:0:0:0:
133,348,88280,1,8,0:0:0:0:
75,347,88342,1,8,0:0:0:0:
256,192,88404,12,0,89018,0:0:0:0:
240,65,89141,5,8,0:0:0:0:
235,112,89202,1,8,0:0:0:0:
242,163,89263,1,8,0:0:0:0:
251,213,89325,1,8,0:0:0:0:
298,203,89386,5,0,0:0:0:0:
307,226,89448,1,0,0:0:0:0:
321,250,89509,1,0,0:0:0:0:
337,272,89571,1,0,0:0:0:0:
324,311,89632,5,0,0:0:0:0:
335,320,89694,1,0,0:0:0:0:
346,329,89755,1,0,0:0:0:0:
359,336,89817,1,0,0:0:0:0:
429,356,89879,5,0,0:0:0:0:
441,228,90002,1,0,0:0:0:0:
476,310,90125,6,0,L|497:375,1,49.9999952316283,0|8,0:0|0:0,0:0:0:0:
399,182,90248,2,0,L|363:139,1,49.9999952316283,0|8,0:0|0:0,0:0:0:0:
490,248,90371,2,0,L|518:290,1,49.9999952316283,0|8,0:0|0:0,0:0:0:0:
385,111,90494,2,0,L|345:70,1,49.9999952316283,0|8,0:0|0:0,0:0:0:0:
474,181,90617,2,0,L|528:195,1,49.9999952316283,0|8,0:0|0:0,0:0:0:0:
311,124,90740,2,0,L|250:119,1,49.9999952316283,0|8,0:0|0:0,0:0:0:0:
475,108,90863,2,0,L|524:101,1,49.9999952316283,0|8,0:0|0:0,0:0:0:0:
249,156,90986,2,0,L|188:177,1,49.9999952316283,0|8,0:0|0:0,0:0:0:0:
471,58,91109,2,0,L|516:33,1,49.9999952316283,0|8,0:0|0:0,0:0:0:0:
251,212,91231,2,0,L|208:245,1,49.9999952316283,0|8,0:0|0:0,0:0:0:0:
481,234,91354,5,0,0:0:0:0:
127,152,91477,1,0,0:0:0:0:
481,234,91600,1,0,0:0:0:0:
125,255,91723,1,0,0:0:0:0:
481,234,91846,1,0,0:0:0:0:
187,51,91969,1,0,0:0:0:0:
427,309,92092,1,0,0:0:0:0:
297,121,92215,6,0,L|235:106,1,49.9999952316283,0|8,0:0|0:0,0:0:0:0:
356,294,92338,2,0,L|334:347,1,49.9999952316283,0|8,0:0|0:0,0:0:0:0:
262,171,92461,2,0,L|213:194,1,49.9999952316283,0|8,0:0|0:0,0:0:0:0:
408,331,92584,2,0,L|391:379,1,49.9999952316283,0|8,0:0|0:0,0:0:0:0:
270,235,92707,2,0,L|221:262,1,49.9999952316283,0|8,0:0|0:0,0:0:0:0:
478,331,92830,2,0,L|478:357,1,24.9999976158142
476,250,93076,5,0,0:0:0:0:
469,219,93137,1,0,0:0:0:0:
461,195,93199,1,0,0:0:0:0:
451,171,93260,1,0,0:0:0:0:
412,159,93322,5,8,0:0:0:0:
409,144,93383,1,8,0:0:0:0:
406,131,93445,1,8,0:0:0:0:
403,116,93506,1,8,0:0:0:0:
343,61,93568,6,0,L|367:8,1,49.9999952316283,0|8,0:0|0:0,0:0:0:0:
224,316,93690,2,0,L|203:364,1,49.9999952316283,0|8,0:0|0:0,0:0:0:0:
333,64,93813,2,0,L|352:5,1,49.9999952316283,0|8,0:0|0:0,0:0:0:0:
229,310,93936,2,0,L|210:381,1,49.9999952316283,0|8,0:0|0:0,0:0:0:0:
228,95,94059,6,0,L|217:42,1,49.9999952316283,0|8,0:0|0:0,0:0:0:0:
332,276,94182,2,0,L|343:329,1,49.9999952316283,0|8,0:0|0:0,0:0:0:0:
272,190,94305,6,0,L|250:209,1,24.9999976158142
177,63,94551,6,0,L|187:11,1,49.9999952316283,0|8,0:0|0:0,0:0:0:0:
146,209,94674,2,0,L|159:153,1,49.9999952316283,0|8,0:0|0:0,0:0:0:0:
177,63,94797,2,0,L|187:11,1,49.9999952316283,0|8,0:0|0:0,0:0:0:0:
161,237,94920,2,0,L|175:168,1,49.9999952316283,0|8,0:0|0:0,0:0:0:0:
202,66,95043,2,0,L|213:15,1,49.9999952316283,0|8,0:0|0:0,0:0:0:0:
161,237,95166,2,0,L|172:186,1,49.9999952316283,0|8,0:0|0:0,0:0:0:0:
202,66,95289,2,0,L|212:15,1,49.9999952316283,0|8,0:0|0:0,0:0:0:0:
161,237,95412,2,0,L|178:175,1,49.9999952316283,0|8,0:0|0:0,0:0:0:0:
204,69,95535,2,0,L|210:8,1,49.9999952316283,0|8,0:0|0:0,0:0:0:0:
182,265,95658,2,0,L|191:196,1,49.9999952316283,0|8,0:0|0:0,0:0:0:0:
342,54,95781,6,0,P|412:32|463:45,1,99.9999904632566,0|8,0:0|0:0,0:0:0:0:
467,313,96027,2,0,P|402:339|354:331,1,99.9999904632566,0|8,0:0|0:0,0:0:0:0:
414,115,96272,2,0,L|441:-4,1,99.9999904632566,0|8,0:0|0:0,0:0:0:0:
389,267,96518,2,0,L|370:381,1,99.9999904632566,0|8,0:0|0:0,0:0:0:0:
492,163,96764,2,0,P|515:87|501:43,1,99.9999904632566,0|8,0:0|0:0,0:0:0:0:
312,232,97010,2,0,P|272:302|278:346,1,99.9999904632566,0|8,0:0|0:0,0:0:0:0:
413,158,97256,5,0,0:0:0:0:
365,96,97317,1,0,0:0:0:0:
297,63,97378,1,0,0:0:0:0:
223,66,97440,1,0,0:0:0:0:
260,18,97502,5,0,0:0:0:0:
273,74,97563,1,0,0:0:0:0:
268,135,97624,1,0,0:0:0:0:
245,192,97686,1,0,0:0:0:0:
200,140,97748,5,0,0:0:0:0:
263,155,97809,1,0,0:0:0:0:
318,188,97870,1,0,0:0:0:0:
365,233,97932,1,0,0:0:0:0:
381,296,97994,2,0,P|429:274|452:214,1,99.9999904632566
476,41,98240,5,8,0:0:0:0:
457,94,98301,1,8,0:0:0:0:
439,147,98362,1,8,0:0:0:0:
419,200,98424,1,8,0:0:0:0:
450,233,98485,5,0,0:0:0:0:
418,280,98547,1,0,0:0:0:0:
374,315,98608,1,0,0:0:0:0:
319,326,98670,1,0,0:0:0:0:
333,261,98731,2,0,P|327:168|318:144,1,99.9999904632566
316,57,98977,5,8,0:0:0:0:
248,34,99038,1,8,0:0:0:0:
177,32,99099,1,8,0:0:0:0:
109,51,99161,1,8,0:0:0:0:
159,97,99223,5,0,0:0:0:0:
202,152,99284,1,0,0:0:0:0:
248,209,99345,1,0,0:0:0:0:
259,279,99407,1,0,0:0:0:0:
268,351,99468,5,8,0:0:0:0:
322,305,99531,1,0,0:0:0:0:
390,291,99592,1,0,0:0:0:0:
443,245,99653,1,0,0:0:0:0:
459,177,99715,1,8,0:0:0:0:
433,113,99776,1,0,0:0:0:0:
375,73,99838,1,0,0:0:0:0:
306,63,99899,1,0,0:0:0:0:
236,50,99961,5,8,0:0:0:0:
266,116,100022,1,0,0:0:0:0:
297,182,100083,1,0,0:0:0:0:
330,250,100145,1,0,0:0:0:0:
372,313,100207,1,0,0:0:0:0:
491,191,100330,6,0,L|526:134,1,49.9999952316283,0|8,0:0|0:0,0:0:0:0:
369,313,100453,2,0,L|413:264,1,49.9999952316283,0|8,0:0|0:0,0:0:0:0:
482,169,100576,2,0,L|494:106,1,49.9999952316283,0|8,0:0|0:0,0:0:0:0:
369,313,100699,2,0,L|405:257,1,49.9999952316283,0|8,0:0|0:0,0:0:0:0:
472,152,100822,2,0,L|472:80,1,49.9999952316283,0|8,0:0|0:0,0:0:0:0:
369,313,100945,2,0,L|401:251,1,49.9999952316283,0|8,0:0|0:0,0:0:0:0:
455,136,101068,2,0,L|454:76,1,49.9999952316283,0|8,0:0|0:0,0:0:0:0:
369,313,101190,2,0,L|392:244,1,49.9999952316283,0|8,0:0|0:0,0:0:0:0:
442,123,101313,2,0,L|439:67,1,49.9999952316283,0|8,0:0|0:0,0:0:0:0:
369,313,101436,2,0,L|386:248,1,49.9999952316283,0|8,0:0|0:0,0:0:0:0:
432,104,101559,2,0,L|426:50,1,49.9999952316283,0|8,0:0|0:0,0:0:0:0:
369,313,101682,2,0,L|386:246,1,49.9999952316283,0|8,0:0|0:0,0:0:0:0:
416,89,101805,2,0,L|378:35,1,49.9999952316283,0|8,0:0|0:0,0:0:0:0:
369,313,101928,2,0,L|373:244,1,49.9999952316283,0|8,0:0|0:0,0:0:0:0:
228,265,102051,6,0,L|219:193,1,49.9999952316283,0|8,0:0|0:0,0:0:0:0:
369,313,102174,2,0,L|312:274,1,49.9999952316283,0|8,0:0|0:0,0:0:0:0:
229,243,102297,2,0,L|243:183,1,49.9999952316283,0|8,0:0|0:0,0:0:0:0:
369,313,102420,6,0,L|345:259,1,49.9999952316283,0|8,0:0|0:0,0:0:0:0:
277,140,102543,2,0,L|316:93,1,49.9999952316283,0|8,0:0|0:0,0:0:0:0:
369,313,102666,2,0,L|366:256,1,49.9999952316283,0|8,0:0|0:0,0:0:0:0:
364,61,102789,6,0,L|417:58,1,49.9999952316283,0|8,0:0|0:0,0:0:0:0:
369,313,102912,2,0,L|385:247,1,49.9999952316283,0|8,0:0|0:0,0:0:0:0:
423,141,103035,2,0,P|459:157|468:230,2,99.9999904632566
280,143,103404,6,0,L|248:184,1,49.9999952316283,0|8,0:0|0:0,0:0:0:0:
378,40,103527,2,0,L|343:77,1,49.9999952316283,0|8,0:0|0:0,0:0:0:0:
268,163,103649,2,0,L|232:202,1,49.9999952316283,0|8,0:0|0:0,0:0:0:0:
378,40,103772,2,0,L|343:80,1,49.9999952316283,0|8,0:0|0:0,0:0:0:0:
254,183,103895,2,0,L|219:223,1,49.9999952316283,0|8,0:0|0:0,0:0:0:0:
378,40,104018,2,0,L|342:85,1,49.9999952316283,0|8,0:0|0:0,0:0:0:0:
293,170,104141,5,0,0:0:0:0:
309,230,104202,1,0,0:0:0:0:
278,277,104263,1,0,0:0:0:0:
223,289,104325,1,0,0:0:0:0:
192,262,104387,5,0,0:0:0:0:
176,264,104448,1,0,0:0:0:0:
161,257,104509,1,0,0:0:0:0:
156,241,104571,1,0,0:0:0:0:
194,231,104633,5,8,0:0:0:0:
206,206,104694,1,0,0:0:0:0:
207,169,104755,5,8,0:0:0:0:
229,152,104817,1,0,0:0:0:0:
268,161,104878,5,8,0:0:0:0:
293,151,104940,1,0,0:0:0:0:
311,120,105002,5,8,0:0:0:0:
337,113,105063,1,0,0:0:0:0:
377,128,105125,5,8,0:0:0:0:
375,157,105186,1,0,0:0:0:0:
392,193,105247,5,8,0:0:0:0:
375,215,105309,1,0,0:0:0:0:
337,207,105370,5,8,0:0:0:0:
316,225,105432,1,0,0:0:0:0:
310,266,105493,5,8,0:0:0:0:
286,280,105555,1,0,0:0:0:0:
245,269,105616,5,8,0:0:0:0:
219,278,105678,1,0,0:0:0:0:
195,313,105739,5,8,0:0:0:0:
167,312,105801,1,0,0:0:0:0:
146,270,105863,5,8,0:0:0:0:
118,262,105923,1,0,0:0:0:0:
94,232,105985,1,0,0:0:0:0:
83,206,106046,1,0,0:0:0:0:
113,168,106109,5,8,0:0:0:0:
62,152,106170,1,8,0:0:0:0:
59,98,106231,1,8,0:0:0:0:
111,85,106293,1,8,0:0:0:0:
148,98,106354,5,0,0:0:0:0:
161,120,106415,1,0,0:0:0:0:
172,142,106476,1,0,0:0:0:0:
187,162,106538,1,0,0:0:0:0:
205,180,106599,1,0,0:0:0:0:
224,195,106661,1,0,0:0:0:0:
246,207,106722,1,0,0:0:0:0:
270,216,106784,1,0,0:0:0:0:
262,184,106846,5,8,0:0:0:0:
261,150,106907,1,0,0:0:0:0:
260,117,106968,1,0,0:0:0:0:
260,84,107030,1,0,0:0:0:0:
293,108,107092,5,8,0:0:0:0:
314,133,107153,1,0,0:0:0:0:
336,158,107214,1,0,0:0:0:0:
358,183,107276,1,0,0:0:0:0:
324,201,107338,5,8,0:0:0:0:
289,231,107399,1,0,0:0:0:0:
253,257,107460,1,0,0:0:0:0:
215,269,107522,1,0,0:0:0:0:
171,245,107584,5,0,0:0:0:0:
44,106,107707,2,0,L|41:51,1,49.9999952316283,0|8,0:0|0:0,0:0:0:0:
137,262,107830,2,0,L|103:209,1,49.9999952316283,0|8,0:0|0:0,0:0:0:0:
67,102,107953,2,0,L|66:46,1,49.9999952316283,0|8,0:0|0:0,0:0:0:0:
110,272,108076,2,0,L|97:215,1,49.9999952316283,0|8,0:0|0:0,0:0:0:0:
105,93,108199,2,0,L|103:44,1,49.9999952316283,0|8,0:0|0:0,0:0:0:0:
67,272,108322,2,0,L|82:214,1,49.9999952316283,0|8,0:0|0:0,0:0:0:0:
134,85,108445,2,0,L|134:34,1,49.9999952316283,0|8,0:0|0:0,0:0:0:0:
42,254,108568,2,0,L|73:201,1,49.9999952316283,0|8,0:0|0:0,0:0:0:0:
171,72,108690,2,0,L|170:18,1,49.9999952316283,0|8,0:0|0:0,0:0:0:0:
16,227,108813,2,0,L|43:177,1,49.9999952316283,0|8,0:0|0:0,0:0:0:0:
200,71,108936,2,0,L|200:19,1,49.9999952316283,0|8,0:0|0:0,0:0:0:0:
45,250,109059,5,0,0:0:0:0:
52,280,109120,1,0,0:0:0:0:
74,303,109181,1,0,0:0:0:0:
104,314,109243,1,0,0:0:0:0:
136,311,109304,1,0,0:0:0:0:
164,297,109366,1,0,0:0:0:0:
187,274,109427,1,0,0:0:0:0:
205,248,109489,1,0,0:0:0:0:
220,219,109550,1,0,0:0:0:0:
235,191,109612,1,0,0:0:0:0:
251,163,109673,1,0,0:0:0:0:
271,138,109735,1,0,0:0:0:0:
279,169,109797,5,8,0:0:0:0:
279,202,109858,1,0,0:0:0:0:
280,235,109919,1,0,0:0:0:0:
281,268,109981,1,0,0:0:0:0:
322,249,110043,5,0,0:0:0:0:
348,229,110104,1,0,0:0:0:0:
375,209,110165,1,0,0:0:0:0:
402,190,110227,1,0,0:0:0:0:
362,171,110289,5,0,0:0:0:0:
362,131,110350,1,0,0:0:0:0:
339,99,110411,1,0,0:0:0:0:
301,86,110473,1,0,0:0:0:0:
308,125,110535,5,8,0:0:0:0:
296,133,110596,1,8,0:0:0:0:
285,141,110657,1,8,0:0:0:0:
274,149,110719,1,8,0:0:0:0:
263,157,110780,1,8,0:0:0:0:
252,165,110842,1,8,0:0:0:0:
260,199,110903,5,0,0:0:0:0:
249,207,110965,1,0,0:0:0:0:
238,215,111026,1,0,0:0:0:0:
227,223,111088,1,0,0:0:0:0:
216,231,111149,1,0,0:0:0:0:
205,239,111211,1,0,0:0:0:0:
177,222,111272,5,0,0:0:0:0:
214,44,111518,1,0,0:0:0:0:
35,52,111764,1,0,0:0:0:0:
35,52,112010,1,8,0:0:0:0:
66,76,112071,1,0,0:0:0:0:
93,105,112132,1,0,0:0:0:0:
114,139,112194,1,0,0:0:0:0:
129,176,112255,1,0,0:0:0:0:
136,216,112317,1,0,0:0:0:0:
167,189,112379,5,8,0:0:0:0:
193,174,112440,1,0,0:0:0:0:
221,163,112501,1,0,0:0:0:0:
250,157,112563,1,0,0:0:0:0:
280,155,112624,1,0,0:0:0:0:
310,158,112686,1,0,0:0:0:0:
340,168,112748,5,8,0:0:0:0:
280,330,112994,1,0,0:0:0:0:
436,348,113240,1,0,0:0:0:0:
436,348,113486,5,0,0:0:0:0:
431,306,113547,1,0,0:0:0:0:
434,265,113608,1,0,0:0:0:0:
445,225,113670,1,0,0:0:0:0:
374,214,113731,5,0,0:0:0:0:
354,143,113792,5,0,0:0:0:0:
327,125,113854,1,0,0:0:0:0:
326,89,113915,1,0,0:0:0:0:
291,96,113977,5,0,0:0:0:0:
253,105,114038,1,0,0:0:0:0:
230,136,114099,1,0,0:0:0:0:
222,175,114161,1,0,0:0:0:0:
214,213,114223,6,0,L|174:175,1,49.9999952316283,0|8,0:0|0:0,0:0:0:0:
309,348,114346,2,0,L|345:386,1,49.9999952316283,0|8,0:0|0:0,0:0:0:0:
272,190,114469,2,0,L|254:142,1,49.9999952316283,0|8,0:0|0:0,0:0:0:0:
344,331,114592,2,0,L|366:381,1,49.9999952316283,0|8,0:0|0:0,0:0:0:0:
324,177,114715,2,0,L|301:117,1,49.9999952316283,0|8,0:0|0:0,0:0:0:0:
375,315,114838,2,0,L|393:366,1,49.9999952316283,0|8,0:0|0:0,0:0:0:0:
384,186,114961,2,0,L|384:126,1,49.9999952316283,0|8,0:0|0:0,0:0:0:0:
357,336,115084,2,0,L|340:393,1,49.9999952316283,0|8,0:0|0:0,0:0:0:0:
432,209,115207,2,0,L|464:169,1,49.9999952316283,0|8,0:0|0:0,0:0:0:0:
273,302,115330,6,0,L|242:342,1,49.9999952316283,0|8,0:0|0:0,0:0:0:0:
337,170,115453,2,0,L|354:122,1,49.9999952316283,0|8,0:0|0:0,0:0:0:0:
334,326,115576,2,0,L|322:377,1,49.9999952316283,0|8,0:0|0:0,0:0:0:0:
280,161,115699,6,0,L|269:97,1,49.9999952316283,0|8,0:0|0:0,0:0:0:0:
360,343,115822,2,0,L|396:383,1,49.9999952316283,0|8,0:0|0:0,0:0:0:0:
216,163,115945,2,0,L|168:109,1,49.9999952316283,0|8,0:0|0:0,0:0:0:0:
250,341,116068,6,0,L|274:384,1,49.9999952316283,0|8,0:0|0:0,0:0:0:0:
171,234,116190,2,0,L|119:191,1,49.9999952316283,0|8,0:0|0:0,0:0:0:0:
294,295,116313,2,0,L|336:327,1,49.9999952316283,0|8,0:0|0:0,0:0:0:0:
219,168,116436,5,0,0:0:0:0:
294,37,116559,1,0,0:0:0:0:
431,101,116682,6,0,L|454:55,1,49.9999952316283,0|8,0:0|0:0,0:0:0:0:
359,219,116805,2,0,L|324:266,1,49.9999952316283,0|8,0:0|0:0,0:0:0:0:
431,101,116928,2,0,L|454:56,1,49.9999952316283,0|8,0:0|0:0,0:0:0:0:
349,232,117051,2,0,L|312:274,1,49.9999952316283,0|8,0:0|0:0,0:0:0:0:
431,101,117174,2,0,L|454:57,1,49.9999952316283,0|8,0:0|0:0,0:0:0:0:
339,244,117297,2,0,L|303:286,1,49.9999952316283,0|8,0:0|0:0,0:0:0:0:
431,101,117420,5,0,0:0:0:0:
407,84,117481,1,0,0:0:0:0:
380,78,117542,1,0,0:0:0:0:
352,81,117604,1,0,0:0:0:0:
325,91,117665,1,0,0:0:0:0:
301,106,117727,1,0,0:0:0:0:
275,118,117788,1,0,0:0:0:0:
248,113,117850,1,0,0:0:0:0:
208,126,117912,5,8,0:0:0:0:
199,109,117974,1,0,0:0:0:0:
182,86,118035,5,8,0:0:0:0:
165,89,118097,1,0,0:0:0:0:
154,118,118158,5,8,0:0:0:0:
144,134,118220,1,0,0:0:0:0:
119,147,118281,5,8,0:0:0:0:
119,166,118343,1,0,0:0:0:0:
145,181,118404,5,8,0:0:0:0:
145,199,118466,1,0,0:0:0:0:
119,212,118527,5,8,0:0:0:0:
105,223,118589,1,0,0:0:0:0:
126,263,118649,5,8,0:0:0:0:
152,268,118710,1,0,0:0:0:0:
188,294,118771,5,8,0:0:0:0:
214,286,118833,1,0,0:0:0:0:
232,248,118895,5,8,0:0:0:0:
258,240,118956,1,0,0:0:0:0:
289,211,119018,5,8,0:0:0:0:
317,213,119079,1,0,0:0:0:0:
342,246,119141,5,8,0:0:0:0:
360,265,119202,1,0,0:0:0:0:
406,267,119264,5,8,0:0:0:0:
409,294,119325,1,0,0:0:0:0:
379,325,119386,5,8,0:0:0:0:
362,345,119448,1,0,0:0:0:0:
347,380,119510,5,8,0:0:0:0:
320,375,119571,1,0,0:0:0:0:
323,332,119633,5,8,0:0:0:0:
312,308,119694,1,0,0:0:0:0:
277,277,119756,5,8,0:0:0:0:
297,259,119817,1,0,0:0:0:0:
338,259,119879,5,8,0:0:0:0:
365,254,119939,1,0,0:0:0:0:
395,246,120002,1,0,0:0:0:0:
420,233,120062,1,0,0:0:0:0:
450,186,120125,5,8,0:0:0:0:
117,281,120371,1,0,0:0:0:0:
490,149,120617,1,0,0:0:0:0:
134,187,120863,1,0,0:0:0:0:
134,187,120986,5,0,0:0:0:0:
134,187,121109,1,0,0:0:0:0:
134,187,121231,1,0,0:0:0:0:
134,187,121354,1,0,0:0:0:0:
134,187,121477,1,0,0:0:0:0:
134,187,121600,6,0,L|177:155,1,49.9999952316283,0|8,0:0|0:0,0:0:0:0:
287,69,121723,2,0,L|326:39,1,49.9999952316283,0|8,0:0|0:0,0:0:0:0:
129,191,121846,2,0,L|178:153,1,49.9999952316283,0|8,0:0|0:0,0:0:0:0:
287,69,121969,2,0,L|327:35,1,49.9999952316283,0|8,0:0|0:0,0:0:0:0:
123,197,122092,2,0,L|179:151,1,49.9999952316283,0|8,0:0|0:0,0:0:0:0:
287,69,122215,2,0,L|332:29,1,49.9999952316283,0|8,0:0|0:0,0:0:0:0:
124,197,122338,5,0,0:0:0:0:
148,201,122399,1,0,0:0:0:0:
172,207,122460,1,0,0:0:0:0:
196,216,122522,1,0,0:0:0:0:
219,224,122583,1,0,0:0:0:0:
244,230,122645,1,0,0:0:0:0:
269,232,122706,1,0,0:0:0:0:
293,230,122768,1,0,0:0:0:0:
317,223,122829,1,0,0:0:0:0:
340,212,122891,1,0,0:0:0:0:
361,199,122952,1,0,0:0:0:0:
383,187,123014,1,0,0:0:0:0:
394,235,123076,5,8,0:0:0:0:
400,270,123137,1,0,0:0:0:0:
382,301,123198,1,0,0:0:0:0:
350,314,123260,1,0,0:0:0:0:
316,304,123321,1,0,0:0:0:0:
283,305,123383,1,0,0:0:0:0:
299,353,123445,5,0,0:0:0:0:
260,354,123506,1,0,0:0:0:0:
225,337,123567,1,0,0:0:0:0:
198,308,123629,1,0,0:0:0:0:
165,288,123690,1,0,0:0:0:0:
131,269,123752,1,0,0:0:0:0:
170,241,123814,5,8,0:0:0:0:
168,218,123875,1,8,0:0:0:0:
174,196,123936,1,8,0:0:0:0:
187,178,123998,1,8,0:0:0:0:
205,187,124059,1,8,0:0:0:0:
214,208,124121,1,8,0:0:0:0:
256,233,124182,5,0,0:0:0:0:
256,255,124244,1,0,0:0:0:0:
256,278,124305,1,0,0:0:0:0:
262,300,124367,1,0,0:0:0:0:
272,320,124428,1,0,0:0:0:0:
282,341,124490,1,0,0:0:0:0:
359,342,124551,5,0,0:0:0:0:
112,253,124797,1,0,0:0:0:0:
463,162,125043,1,0,0:0:0:0:
206,46,125289,5,8,0:0:0:0:
201,75,125350,1,0,0:0:0:0:
208,104,125411,1,0,0:0:0:0:
216,133,125473,1,0,0:0:0:0:
220,162,125534,1,0,0:0:0:0:
211,191,125596,1,0,0:0:0:0:
249,217,125658,5,8,0:0:0:0:
246,245,125719,1,0,0:0:0:0:
229,270,125780,1,0,0:0:0:0:
214,296,125842,1,0,0:0:0:0:
215,325,125903,1,0,0:0:0:0:
239,341,125965,1,0,0:0:0:0:
306,304,126027,5,8,0:0:0:0:
222,47,126272,1,0,0:0:0:0:
256,348,126518,1,0,0:0:0:0:
80,137,126764,1,0,0:0:0:0:
256,192,126795,12,0,127410,0:0:0:0:
76,333,127502,5,0,0:0:0:0:
84,323,127563,1,0,0:0:0:0:
92,312,127625,1,0,0:0:0:0:
234,139,127748,5,0,0:0:0:0:
242,127,127809,1,0,0:0:0:0:
248,117,127871,1,0,0:0:0:0:
50,221,127994,5,0,0:0:0:0:
283,211,128117,1,0,0:0:0:0:
279,335,128240,5,0,0:0:0:0:
276,325,128301,1,0,0:0:0:0:
274,314,128363,1,0,0:0:0:0:
215,134,128486,5,0,0:0:0:0:
208,124,128547,1,0,0:0:0:0:
203,112,128609,1,0,0:0:0:0:
166,338,128731,5,0,0:0:0:0:
337,125,128854,1,0,0:0:0:0:
347,356,128977,5,0,0:0:0:0:
340,344,129039,1,0,0:0:0:0:
333,332,129100,1,0,0:0:0:0:
228,150,129223,5,0,0:0:0:0:
234,162,129285,1,0,0:0:0:0:
219,138,129346,1,0,0:0:0:0:
303,283,129469,5,0,0:0:0:0:
135,16,129592,1,0,0:0:0:0:
304,384,129715,5,8,0:0:0:0:
304,384,129777,1,0,0:0:0:0:
304,384,129838,1,0,0:0:0:0:
215,0,129961,5,0,0:0:0:0:
215,0,130022,1,0,0:0:0:0:
215,0,130084,1,0,0:0:0:0:
0,260,130207,5,0,0:0:0:0:
512,123,130330,1,0,0:0:0:0:
105,127,130453,5,0,0:0:0:0:
423,225,130576,1,0,0:0:0:0:
112,250,130699,1,0,0:0:0:0:
405,110,130822,1,0,0:0:0:0:
160,185,130945,1,0,0:0:0:0:
369,176,131068,1,0,0:0:0:0:
190,253,131190,5,8,0:0:0:0:
326,123,131313,1,0,0:0:0:0:
259,277,131436,1,0,0:0:0:0:
255,99,131559,1,0,0:0:0:0:
329,245,131682,1,0,0:0:0:0:
187,138,131805,1,0,0:0:0:0:
271,235,131928,5,8,0:0:0:0:
303,216,131990,1,0,0:0:0:0:
324,188,132051,1,0,0:0:0:0:
328,155,132113,1,0,0:0:0:0:
278,167,132174,5,8,0:0:0:0:
273,130,132235,1,0,0:0:0:0:
251,101,132296,1,0,0:0:0:0:
218,89,132358,1,0,0:0:0:0:
218,135,132420,5,0,0:0:0:0:
228,171,132481,1,0,0:0:0:0:
238,208,132542,1,0,0:0:0:0:
248,244,132604,1,0,0:0:0:0:
288,325,132666,5,0,0:0:0:0:
284,314,132727,1,0,0:0:0:0:
279,304,132789,1,0,0:0:0:0:
214,159,132912,5,0,0:0:0:0:
209,148,132973,1,0,0:0:0:0:
205,139,133035,1,0,0:0:0:0:
368,270,133158,5,0,0:0:0:0:
127,224,133281,1,0,0:0:0:0:
266,293,133404,5,8,0:0:0:0:
266,293,133465,1,0,0:0:0:0:
266,293,133527,1,0,0:0:0:0:
378,70,133649,5,0,0:0:0:0:
378,70,133711,1,0,0:0:0:0:
378,70,133772,1,0,0:0:0:0:
276,48,133895,5,0,0:0:0:0:
370,296,134018,1,0,0:0:0:0:
136,344,134141,5,0,0:0:0:0:
141,327,134203,1,0,0:0:0:0:
148,315,134264,1,0,0:0:0:0:
254,65,134387,5,0,0:0:0:0:
248,80,134449,1,0,0:0:0:0:
244,95,134510,1,0,0:0:0:0:
285,356,134633,5,0,0:0:0:0:
83,78,134756,1,0,0:0:0:0:
222,384,134879,5,8,0:0:0:0:
222,384,134940,1,0,0:0:0:0:
222,384,135002,1,0,0:0:0:0:
295,0,135125,5,0,0:0:0:0:
295,0,135186,1,0,0:0:0:0:
295,0,135248,1,0,0:0:0:0:
512,259,135371,5,0,0:0:0:0:
0,124,135494,1,0,0:0:0:0:
377,287,135617,5,0,0:0:0:0:
152,83,135740,1,0,0:0:0:0:
412,150,135863,1,0,0:0:0:0:
128,213,135986,1,0,0:0:0:0:
371,210,136109,1,0,0:0:0:0:
166,160,136231,1,0,0:0:0:0:
314,258,136354,5,8,0:0:0:0:
219,111,136477,1,0,0:0:0:0:
246,287,136600,1,0,0:0:0:0:
289,107,136723,1,0,0:0:0:0:
184,252,136846,1,0,0:0:0:0:
338,152,136969,1,0,0:0:0:0:
258,195,137092,5,8,0:0:0:0:
269,158,137153,1,0,0:0:0:0:
255,123,137214,1,0,0:0:0:0:
222,106,137276,1,0,0:0:0:0:
185,114,137337,1,0,0:0:0:0:
164,145,137399,1,0,0:0:0:0:
163,183,137460,1,0,0:0:0:0:
173,220,137522,1,0,0:0:0:0:
190,255,137583,1,0,0:0:0:0:
212,287,137645,1,0,0:0:0:0:
237,316,137706,1,0,0:0:0:0:
267,340,137768,1,0,0:0:0:0:
288,298,137830,5,0,0:0:0:0:
288,286,137891,1,0,0:0:0:0:
288,275,137952,1,0,0:0:0:0:
288,263,138014,1,0,0:0:0:0:
330,256,138075,5,8,0:0:0:0:
330,245,138137,1,8,0:0:0:0:
330,233,138198,1,8,0:0:0:0:
331,222,138260,1,8,0:0:0:0:
290,215,138321,5,0,0:0:0:0:
290,203,138383,1,0,0:0:0:0:
291,192,138444,1,0,0:0:0:0:
291,181,138506,1,0,0:0:0:0:
291,118,138568,5,0,0:0:0:0:
54,302,138813,1,0,0:0:0:0:
455,190,139059,1,0,0:0:0:0:
45,115,139305,1,0,0:0:0:0:
340,46,139551,5,0,0:0:0:0:
334,64,139612,1,0,0:0:0:0:
329,83,139673,1,0,0:0:0:0:
328,103,139735,1,0,0:0:0:0:
351,134,139796,5,0,0:0:0:0:
355,153,139858,1,0,0:0:0:0:
362,172,139919,1,0,0:0:0:0:
372,189,139981,1,0,0:0:0:0:
413,243,140043,5,0,0:0:0:0:
421,249,140104,1,0,0:0:0:0:
428,254,140166,1,0,0:0:0:0:
234,151,140289,5,0,0:0:0:0:
240,155,140350,1,0,0:0:0:0:
248,160,140412,1,0,0:0:0:0:
443,160,140535,5,0,0:0:0:0:
226,248,140658,1,0,0:0:0:0:
187,48,140781,5,8,0:0:0:0:
195,57,140842,1,0,0:0:0:0:
203,67,140904,1,0,0:0:0:0:
359,244,141027,5,0,0:0:0:0:
366,253,141088,1,0,0:0:0:0:
374,264,141149,1,0,0:0:0:0:
278,160,141272,5,0,0:0:0:0:
459,351,141395,1,0,0:0:0:0:
173,341,141518,5,0,0:0:0:0:
181,328,141580,1,0,0:0:0:0:
189,317,141641,1,0,0:0:0:0:
367,84,141764,5,0,0:0:0:0:
373,74,141826,1,0,0:0:0:0:
381,65,141887,1,0,0:0:0:0:
295,368,142010,5,0,0:0:0:0:
270,35,142133,1,0,0:0:0:0:
0,291,142256,5,8,0:0:0:0:
0,291,142318,1,0,0:0:0:0:
0,291,142379,1,0,0:0:0:0:
512,91,142502,5,0,0:0:0:0:
512,91,142563,1,0,0:0:0:0:
512,91,142625,1,0,0:0:0:0:
217,0,142748,5,0,0:0:0:0:
295,384,142871,1,0,0:0:0:0:
294,52,142994,5,0,0:0:0:0:
219,317,143117,1,0,0:0:0:0:
170,82,143240,1,0,0:0:0:0:
328,294,143363,1,0,0:0:0:0:
247,106,143486,1,0,0:0:0:0:
274,273,143609,1,0,0:0:0:0:
190,150,143731,5,8,0:0:0:0:
322,227,143854,1,0,0:0:0:0:
172,216,143977,1,0,0:0:0:0:
316,162,144100,1,0,0:0:0:0:
212,263,144223,1,0,0:0:0:0:
259,129,144346,1,0,0:0:0:0:
234,209,144469,5,8,0:0:0:0:
207,188,144530,1,0,0:0:0:0:
189,161,144591,1,0,0:0:0:0:
178,129,144653,1,0,0:0:0:0:
138,141,144715,5,8,0:0:0:0:
138,173,144776,1,0,0:0:0:0:
147,204,144837,1,0,0:0:0:0:
163,233,144899,1,0,0:0:0:0:
163,274,144960,5,0,0:0:0:0:
195,296,145022,1,0,0:0:0:0:
232,310,145083,1,0,0:0:0:0:
271,315,145145,1,0,0:0:0:0:
336,329,145207,5,0,0:0:0:0:
347,332,145268,1,0,0:0:0:0:
357,334,145330,1,0,0:0:0:0:
116,275,145453,5,0,0:0:0:0:
108,273,145514,1,0,0:0:0:0:
99,270,145576,1,0,0:0:0:0:
287,376,145699,5,0,0:0:0:0:
157,223,145822,1,0,0:0:0:0:
182,349,145945,5,8,0:0:0:0:
188,342,146006,1,0,0:0:0:0:
192,334,146068,1,0,0:0:0:0:
312,170,146190,5,0,0:0:0:0:
318,161,146252,1,0,0:0:0:0:
323,152,146313,1,0,0:0:0:0:
249,258,146436,5,0,0:0:0:0:
388,59,146559,1,0,0:0:0:0:
393,210,146682,5,0,0:0:0:0:
404,213,146744,1,0,0:0:0:0:
418,217,146805,1,0,0:0:0:0:
104,151,146928,5,0,0:0:0:0:
115,155,146989,1,0,0:0:0:0:
128,157,147051,1,0,0:0:0:0:
360,330,147174,5,0,0:0:0:0:
170,61,147297,1,0,0:0:0:0:
512,251,147420,5,8,0:0:0:0:
512,251,147481,1,0,0:0:0:0:
512,251,147543,1,0,0:0:0:0:
0,131,147666,5,0,0:0:0:0:
0,131,147727,1,0,0:0:0:0:
0,131,147789,1,0,0:0:0:0:
297,384,147912,5,0,0:0:0:0:
212,0,148035,1,0,0:0:0:0:
171,292,148158,5,0,0:0:0:0:
350,77,148281,1,0,0:0:0:0:
319,310,148404,1,0,0:0:0:0:
199,65,148527,1,0,0:0:0:0:
249,272,148650,1,0,0:0:0:0:
269,115,148772,1,0,0:0:0:0:
204,240,148895,5,8,0:0:0:0:
320,151,149018,1,0,0:0:0:0:
171,186,149141,1,0,0:0:0:0:
330,209,149264,1,0,0:0:0:0:
209,132,149387,1,0,0:0:0:0:
302,256,149510,1,0,0:0:0:0:
248,188,149633,5,8,0:0:0:0:
249,204,149694,1,0,0:0:0:0:
250,221,149755,1,0,0:0:0:0:
251,237,149817,1,0,0:0:0:0:
297,252,149879,5,8,0:0:0:0:
296,268,149940,1,0,0:0:0:0:
303,283,150001,1,0,0:0:0:0:
316,293,150063,1,0,0:0:0:0:
363,275,150125,5,8,0:0:0:0:
379,279,150186,1,0,0:0:0:0:
395,275,150247,1,0,0:0:0:0:
407,264,150309,1,0,0:0:0:0:
340,189,150371,5,0,0:0:0:0:
242,183,150617,5,8,0:0:0:0:
204,184,150678,1,8,0:0:0:0:
176,209,150739,1,8,0:0:0:0:
171,246,150801,1,8,0:0:0:0:
215,259,150863,5,0,0:0:0:0:
216,292,150924,1,0,0:0:0:0:
217,325,150985,1,0,0:0:0:0:
218,358,151047,1,0,0:0:0:0:
271,384,151109,5,0,0:0:0:0:
463,125,151354,1,0,0:0:0:0:
61,251,151600,1,0,0:0:0:0:
256,192,151631,12,0,152430,0:0:0:0:
370,40,152584,5,0,0:0:0:0:
255,348,152830,1,0,0:0:0:0:
149,42,153076,1,0,0:0:0:0:
167,287,153322,6,0,L|135:333,1,49.9999952316283,0|8,0:0|0:0,0:0:0:0:
326,48,153445,2,0,L|319:-3,1,49.9999952316283,0|8,0:0|0:0,0:0:0:0:
349,278,153568,2,0,L|385:322,1,49.9999952316283,0|8,0:0|0:0,0:0:0:0:
179,58,153690,2,0,L|137:24,1,49.9999952316283,0|8,0:0|0:0,0:0:0:0:
370,220,153813,2,0,L|416:245,1,49.9999952316283,0|8,0:0|0:0,0:0:0:0:
167,110,153936,2,0,L|138:61,1,49.9999952316283,0|8,0:0|0:0,0:0:0:0:
283,308,154059,2,0,L|291:361,1,49.9999952316283,0|8,0:0|0:0,0:0:0:0:
247,48,154182,2,0,L|200:19,1,49.9999952316283,0|8,0:0|0:0,0:0:0:0:
441,169,154305,2,0,L|493:166,1,49.9999952316283,0|8,0:0|0:0,0:0:0:0:
157,192,154428,2,0,L|109:215,1,49.9999952316283,0|8,0:0|0:0,0:0:0:0:
386,76,154551,2,0,L|423:35,1,49.9999952316283,0|8,0:0|0:0,0:0:0:0:
199,272,154674,2,0,L|146:275,1,49.9999952316283,0|8,0:0|0:0,0:0:0:0:
426,262,154797,2,0,L|461:302,1,49.9999952316283,0|8,0:0|0:0,0:0:0:0:
244,68,154920,2,0,L|270:19,1,49.9999952316283,0|8,0:0|0:0,0:0:0:0:
131,278,155043,2,0,L|75:293,1,49.9999952316283,0|8,0:0|0:0,0:0:0:0:
398,208,155166,2,0,L|443:228,1,49.9999952316283,0|8,0:0|0:0,0:0:0:0:
156,98,155289,2,0,L|127:50,1,49.9999952316283,0|8,0:0|0:0,0:0:0:0:
296,327,155412,2,0,L|295:381,1,49.9999952316283,0|8,0:0|0:0,0:0:0:0:
321,189,155535,5,0,0:0:0:0:
317,159,155596,1,0,0:0:0:0:
296,180,155657,1,0,0:0:0:0:
300,214,155719,1,0,0:0:0:0:
300,249,155780,1,0,0:0:0:0:
275,268,155842,1,0,0:0:0:0:
246,252,155903,1,0,0:0:0:0:
227,223,155965,1,0,0:0:0:0:
218,189,156026,1,0,0:0:0:0:
221,154,156088,1,0,0:0:0:0:
233,123,156149,1,0,0:0:0:0:
257,97,156211,1,0,0:0:0:0:
288,57,156272,5,8,0:0:0:0:
323,55,156334,1,0,0:0:0:0:
356,65,156395,1,0,0:0:0:0:
382,87,156457,1,0,0:0:0:0:
399,118,156518,1,0,0:0:0:0:
405,151,156580,1,0,0:0:0:0:
403,186,156641,1,0,0:0:0:0:
394,219,156703,1,0,0:0:0:0:
381,252,156764,1,0,0:0:0:0:
366,283,156825,1,0,0:0:0:0:
355,316,156887,1,0,0:0:0:0:
369,345,156948,1,0,0:0:0:0:
452,305,157010,5,8,0:0:0:0:
316,57,157256,1,0,0:0:0:0:
264,368,157502,1,0,0:0:0:0:
146,108,157748,1,0,0:0:0:0:
53,223,157994,5,8,0:0:0:0:
61,242,158055,1,8,0:0:0:0:
70,261,158116,1,8,0:0:0:0:
79,281,158178,1,8,0:0:0:0:
110,298,158239,5,0,0:0:0:0:
119,318,158301,1,0,0:0:0:0:
128,337,158362,1,0,0:0:0:0:
137,357,158424,1,0,0:0:0:0:
175,324,158486,5,0,0:0:0:0:
195,163,158731,5,0,0:0:0:0:
200,172,158792,1,0,0:0:0:0:
205,181,158853,1,0,0:0:0:0:
210,190,158915,1,0,0:0:0:0:
237,190,158976,5,0,0:0:0:0:
242,199,159038,1,0,0:0:0:0:
247,208,159099,1,0,0:0:0:0:
253,218,159161,1,0,0:0:0:0:
290,190,159223,5,0,0:0:0:0:
388,347,159469,5,0,0:0:0:0:
468,186,159715,1,0,0:0:0:0:
468,186,159961,6,0,L|514:153,1,49.9999952316283,0|8,0:0|0:0,0:0:0:0:
319,289,160084,2,0,L|363:258,1,49.9999952316283,0|8,0:0|0:0,0:0:0:0:
468,186,160207,2,0,L|519:155,1,49.9999952316283,0|8,0:0|0:0,0:0:0:0:
301,283,160330,2,0,L|347:254,1,49.9999952316283,0|8,0:0|0:0,0:0:0:0:
468,186,160453,2,0,L|528:155,1,49.9999952316283,0|8,0:0|0:0,0:0:0:0:
284,276,160576,2,0,L|341:246,1,49.9999952316283,0|8,0:0|0:0,0:0:0:0:
468,186,160699,2,0,L|536:158,1,49.9999952316283,0|8,0:0|0:0,0:0:0:0:
264,263,160822,2,0,L|330:237,1,49.9999952316283,0|8,0:0|0:0,0:0:0:0:
468,186,160945,2,0,L|535:162,1,49.9999952316283,0|8,0:0|0:0,0:0:0:0:
241,256,161068,2,0,L|297:235,1,49.9999952316283,0|8,0:0|0:0,0:0:0:0:
468,186,161190,2,0,L|530:173,1,49.9999952316283,0|8,0:0|0:0,0:0:0:0:
217,244,161313,2,0,L|286:228,1,49.9999952316283,0|8,0:0|0:0,0:0:0:0:
468,186,161436,5,0,0:0:0:0:
470,203,161497,1,0,0:0:0:0:
497,225,161559,5,8,0:0:0:0:
497,242,161620,1,0,0:0:0:0:
460,251,161682,5,8,0:0:0:0:
457,268,161743,1,0,0:0:0:0:
478,298,161805,5,8,0:0:0:0:
470,314,161866,1,0,0:0:0:0:
435,318,161928,5,8,0:0:0:0:
422,329,161989,1,0,0:0:0:0:
424,365,162051,5,8,0:0:0:0:
406,368,162112,1,0,0:0:0:0:
386,339,162174,5,8,0:0:0:0:
370,331,162235,1,0,0:0:0:0:
336,353,162297,5,8,0:0:0:0:
325,338,162358,1,0,0:0:0:0:
340,300,162420,5,8,0:0:0:0:
335,283,162481,1,0,0:0:0:0:
294,281,162543,5,8,0:0:0:0:
292,263,162604,1,0,0:0:0:0:
329,237,162666,5,8,0:0:0:0:
328,219,162726,1,0,0:0:0:0:
324,202,162789,1,0,0:0:0:0:
321,184,162849,1,0,0:0:0:0:
321,158,162912,2,0,P|312:111|348:63,1,99.9999904632566
468,46,163158,5,8,0:0:0:0:
463,66,163219,1,8,0:0:0:0:
460,86,163280,1,8,0:0:0:0:
459,107,163342,1,8,0:0:0:0:
487,136,163403,5,0,0:0:0:0:
488,157,163465,1,0,0:0:0:0:
486,178,163526,1,0,0:0:0:0:
481,198,163588,1,0,0:0:0:0:
440,206,163649,5,0,0:0:0:0:
34,288,164387,1,0,0:0:0:0:
334,45,165125,6,0,L|292:-4,1,49.9999952316283,0|8,0:0|0:0,0:0:0:0:
439,201,165248,2,0,L|408:153,1,49.9999952316283,0|8,0:0|0:0,0:0:0:0:
334,45,165371,2,0,L|309:-2,1,49.9999952316283,0|8,0:0|0:0,0:0:0:0:
400,222,165494,2,0,L|378:164,1,49.9999952316283,0|8,0:0|0:0,0:0:0:0:
334,45,165617,2,0,L|321:-6,1,49.9999952316283,0|8,0:0|0:0,0:0:0:0:
359,236,165740,2,0,L|353:180,1,49.9999952316283,0|8,0:0|0:0,0:0:0:0:
334,45,165863,2,0,L|335:-4,1,49.9999952316283,0|8,0:0|0:0,0:0:0:0:
317,243,165986,2,0,L|324:180,1,49.9999952316283,0|8,0:0|0:0,0:0:0:0:
334,45,166109,2,0,L|345:-6,1,49.9999952316283,0|8,0:0|0:0,0:0:0:0:
278,236,166231,2,0,L|295:183,1,49.9999952316283,0|8,0:0|0:0,0:0:0:0:
334,45,166354,2,0,L|356:-3,1,49.9999952316283,0|8,0:0|0:0,0:0:0:0:
239,217,166477,2,0,L|274:157,1,49.9999952316283,0|8,0:0|0:0,0:0:0:0:
334,45,166600,2,0,L|365:4,1,49.9999952316283,0|8,0:0|0:0,0:0:0:0:
203,197,166723,2,0,L|239:160,1,49.9999952316283,0|8,0:0|0:0,0:0:0:0:
334,45,166846,2,0,L|375:9,1,49.9999952316283,0|8,0:0|0:0,0:0:0:0:
174,173,166968,1,0,0:0:0:0:
334,45,167091,5,0,0:0:0:0:
333,64,167153,1,0,0:0:0:0:
335,82,167214,1,0,0:0:0:0:
340,101,167276,1,0,0:0:0:0:
377,89,167338,5,8,0:0:0:0:
385,71,167399,1,0,0:0:0:0:
425,93,167461,5,8,0:0:0:0:
434,135,167522,1,0,0:0:0:0:
421,177,167583,1,0,0:0:0:0:
390,208,167645,1,0,0:0:0:0:
352,182,167707,5,8,0:0:0:0:
325,182,167768,1,0,0:0:0:0:
299,176,167829,1,0,0:0:0:0:
276,163,167891,1,0,0:0:0:0:
257,144,167952,1,0,0:0:0:0:
244,121,168014,1,0,0:0:0:0:
286,114,168076,5,8,0:0:0:0:
286,147,168137,1,0,0:0:0:0:
331,161,168199,5,8,0:0:0:0:
352,122,168260,1,0,0:0:0:0:
361,79,168321,1,0,0:0:0:0:
342,39,168383,1,0,0:0:0:0:
308,70,168445,5,8,0:0:0:0:
287,70,168506,1,0,0:0:0:0:
266,68,168567,1,0,0:0:0:0:
246,62,168629,1,0,0:0:0:0:
228,53,168690,1,0,0:0:0:0:
212,40,168752,1,0,0:0:0:0:
182,63,168813,6,0,B|206:108|206:108|235:85|235:85|263:81|263:81|260:114|260:114|299:134|299:134|328:127,1,199.999980926513
469,290,169305,1,0,0:0:0:0:
111,336,169551,1,0,0:0:0:0:
215,237,169797,5,8,0:0:0:0:
207,220,169858,1,8,0:0:0:0:
200,204,169919,1,8,0:0:0:0:
193,187,169981,1,8,0:0:0:0:
205,156,170042,5,0,0:0:0:0:
198,139,170104,1,0,0:0:0:0:
191,123,170165,1,0,0:0:0:0:
184,107,170227,1,0,0:0:0:0:
235,108,170289,5,0,0:0:0:0:
349,189,170535,5,0,0:0:0:0:
345,178,170596,1,0,0:0:0:0:
342,168,170657,1,0,0:0:0:0:
339,158,170719,1,0,0:0:0:0:
358,132,170780,5,0,0:0:0:0:
355,121,170842,1,0,0:0:0:0:
352,111,170903,1,0,0:0:0:0:
349,101,170965,1,0,0:0:0:0:
401,101,171027,5,0,0:0:0:0:
357,341,171272,5,0,0:0:0:0:
242,89,171518,1,0,0:0:0:0:
170,326,171764,6,0,L|135:229,1,99.9999904632566
91,101,172010,1,0,0:0:0:0:
276,295,172133,1,0,0:0:0:0:
199,69,172256,2,0,L|233:168,1,99.9999904632566
276,295,172502,5,8,0:0:0:0:
256,310,172563,1,0,0:0:0:0:
230,274,172624,5,8,0:0:0:0:
205,272,172686,1,0,0:0:0:0:
176,309,172747,5,8,0:0:0:0:
157,292,172809,1,0,0:0:0:0:
114,291,172870,5,8,0:0:0:0:
111,266,172932,1,0,0:0:0:0:
141,233,172993,5,8,0:0:0:0:
147,208,173055,1,0,0:0:0:0:
158,180,173117,1,0,0:0:0:0:
161,155,173178,1,0,0:0:0:0:
196,131,173240,6,0,B|223:47|245:53|264:59,1,112.499993562698
305,260,174715,2,0,B|272:349|265:310|239:281,1,112.499993562698
255,191,176190,1,0,0:0:0:0:
452,168,176928,1,0,0:0:0:0:
454,182,177174,1,0,0:0:0:0:
352,191,177420,2,0,L|350:220,1,28.1249983906745
328,286,177666,2,0,P|269:295|234:261,1,112.499993562698
228,164,179141,2,0,B|223:128|192:122|199:217,1,112.499993562698
147,300,180617,1,0,0:0:0:0:
119,186,181354,5,0,0:0:0:0:
122,166,181600,1,0,0:0:0:0:
278,251,181846,1,0,0:0:0:0:
397,101,182092,1,0,0:0:0:0:
397,111,182215,1,0,0:0:0:0:
398,121,182338,1,0,0:0:0:0:
100,37,182584,5,0,0:0:0:0:
104,54,182645,1,0,0:0:0:0:
110,71,182706,1,0,0:0:0:0:
115,89,182768,1,0,0:0:0:0:
164,111,182830,5,0,0:0:0:0:
168,128,182891,1,0,0:0:0:0:
174,146,182952,1,0,0:0:0:0:
179,163,183014,1,0,0:0:0:0:
148,195,183075,5,0,0:0:0:0:
153,212,183137,1,0,0:0:0:0:
159,230,183198,1,0,0:0:0:0:
163,247,183260,1,0,0:0:0:0:
136,279,183322,5,8,0:0:0:0:
143,302,183383,1,0,0:0:0:0:
160,321,183444,1,0,0:0:0:0:
183,330,183506,1,0,0:0:0:0:
217,362,183567,5,0,0:0:0:0:
237,347,183629,1,0,0:0:0:0:
256,331,183690,1,0,0:0:0:0:
278,321,183752,1,0,0:0:0:0:
298,283,183813,5,0,0:0:0:0:
320,294,183875,1,0,0:0:0:0:
343,301,183936,1,0,0:0:0:0:
364,290,183998,1,0,0:0:0:0:
360,252,184059,5,0,0:0:0:0:
338,247,184120,1,0,0:0:0:0:
317,240,184181,1,0,0:0:0:0:
298,230,184243,1,0,0:0:0:0:
254,243,184304,5,0,0:0:0:0:
239,227,184366,1,0,0:0:0:0:
230,207,184427,1,0,0:0:0:0:
228,185,184489,1,0,0:0:0:0:
268,164,184550,5,0,0:0:0:0:
274,143,184612,1,0,0:0:0:0:
280,122,184673,1,0,0:0:0:0:
285,101,184735,1,0,0:0:0:0:
331,119,184797,5,8,0:0:0:0:
342,133,184859,1,0,0:0:0:0:
356,144,184920,1,0,0:0:0:0:
373,151,184981,1,0,0:0:0:0:
412,176,185043,5,0,0:0:0:0:
422,161,185104,1,0,0:0:0:0:
429,144,185166,1,0,0:0:0:0:
435,127,185227,1,0,0:0:0:0:
401,93,185289,5,0,0:0:0:0:
408,76,185350,1,0,0:0:0:0:
421,63,185412,1,0,0:0:0:0:
437,55,185473,1,0,0:0:0:0:
452,93,185535,5,0,0:0:0:0:
451,108,185596,1,0,0:0:0:0:
447,124,185657,1,0,0:0:0:0:
440,138,185719,1,0,0:0:0:0:
400,152,185780,5,0,0:0:0:0:
388,163,185842,1,0,0:0:0:0:
376,173,185903,1,0,0:0:0:0:
363,182,185965,1,0,0:0:0:0:
364,226,186026,5,0,0:0:0:0:
350,235,186088,1,0,0:0:0:0:
337,245,186149,1,0,0:0:0:0:
324,253,186211,1,0,0:0:0:0:
332,289,186272,5,8,0:0:0:0:
327,306,186334,1,0,0:0:0:0:
323,324,186395,1,0,0:0:0:0:
319,342,186457,1,0,0:0:0:0:
275,353,186518,5,0,0:0:0:0:
258,345,186580,1,0,0:0:0:0:
241,339,186641,1,0,0:0:0:0:
223,336,186703,1,0,0:0:0:0:
184,310,186764,5,0,0:0:0:0:
165,311,186825,1,0,0:0:0:0:
148,316,186886,1,0,0:0:0:0:
131,323,186948,1,0,0:0:0:0:
96,352,187010,5,0,0:0:0:0:
58,171,187133,1,0,0:0:0:0:
96,352,187256,1,0,0:0:0:0:
55,153,187379,1,0,0:0:0:0:
96,352,187502,1,0,0:0:0:0:
401,167,187748,5,8,0:0:0:0:
44,51,187994,1,0,0:0:0:0:
44,51,188240,5,0,0:0:0:0:
44,51,188301,1,0,0:0:0:0:
44,51,188363,1,0,0:0:0:0:
44,51,188424,1,0,0:0:0:0:
44,51,188486,5,0,0:0:0:0:
61,51,188547,1,0,0:0:0:0:
78,55,188608,1,0,0:0:0:0:
95,62,188670,1,0,0:0:0:0:
122,56,188731,5,0,0:0:0:0:
135,67,188793,1,0,0:0:0:0:
147,80,188854,1,0,0:0:0:0:
156,96,188916,1,0,0:0:0:0:
147,125,188977,5,0,0:0:0:0:
151,142,189039,1,0,0:0:0:0:
152,159,189100,1,0,0:0:0:0:
151,177,189162,1,0,0:0:0:0:
110,199,189223,5,8,0:0:0:0:
111,217,189284,1,0,0:0:0:0:
118,233,189345,1,0,0:0:0:0:
129,248,189407,1,0,0:0:0:0:
130,291,189468,5,0,0:0:0:0:
143,303,189530,1,0,0:0:0:0:
157,314,189591,1,0,0:0:0:0:
171,326,189653,1,0,0:0:0:0:
217,317,189714,5,0,0:0:0:0:
231,327,189776,1,0,0:0:0:0:
246,337,189837,1,0,0:0:0:0:
263,343,189899,1,0,0:0:0:0:
295,313,189961,5,0,0:0:0:0:
315,314,190022,1,0,0:0:0:0:
335,313,190083,1,0,0:0:0:0:
355,310,190145,1,0,0:0:0:0:
378,276,190206,5,0,0:0:0:0:
397,269,190268,1,0,0:0:0:0:
415,260,190329,1,0,0:0:0:0:
432,250,190391,1,0,0:0:0:0:
437,208,190452,5,0,0:0:0:0:
451,194,190514,1,0,0:0:0:0:
464,179,190575,1,0,0:0:0:0:
476,162,190637,1,0,0:0:0:0:
437,148,190699,5,8,0:0:0:0:
415,155,190760,1,0,0:0:0:0:
392,157,190821,1,0,0:0:0:0:
370,153,190883,1,0,0:0:0:0:
339,184,190944,5,0,0:0:0:0:
320,170,191006,1,0,0:0:0:0:
304,154,191067,1,0,0:0:0:0:
289,137,191129,1,0,0:0:0:0:
301,96,191190,5,0,0:0:0:0:
285,79,191252,1,0,0:0:0:0:
267,65,191313,1,0,0:0:0:0:
247,54,191375,1,0,0:0:0:0:
239,99,191436,5,0,0:0:0:0:
237,119,191497,1,0,0:0:0:0:
238,139,191558,1,0,0:0:0:0:
244,159,191620,1,0,0:0:0:0:
287,170,191681,5,0,0:0:0:0:
299,186,191743,1,0,0:0:0:0:
313,200,191804,1,0,0:0:0:0:
330,212,191866,1,0,0:0:0:0:
345,257,191927,5,0,0:0:0:0:
364,261,191989,1,0,0:0:0:0:
385,260,192050,1,0,0:0:0:0:
404,253,192112,1,0,0:0:0:0:
416,300,192174,5,8,0:0:0:0:
403,309,192235,1,0,0:0:0:0:
390,318,192296,1,0,0:0:0:0:
376,326,192358,1,0,0:0:0:0:
332,311,192419,5,0,0:0:0:0:
317,317,192481,1,0,0:0:0:0:
302,322,192542,1,0,0:0:0:0:
287,326,192604,1,0,0:0:0:0:
267,364,192665,5,0,0:0:0:0:
251,366,192727,1,0,0:0:0:0:
235,367,192788,1,0,0:0:0:0:
219,368,192850,1,0,0:0:0:0:
182,348,192912,5,0,0:0:0:0:
193,332,192973,1,0,0:0:0:0:
219,261,193035,5,0,0:0:0:0:
208,255,193096,1,0,0:0:0:0:
142,235,193158,5,0,0:0:0:0:
148,221,193219,1,0,0:0:0:0:
115,293,193281,5,0,0:0:0:0:
127,304,193342,1,0,0:0:0:0:
198,276,193404,5,0,0:0:0:0:
211,269,193465,1,0,0:0:0:0:
150,234,193527,5,0,0:0:0:0:
138,223,193588,1,0,0:0:0:0:
64,214,193649,5,8,0:0:0:0:
255,33,193895,1,0,0:0:0:0:
448,214,194141,5,8,0:0:0:0:
256,192,194172,12,0,194879,0:0:0:0:
201,315,195125,6,0,L|188:374,1,49.9999952316283,0|8,0:0|0:0,0:0:0:0:
225,140,195248,2,0,L|229:91,1,49.9999952316283,0|8,0:0|0:0,0:0:0:0:
201,315,195371,2,0,L|203:365,1,49.9999952316283,0|8,0:0|0:0,0:0:0:0:
189,138,195494,2,0,L|184:78,1,49.9999952316283,0|8,0:0|0:0,0:0:0:0:
201,315,195617,2,0,L|215:367,1,49.9999952316283,0|8,0:0|0:0,0:0:0:0:
151,142,195740,2,0,L|135:87,1,49.9999952316283,0|8,0:0|0:0,0:0:0:0:
201,315,195863,2,0,L|228:364,1,49.9999952316283,0|8,0:0|0:0,0:0:0:0:
117,157,195986,2,0,L|91:109,1,49.9999952316283,0|8,0:0|0:0,0:0:0:0:
201,315,196109,2,0,L|234:355,1,49.9999952316283,0|8,0:0|0:0,0:0:0:0:
90,180,196231,2,0,L|46:126,1,49.9999952316283,0|8,0:0|0:0,0:0:0:0:
201,315,196354,2,0,L|239:346,1,49.9999952316283,0|8,0:0|0:0,0:0:0:0:
68,208,196477,2,0,L|25:173,1,49.9999952316283,0|8,0:0|0:0,0:0:0:0:
201,315,196600,2,0,L|263:333,1,49.9999952316283,0|8,0:0|0:0,0:0:0:0:
55,243,196723,2,0,L|5:227,1,49.9999952316283,0|8,0:0|0:0,0:0:0:0:
217,286,196846,6,0,L|276:280,1,49.9999952316283,0|8,0:0|0:0,0:0:0:0:
70,301,196969,2,0,L|21:303,1,49.9999952316283,0|8,0:0|0:0,0:0:0:0:
245,259,197092,2,0,L|297:248,1,49.9999952316283,0|8,0:0|0:0,0:0:0:0:
82,269,197215,2,0,L|23:275,1,49.9999952316283,0|8,0:0|0:0,0:0:0:0:
266,304,197338,6,0,L|325:327,1,49.9999952316283,0|8,0:0|0:0,0:0:0:0:
98,204,197461,2,0,L|42:170,1,49.9999952316283,0|8,0:0|0:0,0:0:0:0:
312,322,197584,2,0,L|350:358,1,49.9999952316283,0|8,0:0|0:0,0:0:0:0:
155,176,197707,2,0,L|113:120,1,49.9999952316283,0|8,0:0|0:0,0:0:0:0:
200,327,197830,6,0,L|206:381,1,49.9999952316283,0|8,0:0|0:0,0:0:0:0:
223,161,197953,2,0,L|211:109,1,49.9999952316283,0|8,0:0|0:0,0:0:0:0:
277,288,198076,1,0,0:0:0:0:
291,286,198137,1,0,0:0:0:0:
304,292,198198,1,0,0:0:0:0:
311,304,198260,1,0,0:0:0:0:
315,318,198321,1,0,0:0:0:0:
320,332,198383,1,0,0:0:0:0:
328,344,198444,1,0,0:0:0:0:
340,352,198506,1,0,0:0:0:0:
354,356,198567,1,0,0:0:0:0:
368,357,198629,1,0,0:0:0:0:
383,354,198690,1,0,0:0:0:0:
396,349,198752,1,0,0:0:0:0:
394,310,198813,5,8,0:0:0:0:
384,298,198875,1,0,0:0:0:0:
378,285,198936,1,0,0:0:0:0:
375,271,198998,1,0,0:0:0:0:
407,257,199059,5,0,0:0:0:0:
408,242,199121,1,0,0:0:0:0:
411,228,199182,1,0,0:0:0:0:
413,214,199244,1,0,0:0:0:0:
451,197,199305,5,0,0:0:0:0:
448,180,199366,1,0,0:0:0:0:
442,161,199428,1,0,0:0:0:0:
433,148,199489,1,0,0:0:0:0:
395,144,199551,6,0,L|434:100,1,49.9999952316283,0|8,0:0|0:0,0:0:0:0:
288,271,199674,2,0,L|322:231,1,49.9999952316283,0|8,0:0|0:0,0:0:0:0:
395,144,199797,2,0,L|439:108,1,49.9999952316283,0|8,0:0|0:0,0:0:0:0:
261,245,199920,6,0,L|311:203,1,49.9999952316283,0|8,0:0|0:0,0:0:0:0:
395,144,200043,2,0,L|445:101,1,49.9999952316283,0|8,0:0|0:0,0:0:0:0:
261,245,200166,2,0,L|311:205,1,49.9999952316283,0|8,0:0|0:0,0:0:0:0:
396,106,200289,6,0,L|437:72,1,49.9999952316283,0|8,0:0|0:0,0:0:0:0:
224,245,200412,2,0,L|182:283,1,49.9999952316283,0|8,0:0|0:0,0:0:0:0:
365,106,200535,2,0,L|410:65,1,49.9999952316283,0|8,0:0|0:0,0:0:0:0:
192,245,200658,2,0,L|151:284,1,49.9999952316283,0|8,0:0|0:0,0:0:0:0:
333,106,200781,2,0,L|373:66,1,49.9999952316283,0|8,0:0|0:0,0:0:0:0:
160,245,200904,2,0,L|117:283,1,49.9999952316283,0|8,0:0|0:0,0:0:0:0:
304,106,201027,2,0,L|340:64,1,49.9999952316283,0|8,0:0|0:0,0:0:0:0:
128,245,201149,2,0,L|92:282,1,49.9999952316283,0|8,0:0|0:0,0:0:0:0:
272,106,201272,2,0,L|310:67,1,49.9999952316283,0|8,0:0|0:0,0:0:0:0:
94,245,201395,2,0,L|54:285,1,49.9999952316283,0|8,0:0|0:0,0:0:0:0:
210,105,201518,5,0,0:0:0:0:
204,83,201580,1,0,0:0:0:0:
198,61,201641,1,0,0:0:0:0:
193,40,201703,1,0,0:0:0:0:
156,68,201764,5,8,0:0:0:0:
156,87,201826,1,0,0:0:0:0:
149,106,201887,1,0,0:0:0:0:
137,122,201949,1,0,0:0:0:0:
120,133,202010,1,0,0:0:0:0:
101,137,202072,1,0,0:0:0:0:
122,166,202133,5,8,0:0:0:0:
136,188,202195,1,0,0:0:0:0:
150,211,202256,1,0,0:0:0:0:
164,233,202318,1,0,0:0:0:0:
178,256,202379,1,0,0:0:0:0:
192,279,202440,1,0,0:0:0:0:
207,302,202502,6,0,L|155:329,1,49.9999952316283,0|8,0:0|0:0,0:0:0:0:
373,214,202625,2,0,L|314:245,1,49.9999952316283,0|8,0:0|0:0,0:0:0:0:
207,302,202748,2,0,L|157:329,1,49.9999952316283,0|8,0:0|0:0,0:0:0:0:
373,214,202871,2,0,L|321:242,1,49.9999952316283,0|8,0:0|0:0,0:0:0:0:
207,302,202994,2,0,L|158:317,1,49.9999952316283,0|8,0:0|0:0,0:0:0:0:
383,248,203117,2,0,L|328:266,1,49.9999952316283,0|8,0:0|0:0,0:0:0:0:
207,302,203240,2,0,L|159:318,1,49.9999952316283,0|8,0:0|0:0,0:0:0:0:
383,248,203363,2,0,L|328:266,1,49.9999952316283,0|8,0:0|0:0,0:0:0:0:
207,302,203486,2,0,L|155:306,1,49.9999952316283,0|8,0:0|0:0,0:0:0:0:
387,284,203609,2,0,L|328:289,1,49.9999952316283,0|8,0:0|0:0,0:0:0:0:
207,302,203731,2,0,L|157:305,1,49.9999952316283,0|8,0:0|0:0,0:0:0:0:
387,284,203854,2,0,L|318:291,1,49.9999952316283,0|8,0:0|0:0,0:0:0:0:
207,302,203977,5,8,0:0:0:0:
191,286,204038,1,8,0:0:0:0:
184,267,204099,1,8,0:0:0:0:
187,245,204161,1,8,0:0:0:0:
232,226,204222,5,0,0:0:0:0:
240,206,204284,1,0,0:0:0:0:
247,186,204345,1,0,0:0:0:0:
251,165,204407,1,0,0:0:0:0:
196,170,204469,5,0,0:0:0:0:
187,181,204530,1,0,0:0:0:0:
177,190,204591,1,0,0:0:0:0:
165,197,204653,1,0,0:0:0:0:
132,223,204714,5,8,0:0:0:0:
118,223,204776,1,0,0:0:0:0:
104,222,204837,1,0,0:0:0:0:
91,216,204899,1,0,0:0:0:0:
80,180,204960,5,8,0:0:0:0:
70,170,205022,1,0,0:0:0:0:
101,138,205084,5,0,0:0:0:0:
128,108,205145,1,0,0:0:0:0:
167,126,205206,5,8,0:0:0:0:
201,105,205268,1,0,0:0:0:0:
237,88,205329,1,0,0:0:0:0:
275,76,205391,1,0,0:0:0:0:
271,124,205453,5,8,0:0:0:0:
278,151,205514,1,8,0:0:0:0:
276,179,205575,1,8,0:0:0:0:
265,205,205637,1,8,0:0:0:0:
209,228,205699,5,0,0:0:0:0:
207,242,205822,1,0,0:0:0:0:
211,254,205945,1,0,0:0:0:0:
214,265,206068,1,0,0:0:0:0:
213,276,206190,1,0,0:0:0:0:
313,298,206313,5,8,0:0:0:0:
325,287,206375,1,0,0:0:0:0:
333,272,206436,1,0,0:0:0:0:
335,255,206498,1,0,0:0:0:0:
303,227,206559,5,8,0:0:0:0:
313,213,206621,1,0,0:0:0:0:
326,203,206682,1,0,0:0:0:0:
341,195,206744,1,0,0:0:0:0:
323,153,206805,5,8,0:0:0:0:
313,139,206867,1,0,0:0:0:0:
298,132,206928,1,0,0:0:0:0:
281,132,206990,1,0,0:0:0:0:
274,182,207051,5,8,0:0:0:0:
265,196,207113,1,0,0:0:0:0:
253,208,207174,1,0,0:0:0:0:
239,217,207236,1,0,0:0:0:0:
213,177,207297,5,8,0:0:0:0:
201,165,207359,1,0,0:0:0:0:
186,157,207420,1,0,0:0:0:0:
170,154,207481,1,0,0:0:0:0:
170,115,207543,5,8,0:0:0:0:
173,98,207604,1,0,0:0:0:0:
181,84,207665,1,0,0:0:0:0:
193,72,207727,1,0,0:0:0:0:
204,30,207789,5,8,0:0:0:0:
218,38,207850,1,0,0:0:0:0:
229,51,207911,1,0,0:0:0:0:
236,66,207973,1,0,0:0:0:0:
284,74,208035,5,8,0:0:0:0:
277,87,208096,1,0,0:0:0:0:
274,102,208157,1,0,0:0:0:0:
273,117,208219,1,0,0:0:0:0:
281,145,208280,5,8,0:0:0:0:
286,160,208342,1,0,0:0:0:0:
322,168,208404,5,0,0:0:0:0:
322,187,208527,1,0,0:0:0:0:
323,206,208649,1,0,0:0:0:0:
322,326,208772,1,8,0:0:0:0:
321,135,208895,1,0,0:0:0:0:
211,260,209018,1,0,0:0:0:0:
418,211,209141,5,8,0:0:0:0:
438,189,209202,1,0,0:0:0:0:
459,167,209263,1,0,0:0:0:0:
476,143,209325,1,0,0:0:0:0:
474,114,209386,1,0,0:0:0:0:
451,95,209448,1,0,0:0:0:0:
422,88,209509,1,0,0:0:0:0:
393,92,209571,1,0,0:0:0:0:
366,105,209632,1,0,0:0:0:0:
325,89,209694,5,8,0:0:0:0:
312,115,209755,1,0,0:0:0:0:
308,145,209817,1,0,0:0:0:0:
310,175,209878,1,0,0:0:0:0:
315,205,209940,1,0,0:0:0:0:
319,234,210001,1,0,0:0:0:0:
318,264,210063,1,0,0:0:0:0:
319,292,210125,1,0,0:0:0:0:
141,188,210248,5,0,0:0:0:0:
227,345,210371,1,0,0:0:0:0:
248,140,210494,1,0,0:0:0:0:
294,336,210617,5,8,0:0:0:0:
348,109,210740,1,0,0:0:0:0:
249,282,210863,1,0,0:0:0:0:
207,88,210986,5,0,0:0:0:0:
345,304,211109,1,0,0:0:0:0:
123,204,211231,1,0,0:0:0:0:
400,138,211354,5,0,0:0:0:0:
248,140,211477,1,0,0:0:0:0:
240,133,211600,5,8,0:0:0:0:
231,126,211723,1,8,0:0:0:0:
400,138,211846,5,0,0:0:0:0:
404,144,211907,1,0,0:0:0:0:
406,152,211968,1,0,0:0:0:0:
406,161,212030,1,0,0:0:0:0:
366,191,212092,5,8,0:0:0:0:
371,200,212153,1,0,0:0:0:0:
376,209,212214,1,0,0:0:0:0:
382,218,212276,1,0,0:0:0:0:
364,252,212337,5,0,0:0:0:0:
371,260,212399,1,0,0:0:0:0:
378,268,212460,1,0,0:0:0:0:
385,277,212522,1,0,0:0:0:0:
363,295,212584,5,0,0:0:0:0:
369,310,212645,1,0,0:0:0:0:
365,327,212706,1,0,0:0:0:0:
353,340,212768,1,0,0:0:0:0:
337,345,212829,1,0,0:0:0:0:
319,343,212891,1,0,0:0:0:0:
305,333,212952,1,0,0:0:0:0:
292,322,213014,1,0,0:0:0:0:
257,350,213076,5,8,0:0:0:0:
215,347,213137,1,8,0:0:0:0:
173,345,213198,1,8,0:0:0:0:
131,342,213260,1,8,0:0:0:0:
155,302,213322,5,0,0:0:0:0:
171,301,213383,1,0,0:0:0:0:
183,290,213444,1,0,0:0:0:0:
186,274,213506,1,0,0:0:0:0:
197,253,213568,5,8,0:0:0:0:
181,231,213629,1,0,0:0:0:0:
142,210,213690,5,8,0:0:0:0:
138,185,213752,1,0,0:0:0:0:
171,156,213813,5,8,0:0:0:0:
180,133,213875,1,0,0:0:0:0:
176,94,213936,5,8,0:0:0:0:
195,77,213998,1,0,0:0:0:0:
236,82,214059,5,8,0:0:0:0:
262,77,214121,1,0,0:0:0:0:
285,114,214182,5,8,0:0:0:0:
310,121,214244,1,0,0:0:0:0:
334,99,214305,5,8,0:0:0:0:
352,117,214367,1,0,0:0:0:0:
333,158,214428,5,8,0:0:0:0:
341,183,214490,1,0,0:0:0:0:
373,189,214551,5,8,0:0:0:0:
368,215,214613,1,0,0:0:0:0:
333,232,214674,5,8,0:0:0:0:
316,252,214736,1,0,0:0:0:0:
341,284,214797,5,8,0:0:0:0:
345,289,214858,1,0,0:0:0:0:
350,295,214920,1,0,0:0:0:0:
353,301,214981,1,0,0:0:0:0:
377,340,215043,5,8,0:0:0:0:
54,230,215289,1,0,0:0:0:0:
460,242,215535,1,0,0:0:0:0:
177,42,215781,5,0,0:0:0:0:
246,259,215904,1,0,0:0:0:0:
212,140,216027,1,0,0:0:0:0:
217,153,216149,1,0,0:0:0:0:
220,163,216272,1,0,0:0:0:0:
316,64,216395,5,0,0:0:0:0:
330,57,216457,1,0,0:0:0:0:
357,84,216518,5,8,0:0:0:0:
340,95,216579,1,0,0:0:0:0:
325,108,216640,1,0,0:0:0:0:
314,125,216702,1,0,0:0:0:0:
309,144,216763,1,0,0:0:0:0:
312,164,216825,1,0,0:0:0:0:
353,154,216887,5,0,0:0:0:0:
363,164,216948,1,0,0:0:0:0:
369,178,217009,1,0,0:0:0:0:
370,194,217071,1,0,0:0:0:0:
365,208,217132,1,0,0:0:0:0:
356,220,217194,1,0,0:0:0:0:
323,200,217256,5,0,0:0:0:0:
304,200,217317,1,0,0:0:0:0:
287,194,217378,1,0,0:0:0:0:
273,183,217440,1,0,0:0:0:0:
262,168,217501,1,0,0:0:0:0:
253,152,217563,1,0,0:0:0:0:
283,129,217624,5,0,0:0:0:0:
279,120,217686,1,0,0:0:0:0:
276,111,217747,1,0,0:0:0:0:
271,103,217809,1,0,0:0:0:0:
267,95,217870,1,0,0:0:0:0:
261,89,217932,1,0,0:0:0:0:
257,84,217994,1,8,0:0:0:0:
46,95,218240,5,0,0:0:0:0:
46,95,218486,1,0,0:0:0:0:
46,95,218731,5,8,0:0:0:0:
55,118,218792,1,8,0:0:0:0:
64,141,218853,1,8,0:0:0:0:
73,164,218915,1,8,0:0:0:0:
111,169,218977,5,0,0:0:0:0:
121,191,219038,1,0,0:0:0:0:
131,214,219099,1,0,0:0:0:0:
141,237,219161,1,0,0:0:0:0:
177,242,219223,5,0,0:0:0:0:
188,264,219284,1,0,0:0:0:0:
199,286,219345,1,0,0:0:0:0:
211,308,219407,1,0,0:0:0:0:
222,332,219469,5,0,0:0:0:0:
220,36,219715,1,0,0:0:0:0:
451,269,219961,1,0,0:0:0:0:
327,348,220207,5,8,0:0:0:0:
326,310,220268,1,0,0:0:0:0:
285,310,220330,5,8,0:0:0:0:
283,274,220391,1,0,0:0:0:0:
283,239,220453,1,0,0:0:0:0:
281,203,220514,1,0,0:0:0:0:
236,205,220576,5,8,0:0:0:0:
238,242,220637,1,0,0:0:0:0:
202,244,220699,5,8,0:0:0:0:
204,285,220760,1,0,0:0:0:0:
165,240,220822,5,8,0:0:0:0:
164,203,220883,1,0,0:0:0:0:
163,167,220945,1,0,0:0:0:0:
69,53,221068,5,0,0:0:0:0:
89,266,221190,1,0,0:0:0:0:
247,69,221313,1,0,0:0:0:0:
268,282,221436,1,0,0:0:0:0:
326,311,223895,5,0,0:0:0:0:
332,322,223957,1,0,0:0:0:0:
337,334,224018,1,0,0:0:0:0:
245,140,224141,5,0,0:0:0:0:
251,152,224203,1,0,0:0:0:0:
257,166,224264,1,0,0:0:0:0:
294,243,224387,5,0,0:0:0:0:
205,52,224510,1,0,0:0:0:0:
125,288,224633,5,8,0:0:0:0:
117,293,224695,1,0,0:0:0:0:
106,298,224756,1,0,0:0:0:0:
358,189,224879,5,0,0:0:0:0:
366,186,224940,1,0,0:0:0:0:
375,184,225002,1,0,0:0:0:0:
206,353,225125,5,0,0:0:0:0:
291,119,225248,1,0,0:0:0:0:
35,215,225371,5,0,0:0:0:0:
25,220,225432,1,0,0:0:0:0:
17,224,225494,1,0,0:0:0:0:
372,22,225617,5,0,0:0:0:0:
382,17,225678,1,0,0:0:0:0:
391,12,225740,1,0,0:0:0:0:
29,96,225863,5,0,0:0:0:0:
416,141,225986,1,0,0:0:0:0:
219,372,226109,5,8,0:0:0:0:
219,372,226170,1,0,0:0:0:0:
219,372,226231,1,0,0:0:0:0:
291,4,226354,5,0,0:0:0:0:
291,4,226416,1,0,0:0:0:0:
291,4,226477,1,0,0:0:0:0:
512,229,226600,5,0,0:0:0:0:
0,146,226723,1,0,0:0:0:0:
393,143,226846,5,0,0:0:0:0:
117,242,226969,1,0,0:0:0:0:
385,262,227092,1,0,0:0:0:0:
142,111,227215,1,0,0:0:0:0:
354,202,227338,1,0,0:0:0:0:
153,180,227461,1,0,0:0:0:0:
314,143,227584,5,8,0:0:0:0:
194,239,227707,1,0,0:0:0:0:
255,112,227830,1,0,0:0:0:0:
260,263,227953,1,0,0:0:0:0:
201,142,228076,1,0,0:0:0:0:
310,237,228199,1,0,0:0:0:0:
255,191,228322,5,8,0:0:0:0:
247,223,228383,1,0,0:0:0:0:
225,248,228444,1,0,0:0:0:0:
195,261,228506,1,0,0:0:0:0:
197,301,228568,5,8,0:0:0:0:
166,318,228629,1,0,0:0:0:0:
131,316,228690,1,0,0:0:0:0:
104,294,228752,1,0,0:0:0:0:
141,271,228813,5,0,0:0:0:0:
158,235,228874,1,0,0:0:0:0:
165,197,228935,1,0,0:0:0:0:
159,158,228997,1,0,0:0:0:0:
138,85,229059,5,0,0:0:0:0:
128,79,229121,1,0,0:0:0:0:
117,73,229182,1,0,0:0:0:0:
302,191,229305,5,0,0:0:0:0:
312,197,229367,1,0,0:0:0:0:
322,205,229428,1,0,0:0:0:0:
219,142,229551,5,0,0:0:0:0:
425,267,229674,1,0,0:0:0:0:
326,70,229797,5,8,0:0:0:0:
325,57,229859,1,0,0:0:0:0:
325,45,229920,1,0,0:0:0:0:
333,266,230043,5,0,0:0:0:0:
335,278,230104,1,0,0:0:0:0:
336,290,230166,1,0,0:0:0:0:
433,85,230289,5,0,0:0:0:0:
236,237,230412,1,0,0:0:0:0:
136,34,230535,5,0,0:0:0:0:
137,43,230596,1,0,0:0:0:0:
137,52,230658,1,0,0:0:0:0:
160,339,230781,5,0,0:0:0:0:
159,329,230842,1,0,0:0:0:0:
158,319,230904,1,0,0:0:0:0:
1,107,231027,5,0,0:0:0:0:
293,273,231149,1,0,0:0:0:0:
233,0,231272,5,8,0:0:0:0:
233,0,231334,1,0,0:0:0:0:
233,0,231395,1,0,0:0:0:0:
285,384,231518,5,0,0:0:0:0:
285,384,231580,1,0,0:0:0:0:
285,384,231641,1,0,0:0:0:0:
512,147,231764,5,0,0:0:0:0:
0,238,231887,1,0,0:0:0:0:
329,89,232010,5,0,0:0:0:0:
186,305,232133,1,0,0:0:0:0:
175,93,232256,1,0,0:0:0:0:
343,298,232379,1,0,0:0:0:0:
250,111,232502,1,0,0:0:0:0:
264,273,232625,1,0,0:0:0:0:
192,149,232748,5,8,0:0:0:0:
316,233,232871,1,0,0:0:0:0:
331,186,232994,1,0,0:0:0:0:
177,199,233117,1,0,0:0:0:0:
301,142,233240,1,0,0:0:0:0:
209,247,233363,1,0,0:0:0:0:
255,192,233486,5,8,0:0:0:0:
262,163,233547,1,0,0:0:0:0:
279,139,233608,1,0,0:0:0:0:
303,123,233670,1,0,0:0:0:0:
332,125,233731,1,0,0:0:0:0:
352,146,233793,1,0,0:0:0:0:
363,174,233854,1,0,0:0:0:0:
368,203,233916,1,0,0:0:0:0:
371,232,233977,1,0,0:0:0:0:
379,260,234039,1,0,0:0:0:0:
406,259,234100,1,0,0:0:0:0:
433,246,234162,1,0,0:0:0:0:
457,229,234223,1,0,0:0:0:0:
374,108,234469,5,8,0:0:0:0:
363,119,234530,1,8,0:0:0:0:
353,131,234591,1,8,0:0:0:0:
343,143,234653,1,8,0:0:0:0:
309,145,234714,5,0,0:0:0:0:
298,156,234776,1,0,0:0:0:0:
288,168,234837,1,0,0:0:0:0:
278,180,234899,1,0,0:0:0:0:
247,158,234960,5,0,0:0:0:0:
157,294,235207,1,0,0:0:0:0:
293,384,235453,1,0,0:0:0:0:
383,248,235700,1,0,0:0:0:0:
188,97,235945,5,0,0:0:0:0:
180,106,236006,1,0,0:0:0:0:
172,116,236067,1,0,0:0:0:0:
164,126,236129,1,0,0:0:0:0:
132,136,236190,5,0,0:0:0:0:
124,145,236252,1,0,0:0:0:0:
116,155,236313,1,0,0:0:0:0:
108,165,236375,1,0,0:0:0:0:
75,140,236436,5,0,0:0:0:0:
70,132,236498,1,0,0:0:0:0:
63,122,236559,1,0,0:0:0:0:
188,310,236682,5,0,0:0:0:0:
195,320,236744,1,0,0:0:0:0:
202,328,236805,1,0,0:0:0:0:
21,215,236928,5,0,0:0:0:0:
232,240,237051,1,0,0:0:0:0:
431,123,237174,5,8,0:0:0:0:
441,120,237236,1,0,0:0:0:0:
448,117,237297,1,0,0:0:0:0:
214,171,237420,5,0,0:0:0:0:
203,173,237481,1,0,0:0:0:0:
192,175,237543,1,0,0:0:0:0:
323,148,237666,5,0,0:0:0:0:
68,203,237789,1,0,0:0:0:0:
217,342,237912,5,0,0:0:0:0:
210,348,237973,1,0,0:0:0:0:
203,354,238035,1,0,0:0:0:0:
425,146,238158,5,0,0:0:0:0:
432,137,238219,1,0,0:0:0:0:
441,129,238281,1,0,0:0:0:0:
345,384,238404,5,0,0:0:0:0:
291,83,238527,1,0,0:0:0:0:
3,244,238649,5,8,0:0:0:0:
3,244,238711,1,0,0:0:0:0:
3,244,238772,1,0,0:0:0:0:
508,140,238895,5,0,0:0:0:0:
508,140,238956,1,0,0:0:0:0:
508,140,239018,1,0,0:0:0:0:
190,378,239141,5,0,0:0:0:0:
321,2,239264,1,0,0:0:0:0:
328,301,239387,5,0,0:0:0:0:
177,86,239510,1,0,0:0:0:0:
176,296,239633,1,0,0:0:0:0:
320,81,239756,1,0,0:0:0:0:
257,273,239879,1,0,0:0:0:0:
254,114,240002,1,0,0:0:0:0:
310,239,240125,5,8,0:0:0:0:
197,142,240248,1,0,0:0:0:0:
326,185,240371,1,0,0:0:0:0:
182,200,240494,1,0,0:0:0:0:
307,137,240617,1,0,0:0:0:0:
209,243,240740,1,0,0:0:0:0:
255,192,240863,5,8,0:0:0:0:
225,178,240924,1,0,0:0:0:0:
198,158,240985,1,0,0:0:0:0:
185,128,241047,1,0,0:0:0:0:
157,157,241109,5,8,0:0:0:0:
128,158,241170,1,0,0:0:0:0:
100,163,241231,1,0,0:0:0:0:
81,183,241293,1,0,0:0:0:0:
112,216,241354,5,0,0:0:0:0:
118,243,241416,1,0,0:0:0:0:
129,269,241477,1,0,0:0:0:0:
144,294,241539,1,0,0:0:0:0:
190,318,241600,5,0,0:0:0:0:
196,311,241662,1,0,0:0:0:0:
202,302,241723,1,0,0:0:0:0:
328,145,241846,5,0,0:0:0:0:
333,137,241908,1,0,0:0:0:0:
339,129,241969,1,0,0:0:0:0:
261,227,242092,5,0,0:0:0:0:
407,42,242215,1,0,0:0:0:0:
463,249,242338,5,8,0:0:0:0:
453,250,242399,1,0,0:0:0:0:
444,252,242461,1,0,0:0:0:0:
183,296,242584,5,0,0:0:0:0:
174,297,242645,1,0,0:0:0:0:
166,297,242707,1,0,0:0:0:0:
438,352,242830,5,0,0:0:0:0:
216,198,242953,1,0,0:0:0:0:
446,26,243076,5,0,0:0:0:0:
460,22,243137,1,0,0:0:0:0:
474,18,243199,1,0,0:0:0:0:
101,146,243322,5,0,0:0:0:0:
88,152,243383,1,0,0:0:0:0:
76,160,243445,1,0,0:0:0:0:
448,143,243568,5,0,0:0:0:0:
104,35,243690,1,0,0:0:0:0:
510,246,243813,5,8,0:0:0:0:
510,246,243875,1,0,0:0:0:0:
510,246,243936,1,0,0:0:0:0:
0,144,244059,5,0,0:0:0:0:
0,144,244121,1,0,0:0:0:0:
0,144,244182,1,0,0:0:0:0:
291,384,244305,5,0,0:0:0:0:
221,0,244428,1,0,0:0:0:0:
171,290,244551,5,0,0:0:0:0:
334,80,244674,1,0,0:0:0:0:
336,292,244797,1,0,0:0:0:0:
171,85,244920,1,0,0:0:0:0:
255,271,245043,1,0,0:0:0:0:
253,112,245166,1,0,0:0:0:0:
202,243,245289,5,8,0:0:0:0:
313,135,245412,1,0,0:0:0:0:
175,193,245535,1,0,0:0:0:0:
338,191,245658,1,0,0:0:0:0:
204,144,245781,1,0,0:0:0:0:
310,244,245904,1,0,0:0:0:0:
255,191,246027,5,8,0:0:0:0:
287,194,246088,1,0,0:0:0:0:
315,177,246149,1,0,0:0:0:0:
329,147,246211,1,0,0:0:0:0:
360,177,246272,5,8,0:0:0:0:
377,158,246333,1,0,0:0:0:0:
394,140,246394,1,0,0:0:0:0:
411,122,246456,1,0,0:0:0:0:
371,102,246518,5,8,0:0:0:0:
367,77,246579,1,0,0:0:0:0:
378,55,246640,1,0,0:0:0:0:
399,43,246702,1,0,0:0:0:0:
422,43,246764,1,0,0:0:0:0:
470,294,247010,5,8,0:0:0:0:
453,271,247071,1,8,0:0:0:0:
431,252,247132,1,8,0:0:0:0:
406,238,247194,1,8,0:0:0:0:
378,269,247255,5,0,0:0:0:0:
350,266,247317,1,0,0:0:0:0:
322,270,247378,1,0,0:0:0:0:
295,279,247440,1,0,0:0:0:0:
265,348,247502,5,0,0:0:0:0:
12,195,247748,1,0,0:0:0:0:
139,0,247994,1,0,0:0:0:0:
394,149,248240,1,0,0:0:0:0:
468,296,248486,5,0,0:0:0:0:
435,294,248547,1,0,0:0:0:0:
404,286,248608,1,0,0:0:0:0:
375,272,248670,1,0,0:0:0:0:
367,234,248731,5,0,0:0:0:0:
345,210,248793,1,0,0:0:0:0:
328,183,248854,1,0,0:0:0:0:
317,152,248916,1,0,0:0:0:0:
358,92,248977,5,0,0:0:0:0:
387,368,249223,1,0,0:0:0:0:
123,384,249469,1,0,0:0:0:0:
100,118,249715,1,0,0:0:0:0:
0,191,251928,5,0,0:0:0:0:
255,0,252174,1,0,0:0:0:0:
510,192,252420,1,0,0:0:0:0:
255,382,252666,1,0,0:0:0:0:
180,201,254141,5,8,0:0:0:0:
208,217,254202,1,8,0:0:0:0:
238,228,254263,1,8,0:0:0:0:
269,235,254325,1,8,0:0:0:0:
296,204,254386,5,0,0:0:0:0:
328,202,254448,1,0,0:0:0:0:
359,194,254509,1,0,0:0:0:0:
388,182,254571,1,0,0:0:0:0:
393,135,254632,5,0,0:0:0:0:
418,115,254694,1,0,0:0:0:0:
439,91,254755,1,0,0:0:0:0:
456,64,254817,1,0,0:0:0:0:
478,35,254879,5,0,0:0:0:0:
35,35,255125,1,0,0:0:0:0:
33,351,255371,1,0,0:0:0:0:
477,351,255617,1,0,0:0:0:0:
164,126,256969,5,8,0:0:0:0:
170,135,257092,1,8,0:0:0:0:
336,129,258199,1,8,0:0:0:0:
335,144,258322,1,8,0:0:0:0:
332,160,258445,1,8,0:0:0:0:
330,177,258568,1,8,0:0:0:0:
274,308,259797,1,8,0:0:0:0:
265,301,259920,1,8,0:0:0:0:
256,293,260043,1,8,0:0:0:0:
363,222,260535,1,8,0:0:0:0:
368,208,260658,1,8,0:0:0:0:
372,195,260781,1,8,0:0:0:0:
374,183,260904,1,8,0:0:0:0:
377,173,261027,1,8,0:0:0:0:
378,162,261149,1,8,0:0:0:0:
247,71,261395,1,8,0:0:0:0:
242,82,261518,1,8,0:0:0:0:
246,213,262256,1,8,0:0:0:0:
247,227,262317,1,8,0:0:0:0:
244,241,262378,1,8,0:0:0:0:
238,255,262440,1,8,0:0:0:0:
230,266,262501,1,8,0:0:0:0:
219,276,262563,1,8,0:0:0:0:
205,282,262624,1,8,0:0:0:0:
191,285,262686,1,8,0:0:0:0:
177,285,262747,1,8,0:0:0:0:
163,281,262809,1,8,0:0:0:0:
150,274,262870,1,8,0:0:0:0:
139,264,262932,1,8,0:0:0:0:
131,252,262993,1,8,0:0:0:0:
121,148,263609,1,8,0:0:0:0:
122,137,263670,1,8,0:0:0:0:
123,126,263731,1,8,0:0:0:0:
268,284,264039,1,8,0:0:0:0:
270,272,264100,1,8,0:0:0:0:
399,149,264469,1,8,0:0:0:0:
195,173,264715,1,8,0:0:0:0:
191,184,264838,1,8,0:0:0:0:
186,195,264961,1,8,0:0:0:0:
181,209,265084,1,8,0:0:0:0:
177,222,265207,1,8,0:0:0:0:
174,234,265330,1,8,0:0:0:0:
171,247,265453,1,8,0:0:0:0:
170,260,265576,1,8,0:0:0:0:
168,275,265699,2,0,L|190:309,1,37.4999978542326,8|0,0:0|0:0,0:0:0:0:
330,293,265945,1,8,0:0:0:0:
226,331,276272,6,0,L|225:277,1,49.9999952316283,8|0,0:0|0:0,0:0:0:0:
215,110,276395,1,8,0:0:0:0:
203,97,276457,1,0,0:0:0:0:
163,93,276518,2,0,L|141:140,1,49.9999952316283,8|0,0:0|0:0,0:0:0:0:
132,321,276641,1,8,0:0:0:0:
147,306,276703,1,0,0:0:0:0:
139,265,276764,5,8,0:0:0:0:
184,222,276825,1,0,0:0:0:0:
206,169,276886,5,8,0:0:0:0:
263,145,276948,1,0,0:0:0:0:
319,111,277010,6,0,L|310:52,1,49.9999952316283,8|0,0:0|0:0,0:0:0:0:
319,111,277133,2,0,L|328:168,1,49.9999952316283,8|0,0:0|0:0,0:0:0:0:
350,318,277256,2,0,L|343:261,1,49.9999952316283,8|0,0:0|0:0,0:0:0:0:
350,318,277379,2,0,L|356:371,1,49.9999952316283,8|0,0:0|0:0,0:0:0:0:
403,155,277502,2,0,L|449:117,1,49.9999952316283,8|0,0:0|0:0,0:0:0:0:
403,155,277625,2,0,L|351:199,1,49.9999952316283,8|0,0:0|0:0,0:0:0:0:
271,286,277748,6,0,P|240:308|212:297,1,49.9999952316283,8|0,0:0|0:0,0:0:0:0:
105,337,277871,1,8,0:0:0:0:
88,328,277932,1,0,0:0:0:0:
90,282,277994,2,0,P|125:264|126:251,1,49.9999952316283,8|0,0:0|0:0,0:0:0:0:
176,125,278117,1,8,0:0:0:0:
172,139,278178,1,0,0:0:0:0:
200,167,278240,5,8,0:0:0:0:
240,214,278301,1,0,0:0:0:0:
254,267,278362,5,8,0:0:0:0:
316,276,278424,1,0,0:0:0:0:
385,275,278486,6,0,L|430:239,1,49.9999952316283,8|0,0:0|0:0,0:0:0:0:
385,275,278609,2,0,L|351:319,1,49.9999952316283,8|0,0:0|0:0,0:0:0:0:
291,217,278731,2,0,L|321:168,1,49.9999952316283,8|0,0:0|0:0,0:0:0:0:
291,217,278854,2,0,L|281:278,1,49.9999952316283,8|0,0:0|0:0,0:0:0:0:
198,104,278977,2,0,L|254:94,1,49.9999952316283,8|0,0:0|0:0,0:0:0:0:
198,104,279100,2,0,L|157:146,1,49.9999952316283,8|0,0:0|0:0,0:0:0:0:
326,73,279223,6,0,P|352:71|374:83,1,49.9999952316283,8|0,0:0|0:0,0:0:0:0:
483,181,279346,1,0,0:0:0:0:
472,193,279408,1,0,0:0:0:0:
485,232,279469,2,0,P|487:269|465:294,1,49.9999952316283
356,351,279592,1,0,0:0:0:0:
329,362,279654,1,0,0:0:0:0:
311,332,279715,5,8,0:0:0:0:
297,271,279776,1,0,0:0:0:0:
255,225,279837,1,0,0:0:0:0:
207,184,279899,1,0,0:0:0:0:
241,142,279961,6,0,L|227:90,1,49.9999952316283,8|0,0:0|0:0,0:0:0:0:
241,142,280084,2,0,L|303:133,1,49.9999952316283
251,260,280207,2,0,L|283:305,1,49.9999952316283,8|0,0:0|0:0,0:0:0:0:
251,260,280330,2,0,L|212:301,1,49.9999952316283,8|0,0:0|0:0,0:0:0:0:
136,209,280453,2,0,L|110:162,1,49.9999952316283,8|0,0:0|0:0,0:0:0:0:
136,209,280576,2,0,L|96:244,1,49.9999952316283
250,86,280699,6,0,L|254:137,1,49.9999952316283,8|0,0:0|0:0,0:0:0:0:
250,260,280822,1,0,0:0:0:0:
259,277,280883,1,0,0:0:0:0:
305,279,280945,2,0,P|335:262|346:244,1,49.9999952316283
382,90,281068,1,0,0:0:0:0:
356,89,281129,1,0,0:0:0:0:
356,134,281190,5,8,0:0:0:0:
323,188,281251,1,0,0:0:0:0:
270,222,281312,1,0,0:0:0:0:
207,231,281374,1,0,0:0:0:0:
178,189,281436,6,0,L|131:160,1,49.9999952316283,8|0,0:0|0:0,0:0:0:0:
178,189,281559,2,0,L|177:243,1,49.9999952316283
281,99,281682,2,0,L|241:129,1,49.9999952316283,8|0,0:0|0:0,0:0:0:0:
281,99,281805,2,0,L|273:44,1,49.9999952316283
416,186,281928,2,0,L|362:154,1,49.9999952316283,8|0,0:0|0:0,0:0:0:0:
416,186,282051,2,0,L|444:121,1,49.9999952316283
410,296,282174,6,0,L|350:331,1,49.9999952316283,8|0,0:0|0:0,0:0:0:0:
240,349,282297,1,8,0:0:0:0:
245,366,282359,1,0,0:0:0:0:
286,369,282420,2,0,L|296:318,1,49.9999952316283,8|0,0:0|0:0,0:0:0:0:
311,175,282543,1,8,0:0:0:0:
295,163,282604,1,0,0:0:0:0:
303,216,282666,5,8,0:0:0:0:
275,270,282727,1,0,0:0:0:0:
213,277,282788,5,8,0:0:0:0:
161,309,282850,1,0,0:0:0:0:
55,320,282912,2,0,L|2:357,1,49.9999952316283,8|0,0:0|0:0,0:0:0:0:
55,320,283035,2,0,L|95:354,1,49.9999952316283,8|0,0:0|0:0,0:0:0:0:
63,215,283158,2,0,L|16:235,1,49.9999952316283,8|0,0:0|0:0,0:0:0:0:
63,215,283281,2,0,L|107:253,1,49.9999952316283,8|0,0:0|0:0,0:0:0:0:
99,101,283404,2,0,L|78:50,1,49.9999952316283,8|0,0:0|0:0,0:0:0:0:
99,101,283527,2,0,L|65:165,1,49.9999952316283,8|0,0:0|0:0,0:0:0:0:
225,104,283649,6,0,L|280:106,1,49.9999952316283,8|0,0:0|0:0,0:0:0:0:
426,108,283772,1,8,0:0:0:0:
451,98,283834,1,0,0:0:0:0:
443,152,283895,2,0,L|390:153,1,49.9999952316283,8|0,0:0|0:0,0:0:0:0:
231,157,284018,1,8,0:0:0:0:
217,173,284080,1,0,0:0:0:0:
194,127,284141,5,8,0:0:0:0:
135,144,284202,1,0,0:0:0:0:
74,153,284263,5,8,0:0:0:0:
49,209,284325,1,0,0:0:0:0:
146,277,284387,2,0,L|155:217,1,49.9999952316283,8|0,0:0|0:0,0:0:0:0:
146,277,284510,2,0,L|102:304,1,49.9999952316283,8|0,0:0|0:0,0:0:0:0:
271,308,284633,2,0,L|243:354,1,49.9999952316283,8|0,0:0|0:0,0:0:0:0:
271,308,284756,2,0,L|230:266,1,49.9999952316283,8|0,0:0|0:0,0:0:0:0:
378,214,284879,2,0,L|317:220,1,49.9999952316283,8|0,0:0|0:0,0:0:0:0:
380,215,285002,2,0,L|402:275,1,49.9999952316283,8|0,0:0|0:0,0:0:0:0:
368,77,285125,6,0,L|348:127,1,49.9999952316283,8|0,0:0|0:0,0:0:0:0:
299,228,285248,1,0,0:0:0:0:
286,238,285309,1,0,0:0:0:0:
251,215,285371,2,0,L|248:159,1,49.9999952316283
239,46,285494,1,0,0:0:0:0:
213,33,285555,1,0,0:0:0:0:
199,73,285617,5,8,0:0:0:0:
233,124,285678,1,0,0:0:0:0:
279,166,285739,1,0,0:0:0:0:
333,196,285801,1,0,0:0:0:0:
391,116,285863,6,0,L|357:78,1,49.9999952316283,8|0,0:0|0:0,0:0:0:0:
391,116,285986,2,0,L|448:78,1,49.9999952316283
454,217,286109,2,0,L|500:184,1,49.9999952316283
454,217,286231,2,0,L|473:266,1,49.9999952316283
369,302,286354,2,0,L|395:344,1,49.9999952316283,8|0,0:0|0:0,0:0:0:0:
369,302,286477,2,0,L|312:324,1,49.9999952316283
308,189,286600,5,8,0:0:0:0:
287,192,286661,1,8,0:0:0:0:
268,199,286722,1,8,0:0:0:0:
251,210,286784,1,8,0:0:0:0:
274,237,286846,5,0,0:0:0:0:
265,255,286908,1,0,0:0:0:0:
260,275,286969,1,0,0:0:0:0:
255,295,287031,1,0,0:0:0:0:
221,307,287092,5,0,0:0:0:0:
211,325,287153,1,0,0:0:0:0:
198,340,287214,1,0,0:0:0:0:
182,353,287276,1,0,0:0:0:0:
138,351,287338,5,0,0:0:0:0:
80,101,287584,1,0,0:0:0:0:
108,231,287707,5,0,0:0:0:0:
0,267,287830,1,0,0:0:0:0:
246,193,287953,1,0,0:0:0:0:
410,120,288076,5,8,0:0:0:0:
452,309,288199,1,8,0:0:0:0:
317,121,288322,5,0,0:0:0:0:
306,103,288383,1,0,0:0:0:0:
293,84,288445,1,0,0:0:0:0:
283,69,288506,1,0,0:0:0:0:
274,54,288568,1,8,0:0:0:0:
452,309,288690,5,0,0:0:0:0:
452,309,288752,1,0,0:0:0:0:
452,309,288813,1,8,0:0:0:0:
274,54,288936,5,0,0:0:0:0:
274,54,288998,1,0,0:0:0:0:
274,54,289059,1,8,0:0:0:0:
452,309,289182,5,0,0:0:0:0:
452,309,289244,1,0,0:0:0:0:
452,309,289305,1,8,0:0:0:0:
357,186,289428,5,0,0:0:0:0:
357,186,289490,1,0,0:0:0:0:
357,186,289551,1,8,0:0:0:0:
241,338,289674,1,8,0:0:0:0:
206,145,289797,5,0,0:0:0:0:
219,125,289859,1,0,0:0:0:0:
230,108,289920,1,0,0:0:0:0:
238,94,289981,1,0,0:0:0:0:
247,76,290043,1,8,0:0:0:0:
91,330,290166,5,0,0:0:0:0:
91,330,290227,1,0,0:0:0:0:
91,330,290289,1,8,0:0:0:0:
247,76,290412,5,0,0:0:0:0:
247,76,290473,1,0,0:0:0:0:
247,76,290535,1,8,0:0:0:0:
91,330,290658,5,0,0:0:0:0:
91,330,290719,1,0,0:0:0:0:
91,330,290781,1,8,0:0:0:0:
173,213,290904,5,0,0:0:0:0:
173,213,290965,1,0,0:0:0:0:
173,213,291027,1,8,0:0:0:0:
334,110,291149,1,8,0:0:0:0:
383,232,291272,5,0,0:0:0:0:
390,246,291334,1,0,0:0:0:0:
399,260,291395,1,0,0:0:0:0:
408,275,291457,1,0,0:0:0:0:
419,291,291518,1,8,0:0:0:0:
265,42,291641,5,0,0:0:0:0:
265,42,291703,1,0,0:0:0:0:
265,42,291764,1,8,0:0:0:0:
419,291,291887,5,0,0:0:0:0:
419,291,291949,1,0,0:0:0:0:
419,291,292010,1,8,0:0:0:0:
265,42,292133,5,0,0:0:0:0:
265,42,292195,1,0,0:0:0:0:
265,42,292256,1,8,0:0:0:0:
340,161,292379,5,0,0:0:0:0:
340,161,292440,1,0,0:0:0:0:
340,161,292502,1,8,0:0:0:0:
201,47,292625,1,8,0:0:0:0:
160,247,292748,5,0,0:0:0:0:
152,271,292809,1,0,0:0:0:0:
146,290,292871,1,0,0:0:0:0:
141,306,292932,1,0,0:0:0:0:
133,327,292994,1,8,0:0:0:0:
222,53,293117,5,0,0:0:0:0:
222,53,293178,1,0,0:0:0:0:
222,53,293240,1,8,0:0:0:0:
133,327,293363,5,0,0:0:0:0:
133,327,293424,1,0,0:0:0:0:
133,327,293486,1,8,0:0:0:0:
222,53,293609,5,0,0:0:0:0:
222,53,293670,1,0,0:0:0:0:
222,53,293731,1,8,0:0:0:0:
177,188,293854,5,0,0:0:0:0:
133,327,293977,1,8,0:0:0:0:
177,188,294100,1,8,0:0:0:0:
133,327,294223,5,0,0:0:0:0:
113,299,294284,1,0,0:0:0:0:
100,269,294345,1,0,0:0:0:0:
93,236,294407,1,0,0:0:0:0:
141,244,294469,5,8,0:0:0:0:
163,233,294530,1,0,0:0:0:0:
186,223,294591,1,0,0:0:0:0:
209,212,294653,1,0,0:0:0:0:
195,172,294715,5,8,0:0:0:0:
219,176,294776,1,0,0:0:0:0:
244,181,294837,1,0,0:0:0:0:
268,185,294899,1,0,0:0:0:0:
266,234,294961,5,8,0:0:0:0:
288,222,295022,1,0,0:0:0:0:
310,210,295083,1,0,0:0:0:0:
332,198,295145,1,0,0:0:0:0:
326,157,295207,5,8,0:0:0:0:
350,163,295268,1,0,0:0:0:0:
374,169,295329,1,0,0:0:0:0:
398,175,295391,1,0,0:0:0:0:
440,175,295453,5,8,0:0:0:0:
445,153,295514,1,0,0:0:0:0:
425,208,295576,5,8,0:0:0:0:
429,232,295637,1,0,0:0:0:0:
428,257,295698,1,0,0:0:0:0:
421,281,295760,1,0,0:0:0:0:
410,303,295821,1,0,0:0:0:0:
395,323,295883,1,0,0:0:0:0:
361,306,295945,5,8,0:0:0:0:
350,283,296006,1,0,0:0:0:0:
340,260,296067,1,0,0:0:0:0:
330,237,296129,1,0,0:0:0:0:
292,260,296190,5,8,0:0:0:0:
292,235,296251,1,0,0:0:0:0:
293,210,296312,1,0,0:0:0:0:
293,185,296374,1,0,0:0:0:0:
332,181,296436,5,8,0:0:0:0:
320,158,296497,1,0,0:0:0:0:
309,136,296558,1,0,0:0:0:0:
298,114,296620,1,0,0:0:0:0:
261,126,296682,5,8,0:0:0:0:
240,112,296743,1,0,0:0:0:0:
219,98,296804,1,0,0:0:0:0:
198,85,296866,1,0,0:0:0:0:
180,128,296928,5,8,0:0:0:0:
179,157,296989,1,0,0:0:0:0:
186,187,297050,1,0,0:0:0:0:
198,214,297112,1,0,0:0:0:0:
215,238,297173,1,0,0:0:0:0:
237,259,297235,1,0,0:0:0:0:
261,221,297297,5,8,0:0:0:0:
290,216,297358,1,0,0:0:0:0:
317,203,297419,1,0,0:0:0:0:
338,182,297481,1,0,0:0:0:0:
352,155,297542,1,0,0:0:0:0:
357,126,297604,1,0,0:0:0:0:
314,126,297666,5,8,0:0:0:0:
284,119,297727,1,0,0:0:0:0:
254,119,297788,1,0,0:0:0:0:
225,125,297850,1,0,0:0:0:0:
197,137,297911,1,0,0:0:0:0:
173,154,297973,1,0,0:0:0:0:
212,186,298035,5,8,0:0:0:0:
218,215,298096,1,0,0:0:0:0:
230,242,298157,1,0,0:0:0:0:
246,267,298219,1,0,0:0:0:0:
267,289,298280,1,0,0:0:0:0:
291,306,298342,1,0,0:0:0:0:
314,266,298404,5,8,0:0:0:0:
319,251,298465,1,8,0:0:0:0:
324,236,298526,1,8,0:0:0:0:
330,221,298588,1,8,0:0:0:0:
368,212,298649,5,0,0:0:0:0:
373,197,298711,1,0,0:0:0:0:
378,182,298772,1,0,0:0:0:0:
384,167,298834,1,0,0:0:0:0:
352,144,298895,5,0,0:0:0:0:
357,129,298957,1,0,0:0:0:0:
362,114,299018,1,0,0:0:0:0:
368,99,299080,1,0,0:0:0:0:
348,53,299141,5,0,0:0:0:0:
249,157,299264,1,0,0:0:0:0:
348,53,299387,1,0,0:0:0:0:
305,252,299510,1,0,0:0:0:0:
348,53,299633,1,0,0:0:0:0:
375,338,299756,1,0,0:0:0:0:
348,53,299879,6,0,P|405:40|451:62,1,99.9999904632566,0|8,0:0|0:0,0:0:0:0:
327,263,300125,2,0,P|257:293|226:286,1,99.9999904632566,0|8,0:0|0:0,0:0:0:0:
235,95,300371,6,0,L|146:43,1,99.9999904632566,0|8,0:0|0:0,0:0:0:0:
391,186,300617,2,0,L|483:242,1,99.9999904632566,0|8,0:0|0:0,0:0:0:0:
163,137,300863,6,0,P|140:82|158:29,1,99.9999904632566,0|8,0:0|0:0,0:0:0:0:
198,270,301109,2,0,P|187:325|157:364,1,99.9999904632566,0|8,0:0|0:0,0:0:0:0:
277,124,301354,6,0,P|302:80|284:31,1,99.9999904632566,0|8,0:0|0:0,0:0:0:0:
323,254,301600,2,0,P|345:299|320:364,1,99.9999904632566,0|8,0:0|0:0,0:0:0:0:
203,155,301846,6,0,P|144:103|114:100,1,99.9999904632566,0|8,0:0|0:0,0:0:0:0:
361,196,302092,2,0,P|414:243|457:241,1,99.9999904632566,0|8,0:0|0:0,0:0:0:0:
301,120,302338,6,0,L|281:20,1,99.9999904632566,0|8,0:0|0:0,0:0:0:0:
268,273,302584,2,0,L|219:361,1,99.9999904632566,0|8,0:0|0:0,0:0:0:0:
101,131,302830,6,0,L|154:38,1,99.9999904632566,0|8,0:0|0:0,0:0:0:0:
99,261,303076,2,0,L|145:355,1,99.9999904632566,0|8,0:0|0:0,0:0:0:0:
235,129,303322,6,0,B|230:88|263:75|251:29,1,99.9999904632566,0|8,0:0|0:0,0:0:0:0:
259,251,303568,2,0,B|281:286|250:332|284:367,1,99.9999904632566,0|8,0:0|0:0,0:0:0:0:
345,118,303813,6,0,P|395:98|434:56,1,99.9999904632566,0|8,0:0|0:0,0:0:0:0:
175,155,304059,2,0,P|112:162|61:144,1,99.9999904632566,0|8,0:0|0:0,0:0:0:0:
374,235,304305,6,0,P|432:248|477:281,1,99.9999904632566,0|8,0:0|0:0,0:0:0:0:
213,277,304551,2,0,P|166:329|157:378,1,99.9999904632566,0|8,0:0|0:0,0:0:0:0:
258,117,304797,6,0,B|281:76|249:57|248:10,1,99.9999904632566,0|8,0:0|0:0,0:0:0:0:
299,252,305043,5,0,0:0:0:0:
305,257,305104,1,0,0:0:0:0:
311,264,305165,1,8,0:0:0:0:
315,273,305227,1,0,0:0:0:0:
345,277,305288,5,0,0:0:0:0:
346,285,305350,1,0,0:0:0:0:
346,295,305411,1,8,0:0:0:0:
346,304,305473,1,0,0:0:0:0:
326,313,305534,5,0,0:0:0:0:
326,322,305596,1,0,0:0:0:0:
326,331,305657,1,8,0:0:0:0:
328,340,305719,1,0,0:0:0:0:
328,340,305781,6,0,L|296:246,1,99.9999904632566,0|8,0:0|0:0,0:0:0:0:
86,200,306027,2,0,L|199:192,1,99.9999904632566,0|8,0:0|0:0,0:0:0:0:
201,38,306272,6,0,L|222:151,1,99.9999904632566,0|8,0:0|0:0,0:0:0:0:
210,348,306518,2,0,L|243:248,1,99.9999904632566,0|8,0:0|0:0,0:0:0:0:
419,84,306764,6,0,P|380:150|344:177,1,99.9999904632566,0|8,0:0|0:0,0:0:0:0:
121,288,307010,2,0,P|157:240|215:219,1,99.9999904632566,0|8,0:0|0:0,0:0:0:0:
406,249,307256,6,0,L|294:218,1,99.9999904632566,0|8,0:0|0:0,0:0:0:0:
87,135,307502,2,0,L|190:175,1,99.9999904632566,0|8,0:0|0:0,0:0:0:0:
296,318,307748,6,0,L|245:228,1,99.9999904632566,0|8,0:0|0:0,0:0:0:0:
179,40,307994,2,0,L|215:140,1,99.9999904632566,0|8,0:0|0:0,0:0:0:0:
175,304,308240,6,0,P|206:257|252:222,1,99.9999904632566,0|8,0:0|0:0,0:0:0:0:
420,60,308486,2,0,P|383:106|348:131,1,99.9999904632566,0|8,0:0|0:0,0:0:0:0:
91,153,308731,6,0,L|194:170,1,99.9999904632566,0|8,0:0|0:0,0:0:0:0:
438,214,308977,2,0,L|325:193,1,99.9999904632566,0|8,0:0|0:0,0:0:0:0:
151,45,309223,5,0,0:0:0:0:
171,67,309285,1,0,0:0:0:0:
195,88,309346,1,8,0:0:0:0:
223,112,309408,1,0,0:0:0:0:
223,112,309469,6,0,L|140:36,1,99.9999904632566,0|8,0:0|0:0,0:0:0:0:
313,260,309715,2,0,L|334:372,1,99.9999904632566,0|8,0:0|0:0,0:0:0:0:
321,124,309961,5,0,0:0:0:0:
322,117,310022,1,0,0:0:0:0:
323,111,310083,1,8,0:0:0:0:
326,104,310145,1,0,0:0:0:0:
358,116,310206,5,0,0:0:0:0:
361,110,310268,1,0,0:0:0:0:
365,104,310330,1,8,0:0:0:0:
368,99,310391,1,0,0:0:0:0:
337,85,310453,5,0,0:0:0:0:
341,80,310514,1,0,0:0:0:0:
346,75,310575,1,8,0:0:0:0:
350,70,310637,1,0,0:0:0:0:
383,70,310698,5,0,0:0:0:0:
386,64,310760,1,0,0:0:0:0:
390,58,310821,1,8,0:0:0:0:
392,52,310883,1,0,0:0:0:0:
392,49,310945,6,0,L|319:126,1,99.9999904632566,0|8,0:0|0:0,0:0:0:0:
399,321,311190,2,0,L|339:233,1,99.9999904632566,0|8,0:0|0:0,0:0:0:0:
79,267,311436,6,0,P|133:257|181:219,1,99.9999904632566,0|8,0:0|0:0,0:0:0:0:
286,45,311682,2,0,P|286:108|271:151,1,99.9999904632566,0|8,0:0|0:0,0:0:0:0:
249,349,311928,6,0,P|244:304|224:249,1,99.9999904632566,0|8,0:0|0:0,0:0:0:0:
65,91,312174,2,0,P|114:125|150:166,1,99.9999904632566,0|8,0:0|0:0,0:0:0:0:
398,276,312420,6,0,L|314:202,1,99.9999904632566,0|8,0:0|0:0,0:0:0:0:
192,27,312666,2,0,L|245:119,1,99.9999904632566,0|8,0:0|0:0,0:0:0:0:
465,144,312912,6,0,P|406:161|354:161,1,99.9999904632566,0|8,0:0|0:0,0:0:0:0:
112,113,313158,2,0,P|162:142|210:158,1,99.9999904632566,0|8,0:0|0:0,0:0:0:0:
283,339,313404,6,0,B|272:294|305:271|290:237,1,99.9999904632566,0|8,0:0|0:0,0:0:0:0:
259,42,313649,2,0,B|276:86|261:120|284:148,1,99.9999904632566,0|8,0:0|0:0,0:0:0:0:
435,298,313895,6,0,L|338:232,1,99.9999904632566,0|8,0:0|0:0,0:0:0:0:
114,113,314141,2,0,L|210:169,1,99.9999904632566,0|8,0:0|0:0,0:0:0:0:
372,51,314387,6,0,P|359:107|334:156,1,99.9999904632566,0|8,0:0|0:0,0:0:0:0:
175,343,314633,2,0,P|226:303|248:262,1,99.9999904632566,0|8,0:0|0:0,0:0:0:0:
456,166,314879,6,0,L|359:191,1,99.9999904632566,0|8,0:0|0:0,0:0:0:0:
101,238,315125,2,0,L|217:218,1,99.9999904632566,0|8,0:0|0:0,0:0:0:0:
341,40,315371,6,0,P|311:85|291:142,1,99.9999904632566,0|8,0:0|0:0,0:0:0:0:
306,348,315617,2,0,P|274:290|266:238,1,99.9999904632566,0|8,0:0|0:0,0:0:0:0:
114,62,315863,6,0,L|197:129,1,99.9999904632566,0|8,0:0|0:0,0:0:0:0:
430,302,316109,5,0,0:0:0:0:
422,296,316170,1,0,0:0:0:0:
415,291,316231,1,0,0:0:0:0:
407,285,316293,1,0,0:0:0:0:
423,261,316354,5,0,0:0:0:0:
415,255,316416,1,0,0:0:0:0:
408,250,316477,1,0,0:0:0:0:
400,244,316539,1,0,0:0:0:0:
371,259,316600,5,0,0:0:0:0:
363,253,316662,1,0,0:0:0:0:
356,248,316723,1,0,0:0:0:0:
349,243,316785,1,0,0:0:0:0:
348,244,316846,6,0,L|433:305,1,99.9999904632566,0|8,0:0|0:0,0:0:0:0:
192,193,317092,2,0,L|88:169,1,99.9999904632566,0|8,0:0|0:0,0:0:0:0:
365,127,317338,6,0,P|405:80|409:33,1,99.9999904632566,0|8,0:0|0:0,0:0:0:0:
256,261,317584,2,0,P|243:326|266:360,1,99.9999904632566,0|8,0:0|0:0,0:0:0:0:
370,198,317830,6,0,L|480:175,1,99.9999904632566,0|8,0:0|0:0,0:0:0:0:
201,202,318076,2,0,L|91:215,1,99.9999904632566,0|8,0:0|0:0,0:0:0:0:
323,257,318322,6,8,L|383:340,1,99.9999904632566,0|0,0:0|0:0,0:0:0:0:
236,132,318568,1,0,0:0:0:0:
228,119,318629,1,0,0:0:0:0:
221,107,318690,1,8,0:0:0:0:
213,95,318752,1,0,0:0:0:0:
188,98,318813,5,0,0:0:0:0:
180,85,318875,1,0,0:0:0:0:
173,73,318936,1,8,0:0:0:0:
165,61,318998,1,0,0:0:0:0:
164,61,319059,6,0,L|237:133,1,99.9999904632566,0|8,0:0|0:0,0:0:0:0:
349,348,319305,5,0,0:0:0:0:
342,335,319366,1,0,0:0:0:0:
335,322,319427,1,8,0:0:0:0:
329,309,319489,1,0,0:0:0:0:
340,290,319550,5,0,0:0:0:0:
333,277,319612,1,0,0:0:0:0:
326,264,319673,1,8,0:0:0:0:
320,251,319735,1,0,0:0:0:0:
319,253,319797,6,0,L|351:353,1,99.9999904632566,0|8,0:0|0:0,0:0:0:0:
297,139,320043,2,0,L|301:38,1,99.9999904632566,0|8,0:0|0:0,0:0:0:0:
209,261,320289,6,0,P|192:312|146:336,1,99.9999904632566,0|8,0:0|0:0,0:0:0:0:
208,151,320535,2,0,P|199:95|159:60,1,99.9999904632566,0|8,0:0|0:0,0:0:0:0:
38,271,320781,5,0,0:0:0:0:
59,303,320842,1,0,0:0:0:0:
88,330,320903,1,8,0:0:0:0:
123,348,320965,1,0,0:0:0:0:
162,358,321026,1,0,0:0:0:0:
202,356,321088,1,0,0:0:0:0:
242,353,321149,2,0,P|255:320|247:296,1,49.9999952316283,8|0,0:0|0:0,0:0:0:0:
38,271,321272,5,0,0:0:0:0:
90,282,321333,1,0,0:0:0:0:
146,280,321394,1,0,0:0:0:0:
198,265,321456,1,0,0:0:0:0:
246,236,321517,1,0,0:0:0:0:
285,198,321579,1,0,0:0:0:0:
322,154,321641,2,0,P|304:108|287:101,1,49.9999952316283
37,346,321764,6,0,L|-3:383,1,49.9999952316283
37,346,321887,2,0,L|0:379,1,49.9999952316283
187,300,322010,6,8,P|177:327|155:346,1,49.9999952316283
37,346,322133,2,8,L|-13:373,1,49.9999952316283
295,219,322256,2,0,P|295:247|281:273,1,49.9999952316283
37,346,322379,2,0,L|-13:380,1,49.9999952316283
382,118,322502,2,0,P|390:145|385:173,1,49.9999952316283
37,346,322625,2,0,L|-3:383,1,49.9999952316283
478,37,322748,1,0,0:0:0:0:
439,15,322809,5,0,0:0:0:0:
414,57,322870,1,0,0:0:0:0:
395,96,322932,1,0,0:0:0:0:
378,135,322993,1,0,0:0:0:0:
351,168,323055,1,0,0:0:0:0:
314,186,323116,1,0,0:0:0:0:
270,185,323178,1,0,0:0:0:0:
231,168,323239,1,0,0:0:0:0:
196,142,323301,1,0,0:0:0:0:
165,111,323362,1,0,0:0:0:0:
136,80,323424,1,0,0:0:0:0:
177,41,323486,6,0,P|202:18|221:11,3,49.9999952316283,8|0|0|0,0:0|0:0|0:0|0:0,0:0:0:0:
226,161,323731,5,0,0:0:0:0:
265,159,323792,1,0,0:0:0:0:
301,142,323853,1,0,0:0:0:0:
328,113,323915,1,0,0:0:0:0:
343,77,323976,1,0,0:0:0:0:
342,36,324038,1,0,0:0:0:0:
317,50,324100,1,0,0:0:0:0:
317,20,324162,1,0,0:0:0:0:
291,47,324223,6,0,L|298:-7,1,49.9999952316283
221,382,324346,2,0,L|234:329,1,49.9999952316283
291,47,324469,2,0,L|303:-4,1,49.9999952316283
186,384,324592,2,0,L|203:334,1,49.9999952316283
291,47,324715,2,0,L|312:-4,1,49.9999952316283
153,384,324838,2,0,L|172:335,1,49.9999952316283
291,47,324961,5,8,0:0:0:0:
324,66,325022,1,0,0:0:0:0:
323,100,325083,1,0,0:0:0:0:
292,111,325145,1,0,0:0:0:0:
315,129,325206,1,0,0:0:0:0:
335,141,325268,1,0,0:0:0:0:
312,162,325329,1,0,0:0:0:0:
340,187,325391,1,0,0:0:0:0:
303,202,325453,2,0,L|358:220,3,49.9999952316283
171,117,325699,5,0,0:0:0:0:
166,155,325760,1,0,0:0:0:0:
132,160,325822,1,0,0:0:0:0:
125,189,325883,1,0,0:0:0:0:
95,184,325945,1,0,0:0:0:0:
111,225,326006,1,0,0:0:0:0:
83,252,326068,1,0,0:0:0:0:
112,277,326129,1,0,0:0:0:0:
156,275,326190,2,0,L|215:286,3,49.9999952316283
289,348,326436,5,8,0:0:0:0:
289,295,326497,1,0,0:0:0:0:
290,243,326558,1,0,0:0:0:0:
290,191,326620,1,0,0:0:0:0:
316,189,326681,5,0,0:0:0:0:
318,241,326743,1,0,0:0:0:0:
320,293,326804,1,0,0:0:0:0:
323,345,326866,1,0,0:0:0:0:
353,334,326927,5,0,0:0:0:0:
353,281,326989,1,0,0:0:0:0:
354,229,327050,1,0,0:0:0:0:
354,177,327112,1,0,0:0:0:0:
345,128,327174,2,0,L|339:68,1,49.9999952316283
207,76,327297,5,0,0:0:0:0:
162,102,327358,1,0,0:0:0:0:
125,139,327419,1,0,0:0:0:0:
99,185,327481,1,0,0:0:0:0:
85,235,327542,1,0,0:0:0:0:
85,288,327604,1,0,0:0:0:0:
131,312,327666,5,8,0:0:0:0:
131,276,327727,1,0,0:0:0:0:
137,241,327788,1,0,0:0:0:0:
149,207,327850,1,0,0:0:0:0:
165,175,327911,1,0,0:0:0:0:
187,147,327973,1,0,0:0:0:0:
212,122,328034,1,0,0:0:0:0:
242,102,328096,1,0,0:0:0:0:
254,152,328158,5,0,0:0:0:0:
235,163,328219,1,0,0:0:0:0:
219,177,328280,1,0,0:0:0:0:
206,194,328342,1,0,0:0:0:0:
194,212,328403,1,0,0:0:0:0:
186,232,328465,1,0,0:0:0:0:
181,252,328526,1,0,0:0:0:0:
179,274,328588,1,0,0:0:0:0:
131,313,328649,5,8,0:0:0:0:
119,269,328710,1,0,0:0:0:0:
146,246,328771,1,0,0:0:0:0:
137,206,328833,1,0,0:0:0:0:
148,167,328894,1,0,0:0:0:0:
187,154,328956,1,0,0:0:0:0:
208,114,329017,1,0,0:0:0:0:
245,108,329079,1,0,0:0:0:0:
255,51,329141,5,0,0:0:0:0:
222,83,329202,1,0,0:0:0:0:
178,109,329263,1,0,0:0:0:0:
140,133,329325,1,0,0:0:0:0:
124,185,329386,1,0,0:0:0:0:
94,231,329448,1,0,0:0:0:0:
100,283,329509,1,0,0:0:0:0:
88,333,329571,1,0,0:0:0:0:
136,333,329633,5,8,0:0:0:0:
183,319,329694,1,0,0:0:0:0:
233,317,329755,1,0,0:0:0:0:
282,328,329817,1,0,0:0:0:0:
325,304,329879,6,0,L|319:249,3,49.9999952316283
285,375,330125,6,0,L|276:312,1,49.9999952316283
229,2,330248,2,0,L|236:60,1,49.9999952316283
272,376,330371,2,0,L|267:314,1,49.9999952316283
242,0,330494,2,0,L|244:59,1,49.9999952316283
259,377,330617,2,0,L|258:314,1,49.9999952316283
255,0,330740,2,0,L|253:59,1,49.9999952316283
200,325,330863,6,0,L|224:264,1,49.9999952316283,8|0,0:0|0:0,0:0:0:0:
301,91,330986,2,0,L|271:155,1,49.9999952316283
191,321,331109,2,0,L|220:262,1,49.9999952316283
309,94,331232,2,0,L|274:156,1,49.9999952316283
182,315,331354,2,0,L|214:258,1,49.9999952316283
314,98,331477,2,0,L|276:157,1,49.9999952316283
194,136,331600,2,0,L|236:184,1,49.9999952316283
300,274,331723,2,0,L|270:232,1,49.9999952316283
255,193,331846,5,8,0:0:0:0:
295,187,331907,1,8,0:0:0:0:
334,202,331968,1,8,0:0:0:0:
360,234,332030,1,8,0:0:0:0:
319,245,332092,5,0,0:0:0:0:
292,286,332153,1,0,0:0:0:0:
298,335,332214,1,0,0:0:0:0:
332,370,332276,1,0,0:0:0:0:
344,335,332338,5,0,0:0:0:0:
380,302,332399,1,0,0:0:0:0:
393,254,332460,1,0,0:0:0:0:
378,207,332522,1,0,0:0:0:0:
339,171,332584,2,0,L|377:131,1,49.9999952316283
249,210,332707,2,0,L|285:171,1,49.9999952316283
342,115,332830,2,0,L|378:73,1,49.9999952316283,8|0,0:0|0:0,0:0:0:0:
228,304,332953,2,0,L|263:266,1,49.9999952316283
401,102,333076,2,0,L|439:59,1,49.9999952316283
165,292,333199,2,0,L|207:250,1,49.9999952316283
413,40,333322,2,0,L|451:5,1,49.9999952316283
109,274,333445,2,0,L|156:231,1,49.9999952316283
366,55,333568,6,0,L|395:15,1,49.9999952316283,8|0,0:0|0:0,0:0:0:0:
162,319,333690,2,0,L|206:268,1,49.9999952316283
301,49,333813,2,0,L|311:0,1,49.9999952316283
231,337,333936,2,0,L|250:266,1,49.9999952316283
253,52,334059,2,0,L|245:1,1,49.9999952316283
295,345,334182,2,0,L|288:288,1,49.9999952316283
194,62,334305,2,0,L|168:20,1,49.9999952316283,8|0,0:0|0:0,0:0:0:0:
356,342,334428,2,0,L|323:284,1,49.9999952316283
110,169,334551,6,0,L|55:151,1,49.9999952316283
388,237,334674,2,0,L|452:255,1,49.9999952316283
106,184,334797,2,0,L|41:178,1,49.9999952316283
391,224,334920,2,0,L|445:228,1,49.9999952316283
103,199,335043,2,0,L|39:200,1,49.9999952316283,8|0,0:0|0:0,0:0:0:0:
396,211,335166,2,0,L|449:212,1,49.9999952316283
101,215,335289,5,0,0:0:0:0:
107,216,335350,1,0,0:0:0:0:
100,225,335411,1,0,0:0:0:0:
110,227,335473,1,0,0:0:0:0:
105,240,335534,1,8,0:0:0:0:
118,238,335596,1,0,0:0:0:0:
108,249,335657,1,0,0:0:0:0:
111,256,335719,1,0,0:0:0:0:
125,252,335780,1,0,0:0:0:0:
116,267,335842,1,0,0:0:0:0:
133,254,335903,1,0,0:0:0:0:
122,273,335965,1,0,0:0:0:0:
144,258,336026,1,8,0:0:0:0:
159,258,336088,1,0,0:0:0:0:
131,284,336149,1,0,0:0:0:0:
167,272,336211,1,0,0:0:0:0:
140,295,336272,1,0,0:0:0:0:
176,283,336334,1,0,0:0:0:0:
157,303,336395,1,0,0:0:0:0:
190,281,336457,1,0,0:0:0:0:
167,313,336518,1,0,0:0:0:0:
200,292,336579,1,0,0:0:0:0:
175,318,336641,1,0,0:0:0:0:
210,295,336702,1,0,0:0:0:0:
184,326,336764,1,0,0:0:0:0:
218,301,336825,1,0,0:0:0:0:
196,333,336887,1,0,0:0:0:0:
226,305,336948,1,0,0:0:0:0:
208,338,337010,1,8,0:0:0:0:
234,310,337071,1,0,0:0:0:0:
220,353,337133,1,0,0:0:0:0:
243,317,337194,1,0,0:0:0:0:
234,360,337256,1,0,0:0:0:0:
260,326,337317,1,0,0:0:0:0:
253,359,337379,1,0,0:0:0:0:
277,327,337440,1,0,0:0:0:0:
272,366,337502,1,8,0:0:0:0:
296,330,337563,1,0,0:0:0:0:
289,368,337625,1,0,0:0:0:0:
308,340,337686,1,0,0:0:0:0:
303,369,337748,1,0,0:0:0:0:
316,346,337809,1,0,0:0:0:0:
317,369,337871,1,0,0:0:0:0:
329,350,337932,1,0,0:0:0:0:
331,360,337995,5,0,0:0:0:0:
342,319,338056,1,0,0:0:0:0:
308,311,338117,1,0,0:0:0:0:
298,354,338178,1,0,0:0:0:0:
356,377,338240,5,0,0:0:0:0:
417,359,338301,1,0,0:0:0:0:
456,304,338362,1,0,0:0:0:0:
449,238,338424,1,0,0:0:0:0:
403,193,338485,1,8,0:0:0:0:
335,192,338547,1,0,0:0:0:0:
283,233,338608,1,0,0:0:0:0:
273,298,338670,1,0,0:0:0:0:
299,362,338731,5,0,0:0:0:0:
363,353,338792,1,0,0:0:0:0:
424,322,338853,1,0,0:0:0:0:
468,273,338915,1,0,0:0:0:0:
492,210,338976,1,8,0:0:0:0:
490,143,339038,1,0,0:0:0:0:
465,80,339099,1,0,0:0:0:0:
418,32,339161,1,0,0:0:0:0:
359,4,339222,1,0,0:0:0:0:
292,0,339284,1,0,0:0:0:0:
226,17,339345,1,0,0:0:0:0:
174,68,339407,1,0,0:0:0:0:
205,128,339468,1,0,0:0:0:0:
226,193,339530,1,0,0:0:0:0:
221,261,339591,1,0,0:0:0:0:
193,322,339653,1,0,0:0:0:0:
129,345,339715,5,0,0:0:0:0:
64,340,339776,1,0,0:0:0:0:
17,294,339837,1,0,0:0:0:0:
12,226,339899,1,0,0:0:0:0:
51,174,339960,1,8,0:0:0:0:
115,160,340022,1,0,0:0:0:0:
174,193,340083,1,0,0:0:0:0:
196,256,340145,1,0,0:0:0:0:
159,315,340207,5,0,0:0:0:0:
127,258,340268,1,0,0:0:0:0:
117,191,340329,1,0,0:0:0:0:
131,125,340391,1,0,0:0:0:0:
169,68,340452,1,8,0:0:0:0:
223,29,340514,1,0,0:0:0:0:
288,15,340575,1,0,0:0:0:0:
353,39,340637,1,0,0:0:0:0:
379,97,340698,1,0,0:0:0:0:
383,163,340760,1,0,0:0:0:0:
363,230,340821,1,0,0:0:0:0:
321,285,340883,1,0,0:0:0:0:
271,329,340944,1,0,0:0:0:0:
213,363,341006,1,0,0:0:0:0:
148,378,341067,1,0,0:0:0:0:
80,368,341129,1,0,0:0:0:0:
39,347,341190,6,0,L|-4:384,1,49.9999952316283,8|0,0:0|0:0,0:0:0:0:
385,33,341313,2,0,L|340:73,1,49.9999952316283
39,347,341436,2,0,L|-2:391,1,49.9999952316283
404,33,341559,2,0,L|359:71,1,49.9999952316283
39,347,341682,2,0,L|-2:385,1,49.9999952316283
423,33,341805,2,0,L|370:73,1,49.9999952316283
39,347,341928,2,0,L|-5:387,1,49.9999952316283,8|0,0:0|0:0,0:0:0:0:
442,33,342051,2,0,L|393:69,1,49.9999952316283
39,347,342174,2,0,L|-3:379,1,49.9999952316283
461,33,342297,2,0,L|403:71,1,49.9999952316283
39,347,342420,2,0,L|-3:379,1,49.9999952316283
480,33,342543,2,0,L|430:67,1,49.9999952316283
39,347,342666,5,8,0:0:0:0:
47,323,342727,1,8,0:0:0:0:
53,299,342788,1,8,0:0:0:0:
57,274,342850,1,8,0:0:0:0:
100,276,342912,5,0,0:0:0:0:
102,251,342973,1,0,0:0:0:0:
108,226,343034,1,0,0:0:0:0:
118,203,343096,1,0,0:0:0:0:
153,228,343158,5,0,0:0:0:0:
171,211,343219,1,0,0:0:0:0:
184,190,343280,1,0,0:0:0:0:
190,165,343342,1,0,0:0:0:0:
167,130,343404,5,0,0:0:0:0:
381,227,343527,1,0,0:0:0:0:
285,84,343649,1,0,0:0:0:0:
482,178,343772,1,0,0:0:0:0:
229,236,343895,1,0,0:0:0:0:
421,77,344018,1,0,0:0:0:0:
303,293,344141,1,0,0:0:0:0:
297,305,344387,1,0,0:0:0:0:
137,264,344633,5,8,0:0:0:0:
119,246,344694,1,8,0:0:0:0:
108,223,344755,1,8,0:0:0:0:
105,199,344817,1,8,0:0:0:0:
109,174,344878,1,8,0:0:0:0:
195,199,345125,5,0,0:0:0:0:
219,198,345186,1,0,0:0:0:0:
244,194,345247,1,0,0:0:0:0:
267,186,345309,1,0,0:0:0:0:
290,176,345370,1,0,0:0:0:0:
310,162,345432,1,0,0:0:0:0:
329,146,345493,1,0,0:0:0:0:
345,127,345555,1,0,0:0:0:0:
343,89,345616,5,0,0:0:0:0:
61,164,345863,1,0,0:0:0:0:
292,317,346109,1,0,0:0:0:0:
375,78,346354,5,0,0:0:0:0:
476,154,346477,1,0,0:0:0:0:
375,78,346600,1,0,0:0:0:0:
404,255,346723,1,0,0:0:0:0:
375,78,346846,1,0,0:0:0:0:
318,333,346969,1,0,0:0:0:0:
375,78,347093,5,8,0:0:0:0:
348,86,347153,1,0,0:0:0:0:
338,58,347215,5,8,0:0:0:0:
315,42,347276,1,0,0:0:0:0:
298,75,347338,5,8,0:0:0:0:
280,105,347399,1,0,0:0:0:0:
292,143,347460,5,8,0:0:0:0:
265,165,347522,1,0,0:0:0:0:
227,146,347584,5,8,0:0:0:0:
195,158,347645,1,0,0:0:0:0:
228,188,347707,5,8,0:0:0:0:
246,204,347768,1,0,0:0:0:0:
264,171,347830,5,8,0:0:0:0:
300,151,347891,1,0,0:0:0:0:
322,181,347952,5,8,0:0:0:0:
362,188,348014,1,0,0:0:0:0:
366,232,348075,5,8,0:0:0:0:
338,261,348137,1,0,0:0:0:0:
301,236,348198,5,8,0:0:0:0:
262,249,348260,1,0,0:0:0:0:
264,293,348321,5,8,0:0:0:0:
223,296,348383,1,0,0:0:0:0:
202,334,348445,5,8,0:0:0:0:
163,322,348506,1,0,0:0:0:0:
197,291,348568,5,8,0:0:0:0:
197,257,348629,1,0,0:0:0:0:
164,230,348690,5,8,0:0:0:0:
164,196,348752,1,0,0:0:0:0:
206,216,348813,5,8,0:0:0:0:
225,247,348874,1,0,0:0:0:0:
266,236,348935,5,8,0:0:0:0:
300,250,348997,1,0,0:0:0:0:
313,291,349058,5,8,0:0:0:0:
350,283,349120,1,0,0:0:0:0:
322,251,349182,5,8,0:0:0:0:
314,227,349243,1,0,0:0:0:0:
281,252,349305,5,8,0:0:0:0:
243,270,349366,1,0,0:0:0:0:
236,313,349427,5,8,0:0:0:0:
195,317,349489,1,0,0:0:0:0:
177,280,349550,5,8,0:0:0:0:
140,265,349612,1,0,0:0:0:0:
146,227,349673,5,8,0:0:0:0:
121,194,349735,1,0,0:0:0:0:
82,194,349796,5,8,0:0:0:0:
75,154,349858,1,0,0:0:0:0:
111,138,349920,5,8,0:0:0:0:
117,97,349981,1,0,0:0:0:0:
150,124,350043,5,8,0:0:0:0:
164,153,350104,1,0,0:0:0:0:
208,149,350165,5,8,0:0:0:0:
230,173,350227,1,0,0:0:0:0:
248,134,350289,5,8,0:0:0:0:
264,98,350350,1,0,0:0:0:0:
302,111,350411,5,8,0:0:0:0:
333,88,350473,1,0,0:0:0:0:
360,119,350535,5,8,0:0:0:0:
397,111,350596,1,0,0:0:0:0:
387,154,350658,5,8,0:0:0:0:
388,178,350719,1,0,0:0:0:0:
346,168,350781,5,8,0:0:0:0:
308,189,350842,1,0,0:0:0:0:
274,171,350903,5,8,0:0:0:0:
238,194,350965,1,0,0:0:0:0:
258,233,351026,5,8,0:0:0:0:
252,272,351088,1,0,0:0:0:0:
213,275,351149,5,8,0:0:0:0:
172,289,351211,1,0,0:0:0:0:
150,251,351272,5,8,0:0:0:0:
108,259,351334,1,0,0:0:0:0:
67,247,351395,1,0,0:0:0:0:
32,220,351457,1,0,0:0:0:0:
63,185,351518,5,0,0:0:0:0:
73,167,351579,1,0,0:0:0:0:
85,150,351640,1,0,0:0:0:0:
98,134,351702,1,0,0:0:0:0:
111,119,351763,1,0,0:0:0:0:
126,105,351825,1,0,0:0:0:0:
141,91,351886,1,0,0:0:0:0:
157,79,351948,1,0,0:0:0:0:
174,67,352009,1,0,0:0:0:0:
192,57,352071,1,0,0:0:0:0:
210,48,352132,1,0,0:0:0:0:
229,40,352194,1,0,0:0:0:0:
231,87,352256,5,8,0:0:0:0:
245,104,352317,1,0,0:0:0:0:
257,123,352378,1,0,0:0:0:0:
267,144,352440,1,0,0:0:0:0:
274,165,352501,1,0,0:0:0:0:
278,188,352563,1,0,0:0:0:0:
280,210,352624,1,0,0:0:0:0:
280,233,352686,1,0,0:0:0:0:
276,256,352747,1,0,0:0:0:0:
270,277,352809,1,0,0:0:0:0:
262,298,352870,1,0,0:0:0:0:
251,318,352932,1,0,0:0:0:0:
219,293,352994,5,0,0:0:0:0:
194,286,353055,1,0,0:0:0:0:
170,280,353116,1,0,0:0:0:0:
146,273,353178,1,0,0:0:0:0:
170,234,353240,5,8,0:0:0:0:
176,193,353301,1,8,0:0:0:0:
170,152,353362,1,8,0:0:0:0:
150,115,353424,1,8,0:0:0:0:
193,98,353486,5,0,0:0:0:0:
219,66,353547,1,0,0:0:0:0:
255,44,353608,1,0,0:0:0:0:
295,33,353670,1,0,0:0:0:0:
336,44,353731,5,0,0:0:0:0:
264,229,353854,1,0,0:0:0:0:
477,191,353977,1,0,0:0:0:0:
243,117,354100,1,0,0:0:0:0:
376,328,354223,1,0,0:0:0:0:
130,278,354346,1,0,0:0:0:0:
130,278,354469,5,8,0:0:0:0:
166,297,354530,1,0,0:0:0:0:
177,335,354591,5,8,0:0:0:0:
213,354,354653,1,0,0:0:0:0:
213,309,354715,5,8,0:0:0:0:
193,274,354776,1,0,0:0:0:0:
216,237,354837,5,8,0:0:0:0:
203,198,354899,1,0,0:0:0:0:
163,190,354960,5,8,0:0:0:0:
158,150,355022,1,0,0:0:0:0:
203,164,355084,5,8,0:0:0:0:
220,181,355145,1,0,0:0:0:0:
244,145,355207,5,8,0:0:0:0:
246,142,355268,1,0,0:0:0:0:
248,140,355329,1,0,0:0:0:0:
251,137,355391,1,0,0:0:0:0:
274,109,355453,5,8,0:0:0:0:
276,106,355514,1,0,0:0:0:0:
278,104,355575,1,0,0:0:0:0:
281,101,355637,1,0,0:0:0:0:
245,80,355699,5,8,0:0:0:0:
247,77,355760,1,0,0:0:0:0:
249,75,355821,1,0,0:0:0:0:
252,72,355883,1,0,0:0:0:0:
217,113,355945,5,8,0:0:0:0:
189,128,356006,1,0,0:0:0:0:
160,104,356067,5,8,0:0:0:0:
128,102,356129,1,0,0:0:0:0:
141,146,356190,5,8,0:0:0:0:
159,186,356252,1,0,0:0:0:0:
197,181,356313,5,8,0:0:0:0:
235,203,356375,1,0,0:0:0:0:
235,245,356436,5,8,0:0:0:0:
281,241,356498,1,0,0:0:0:0:
261,283,356559,5,8,0:0:0:0:
256,307,356620,1,0,0:0:0:0:
300,303,356682,5,8,0:0:0:0:
303,302,356743,1,0,0:0:0:0:
306,301,356804,1,0,0:0:0:0:
309,301,356866,1,0,0:0:0:0:
327,266,356928,5,8,0:0:0:0:
330,265,356989,1,0,0:0:0:0:
333,264,357050,1,0,0:0:0:0:
336,264,357112,1,0,0:0:0:0:
309,221,357174,5,8,0:0:0:0:
312,220,357235,1,0,0:0:0:0:
315,219,357296,1,0,0:0:0:0:
318,219,357358,1,0,0:0:0:0:
270,218,357420,5,8,0:0:0:0:
278,185,357481,1,0,0:0:0:0:
255,157,357542,5,8,0:0:0:0:
263,124,357604,1,0,0:0:0:0:
300,149,357666,5,8,0:0:0:0:
336,174,357727,1,0,0:0:0:0:
377,182,357788,5,8,0:0:0:0:
384,225,357850,1,0,0:0:0:0:
348,243,357911,5,8,0:0:0:0:
330,284,357973,1,0,0:0:0:0:
288,281,358035,5,0,0:0:0:0:
281,256,358096,1,0,0:0:0:0:
244,237,358158,5,0,0:0:0:0:
241,236,358219,1,0,0:0:0:0:
238,235,358280,1,0,0:0:0:0:
235,235,358342,1,0,0:0:0:0:
203,255,358404,5,8,0:0:0:0:
195,287,358465,1,0,0:0:0:0:
188,320,358526,1,0,0:0:0:0:
181,352,358588,1,0,0:0:0:0:
145,326,358649,5,0,0:0:0:0:
111,302,358710,1,0,0:0:0:0:
92,265,358771,1,0,0:0:0:0:
92,224,358833,1,0,0:0:0:0:
135,245,358895,5,8,0:0:0:0:
154,228,358956,1,0,0:0:0:0:
125,198,359018,5,8,0:0:0:0:
129,156,359079,1,0,0:0:0:0:
150,121,359140,1,0,0:0:0:0:
185,98,359202,1,0,0:0:0:0:
193,145,359264,5,8,0:0:0:0:
215,171,359325,1,0,0:0:0:0:
230,203,359386,1,0,0:0:0:0:
236,237,359448,1,0,0:0:0:0:
233,272,359509,1,0,0:0:0:0:
220,304,359571,1,0,0:0:0:0:
268,302,359633,5,8,0:0:0:0:
290,312,359694,1,0,0:0:0:0:
297,266,359756,5,8,0:0:0:0:
319,231,359817,1,0,0:0:0:0:
325,190,359878,1,0,0:0:0:0:
315,150,359940,1,0,0:0:0:0:
271,160,360002,5,8,0:0:0:0:
252,124,360063,1,0,0:0:0:0:
226,94,360124,1,0,0:0:0:0:
193,71,360186,1,0,0:0:0:0:
157,55,360247,1,0,0:0:0:0:
117,49,360309,1,0,0:0:0:0:
97,179,360617,5,8,0:0:0:0:
104,192,360678,1,8,0:0:0:0:
112,206,360739,1,8,0:0:0:0:
120,219,360801,1,8,0:0:0:0:
149,228,360862,5,0,0:0:0:0:
157,241,360924,1,0,0:0:0:0:
165,255,360985,1,0,0:0:0:0:
172,268,361047,1,0,0:0:0:0:
211,239,361108,5,0,0:0:0:0:
294,131,361354,5,8,0:0:0:0:
298,139,361415,1,8,0:0:0:0:
302,147,361476,1,8,0:0:0:0:
306,155,361538,1,8,0:0:0:0:
339,158,361600,5,0,0:0:0:0:
343,166,361661,1,0,0:0:0:0:
347,174,361722,1,0,0:0:0:0:
351,182,361784,1,0,0:0:0:0:
392,159,361845,5,0,0:0:0:0:
198,211,361969,1,0,0:0:0:0:
383,279,362092,1,0,0:0:0:0:
293,92,362215,1,0,0:0:0:0:
275,305,362338,1,0,0:0:0:0:
186,131,362461,1,0,0:0:0:0:
150,293,362584,6,0,L|126:346,1,49.9999952316283,0|8,0:0|0:0,0:0:0:0:
173,276,362707,2,0,L|189:227,1,49.9999952316283,0|8,0:0|0:0,0:0:0:0:
83,317,362830,2,0,L|30:361,1,49.9999952316283,0|8,0:0|0:0,0:0:0:0:
242,266,362953,2,0,L|291:252,1,49.9999952316283,0|8,0:0|0:0,0:0:0:0:
73,203,363076,2,0,L|5:175,1,49.9999952316283,0|8,0:0|0:0,0:0:0:0:
274,317,363199,2,0,L|336:351,1,49.9999952316283,0|8,0:0|0:0,0:0:0:0:
225,218,363322,5,0,0:0:0:0:
219,60,363445,1,0,0:0:0:0:
278,304,363568,1,0,0:0:0:0:
292,25,363690,1,0,0:0:0:0:
353,328,363813,1,0,0:0:0:0:
285,257,364059,6,0,L|261:310,1,49.9999952316283,0|8,0:0|0:0,0:0:0:0:
308,240,364182,2,0,L|324:191,1,49.9999952316283,0|8,0:0|0:0,0:0:0:0:
218,281,364305,2,0,L|165:325,1,49.9999952316283,0|8,0:0|0:0,0:0:0:0:
377,230,364428,2,0,L|426:216,1,49.9999952316283,0|8,0:0|0:0,0:0:0:0:
208,167,364551,2,0,L|140:139,1,49.9999952316283,0|8,0:0|0:0,0:0:0:0:
409,281,364674,2,0,L|471:315,1,49.9999952316283,0|8,0:0|0:0,0:0:0:0:
211,174,364797,5,0,0:0:0:0:
61,275,364920,1,0,0:0:0:0:
339,184,365043,1,0,0:0:0:0:
110,353,365166,1,0,0:0:0:0:
317,113,365289,1,0,0:0:0:0:
281,165,365535,6,0,L|257:112,1,49.9999952316283,0|8,0:0|0:0,0:0:0:0:
304,182,365658,2,0,L|320:231,1,49.9999952316283,0|8,0:0|0:0,0:0:0:0:
214,141,365781,2,0,L|161:97,1,49.9999952316283,0|8,0:0|0:0,0:0:0:0:
373,192,365904,2,0,L|422:206,1,49.9999952316283,0|8,0:0|0:0,0:0:0:0:
204,255,366027,2,0,L|136:283,1,49.9999952316283,0|8,0:0|0:0,0:0:0:0:
405,141,366150,2,0,L|467:107,1,49.9999952316283,0|8,0:0|0:0,0:0:0:0:
206,143,366272,5,0,0:0:0:0:
114,42,366395,1,0,0:0:0:0:
201,260,366518,1,0,0:0:0:0:
0,71,366641,1,0,0:0:0:0:
151,328,366764,1,0,0:0:0:0:
477,300,367010,5,0,0:0:0:0:
452,305,367071,1,0,0:0:0:0:
428,310,367132,1,0,0:0:0:0:
403,312,367194,1,0,0:0:0:0:
378,312,367255,1,0,0:0:0:0:
353,310,367317,1,0,0:0:0:0:
328,307,367378,1,0,0:0:0:0:
304,301,367440,1,0,0:0:0:0:
280,294,367501,1,0,0:0:0:0:
257,284,367563,1,0,0:0:0:0:
234,273,367624,1,0,0:0:0:0:
213,261,367686,1,0,0:0:0:0:
241,233,367748,5,8,0:0:0:0:
240,205,367809,1,0,0:0:0:0:
243,178,367870,1,0,0:0:0:0:
251,152,367932,1,0,0:0:0:0:
262,127,367993,1,0,0:0:0:0:
276,104,368055,1,0,0:0:0:0:
294,83,368116,1,0,0:0:0:0:
315,66,368178,1,0,0:0:0:0:
338,51,368239,1,0,0:0:0:0:
362,40,368301,1,0,0:0:0:0:
389,32,368362,1,0,0:0:0:0:
416,29,368424,1,0,0:0:0:0:
443,35,368486,2,0,P|476:60|478:122,1,99.9999904632566
356,242,368731,5,8,0:0:0:0:
338,260,368792,1,8,0:0:0:0:
320,276,368853,1,8,0:0:0:0:
299,290,368915,1,8,0:0:0:0:
264,272,368976,5,0,0:0:0:0:
240,281,369038,1,0,0:0:0:0:
217,288,369099,1,0,0:0:0:0:
192,293,369161,1,0,0:0:0:0:
167,295,369222,5,0,0:0:0:0:
56,133,369346,1,0,0:0:0:0:
103,355,369469,1,0,0:0:0:0:
228,124,369592,1,0,0:0:0:0:
175,356,369715,1,0,0:0:0:0:
140,84,369838,1,0,0:0:0:0:
313,0,369961,5,8,0:0:0:0:
317,56,370022,1,8,0:0:0:0:
321,112,370083,1,8,0:0:0:0:
325,169,370145,1,8,0:0:0:0:
353,168,370207,5,8,0:0:0:0:
355,112,370268,1,8,0:0:0:0:
358,56,370329,1,8,0:0:0:0:
360,1,370391,1,8,0:0:0:0:
387,0,370453,5,8,0:0:0:0:
391,57,370514,1,8,0:0:0:0:
395,114,370575,1,8,0:0:0:0:
399,171,370637,1,8,0:0:0:0:
439,168,370699,5,0,0:0:0:0:
448,208,370760,1,0,0:0:0:0:
441,248,370821,1,0,0:0:0:0:
417,282,370883,1,0,0:0:0:0:
399,243,370945,5,8,0:0:0:0:
365,234,371006,1,0,0:0:0:0:
353,199,371068,5,8,0:0:0:0:
322,183,371129,1,0,0:0:0:0:
288,193,371190,5,8,0:0:0:0:
261,171,371252,1,0,0:0:0:0:
252,213,371313,5,8,0:0:0:0:
241,235,371374,1,0,0:0:0:0:
194,234,371436,5,8,0:0:0:0:
193,217,371497,1,0,0:0:0:0:
192,200,371558,1,0,0:0:0:0:
191,184,371620,1,0,0:0:0:0:
160,182,371682,5,8,0:0:0:0:
156,215,371743,1,0,0:0:0:0:
152,248,371804,1,0,0:0:0:0:
149,281,371866,1,0,0:0:0:0:
118,278,371928,5,8,0:0:0:0:
116,228,371989,1,0,0:0:0:0:
114,178,372050,1,0,0:0:0:0:
113,128,372112,1,0,0:0:0:0:
75,115,372174,5,8,0:0:0:0:
97,81,372235,1,0,0:0:0:0:
103,114,372296,5,8,0:0:0:0:
144,109,372358,1,0,0:0:0:0:
157,94,372420,5,8,0:0:0:0:
172,125,372481,1,0,0:0:0:0:
154,158,372543,5,8,0:0:0:0:
164,191,372604,1,0,0:0:0:0:
194,210,372665,5,8,0:0:0:0:
195,244,372727,1,0,0:0:0:0:
232,223,372788,5,8,0:0:0:0:
256,217,372849,1,0,0:0:0:0:
272,189,372912,5,8,0:0:0:0:
273,172,372973,1,0,0:0:0:0:
274,155,373034,1,0,0:0:0:0:
275,139,373096,1,0,0:0:0:0:
306,137,373158,5,8,0:0:0:0:
310,170,373219,1,0,0:0:0:0:
314,203,373280,1,0,0:0:0:0:
317,236,373342,1,0,0:0:0:0:
348,233,373404,5,8,0:0:0:0:
350,183,373465,1,0,0:0:0:0:
352,133,373526,1,0,0:0:0:0:
353,83,373588,1,0,0:0:0:0:
313,74,373649,5,8,0:0:0:0:
275,88,373710,1,0,0:0:0:0:
300,100,373771,5,8,0:0:0:0:
295,141,373833,1,0,0:0:0:0:
274,149,373895,5,8,0:0:0:0:
301,171,373956,1,0,0:0:0:0:
337,161,374018,5,8,0:0:0:0:
367,178,374079,1,0,0:0:0:0:
379,212,374140,5,8,0:0:0:0:
411,220,374202,1,0,0:0:0:0:
383,251,374263,5,0,0:0:0:0:
371,273,374326,1,0,0:0:0:0:
325,274,374387,5,8,0:0:0:0:
311,261,374448,1,0,0:0:0:0:
299,250,374509,1,0,0:0:0:0:
288,238,374571,1,0,0:0:0:0:
265,256,374633,5,8,0:0:0:0:
282,283,374694,1,0,0:0:0:0:
300,310,374755,1,0,0:0:0:0:
321,338,374817,1,0,0:0:0:0:
295,357,374879,5,8,0:0:0:0:
260,320,374940,1,0,0:0:0:0:
227,283,375001,1,0,0:0:0:0:
193,246,375063,1,0,0:0:0:0:
143,229,375125,5,0,0:0:0:0:
77,69,375371,1,0,0:0:0:0:
312,140,375494,1,0,0:0:0:0:
217,52,375617,1,0,0:0:0:0:
395,223,375740,1,0,0:0:0:0:
312,140,375863,5,8,0:0:0:0:
310,115,375924,1,0,0:0:0:0:
270,129,375986,5,8,0:0:0:0:
228,126,376047,1,0,0:0:0:0:
188,116,376108,1,0,0:0:0:0:
150,98,376170,1,0,0:0:0:0:
155,144,376231,5,8,0:0:0:0:
146,182,376292,1,0,0:0:0:0:
146,222,376353,1,0,0:0:0:0:
155,261,376415,1,0,0:0:0:0:
172,297,376476,1,0,0:0:0:0:
198,328,376538,1,0,0:0:0:0:
237,329,376600,5,0,0:0:0:0:
441,160,376969,1,0,0:0:0:0:
172,60,377338,1,0,0:0:0:0:
128,321,377707,1,0,0:0:0:0:
443,165,378076,6,0,P|475:152|439:160,1,99.9999904632566
443,165,378322,5,8,0:0:0:0:
441,182,378383,1,8,0:0:0:0:
439,200,378444,1,8,0:0:0:0:
437,218,378506,1,8,0:0:0:0:
410,226,378567,5,0,0:0:0:0:
408,243,378629,1,0,0:0:0:0:
406,261,378690,1,0,0:0:0:0:
404,279,378752,1,0,0:0:0:0:
365,291,378813,5,8,0:0:0:0:
316,282,378874,1,0,0:0:0:0:
280,248,378935,1,0,0:0:0:0:
268,200,378997,1,0,0:0:0:0:
313,193,379059,5,8,0:0:0:0:
304,144,379120,1,0,0:0:0:0:
270,108,379181,1,0,0:0:0:0:
222,96,379243,1,0,0:0:0:0:
238,141,379305,5,8,0:0:0:0:
228,181,379366,1,0,0:0:0:0:
211,219,379427,1,0,0:0:0:0:
187,253,379489,1,0,0:0:0:0:
165,213,379551,5,8,0:0:0:0:
162,206,379613,1,0,0:0:0:0:
133,187,379674,5,8,0:0:0:0:
130,180,379736,1,0,0:0:0:0:
92,212,379797,5,8,0:0:0:0:
102,252,379858,1,0,0:0:0:0:
119,290,379919,1,0,0:0:0:0:
143,324,379981,1,0,0:0:0:0:
161,285,380043,5,8,0:0:0:0:
195,248,380104,1,0,0:0:0:0:
243,237,380165,1,0,0:0:0:0:
290,253,380227,1,0,0:0:0:0:
279,208,380289,5,8,0:0:0:0:
238,178,380350,1,0,0:0:0:0:
221,132,380411,1,0,0:0:0:0:
231,83,380473,1,0,0:0:0:0:
262,114,380535,5,8,0:0:0:0:
302,124,380596,1,0,0:0:0:0:
340,141,380657,1,0,0:0:0:0:
374,165,380719,1,0,0:0:0:0:
334,186,380781,5,8,0:0:0:0:
344,226,380842,1,0,0:0:0:0:
361,264,380903,1,0,0:0:0:0:
385,298,380965,1,0,0:0:0:0:
339,304,381026,5,8,0:0:0:0:
333,298,381088,1,0,0:0:0:0:
299,292,381149,5,8,0:0:0:0:
293,287,381211,1,0,0:0:0:0:
273,319,381272,5,8,0:0:0:0:
239,356,381333,1,0,0:0:0:0:
191,367,381394,1,0,0:0:0:0:
144,351,381456,1,0,0:0:0:0:
182,321,381518,5,8,0:0:0:0:
159,275,381579,1,0,0:0:0:0:
166,227,381640,1,0,0:0:0:0:
198,189,381702,1,0,0:0:0:0:
212,229,381764,5,8,0:0:0:0:
261,235,381825,1,0,0:0:0:0:
305,213,381886,1,0,0:0:0:0:
331,170,381948,1,0,0:0:0:0:
286,170,382010,5,8,0:0:0:0:
252,133,382071,1,0,0:0:0:0:
204,122,382132,1,0,0:0:0:0:
157,138,382194,1,0,0:0:0:0:
194,164,382257,5,8,0:0:0:0:
231,198,382318,1,0,0:0:0:0:
242,246,382379,1,0,0:0:0:0:
226,293,382441,1,0,0:0:0:0:
275,284,382502,5,8,0:0:0:0:
272,277,382564,1,0,0:0:0:0:
290,238,382625,5,0,0:0:0:0:
404,57,382748,1,0,0:0:0:0:
491,337,382871,1,0,0:0:0:0:
265,87,382994,1,0,0:0:0:0:
434,204,383117,1,0,0:0:0:0:
85,104,383240,1,0,0:0:0:0:
156,311,383486,5,0,0:0:0:0:
312,287,383609,1,0,0:0:0:0:
230,157,383977,1,0,0:0:0:0:
134,78,384223,5,8,0:0:0:0:
129,92,384284,1,8,0:0:0:0:
124,107,384345,1,8,0:0:0:0:
120,122,384407,1,8,0:0:0:0:
85,131,384468,5,0,0:0:0:0:
80,145,384530,1,0,0:0:0:0:
75,160,384591,1,0,0:0:0:0:
71,175,384653,1,0,0:0:0:0:
30,165,384714,5,0,0:0:0:0:
380,302,384961,5,8,0:0:0:0:
385,288,385022,1,8,0:0:0:0:
390,273,385083,1,8,0:0:0:0:
394,258,385145,1,8,0:0:0:0:
429,249,385206,5,0,0:0:0:0:
434,235,385268,1,0,0:0:0:0:
439,220,385329,1,0,0:0:0:0:
443,205,385391,1,0,0:0:0:0:
484,215,385452,5,0,0:0:0:0:
284,230,385576,1,0,0:0:0:0:
305,74,385699,1,0,0:0:0:0:
484,215,385822,1,0,0:0:0:0:
109,242,385945,1,0,0:0:0:0:
147,15,386068,1,0,0:0:0:0:
484,215,386190,5,8,0:0:0:0:
459,236,386251,1,0,0:0:0:0:
432,254,386312,1,0,0:0:0:0:
402,266,386374,1,0,0:0:0:0:
380,232,386436,5,8,0:0:0:0:
359,257,386497,1,0,0:0:0:0:
341,284,386558,1,0,0:0:0:0:
329,314,386620,1,0,0:0:0:0:
288,323,386682,2,0,P|232:331|174:308,3,109.999992866516,8|0|0|0,0:0|0:0|0:0|0:0,0:0:0:0:
123,207,387604,5,0,0:0:0:0:
123,207,387666,1,0,0:0:0:0:
349,67,387789,1,0,0:0:0:0:
358,351,387912,1,0,0:0:0:0:
259,36,388035,1,0,0:0:0:0:
121,348,388158,1,0,0:0:0:0:
212,128,388404,6,0,B|225:44|225:44|128:63|58:180|107:278|199:335|199:335|198:239|198:239|179:295|179:295|123:275|127:184|127:184|255:184|255:184|255:330|255:330|265:361|297:378|297:378|268:356|267:333|267:333|407:304|422:189|422:189|401:184|401:184|421:173|421:173|415:68|285:36|281:18|292:2|292:2|280:19|262:43|262:43|281:147|281:147|310:174,1,1842.7498477403
154,51,394305,5,0,0:0:0:0:
256,348,394428,1,0,0:0:0:0:
358,51,394551,1,0,0:0:0:0:
95,311,394674,1,0,0:0:0:0:
448,159,394797,1,0,0:0:0:0:
64,159,394920,1,0,0:0:0:0:
417,311,395043,1,0,0:0:0:0:
