osu file format v14

[General]
AudioFilename: audio.mp3
AudioLeadIn: 0
PreviewTime: 975
Countdown: 0
SampleSet: Normal
StackLeniency: 0.2
Mode: 0
LetterboxInBreaks: 0
WidescreenStoryboard: 0

[Editor]
DistanceSpacing: 0.4
BeatDivisor: 4
GridSize: 4
TimelineZoom: 2.52

[Metadata]
Title:Ages Die
TitleUnicode:Ages Die
Artist:Hideous Divinity
ArtistUnicode:Hideous Divinity
Creator:Maakkeli
Version:Future of the Past
Source:
Tags:Adveniens extreme technical death metal
BeatmapID:1277254
BeatmapSetID:604471

[Difficulty]
HPDrainRate:5.5
CircleSize:4.1
OverallDifficulty:10
ApproachRate:10
SliderMultiplier:1.8
SliderTickRate:1

[Events]
//Background and Video events
0,0,"adveniens.jpg",0,0
//Break Periods
2,247539,294879
//Storyboard Layer 0 (Background)
//Storyboard Layer 1 (Fail)
//Storyboard Layer 2 (Pass)
//Storyboard Layer 3 (Foreground)
//Storyboard Sound Samples

[TimingPoints]
5936,236.220472440945,3,1,1,50,1,0
9715,-100,3,1,2,50,0,0
9951,-100,3,1,3,50,0,0
10187,-100,3,1,1,50,0,0
10896,-100,3,1,2,50,0,0
11132,-100,3,1,1,50,0,0
15621,-100,3,1,3,50,0,0
15857,236.220472440945,4,1,1,50,1,0
16211,-100,4,1,2,50,0,0
16270,-100,4,1,1,50,0,0
18455,-100,4,1,2,50,0,0
18691,-100,4,1,1,50,0,0
20817,-100,4,1,2,50,0,0
21053,-100,4,1,1,50,0,0
21526,236.220472440945,3,1,1,50,1,0
23651,236.220472440945,5,1,1,50,1,0
24595,-100,5,1,2,50,0,0
24832,236.220472440945,3,1,1,50,1,0
26249,236.220472440945,4,1,1,50,1,0
26957,-100,4,1,2,50,0,0
27193,-100,4,1,1,50,0,0
28847,-100,4,1,2,50,0,0
29083,-100,4,1,1,50,0,0
31445,-100,4,1,2,50,0,0
31682,-100,4,1,3,50,0,0
31918,-100,4,1,1,50,0,0
34044,-100,4,1,2,50,0,0
34103,-100,4,1,1,50,0,0
34516,-100,4,1,2,50,0,0
34752,-100,4,1,1,50,0,0
36642,236.220472440945,5,1,1,50,1,0
39713,-100,5,1,2,50,0,0
39949,-100,5,1,1,50,0,0
41367,245.901639344262,4,1,1,50,1,0
41428,-100,4,1,1,40,0,0
45301,-100,4,2,1,50,0,0
45424,245.901639344262,3,1,1,50,1,0
45669,-100,3,1,2,50,0,0
45915,-100,3,1,1,50,0,0
49358,-100,3,1,2,50,0,0
49419,-100,3,1,1,50,0,0
49604,-100,3,1,2,50,0,0
49665,-100,3,1,1,50,0,0
50342,-100,3,1,2,50,0,0
50587,-100,3,1,1,50,0,0
50833,-100,3,1,2,50,0,0
50895,-100,3,1,1,50,0,0
51079,-100,3,1,2,50,0,0
51141,-100,3,1,1,50,0,0
57473,-100,3,1,2,50,0,0
57719,-100,3,1,3,50,0,0
57964,-100,3,1,1,50,0,0
59440,-100,3,1,4,60,0,0
63620,-100,3,1,2,50,0,0
63682,-100,3,1,4,50,0,0
63866,-100,3,1,2,50,0,0
63928,-100,3,1,4,50,0,0
64112,-100,3,1,2,50,0,0
64173,-100,3,1,4,50,0,0
64358,-100,3,1,2,50,0,0
64419,-100,3,1,4,50,0,0
64604,-100,3,1,1,50,0,0
65342,-100,3,1,4,60,0,0
67555,-100,3,1,4,50,0,0
68538,-100,3,1,1,50,0,0
70505,-100,3,1,4,60,0,0
74686,-100,3,1,2,50,0,0
74747,-100,3,1,4,50,0,0
74932,-100,3,1,2,50,0,0
74993,-100,3,1,4,50,0,0
75178,-100,3,1,2,50,0,0
75239,-100,3,1,4,50,0,0
75423,-100,3,1,2,50,0,0
75485,-100,3,1,4,50,0,0
75669,-100,3,1,1,50,0,0
76407,-100,3,1,4,60,0,0
79604,-100,3,1,1,50,0,0
79850,-100,3,1,2,50,0,0
80096,-100,3,1,1,50,0,0
83292,-100,3,1,2,50,0,0
83538,-100,3,1,1,50,0,0
88210,-100,3,1,4,60,0,0
92760,-100,3,1,4,50,0,0
93374,-100,3,1,4,60,0,0
95587,-100,3,1,1,60,0,0
95833,-100,3,1,2,60,0,0
96079,-100,3,1,3,60,0,0
96325,-100,3,1,1,60,0,0
98784,-100,3,1,2,50,0,0
99030,-100,3,1,3,50,0,0
99276,-100,3,1,1,50,0,0
110096,-100,3,1,2,50,0,0
110342,236.220472440945,3,1,1,50,1,0
111286,-100,3,2,1,35,0,0
111759,236.220472440945,4,2,1,50,1,0
111995,-100,4,1,1,50,0,0
112546,-100,4,1,2,50,0,0
112703,-100,4,1,1,50,0,0
114003,-100,4,1,2,50,0,0
114239,-100,4,1,1,50,0,0
114357,-100,4,1,3,50,0,0
114593,236.220472440945,3,1,1,60,1,0
116718,236.220472440945,5,1,1,60,1,0
117899,236.220472440945,3,1,1,60,1,0
119316,236.220472440945,4,1,1,60,1,0
120260,-100,4,1,1,50,0,0
120497,-100,4,1,2,50,0,0
120733,-100,4,1,1,50,0,0
121206,236.220472440945,6,1,1,50,1,0
122624,236.220472440945,3,1,1,60,1,0
124749,236.220472440945,5,1,1,60,1,0
125931,236.220472440945,3,1,1,60,1,0
128056,236.220472440945,5,1,1,60,1,0
128528,-100,5,1,2,50,0,0
128764,-100,5,1,1,50,0,0
129000,-100,5,1,3,50,0,0
129238,236.220472440945,4,1,1,50,1,0
130419,-100,4,1,2,50,0,0
130478,-100,4,1,1,50,0,0
130891,-100,4,1,2,50,0,0
130950,-100,4,1,1,50,0,0
133017,-100,4,1,2,50,0,0
133076,-100,4,1,1,50,0,0
133371,-100,4,1,2,50,0,0
133430,-100,4,1,1,50,0,0
133962,236.220472440945,3,1,1,50,1,0
136088,236.220472440945,5,1,1,50,1,0
136442,226.415094339623,5,1,1,50,1,0
137269,236.220472440945,3,1,1,50,1,0
140088,236.220472440945,3,1,1,50,1,0
140442,227.272727272727,3,1,1,50,1,0
140782,248.96265560166,3,1,1,50,1,0
141030,236.220472440945,3,1,1,50,1,0
141505,240,3,1,1,50,1,0
142225,236.220472440945,3,1,1,50,1,0
143646,236.220472440945,4,1,1,50,1,0
144000,-100,4,1,2,50,0,0
144236,-100,4,1,1,50,0,0
144354,-100,4,1,3,50,0,0
144591,236.220472440945,3,1,4,60,1,0
149551,-100,3,1,4,50,0,0
149787,-100,3,1,1,50,0,0
150024,-100,3,1,2,50,0,0
150260,-100,3,1,4,60,0,0
150970,236.220472440945,5,1,1,60,1,0
151914,-100,5,1,2,60,0,0
152151,236.220472440945,3,1,1,65,1,0
154749,-100,3,1,2,65,0,0
154808,-100,3,1,1,65,0,0
154985,-100,3,1,1,50,0,0
157584,-100,3,1,2,50,0,0
157643,-100,3,1,1,50,0,0
157820,236.220472440945,4,1,2,50,1,0
157879,-100,4,1,1,50,0,0
159001,-100,4,1,2,50,0,0
159060,-100,4,1,1,50,0,0
159473,-100,4,1,2,50,0,0
159709,-100,4,1,1,50,0,0
161363,-100,4,1,2,50,0,0
161599,-100,4,1,1,50,0,0
163489,236.220472440945,3,1,5,60,1,1
163489,-100,3,1,5,60,0,1
166323,-100,3,1,1,65,0,1
168922,-100,3,1,2,65,0,1
168981,-100,3,1,1,65,0,1
169158,236.220472440945,4,1,1,60,1,0
171048,236.220472440945,3,1,1,65,1,1
171048,-100,3,1,1,65,0,1
171756,-100,3,1,1,65,0,0
172465,-100,3,1,1,65,0,1
173173,236.220472440945,5,1,1,65,1,0
173173,-100,5,1,1,65,0,0
174355,236.220472440945,3,1,1,65,1,1
174355,-100,3,1,1,65,0,1
175063,-100,3,1,1,65,0,0
175772,-100,3,1,1,65,0,1
176480,236.220472440945,5,1,1,65,1,0
177661,-100,5,1,1,65,0,1
183802,-100,5,1,1,60,0,0
184747,236.220472440945,4,1,1,60,1,0
185691,-100,4,1,2,60,0,0
185750,-100,4,1,1,60,0,0
189707,-100,4,1,2,60,0,0
189943,-100,4,1,1,60,0,0
190416,240,4,1,1,60,1,0
191376,222.222222222222,4,1,1,60,1,0
191598,236.220472440945,4,1,1,60,1,0
192306,236.220472440945,4,1,1,60,1,0
193959,-100,4,1,2,60,0,0
194195,236.220472440945,6,1,1,65,1,1
194195,-100,6,1,1,65,0,1
195139,-100,6,1,2,65,0,0
195612,-100,6,1,5,60,0,0
197029,236.220472440945,4,1,5,60,1,0
200808,-100,4,1,1,50,0,0
203879,-100,4,1,2,50,0,0
203997,-100,4,1,1,50,0,0
204351,-100,4,1,2,50,0,0
204588,-100,4,1,5,60,0,0
210257,-100,4,1,1,50,0,0
213091,-100,4,1,5,60,0,0
218997,-100,4,1,1,50,0,0
220649,236.220472440945,3,1,1,50,1,0
222066,236.220472440945,5,1,1,50,1,0
223010,-100,5,1,2,50,0,0
223247,236.220472440945,6,1,5,60,1,0
224664,236.220472440945,4,1,5,60,1,0
228443,-100,4,1,5,50,0,0
229388,-100,4,1,1,50,0,0
232223,236.220472440945,6,1,1,50,1,0
232931,-100,6,1,2,50,0,0
233167,-100,6,1,1,50,0,0
233640,-100,6,1,5,60,0,0
235057,236.220472440945,4,1,5,60,1,0
238836,-100,4,1,1,50,0,0
240726,236.220472440945,3,1,1,50,1,0
244741,-100,3,1,2,50,0,0
244977,-100,3,1,1,50,0,0
246395,236.220472440945,4,1,1,50,1,0
247103,-100,4,1,2,50,0,0
247339,333.259275716507,6,1,1,50,1,0
247339,-100,6,1,1,50,0,0
295328,250,6,1,1,50,1,0
296079,-100,6,1,2,50,0,0
296329,-100,6,1,1,50,0,0
297329,-100,6,1,2,50,0,0
297391,-100,6,1,1,50,0,0
297579,-100,6,1,2,50,0,0
298329,-100,6,1,1,50,0,0
299328,500,4,1,1,40,1,0
299328,-50,4,1,1,40,0,0
314829,-50,4,1,2,40,0,0
315329,-50,4,1,1,40,0,0
322579,-50,4,1,2,40,0,0
322829,-50,4,1,1,40,0,0
323079,-50,4,1,3,40,0,0
323329,-50,4,1,1,40,0,0
331079,-50,4,1,2,40,0,0
331141,-50,4,1,1,40,0,0
332704,-50,4,1,2,40,0,0
332766,-50,4,1,1,40,0,0
333079,-50,4,1,3,40,0,0
333141,-50,4,1,1,40,0,0
357829,-50,4,1,2,40,0,0
358329,-50,4,1,1,40,0,0
364079,-50,4,1,2,40,0,0
364329,-50,4,1,1,40,0,0
368328,521.739130434783,4,1,1,40,1,0
368588,-50,4,2,1,40,0,0
369328,500,6,1,1,40,1,0
369328,-50,6,1,1,40,0,0
369329,-50,6,1,1,40,0,0
370079,-50,6,1,2,40,0,0
370329,-50,6,1,1,40,0,0
371329,-50,6,1,2,40,0,0
371391,-50,6,1,1,40,0,0
371704,-50,6,1,2,40,0,0
372329,500,4,1,1,40,1,0
372329,-50,4,1,1,40,0,0
379579,-50,4,1,2,40,0,0
379829,-50,4,1,1,40,0,0
380079,-50,4,1,2,40,0,0
380329,-50,4,1,1,40,0,0
387079,-50,4,1,2,40,0,0
387141,-50,4,1,1,40,0,0
390391,-50,4,2,1,40,0,0
392329,-100,4,2,1,51,0,0
394329,-100,4,2,1,42,0,0
396329,-100,4,2,1,33,0,0
398329,-100,4,2,1,24,0,0
400329,-100,4,2,1,15,0,0
402329,-100,4,2,1,10,0,0
403954,-50,4,2,1,5,0,0

[Colours]
Combo1 : 220,191,116
Combo2 : 127,127,127
Combo3 : 128,40,43
Combo4 : 77,98,97

[HitObjects]
138,327,5936,6,0,L|200:332,1,45,12|2,0:0|0:0,0:0:0:0:
79,212,6054,2,0,P|71:235|70:273,3,45,8|2|2|2,0:0|0:0|0:0|0:0,0:0:0:0:
169,150,6290,6,0,L|162:79,1,45,12|2,0:0|0:0,0:0:0:0:
244,207,6408,2,0,P|277:210|300:216,3,45,8|2|2|2,0:0|0:0|0:0|0:0,0:0:0:0:
364,295,6644,6,0,L|358:339,1,45,12|2,0:0|0:0,0:0:0:0:
477,239,6762,2,0,P|449:232|415:230,3,45,8|2|2|2,0:0|0:0|0:0|0:0,0:0:0:0:
357,148,6998,6,0,L|351:85,1,45,12|2,0:0|0:0,0:0:0:0:
244,207,7117,2,0,P|269:215|308:218,3,45,8|2|2|2,0:0|0:0|0:0|0:0,0:0:0:0:
176,305,7353,6,0,P|167:339|166:369,1,45,8|2,0:0|0:0,0:0:0:0:
61,286,7471,2,0,P|70:320|71:350,1,45,8|2,0:0|0:0,0:0:0:0:
192,297,7589,6,0,P|174:327|165:356,1,45,8|2,0:0|0:0,0:0:0:0:
45,278,7707,2,0,P|62:308|71:337,1,45,8|2,0:0|0:0,0:0:0:0:
208,289,7825,6,0,P|183:313|167:339,1,45,8|2,0:0|0:0,0:0:0:0:
29,270,7943,2,0,P|53:294|69:320,1,45,8|2,0:0|0:0,0:0:0:0:
133,147,8061,6,0,L|129:93,1,45,12|2,0:0|0:0,0:0:0:0:
247,192,8180,2,0,P|221:201|188:207,3,45,8|2|2|2,0:0|0:0|0:0|0:0,0:0:0:0:
335,136,8416,6,0,L|395:146,1,45,12|2,0:0|0:0,0:0:0:0:
252,97,8534,2,0,P|248:70|247:41,3,45,8|2|2|2,0:0|0:0|0:0|0:0,0:0:0:0:
335,233,8770,6,0,L|331:285,1,45,12|2,0:0|0:0,0:0:0:0:
486,215,8888,2,0,P|465:207|438:203,3,45,8|2|2|2,0:0|0:0|0:0|0:0,0:0:0:0:
335,136,9124,6,0,L|329:67,1,45,12|2,0:0|0:0,0:0:0:0:
247,192,9243,2,0,P|221:201|188:207,3,45,8|2|2|2,0:0|0:0|0:0|0:0,0:0:0:0:
60,298,9479,5,8,0:0:0:0:
105,278,9538,1,8,0:0:0:0:
132,236,9597,1,8,0:0:0:0:
128,186,9656,1,8,0:0:0:0:
97,146,9715,5,2,0:0:0:0:
119,143,9774,1,2,0:0:0:0:
141,141,9833,1,2,0:0:0:0:
163,139,9892,1,2,0:0:0:0:
196,102,9951,5,2,0:0:0:0:
218,99,10010,1,2,0:0:0:0:
240,97,10069,1,2,0:0:0:0:
262,95,10128,1,2,0:0:0:0:
307,74,10188,5,6,0:0:0:0:
302,81,10247,1,2,0:0:0:0:
298,89,10306,1,2,0:0:0:0:
294,98,10365,1,2,0:0:0:0:
292,106,10424,1,2,0:0:0:0:
290,115,10483,1,2,0:0:0:0:
289,124,10542,1,2,0:0:0:0:
289,133,10601,1,2,0:0:0:0:
289,142,10660,1,2,0:0:0:0:
290,151,10719,1,2,0:0:0:0:
293,159,10778,1,2,0:0:0:0:
295,168,10837,1,2,0:0:0:0:
309,185,10896,5,2,0:0:0:0:
286,182,10955,1,2,0:0:0:0:
264,188,11014,1,2,0:0:0:0:
248,204,11073,1,2,0:0:0:0:
242,253,11132,5,8,0:0:0:0:
192,257,11191,1,8,0:0:0:0:
142,261,11250,1,8,0:0:0:0:
91,265,11310,1,8,0:0:0:0:
41,270,11369,5,2,0:0:0:0:
49,273,11428,1,2,0:0:0:0:
57,276,11487,1,2,0:0:0:0:
65,280,11546,1,2,0:0:0:0:
73,283,11605,6,0,L|135:279,1,45,12|2,0:0|0:0,0:0:0:0:
22,152,11723,2,0,P|15:173|14:204,3,45,8|2|2|2,0:0|0:0|0:0|0:0,0:0:0:0:
150,92,11959,6,0,L|145:30,1,45,12|2,0:0|0:0,0:0:0:0:
233,147,12077,2,0,P|259:149|296:157,3,45,8|2|2|2,0:0|0:0|0:0|0:0,0:0:0:0:
399,207,12313,6,0,L|406:140,1,45,12|2,0:0|0:0,0:0:0:0:
276,288,12432,2,0,P|301:298|340:303,3,45,8|2|2|2,0:0|0:0|0:0|0:0,0:0:0:0:
167,238,12668,6,0,L|112:242,1,45,12|2,0:0|0:0,0:0:0:0:
233,147,12786,2,0,P|240:123|243:88,3,45,8|2|2|2,0:0|0:0|0:0|0:0,0:0:0:0:
399,207,13022,6,0,P|422:200|459:198,1,45,8|2,0:0|0:0,0:0:0:0:
351,99,13140,2,0,P|374:106|411:108,1,45,8|2,0:0|0:0,0:0:0:0:
383,215,13258,6,0,P|407:214|443:221,1,45,8|2,0:0|0:0,0:0:0:0:
335,90,13376,2,0,P|359:90|395:83,1,45,8|2,0:0|0:0,0:0:0:0:
367,223,13495,6,0,P|390:228|423:245,1,45,8|2,0:0|0:0,0:0:0:0:
319,82,13613,2,0,P|342:76|375:59,1,45,8|2,0:0|0:0,0:0:0:0:
221,164,13731,6,0,L|289:161,1,45,12|2,0:0|0:0,0:0:0:0:
125,136,13849,2,0,P|119:113|117:67,3,45,8|2|2|2,0:0|0:0|0:0|0:0,0:0:0:0:
107,244,14085,6,0,L|40:249,1,45,12|2,0:0|0:0,0:0:0:0:
191,345,14203,2,0,P|201:319|204:278,3,45,8|2|2|2,0:0|0:0|0:0|0:0,0:0:0:0:
327,231,14439,6,0,L|388:235,1,45,12|2,0:0|0:0,0:0:0:0:
265,162,14558,2,0,P|262:134|248:94,3,45,8|2|2|2,0:0|0:0|0:0|0:0,0:0:0:0:
138,73,14794,6,0,L|75:68,1,45,12|2,0:0|0:0,0:0:0:0:
237,43,14912,2,0,P|245:22|247:-1,3,45,8|2|2|2,0:0|0:0|0:0|0:0,0:0:0:0:
362,111,15148,5,8,0:0:0:0:
411,105,15207,1,8,0:0:0:0:
460,100,15266,1,8,0:0:0:0:
265,162,15384,1,8,0:0:0:0:
230,196,15443,1,8,0:0:0:0:
229,245,15502,1,8,0:0:0:0:
250,289,15561,1,8,0:0:0:0:
297,304,15621,5,2,0:0:0:0:
308,318,15680,1,2,0:0:0:0:
319,332,15739,1,2,0:0:0:0:
330,346,15798,1,2,0:0:0:0:
340,360,15857,5,2,0:0:0:0:
331,356,15916,1,2,0:0:0:0:
322,353,15975,1,2,0:0:0:0:
313,352,16034,1,2,0:0:0:0:
304,352,16093,1,2,0:0:0:0:
295,354,16152,1,2,0:0:0:0:
286,357,16211,5,2,0:0:0:0:
292,350,16270,1,2,0:0:0:0:
299,345,16329,1,2,0:0:0:0:
307,342,16388,1,2,0:0:0:0:
315,341,16447,1,2,0:0:0:0:
323,340,16506,1,2,0:0:0:0:
350,298,16565,5,12,0:0:0:0:
110,237,16801,5,4,0:0:0:0:
110,237,17746,5,4,0:0:0:0:
366,202,18219,1,8,0:0:0:0:
369,152,18278,1,8,0:0:0:0:
373,102,18337,1,8,0:0:0:0:
377,52,18396,1,8,0:0:0:0:
381,2,18455,5,2,0:0:0:0:
386,18,18514,1,2,0:0:0:0:
391,34,18573,1,2,0:0:0:0:
396,50,18632,1,2,0:0:0:0:
402,66,18691,5,2,0:0:0:0:
393,64,18750,1,2,0:0:0:0:
384,64,18809,1,2,0:0:0:0:
375,66,18868,1,2,0:0:0:0:
366,69,18927,1,2,0:0:0:0:
358,73,18986,1,2,0:0:0:0:
351,78,19045,5,2,0:0:0:0:
342,75,19105,1,2,0:0:0:0:
333,75,19164,1,2,0:0:0:0:
324,77,19223,1,2,0:0:0:0:
316,81,19282,1,2,0:0:0:0:
308,86,19341,1,2,0:0:0:0:
260,73,19400,5,12,0:0:0:0:
313,286,19636,5,4,0:0:0:0:
313,286,20581,5,4,0:0:0:0:
160,255,20817,5,2,0:0:0:0:
142,253,20876,1,2,0:0:0:0:
124,252,20935,1,2,0:0:0:0:
106,251,20994,1,2,0:0:0:0:
62,274,21053,5,8,0:0:0:0:
103,301,21112,1,8,0:0:0:0:
148,280,21171,1,8,0:0:0:0:
151,229,21231,1,8,0:0:0:0:
111,199,21290,5,2,0:0:0:0:
110,190,21349,1,2,0:0:0:0:
109,181,21408,1,2,0:0:0:0:
108,172,21467,1,2,0:0:0:0:
108,163,21526,6,0,P|83:164|57:169,1,45,8|2,0:0|0:0,0:0:0:0:
167,11,21644,2,0,P|142:10|116:5,1,45,8|2,0:0|0:0,0:0:0:0:
124,155,21762,6,0,P|99:149|73:147,1,45,8|2,0:0|0:0,0:0:0:0:
183,19,21880,2,0,P|158:24|132:26,1,45,8|2,0:0|0:0,0:0:0:0:
140,147,21998,6,0,P|117:135|92:126,1,45,8|2,0:0|0:0,0:0:0:0:
199,27,22116,2,0,P|176:38|151:47,1,45,8|2,0:0|0:0,0:0:0:0:
283,125,22234,5,4,0:0:0:0:
309,123,22588,1,4,0:0:0:0:
335,121,22943,6,0,P|331:96|318:65,1,45,8|2,0:0|0:0,0:0:0:0:
481,159,23061,2,0,P|485:134|498:103,1,45,8|2,0:0|0:0,0:0:0:0:
343,136,23179,6,0,P|345:110|341:77,1,45,8|2,0:0|0:0,0:0:0:0:
473,175,23297,2,0,P|470:149|474:116,1,45,8|2,0:0|0:0,0:0:0:0:
351,152,23415,6,0,P|360:128|364:95,1,45,8|2,0:0|0:0,0:0:0:0:
465,191,23533,2,0,P|455:167|451:134,1,45,8|2,0:0|0:0,0:0:0:0:
366,249,23651,5,4,0:0:0:0:
365,275,24005,1,4,0:0:0:0:
364,301,24359,1,4,0:0:0:0:
364,301,24595,1,2,0:0:0:0:
125,209,24832,6,0,P|122:182|113:154,1,45,12|2,0:0|0:0,0:0:0:0:
244,240,24950,2,0,P|247:213|256:185,1,45,8|2,0:0|0:0,0:0:0:0:
117,225,25068,6,0,P|107:199|91:174,1,45,8|2,0:0|0:0,0:0:0:0:
252,256,25186,2,0,P|261:230|277:205,1,45,8|2,0:0|0:0,0:0:0:0:
109,241,25304,6,0,P|92:219|71:199,1,45,8|2,0:0|0:0,0:0:0:0:
260,272,25422,2,0,P|276:250|297:230,1,45,8|2,0:0|0:0,0:0:0:0:
193,93,25540,6,0,P|190:120|181:148,1,45,12|2,0:0|0:0,0:0:0:0:
312,62,25658,2,0,P|315:89|324:117,1,45,8|2,0:0|0:0,0:0:0:0:
185,77,25776,6,0,P|175:102|159:127,1,45,8|2,0:0|0:0,0:0:0:0:
320,46,25894,2,0,P|329:71|345:96,1,45,8|2,0:0|0:0,0:0:0:0:
177,61,26012,6,0,P|160:82|139:102,1,45,8|2,0:0|0:0,0:0:0:0:
328,30,26130,2,0,P|344:51|365:71,1,45,8|2,0:0|0:0,0:0:0:0:
296,221,26249,6,0,P|293:194|284:166,1,45,12|2,0:0|0:0,0:0:0:0:
415,252,26367,2,0,P|418:225|427:197,1,45,8|2,0:0|0:0,0:0:0:0:
288,237,26485,6,0,P|278:211|262:186,1,45,8|2,0:0|0:0,0:0:0:0:
423,268,26603,2,0,P|432:242|448:217,1,45,8|2,0:0|0:0,0:0:0:0:
331,332,26721,5,2,0:0:0:0:
322,332,26780,1,2,0:0:0:0:
313,332,26839,1,2,0:0:0:0:
304,332,26898,1,2,0:0:0:0:
288,323,26957,5,2,0:0:0:0:
270,323,27016,1,2,0:0:0:0:
252,323,27075,1,2,0:0:0:0:
234,323,27134,1,2,0:0:0:0:
195,292,27193,5,6,0:0:0:0:
195,292,27666,1,0,0:0:0:0:
380,152,28138,5,4,0:0:0:0:
380,152,28611,1,8,0:0:0:0:
338,124,28670,1,8,0:0:0:0:
288,121,28729,1,8,0:0:0:0:
249,152,28788,1,8,0:0:0:0:
236,199,28847,5,2,0:0:0:0:
219,206,28906,1,2,0:0:0:0:
202,213,28965,1,2,0:0:0:0:
185,220,29024,1,2,0:0:0:0:
168,227,29083,5,2,0:0:0:0:
159,222,29142,1,2,0:0:0:0:
150,219,29201,1,2,0:0:0:0:
141,217,29260,1,2,0:0:0:0:
132,216,29319,1,2,0:0:0:0:
123,216,29378,1,2,0:0:0:0:
114,217,29437,5,2,0:0:0:0:
109,209,29497,1,2,0:0:0:0:
103,201,29556,1,2,0:0:0:0:
96,194,29615,1,2,0:0:0:0:
88,188,29674,1,2,0:0:0:0:
79,184,29733,1,2,0:0:0:0:
29,182,29792,5,8,0:0:0:0:
236,299,30028,5,4,0:0:0:0:
178,93,30441,1,8,0:0:0:0:
177,106,30500,5,8,0:0:0:0:
296,121,30658,1,2,0:0:0:0:
414,137,30815,1,2,0:0:0:0:
223,195,30973,5,4,0:0:0:0:
342,210,31131,1,2,0:0:0:0:
460,226,31288,1,2,0:0:0:0:
268,282,31445,6,0,L|187:272,2,60,2|2|2,0:0|0:0|0:0,0:0:0:0:
366,295,31682,2,0,L|447:305,2,60,2|2|2,0:0|0:0|0:0,0:0:0:0:
319,196,31918,5,2,0:0:0:0:
325,189,31977,1,2,0:0:0:0:
329,181,32036,1,2,0:0:0:0:
331,172,32095,1,2,0:0:0:0:
332,163,32154,1,2,0:0:0:0:
331,154,32213,1,2,0:0:0:0:
329,145,32272,5,2,0:0:0:0:
335,139,32331,1,2,0:0:0:0:
340,132,32390,1,2,0:0:0:0:
344,123,32449,1,2,0:0:0:0:
347,114,32508,1,2,0:0:0:0:
348,105,32567,1,2,0:0:0:0:
325,60,32626,5,12,0:0:0:0:
121,163,32863,5,4,0:0:0:0:
314,288,33335,1,8,0:0:0:0:
365,285,33394,1,8,0:0:0:0:
414,282,33453,1,8,0:0:0:0:
463,279,33512,1,8,0:0:0:0:
512,276,33571,5,2,0:0:0:0:
503,274,33630,1,2,0:0:0:0:
494,272,33689,1,2,0:0:0:0:
484,270,33749,1,2,0:0:0:0:
439,267,33808,5,8,0:0:0:0:
409,227,33867,1,8,0:0:0:0:
407,177,33926,1,8,0:0:0:0:
438,138,33985,1,8,0:0:0:0:
485,126,34044,5,2,0:0:0:0:
461,159,34103,1,8,0:0:0:0:
423,175,34162,1,8,0:0:0:0:
382,169,34221,1,8,0:0:0:0:
350,143,34280,1,8,0:0:0:0:
318,117,34339,1,8,0:0:0:0:
279,103,34398,1,8,0:0:0:0:
239,109,34457,1,8,0:0:0:0:
208,135,34516,5,2,0:0:0:0:
191,141,34575,1,2,0:0:0:0:
174,147,34634,1,2,0:0:0:0:
157,153,34693,1,2,0:0:0:0:
140,159,34752,5,2,0:0:0:0:
131,156,34811,1,2,0:0:0:0:
121,154,34871,1,2,0:0:0:0:
112,154,34930,1,2,0:0:0:0:
103,156,34989,1,2,0:0:0:0:
94,159,35048,1,2,0:0:0:0:
87,165,35107,2,0,L|22:160,1,45,8|2,0:0|0:0,0:0:0:0:
152,288,35225,6,0,P|161:265|163:235,1,45,8|2,0:0|0:0,0:0:0:0:
290,259,35343,2,0,P|281:236|279:206,1,45,8|2,0:0|0:0,0:0:0:0:
144,304,35461,6,0,P|146:279|140:249,1,45,8|2,0:0|0:0,0:0:0:0:
298,275,35579,2,0,P|295:250|301:220,1,45,8|2,0:0|0:0,0:0:0:0:
136,320,35697,6,0,P|132:295|119:268,1,45,8|2,0:0|0:0,0:0:0:0:
306,291,35815,2,0,P|309:266|322:239,1,45,8|2,0:0|0:0,0:0:0:0:
128,336,35934,6,0,P|118:313|98:290,1,45,8|2,0:0|0:0,0:0:0:0:
314,307,36052,2,0,P|323:284|343:261,1,45,8|2,0:0|0:0,0:0:0:0:
120,352,36170,6,0,P|104:332|79:315,1,45,8|2,0:0|0:0,0:0:0:0:
322,323,36288,2,0,P|337:303|362:286,1,45,8|2,0:0|0:0,0:0:0:0:
112,368,36406,6,0,P|92:353|63:343,1,45,8|2,0:0|0:0,0:0:0:0:
330,339,36524,2,0,P|349:324|378:314,1,45,8|2,0:0|0:0,0:0:0:0:
216,207,36642,5,6,0:0:0:0:
215,189,37115,1,6,0:0:0:0:
214,170,37587,1,6,0:0:0:0:
374,143,37823,5,6,0:0:0:0:
375,125,38296,1,6,0:0:0:0:
376,106,38768,1,6,0:0:0:0:
176,79,39004,5,2,0:0:0:0:
175,70,39063,1,2,0:0:0:0:
174,61,39122,1,2,0:0:0:0:
173,52,39181,1,2,0:0:0:0:
167,2,39240,5,8,0:0:0:0:
124,29,39300,1,8,0:0:0:0:
129,78,39359,1,8,0:0:0:0:
173,99,39418,1,8,0:0:0:0:
217,78,39477,5,2,0:0:0:0:
225,76,39536,1,2,0:0:0:0:
233,74,39595,1,2,0:0:0:0:
241,72,39654,1,2,0:0:0:0:
266,34,39713,5,2,0:0:0:0:
283,36,39772,1,2,0:0:0:0:
300,38,39831,1,2,0:0:0:0:
317,40,39890,1,2,0:0:0:0:
347,78,39949,5,2,0:0:0:0:
355,76,40008,1,2,0:0:0:0:
363,74,40067,1,2,0:0:0:0:
371,72,40126,1,2,0:0:0:0:
403,33,40186,5,2,0:0:0:0:
411,35,40245,1,2,0:0:0:0:
419,37,40304,1,2,0:0:0:0:
427,39,40363,1,2,0:0:0:0:
458,77,40422,5,6,0:0:0:0:
144,151,40658,1,6,0:0:0:0:
474,87,40894,5,6,0:0:0:0:
160,161,41130,1,6,0:0:0:0:
492,100,41367,5,6,0:0:0:0:
256,192,41428,12,0,45301,0:0:0:0:
211,264,45424,5,8,0:0:0:0:
255,284,45485,1,8,0:0:0:0:
298,260,45546,1,8,0:0:0:0:
301,210,45608,1,8,0:0:0:0:
260,182,45669,5,2,0:0:0:0:
252,165,45731,1,2,0:0:0:0:
244,148,45792,1,2,0:0:0:0:
236,131,45854,1,2,0:0:0:0:
228,114,45915,5,2,0:0:0:0:
232,106,45977,1,2,0:0:0:0:
236,98,46038,1,2,0:0:0:0:
240,90,46100,1,2,0:0:0:0:
263,51,46161,5,2,0:0:0:0:
189,306,47637,5,6,0:0:0:0:
188,288,47883,1,6,0:0:0:0:
187,270,48128,1,6,0:0:0:0:
186,252,48374,1,6,0:0:0:0:
185,234,48620,1,6,0:0:0:0:
292,189,48743,5,2,0:0:0:0:
111,166,48866,1,2,0:0:0:0:
387,298,49112,5,6,0:0:0:0:
389,289,49173,1,2,0:0:0:0:
391,280,49235,1,2,0:0:0:0:
393,271,49296,1,2,0:0:0:0:
426,240,49358,5,2,0:0:0:0:
424,231,49419,1,2,0:0:0:0:
422,222,49481,1,2,0:0:0:0:
420,213,49542,1,2,0:0:0:0:
384,185,49604,5,2,0:0:0:0:
386,176,49665,1,2,0:0:0:0:
388,167,49727,1,2,0:0:0:0:
390,158,49788,1,2,0:0:0:0:
447,121,49850,5,8,0:0:0:0:
445,112,49911,1,2,0:0:0:0:
443,103,49973,1,2,0:0:0:0:
441,94,50034,1,2,0:0:0:0:
380,62,50096,5,8,0:0:0:0:
342,93,50157,1,8,0:0:0:0:
292,96,50219,1,8,0:0:0:0:
252,66,50280,1,8,0:0:0:0:
240,17,50342,5,2,0:0:0:0:
222,15,50403,1,2,0:0:0:0:
204,13,50464,1,2,0:0:0:0:
185,12,50526,1,2,0:0:0:0:
141,63,50587,5,2,0:0:0:0:
139,71,50649,1,2,0:0:0:0:
137,79,50710,1,2,0:0:0:0:
135,88,50772,1,2,0:0:0:0:
97,111,50833,5,2,0:0:0:0:
99,119,50895,1,2,0:0:0:0:
101,127,50956,1,2,0:0:0:0:
103,136,51018,1,2,0:0:0:0:
137,163,51079,5,2,0:0:0:0:
135,171,51141,1,2,0:0:0:0:
133,179,51202,1,2,0:0:0:0:
131,188,51264,1,2,0:0:0:0:
120,231,51325,5,12,0:0:0:0:
0,275,51571,1,6,0:0:0:0:
218,308,51817,1,6,0:0:0:0:
101,46,52063,5,6,0:0:0:0:
101,46,52801,5,6,0:0:0:0:
101,46,53538,5,6,0:0:0:0:
101,46,54276,5,6,0:0:0:0:
235,99,54399,1,2,0:0:0:0:
3,136,54522,1,2,0:0:0:0:
3,136,54645,1,2,0:0:0:0:
139,183,54768,1,2,0:0:0:0:
140,191,54829,1,2,0:0:0:0:
141,199,54891,1,2,0:0:0:0:
142,207,54952,1,2,0:0:0:0:
161,247,55014,5,6,0:0:0:0:
167,241,55075,1,2,0:0:0:0:
175,237,55136,1,2,0:0:0:0:
184,236,55198,1,2,0:0:0:0:
193,237,55259,1,2,0:0:0:0:
202,238,55321,1,2,0:0:0:0:
211,242,55382,1,2,0:0:0:0:
218,248,55444,1,2,0:0:0:0:
224,254,55505,1,2,0:0:0:0:
228,261,55567,1,2,0:0:0:0:
231,270,55628,1,2,0:0:0:0:
233,280,55690,1,2,0:0:0:0:
259,321,55751,5,8,0:0:0:0:
267,322,55813,1,2,0:0:0:0:
275,323,55874,1,2,0:0:0:0:
283,324,55936,1,2,0:0:0:0:
318,289,55997,5,2,0:0:0:0:
326,288,56059,1,2,0:0:0:0:
334,287,56120,1,2,0:0:0:0:
342,286,56182,1,2,0:0:0:0:
378,319,56243,5,2,0:0:0:0:
386,320,56305,1,2,0:0:0:0:
394,321,56366,1,2,0:0:0:0:
402,322,56428,1,2,0:0:0:0:
439,290,56489,5,6,0:0:0:0:
139,264,56735,1,8,0:0:0:0:
109,224,56796,1,8,0:0:0:0:
110,174,56858,1,8,0:0:0:0:
141,136,56919,1,8,0:0:0:0:
189,126,56981,5,2,0:0:0:0:
190,117,57042,1,2,0:0:0:0:
191,107,57104,1,2,0:0:0:0:
192,98,57165,1,2,0:0:0:0:
175,50,57227,5,8,0:0:0:0:
208,86,57288,1,8,0:0:0:0:
256,99,57350,1,8,0:0:0:0:
302,82,57411,1,8,0:0:0:0:
331,42,57473,5,2,0:0:0:0:
348,40,57534,1,2,0:0:0:0:
366,38,57596,1,2,0:0:0:0:
383,36,57657,1,2,0:0:0:0:
414,75,57719,5,2,0:0:0:0:
431,77,57780,1,2,0:0:0:0:
449,79,57842,1,2,0:0:0:0:
466,81,57903,1,2,0:0:0:0:
503,48,57965,5,6,0:0:0:0:
302,82,58087,1,2,0:0:0:0:
432,163,58210,1,2,0:0:0:0:
189,210,58333,1,2,0:0:0:0:
451,164,58456,1,2,0:0:0:0:
248,149,58579,1,2,0:0:0:0:
512,36,58702,5,2,0:0:0:0:
95,263,59440,5,6,0:0:0:0:
112,266,59501,1,8,0:0:0:0:
129,269,59563,1,2,0:0:0:0:
146,272,59624,1,8,0:0:0:0:
175,237,59686,5,2,0:0:0:0:
192,234,59747,1,8,0:0:0:0:
209,231,59809,1,2,0:0:0:0:
226,228,59870,1,8,0:0:0:0:
254,263,59932,5,2,0:0:0:0:
271,266,59993,1,8,0:0:0:0:
288,269,60055,1,2,0:0:0:0:
305,272,60116,1,8,0:0:0:0:
336,239,60178,6,0,L|403:228,3,45,2|8|2|8,0:0|0:0|0:0|0:0,0:0:0:0:
507,193,60423,2,0,L|440:182,3,45,2|8|2|8,0:0|0:0|0:0|0:0,0:0:0:0:
328,161,60669,2,0,L|395:150,3,45,2|8|2|8,0:0|0:0|0:0|0:0,0:0:0:0:
261,93,60915,5,2,0:0:0:0:
242,90,60977,1,8,0:0:0:0:
224,87,61038,1,2,0:0:0:0:
205,84,61100,1,8,0:0:0:0:
192,126,61161,5,2,0:0:0:0:
173,129,61223,1,8,0:0:0:0:
155,132,61284,1,2,0:0:0:0:
136,135,61346,1,8,0:0:0:0:
111,97,61407,5,2,0:0:0:0:
92,94,61469,1,8,0:0:0:0:
74,91,61530,1,2,0:0:0:0:
55,88,61592,1,8,0:0:0:0:
24,121,61653,6,0,L|17:175,3,45,2|8|2|8,0:0|0:0|0:0|0:0,0:0:0:0:
95,231,61899,2,0,L|102:285,3,45,2|8|2|8,0:0|0:0|0:0|0:0,0:0:0:0:
51,359,62145,5,2,0:0:0:0:
74,332,62206,1,8,0:0:0:0:
108,319,62268,1,2,0:0:0:0:
143,320,62329,1,8,0:0:0:0:
200,356,62391,5,2,0:0:0:0:
217,352,62452,1,8,0:0:0:0:
234,348,62514,1,2,0:0:0:0:
251,344,62575,1,8,0:0:0:0:
276,306,62637,5,2,0:0:0:0:
293,310,62698,1,8,0:0:0:0:
310,314,62760,1,2,0:0:0:0:
327,318,62821,1,8,0:0:0:0:
384,354,62883,5,2,0:0:0:0:
361,315,62944,1,8,0:0:0:0:
365,270,63005,1,2,0:0:0:0:
393,234,63067,1,8,0:0:0:0:
457,214,63128,5,2,0:0:0:0:
461,196,63190,1,8,0:0:0:0:
464,178,63251,1,2,0:0:0:0:
468,160,63313,1,8,0:0:0:0:
442,123,63374,2,0,L|434:58,3,45,6|2|2|2,0:0|0:0|0:0|0:0,0:0:0:0:
333,166,63620,5,2,0:0:0:0:
323,164,63682,1,2,0:0:0:0:
314,162,63743,1,2,0:0:0:0:
304,160,63805,1,2,0:0:0:0:
289,117,63866,5,2,0:0:0:0:
279,119,63928,1,2,0:0:0:0:
270,121,63989,1,2,0:0:0:0:
260,123,64051,1,2,0:0:0:0:
231,157,64112,5,2,0:0:0:0:
221,155,64174,1,2,0:0:0:0:
212,153,64235,1,2,0:0:0:0:
202,151,64297,1,2,0:0:0:0:
181,111,64358,5,2,0:0:0:0:
171,113,64420,1,2,0:0:0:0:
162,115,64481,1,2,0:0:0:0:
152,117,64543,1,2,0:0:0:0:
125,152,64604,6,0,L|63:143,3,45,8|2|2|2,0:0|0:0|0:0|0:0,0:0:0:0:
196,240,64850,2,0,L|134:249,3,45,2|2|2|2,0:0|0:0|0:0|0:0,0:0:0:0:
275,163,65096,2,0,L|213:154,3,45,2|2|2|2,0:0|0:0|0:0|0:0,0:0:0:0:
395,97,65342,5,4,0:0:0:0:
400,114,65403,1,8,0:0:0:0:
405,131,65464,1,2,0:0:0:0:
410,148,65526,1,8,0:0:0:0:
370,168,65587,5,2,0:0:0:0:
365,185,65648,1,8,0:0:0:0:
360,202,65709,1,2,0:0:0:0:
355,219,65771,1,8,0:0:0:0:
394,241,65833,5,2,0:0:0:0:
399,258,65894,1,8,0:0:0:0:
404,275,65955,1,2,0:0:0:0:
409,292,66017,1,8,0:0:0:0:
372,317,66079,6,0,L|359:373,3,45,2|8|2|8,0:0|0:0|0:0|0:0,0:0:0:0:
281,261,66325,2,0,L|270:217,3,45,2|8|2|8,0:0|0:0|0:0|0:0,0:0:0:0:
192,317,66571,2,0,L|179:373,3,45,2|8|2|8,0:0|0:0|0:0|0:0,0:0:0:0:
113,254,66817,5,2,0:0:0:0:
109,236,66878,1,8,0:0:0:0:
105,218,66940,1,2,0:0:0:0:
101,200,67001,1,8,0:0:0:0:
144,188,67063,5,2,0:0:0:0:
148,170,67124,1,8,0:0:0:0:
152,152,67186,1,2,0:0:0:0:
156,134,67247,1,8,0:0:0:0:
114,116,67309,5,2,0:0:0:0:
110,98,67370,1,8,0:0:0:0:
106,80,67432,1,2,0:0:0:0:
102,62,67493,1,8,0:0:0:0:
137,34,67555,5,6,0:0:0:0:
137,34,67801,1,6,0:0:0:0:
137,34,68046,1,6,0:0:0:0:
337,229,68292,5,6,0:0:0:0:
337,229,68538,1,8,0:0:0:0:
340,179,68600,1,8,0:0:0:0:
343,129,68661,1,8,0:0:0:0:
346,79,68723,1,8,0:0:0:0:
349,29,68784,5,2,0:0:0:0:
352,37,68846,1,2,0:0:0:0:
355,45,68907,1,2,0:0:0:0:
358,53,68969,1,2,0:0:0:0:
361,61,69030,5,2,0:0:0:0:
317,49,69092,1,8,0:0:0:0:
274,63,69153,1,8,0:0:0:0:
244,96,69214,1,8,0:0:0:0:
257,139,69276,5,2,0:0:0:0:
218,116,69337,1,8,0:0:0:0:
172,117,69399,1,8,0:0:0:0:
133,139,69460,1,8,0:0:0:0:
140,183,69522,5,2,0:0:0:0:
103,157,69583,1,8,0:0:0:0:
57,156,69645,1,8,0:0:0:0:
17,177,69706,1,8,0:0:0:0:
39,248,69768,5,6,0:0:0:0:
416,249,70505,5,6,0:0:0:0:
398,243,70567,1,8,0:0:0:0:
380,242,70628,1,2,0:0:0:0:
362,246,70690,1,8,0:0:0:0:
322,224,70751,5,2,0:0:0:0:
304,230,70813,1,8,0:0:0:0:
286,231,70874,1,2,0:0:0:0:
268,227,70936,1,8,0:0:0:0:
241,262,70997,5,2,0:0:0:0:
223,256,71059,1,8,0:0:0:0:
205,255,71120,1,2,0:0:0:0:
187,259,71182,1,8,0:0:0:0:
155,227,71243,6,0,L|151:172,3,45,2|8|2|8,0:0|0:0|0:0|0:0,0:0:0:0:
29,123,71489,2,0,L|78:147,3,45,2|8|2|8,0:0|0:0|0:0|0:0,0:0:0:0:
182,66,71735,2,0,L|136:96,3,45,2|8|2|8,0:0|0:0|0:0|0:0,0:0:0:0:
283,21,71981,5,2,0:0:0:0:
276,37,72042,1,8,0:0:0:0:
275,55,72104,1,2,0:0:0:0:
279,72,72165,1,8,0:0:0:0:
317,96,72227,5,2,0:0:0:0:
324,112,72288,1,8,0:0:0:0:
325,130,72350,1,2,0:0:0:0:
321,147,72411,1,8,0:0:0:0:
282,170,72473,5,2,0:0:0:0:
275,186,72534,1,8,0:0:0:0:
274,204,72596,1,2,0:0:0:0:
278,221,72657,1,8,0:0:0:0:
313,249,72719,6,0,L|370:254,3,45,2|8|2|8,0:0|0:0|0:0|0:0,0:0:0:0:
211,285,72964,5,2,0:0:0:0:
188,269,73026,1,8,0:0:0:0:
161,267,73087,1,2,0:0:0:0:
136,279,73149,1,8,0:0:0:0:
169,317,73210,5,2,0:0:0:0:
184,284,73272,1,8,0:0:0:0:
176,249,73333,1,2,0:0:0:0:
144,230,73395,1,8,0:0:0:0:
77,234,73456,5,2,0:0:0:0:
75,215,73518,1,8,0:0:0:0:
73,197,73579,1,2,0:0:0:0:
71,178,73641,1,8,0:0:0:0:
110,156,73702,5,2,0:0:0:0:
112,137,73764,1,8,0:0:0:0:
114,119,73825,1,2,0:0:0:0:
116,100,73887,1,8,0:0:0:0:
78,44,73948,5,2,0:0:0:0:
102,81,74010,1,8,0:0:0:0:
141,101,74071,1,2,0:0:0:0:
186,99,74133,1,8,0:0:0:0:
233,51,74194,5,2,0:0:0:0:
250,54,74255,1,8,0:0:0:0:
267,57,74317,1,2,0:0:0:0:
284,60,74378,1,8,0:0:0:0:
301,63,74440,2,0,L|367:53,3,45,2|8|2|8,0:0|0:0|0:0|0:0,0:0:0:0:
444,83,74686,5,2,0:0:0:0:
442,91,74747,1,2,0:0:0:0:
440,99,74809,1,2,0:0:0:0:
438,107,74870,1,2,0:0:0:0:
401,133,74932,5,2,0:0:0:0:
403,141,74993,1,2,0:0:0:0:
405,149,75055,1,2,0:0:0:0:
407,157,75116,1,2,0:0:0:0:
435,192,75178,5,2,0:0:0:0:
433,200,75239,1,2,0:0:0:0:
431,208,75301,1,2,0:0:0:0:
429,216,75362,1,2,0:0:0:0:
393,243,75423,5,2,0:0:0:0:
395,251,75484,1,2,0:0:0:0:
397,259,75546,1,2,0:0:0:0:
399,267,75607,1,2,0:0:0:0:
430,300,75669,6,0,L|487:293,3,45,8|2|2|2,0:0|0:0|0:0|0:0,0:0:0:0:
350,373,75915,2,0,L|407:380,3,45,2|2|2|2,0:0|0:0|0:0|0:0,0:0:0:0:
267,305,76161,2,0,L|324:298,3,45,2|2|2|2,0:0|0:0|0:0|0:0,0:0:0:0:
200,243,76407,5,6,0:0:0:0:
205,225,76469,1,8,0:0:0:0:
208,207,76530,1,2,0:0:0:0:
207,188,76592,1,8,0:0:0:0:
249,173,76653,5,2,0:0:0:0:
244,155,76715,1,8,0:0:0:0:
241,137,76776,1,2,0:0:0:0:
242,118,76838,1,8,0:0:0:0:
200,102,76899,5,2,0:0:0:0:
205,84,76961,1,8,0:0:0:0:
208,66,77022,1,2,0:0:0:0:
207,47,77084,1,8,0:0:0:0:
247,28,77145,6,0,L|308:21,3,45,2|8|2|8,0:0|0:0|0:0|0:0,0:0:0:0:
384,13,77391,2,0,L|359:69,3,45,2|8|2|8,0:0|0:0|0:0|0:0,0:0:0:0:
322,136,77637,2,0,L|285:86,3,45,2|8|2|8,0:0|0:0|0:0|0:0,0:0:0:0:
352,229,77883,5,2,0:0:0:0:
334,226,77944,1,8,0:0:0:0:
316,223,78005,1,2,0:0:0:0:
298,220,78067,1,8,0:0:0:0:
261,194,78128,5,2,0:0:0:0:
243,197,78189,1,8,0:0:0:0:
225,200,78250,1,2,0:0:0:0:
207,203,78312,1,8,0:0:0:0:
180,240,78374,5,2,0:0:0:0:
162,237,78435,1,8,0:0:0:0:
144,234,78496,1,2,0:0:0:0:
126,231,78558,1,8,0:0:0:0:
101,193,78620,5,6,0:0:0:0:
101,193,78866,1,6,0:0:0:0:
101,193,79112,1,6,0:0:0:0:
355,304,79358,5,6,0:0:0:0:
355,304,79604,1,8,0:0:0:0:
400,286,79665,1,8,0:0:0:0:
426,244,79727,1,8,0:0:0:0:
419,195,79788,1,8,0:0:0:0:
383,160,79850,5,2,0:0:0:0:
388,142,79911,1,2,0:0:0:0:
393,124,79973,1,2,0:0:0:0:
398,106,80034,1,2,0:0:0:0:
409,61,80096,5,6,0:0:0:0:
402,67,80157,1,2,0:0:0:0:
394,71,80218,1,2,0:0:0:0:
386,74,80280,1,2,0:0:0:0:
377,75,80341,1,2,0:0:0:0:
368,75,80403,1,2,0:0:0:0:
359,74,80464,1,2,0:0:0:0:
351,71,80526,1,2,0:0:0:0:
320,38,80587,2,0,L|242:33,3,45,8|2|2|2,0:0|0:0|0:0|0:0,0:0:0:0:
190,93,80833,5,6,0:0:0:0:
197,98,80894,1,2,0:0:0:0:
203,104,80955,1,2,0:0:0:0:
209,111,81017,1,2,0:0:0:0:
214,119,81078,1,2,0:0:0:0:
217,127,81140,1,2,0:0:0:0:
220,135,81201,1,2,0:0:0:0:
222,144,81263,1,2,0:0:0:0:
214,189,81325,2,0,L|281:194,3,45,8|2|2|2,0:0|0:0|0:0|0:0,0:0:0:0:
129,239,81571,5,6,0:0:0:0:
190,93,81694,1,2,0:0:0:0:
27,243,81817,1,2,0:0:0:0:
214,189,81940,1,2,0:0:0:0:
123,329,82063,1,2,0:0:0:0:
180,74,82186,1,2,0:0:0:0:
249,354,82309,5,6,0:0:0:0:
249,354,82555,1,10,0:0:0:0:
297,348,82616,1,8,0:0:0:0:
346,342,82678,1,8,0:0:0:0:
394,336,82739,1,8,0:0:0:0:
443,330,82801,5,10,0:0:0:0:
395,324,82862,1,8,0:0:0:0:
346,318,82924,1,8,0:0:0:0:
298,312,82985,1,8,0:0:0:0:
249,306,83046,5,10,0:0:0:0:
297,300,83107,1,8,0:0:0:0:
346,294,83169,1,8,0:0:0:0:
394,288,83230,1,8,0:0:0:0:
443,282,83292,5,2,0:0:0:0:
446,264,83354,1,2,0:0:0:0:
449,246,83415,1,2,0:0:0:0:
452,228,83477,1,2,0:0:0:0:
455,210,83538,2,0,L|528:206,3,45,2|2|2|2,0:0|0:0|0:0|0:0,0:0:0:0:
377,172,83784,5,2,0:0:0:0:
368,168,83846,1,2,0:0:0:0:
359,166,83907,1,2,0:0:0:0:
349,166,83969,1,2,0:0:0:0:
340,168,84030,1,2,0:0:0:0:
331,172,84092,1,2,0:0:0:0:
324,177,84153,1,2,0:0:0:0:
318,184,84214,1,2,0:0:0:0:
314,192,84276,1,2,0:0:0:0:
312,200,84337,1,2,0:0:0:0:
311,209,84399,1,2,0:0:0:0:
312,217,84460,1,2,0:0:0:0:
280,249,84522,5,12,0:0:0:0:
280,249,84768,1,6,0:0:0:0:
280,249,85014,1,6,0:0:0:0:
235,16,85260,5,6,0:0:0:0:
235,16,85505,1,8,0:0:0:0:
268,53,85567,1,8,0:0:0:0:
270,102,85628,1,8,0:0:0:0:
242,143,85690,1,8,0:0:0:0:
194,155,85751,5,2,0:0:0:0:
192,163,85813,1,2,0:0:0:0:
190,171,85874,1,2,0:0:0:0:
188,179,85936,1,2,0:0:0:0:
154,214,85997,6,0,L|85:220,1,45,8|2,0:0|0:0,0:0:0:0:
268,237,86120,2,0,L|337:243,1,45,8|2,0:0|0:0,0:0:0:0:
142,224,86243,6,0,L|73:230,1,45,8|2,0:0|0:0,0:0:0:0:
280,249,86366,2,0,L|349:255,1,45,8|2,0:0|0:0,0:0:0:0:
130,236,86489,6,0,L|61:242,1,45,8|2,0:0|0:0,0:0:0:0:
292,261,86612,2,0,L|361:267,1,45,8|2,0:0|0:0,0:0:0:0:
118,248,86735,6,0,L|49:254,1,45,8|2,0:0|0:0,0:0:0:0:
304,273,86858,2,0,L|373:279,1,45,8|2,0:0|0:0,0:0:0:0:
146,333,86981,6,0,P|136:361|131:391,3,45,8|2|2|2,0:0|0:0|0:0|0:0,0:0:0:0:
248,338,87227,5,8,0:0:0:0:
221,296,87288,1,8,0:0:0:0:
223,246,87350,1,8,0:0:0:0:
251,205,87411,1,8,0:0:0:0:
297,187,87473,5,2,0:0:0:0:
62,137,87596,1,2,0:0:0:0:
227,95,87719,1,2,0:0:0:0:
0,74,87842,1,2,0:0:0:0:
245,95,87964,1,2,0:0:0:0:
41,142,88087,1,2,0:0:0:0:
344,189,88210,5,6,0:0:0:0:
347,206,88272,1,8,0:0:0:0:
350,223,88333,1,2,0:0:0:0:
353,240,88395,1,8,0:0:0:0:
356,257,88456,2,0,L|420:263,3,45,2|8|2|8,0:0|0:0|0:0|0:0,0:0:0:0:
291,334,88702,5,2,0:0:0:0:
271,293,88764,1,8,0:0:0:0:
233,268,88825,1,2,0:0:0:0:
187,268,88887,1,8,0:0:0:0:
148,290,88948,5,2,0:0:0:0:
130,285,89010,1,8,0:0:0:0:
112,280,89071,1,2,0:0:0:0:
94,275,89133,1,8,0:0:0:0:
76,270,89194,2,0,L|72:212,3,45,2|8|2|8,0:0|0:0|0:0|0:0,0:0:0:0:
4,122,89440,5,2,0:0:0:0:
43,143,89501,1,8,0:0:0:0:
88,139,89563,1,2,0:0:0:0:
126,115,89624,1,8,0:0:0:0:
145,73,89686,5,2,0:0:0:0:
162,70,89747,1,8,0:0:0:0:
180,67,89809,1,2,0:0:0:0:
197,64,89870,1,8,0:0:0:0:
215,61,89932,2,0,L|282:70,3,45,2|8|2|8,0:0|0:0|0:0|0:0,0:0:0:0:
400,17,90178,5,2,0:0:0:0:
361,39,90239,1,8,0:0:0:0:
340,79,90301,1,2,0:0:0:0:
343,123,90362,1,8,0:0:0:0:
367,160,90423,5,2,0:0:0:0:
362,177,90485,1,8,0:0:0:0:
358,194,90546,1,2,0:0:0:0:
354,211,90608,1,8,0:0:0:0:
311,225,90669,5,2,0:0:0:0:
316,242,90731,1,8,0:0:0:0:
320,259,90792,1,2,0:0:0:0:
324,276,90854,1,8,0:0:0:0:
345,314,90915,5,2,0:0:0:0:
301,281,90977,1,8,0:0:0:0:
247,279,91038,1,2,0:0:0:0:
204,313,91100,1,8,0:0:0:0:
190,364,91161,5,6,0:0:0:0:
172,369,91223,1,8,0:0:0:0:
154,374,91284,1,2,0:0:0:0:
136,379,91346,1,8,0:0:0:0:
118,384,91407,2,0,L|59:375,3,45,2|8|2|8,0:0|0:0|0:0|0:0,0:0:0:0:
23,291,91653,5,2,0:0:0:0:
60,266,91714,1,8,0:0:0:0:
79,225,91776,1,2,0:0:0:0:
75,180,91837,1,8,0:0:0:0:
49,142,91899,5,2,0:0:0:0:
54,124,91960,1,8,0:0:0:0:
59,106,92022,1,2,0:0:0:0:
64,88,92083,1,8,0:0:0:0:
69,70,92145,6,0,L|127:65,3,45,2|8|2|8,0:0|0:0|0:0|0:0,0:0:0:0:
213,129,92391,1,2,0:0:0:0:
261,123,92452,1,8,0:0:0:0:
310,117,92514,1,2,0:0:0:0:
358,111,92575,1,8,0:0:0:0:
407,106,92637,6,0,B|386:94|386:94|296:104,1,90,6|2,0:0|0:0,0:0:0:0:
452,245,92883,5,2,0:0:0:0:
488,18,93005,1,2,0:0:0:0:
435,256,93128,5,2,0:0:0:0:
471,29,93250,1,2,0:0:0:0:
291,182,93374,5,6,0:0:0:0:
272,179,93436,1,8,0:0:0:0:
254,177,93497,1,2,0:0:0:0:
235,175,93559,1,8,0:0:0:0:
217,173,93620,2,0,L|211:113,3,45,2|8|2|8,0:0|0:0|0:0|0:0,0:0:0:0:
261,18,93866,5,2,0:0:0:0:
239,57,93928,1,8,0:0:0:0:
201,81,93989,1,2,0:0:0:0:
155,83,94051,1,8,0:0:0:0:
116,60,94112,5,2,0:0:0:0:
98,64,94173,1,8,0:0:0:0:
80,68,94235,1,2,0:0:0:0:
62,72,94296,1,8,0:0:0:0:
44,77,94358,2,0,L|40:126,3,45,2|8|2|8,0:0|0:0|0:0|0:0,0:0:0:0:
110,239,94604,5,2,0:0:0:0:
148,261,94665,1,8,0:0:0:0:
193,261,94727,1,2,0:0:0:0:
231,239,94788,1,8,0:0:0:0:
253,199,94850,5,2,0:0:0:0:
270,195,94911,1,8,0:0:0:0:
287,191,94973,1,2,0:0:0:0:
304,187,95034,1,8,0:0:0:0:
321,183,95096,2,0,L|325:124,3,45,2|8|2|8,0:0|0:0|0:0|0:0,0:0:0:0:
387,255,95342,5,2,0:0:0:0:
395,256,95403,1,2,0:0:0:0:
403,257,95464,1,2,0:0:0:0:
411,258,95526,1,2,0:0:0:0:
459,263,95587,5,12,0:0:0:0:
430,304,95649,1,8,0:0:0:0:
381,298,95710,1,8,0:0:0:0:
361,252,95772,1,8,0:0:0:0:
390,213,95833,5,2,0:0:0:0:
387,195,95895,1,2,0:0:0:0:
384,177,95956,1,2,0:0:0:0:
381,158,96018,1,2,0:0:0:0:
339,142,96079,5,2,0:0:0:0:
342,124,96141,1,2,0:0:0:0:
345,106,96202,1,2,0:0:0:0:
348,87,96264,1,2,0:0:0:0:
382,58,96325,5,2,0:0:0:0:
379,66,96387,1,2,0:0:0:0:
374,73,96448,1,2,0:0:0:0:
368,80,96510,1,2,0:0:0:0:
361,86,96571,1,2,0:0:0:0:
353,91,96633,1,2,0:0:0:0:
344,94,96694,1,2,0:0:0:0:
335,95,96755,1,2,0:0:0:0:
325,96,96817,1,2,0:0:0:0:
316,95,96878,1,2,0:0:0:0:
274,75,96940,2,0,L|268:12,1,45,8|2,0:0|0:0,0:0:0:0:
156,154,97063,6,0,P|180:163|228:165,1,45,12|2,0:0|0:0,0:0:0:0:
84,69,97186,2,0,P|61:73|40:81,1,45,8|2,0:0|0:0,0:0:0:0:
168,166,97309,6,0,P|192:175|240:177,1,45,8|2,0:0|0:0,0:0:0:0:
72,57,97432,2,0,P|49:61|28:69,1,45,8|2,0:0|0:0,0:0:0:0:
180,178,97555,6,0,P|204:187|252:189,1,45,8|2,0:0|0:0,0:0:0:0:
60,45,97678,2,0,P|37:49|16:57,1,45,8|2,0:0|0:0,0:0:0:0:
192,190,97801,6,0,P|216:199|264:201,1,45,8|2,0:0|0:0,0:0:0:0:
48,33,97924,2,0,P|25:37|4:45,1,45,8|2,0:0|0:0,0:0:0:0:
186,66,98046,6,0,L|193:7,3,45,8|2|2|2,0:0|0:0|0:0|0:0,0:0:0:0:
265,144,98292,1,8,0:0:0:0:
273,146,98354,1,2,0:0:0:0:
281,148,98415,1,2,0:0:0:0:
289,150,98477,1,2,0:0:0:0:
336,161,98538,5,8,0:0:0:0:
323,112,98600,1,8,0:0:0:0:
274,100,98662,1,8,0:0:0:0:
240,135,98723,1,8,0:0:0:0:
251,183,98785,5,2,0:0:0:0:
233,187,98846,1,2,0:0:0:0:
215,192,98907,1,2,0:0:0:0:
197,197,98969,1,2,0:0:0:0:
172,234,99030,5,2,0:0:0:0:
154,230,99091,1,2,0:0:0:0:
136,225,99152,1,2,0:0:0:0:
118,220,99214,1,2,0:0:0:0:
75,206,99275,5,2,0:0:0:0:
82,211,99337,1,2,0:0:0:0:
88,216,99399,1,2,0:0:0:0:
94,222,99460,1,2,0:0:0:0:
99,228,99522,1,2,0:0:0:0:
104,235,99583,1,2,0:0:0:0:
108,242,99645,1,2,0:0:0:0:
111,250,99706,1,2,0:0:0:0:
114,258,99768,1,2,0:0:0:0:
116,266,99829,1,2,0:0:0:0:
117,274,99891,1,2,0:0:0:0:
117,282,99952,1,2,0:0:0:0:
102,329,100014,5,6,0:0:0:0:
366,213,100751,5,0,0:0:0:0:
364,212,102227,5,0,0:0:0:0:
106,263,102473,5,10,0:0:0:0:
172,193,102596,1,2,0:0:0:0:
18,246,102719,1,2,0:0:0:0:
288,281,102964,5,6,0:0:0:0:
289,263,103702,1,6,0:0:0:0:
290,245,104440,1,6,0:0:0:0:
160,179,104932,5,2,0:0:0:0:
159,170,104993,1,2,0:0:0:0:
158,160,105055,1,2,0:0:0:0:
157,151,105116,1,2,0:0:0:0:
183,114,105178,6,0,L|190:46,1,45,8|2,0:0|0:0,0:0:0:0:
65,167,105301,2,0,L|69:211,1,45,8|2,0:0|0:0,0:0:0:0:
195,102,105423,6,0,L|202:34,1,45,8|2,0:0|0:0,0:0:0:0:
53,179,105546,2,0,L|57:223,1,45,8|2,0:0|0:0,0:0:0:0:
207,90,105669,6,0,L|214:22,1,45,8|2,0:0|0:0,0:0:0:0:
41,191,105792,2,0,L|45:235,1,45,8|2,0:0|0:0,0:0:0:0:
219,78,105915,5,12,0:0:0:0:
235,184,106653,1,6,0:0:0:0:
252,290,107391,5,6,0:0:0:0:
269,292,107637,1,6,0:0:0:0:
286,294,107883,1,6,0:0:0:0:
303,295,108128,1,6,0:0:0:0:
320,297,108374,1,6,0:0:0:0:
388,189,108497,5,2,0:0:0:0:
429,378,108620,1,2,0:0:0:0:
261,211,108866,5,2,0:0:0:0:
263,202,108928,1,2,0:0:0:0:
265,193,108989,1,2,0:0:0:0:
267,184,109051,1,2,0:0:0:0:
303,157,109112,5,2,0:0:0:0:
301,148,109174,1,2,0:0:0:0:
299,139,109235,1,2,0:0:0:0:
297,130,109296,1,2,0:0:0:0:
287,81,109357,5,10,0:0:0:0:
251,115,109419,1,8,0:0:0:0:
262,163,109481,1,8,0:0:0:0:
308,177,109542,1,8,0:0:0:0:
344,142,109604,5,10,0:0:0:0:
297,130,109665,1,8,0:0:0:0:
262,163,109727,1,8,0:0:0:0:
274,210,109788,1,8,0:0:0:0:
321,225,109850,5,10,0:0:0:0:
308,177,109911,1,8,0:0:0:0:
262,163,109973,1,8,0:0:0:0:
227,198,110034,1,8,0:0:0:0:
239,246,110096,5,2,0:0:0:0:
221,250,110157,1,2,0:0:0:0:
203,254,110219,1,2,0:0:0:0:
185,258,110280,1,2,0:0:0:0:
139,269,110342,5,6,0:0:0:0:
139,269,111286,6,0,L|143:338,5,60
133,178,111758,5,4,0:0:0:0:
358,113,111995,1,8,0:0:0:0:
358,113,112231,1,8,0:0:0:0:
355,173,112310,1,8,0:0:0:0:
352,233,112389,1,8,0:0:0:0:
349,292,112467,2,0,L|264:302,2,60,2|2|2,0:0|0:0|0:0,0:0:0:0:
206,311,112703,5,6,0:0:0:0:
106,278,113018,1,6,0:0:0:0:
272,240,113373,1,6,0:0:0:0:
54,202,113648,5,8,0:0:0:0:
24,162,113707,1,8,0:0:0:0:
25,112,113766,1,8,0:0:0:0:
58,75,113825,1,8,0:0:0:0:
106,65,113884,2,0,L|166:71,1,45,2|2,0:0|0:0,0:0:0:0:
261,135,114003,5,2,0:0:0:0:
278,132,114062,1,2,0:0:0:0:
295,129,114121,1,2,0:0:0:0:
312,126,114180,1,2,0:0:0:0:
329,123,114239,2,0,L|337:69,1,45,2|2,0:0|0:0,0:0:0:0:
379,212,114357,5,2,0:0:0:0:
396,214,114416,1,2,0:0:0:0:
413,216,114475,1,2,0:0:0:0:
430,218,114534,1,2,0:0:0:0:
474,227,114593,6,0,L|481:292,3,45,12|2|2|2,0:0|0:0|0:0|0:0,0:0:0:0:
361,344,114829,5,10,0:0:0:0:
352,345,114888,1,2,0:0:0:0:
343,346,114947,1,2,0:0:0:0:
334,347,115006,1,2,0:0:0:0:
303,314,115065,5,10,0:0:0:0:
294,313,115124,1,2,0:0:0:0:
285,312,115183,1,2,0:0:0:0:
276,311,115242,1,2,0:0:0:0:
234,327,115301,6,0,L|229:268,3,45,10|2|2|2,0:0|0:0|0:0|0:0,0:0:0:0:
120,219,115537,5,10,0:0:0:0:
116,210,115596,1,2,0:0:0:0:
115,201,115655,1,2,0:0:0:0:
116,191,115715,1,2,0:0:0:0:
155,168,115774,5,10,0:0:0:0:
159,159,115833,1,2,0:0:0:0:
160,150,115892,1,2,0:0:0:0:
159,140,115952,1,2,0:0:0:0:
122,115,116010,6,0,L|56:108,3,45,10|2|2|2,0:0|0:0|0:0|0:0,0:0:0:0:
198,60,116246,5,10,0:0:0:0:
206,62,116305,1,2,0:0:0:0:
214,64,116364,1,2,0:0:0:0:
222,66,116423,1,2,0:0:0:0:
247,29,116482,5,10,0:0:0:0:
255,27,116541,1,2,0:0:0:0:
263,25,116600,1,2,0:0:0:0:
271,23,116659,1,2,0:0:0:0:
308,48,116718,5,10,0:0:0:0:
316,50,116777,1,2,0:0:0:0:
324,52,116836,1,2,0:0:0:0:
332,54,116895,1,2,0:0:0:0:
351,14,116954,5,10,0:0:0:0:
359,12,117013,1,2,0:0:0:0:
367,10,117072,1,2,0:0:0:0:
375,8,117131,1,2,0:0:0:0:
411,35,117190,5,10,0:0:0:0:
419,37,117249,1,2,0:0:0:0:
427,39,117308,1,2,0:0:0:0:
435,41,117367,1,2,0:0:0:0:
478,31,117426,5,14,0:0:0:0:
453,57,117485,1,2,0:0:0:0:
448,92,117544,1,2,0:0:0:0:
458,126,117603,1,2,0:0:0:0:
417,161,117662,5,14,0:0:0:0:
442,187,117721,1,2,0:0:0:0:
447,222,117780,1,2,0:0:0:0:
437,256,117839,1,2,0:0:0:0:
471,298,117899,6,0,L|515:303,3,45,14|2|2|2,0:0|0:0|0:0|0:0,0:0:0:0:
383,326,118135,5,10,0:0:0:0:
374,324,118194,1,2,0:0:0:0:
365,322,118253,1,2,0:0:0:0:
356,320,118312,1,2,0:0:0:0:
330,283,118371,5,10,0:0:0:0:
321,285,118430,1,2,0:0:0:0:
312,287,118489,1,2,0:0:0:0:
303,289,118548,1,2,0:0:0:0:
279,327,118607,6,0,L|273:375,3,45,10|2|2|2,0:0|0:0|0:0|0:0,0:0:0:0:
217,264,118843,5,10,0:0:0:0:
215,255,118902,1,2,0:0:0:0:
213,246,118961,1,2,0:0:0:0:
211,236,119021,1,2,0:0:0:0:
168,222,119080,5,10,0:0:0:0:
170,213,119139,1,2,0:0:0:0:
172,204,119198,1,2,0:0:0:0:
174,194,119258,1,2,0:0:0:0:
204,161,119316,6,0,L|211:97,3,45,10|2|2|2,0:0|0:0|0:0|0:0,0:0:0:0:
209,30,119552,5,10,0:0:0:0:
217,33,119611,1,2,0:0:0:0:
225,34,119670,1,2,0:0:0:0:
233,33,119729,1,2,0:0:0:0:
270,57,119788,5,10,0:0:0:0:
278,54,119847,1,2,0:0:0:0:
286,53,119906,1,2,0:0:0:0:
294,54,119965,1,2,0:0:0:0:
334,33,120024,5,10,0:0:0:0:
342,36,120083,1,2,0:0:0:0:
350,37,120142,1,2,0:0:0:0:
358,36,120201,1,2,0:0:0:0:
397,6,120260,5,8,0:0:0:0:
371,48,120319,1,8,0:0:0:0:
378,96,120378,1,8,0:0:0:0:
413,131,120438,1,8,0:0:0:0:
462,137,120497,5,0,0:0:0:0:
465,154,120556,1,0,0:0:0:0:
468,171,120615,1,0,0:0:0:0:
471,188,120674,1,0,0:0:0:0:
479,232,120733,5,6,0:0:0:0:
446,63,120851,1,6,0:0:0:0:
412,305,120969,1,6,0:0:0:0:
177,231,121206,5,12,0:0:0:0:
174,181,121265,1,8,0:0:0:0:
171,131,121324,1,8,0:0:0:0:
168,81,121383,1,8,0:0:0:0:
164,31,121442,5,2,0:0:0:0:
162,39,121501,1,2,0:0:0:0:
160,47,121560,1,2,0:0:0:0:
158,55,121619,1,2,0:0:0:0:
156,63,121678,6,0,L|162:132,1,45,12|2,0:0|0:0,0:0:0:0:
298,22,121796,2,0,P|276:16|243:13,3,45,8|2|2|2,0:0|0:0|0:0|0:0,0:0:0:0:
399,102,122032,6,0,L|459:96,1,45,12|2,0:0|0:0,0:0:0:0:
315,153,122150,2,0,P|310:178|310:214,3,45,8|2|2|2,0:0|0:0|0:0|0:0,0:0:0:0:
241,273,122387,5,10,0:0:0:0:
232,275,122446,1,2,0:0:0:0:
223,277,122505,1,2,0:0:0:0:
214,279,122564,1,2,0:0:0:0:
205,281,122623,6,0,L|195:341,3,45,14|2|2|2,0:0|0:0|0:0|0:0,0:0:0:0:
134,221,122860,5,10,0:0:0:0:
132,212,122919,1,2,0:0:0:0:
132,203,122978,1,2,0:0:0:0:
134,194,123037,1,2,0:0:0:0:
95,171,123096,5,10,0:0:0:0:
97,162,123155,1,2,0:0:0:0:
97,153,123214,1,2,0:0:0:0:
95,144,123273,1,2,0:0:0:0:
129,115,123332,6,0,L|137:45,3,45,10|2|2|2,0:0|0:0|0:0|0:0,0:0:0:0:
219,111,123568,5,10,0:0:0:0:
227,109,123627,1,2,0:0:0:0:
235,107,123686,1,2,0:0:0:0:
243,105,123746,1,2,0:0:0:0:
269,141,123805,5,10,0:0:0:0:
277,143,123864,1,2,0:0:0:0:
285,145,123923,1,2,0:0:0:0:
293,147,123983,1,2,0:0:0:0:
327,119,124041,6,0,L|373:110,3,45,10|2|2|2,0:0|0:0|0:0|0:0,0:0:0:0:
481,28,124277,5,10,0:0:0:0:
479,36,124336,1,2,0:0:0:0:
477,44,124395,1,2,0:0:0:0:
475,52,124454,1,2,0:0:0:0:
443,83,124513,5,10,0:0:0:0:
445,91,124572,1,2,0:0:0:0:
447,99,124631,1,2,0:0:0:0:
449,107,124690,1,2,0:0:0:0:
483,136,124749,5,10,0:0:0:0:
481,144,124808,1,2,0:0:0:0:
479,152,124867,1,2,0:0:0:0:
477,160,124926,1,2,0:0:0:0:
441,187,124985,5,10,0:0:0:0:
443,195,125044,1,2,0:0:0:0:
445,203,125103,1,2,0:0:0:0:
447,211,125162,1,2,0:0:0:0:
480,241,125221,5,10,0:0:0:0:
478,249,125280,1,2,0:0:0:0:
476,257,125339,1,2,0:0:0:0:
474,265,125398,1,2,0:0:0:0:
433,285,125457,5,10,0:0:0:0:
435,293,125516,1,2,0:0:0:0:
437,301,125575,1,2,0:0:0:0:
439,309,125634,1,2,0:0:0:0:
464,345,125693,5,10,0:0:0:0:
430,330,125752,1,2,0:0:0:0:
394,330,125811,1,2,0:0:0:0:
362,348,125871,1,2,0:0:0:0:
343,378,125930,6,0,L|271:383,3,45,14|2|2|2,0:0|0:0|0:0|0:0,0:0:0:0:
193,306,126167,5,10,0:0:0:0:
184,308,126226,1,2,0:0:0:0:
175,310,126285,1,2,0:0:0:0:
166,312,126344,1,2,0:0:0:0:
142,351,126403,5,10,0:0:0:0:
133,349,126462,1,2,0:0:0:0:
124,347,126521,1,2,0:0:0:0:
115,345,126580,1,2,0:0:0:0:
90,308,126639,6,0,L|37:314,3,45,10|2|2|2,0:0|0:0|0:0|0:0,0:0:0:0:
62,219,126875,5,10,0:0:0:0:
66,210,126934,1,2,0:0:0:0:
67,201,126993,1,2,0:0:0:0:
66,191,127053,1,2,0:0:0:0:
104,168,127112,5,10,0:0:0:0:
100,159,127171,1,2,0:0:0:0:
99,150,127230,1,2,0:0:0:0:
100,140,127290,1,2,0:0:0:0:
64,113,127348,6,0,L|61:60,3,45,10|2|2|2,0:0|0:0|0:0|0:0,0:0:0:0:
179,146,127584,5,10,0:0:0:0:
187,147,127643,1,2,0:0:0:0:
195,148,127702,1,2,0:0:0:0:
203,149,127761,1,2,0:0:0:0:
229,185,127820,5,10,0:0:0:0:
237,184,127879,1,2,0:0:0:0:
245,183,127938,1,2,0:0:0:0:
253,182,127997,1,2,0:0:0:0:
283,149,128056,5,10,0:0:0:0:
291,150,128115,1,2,0:0:0:0:
299,151,128174,1,2,0:0:0:0:
307,152,128233,1,2,0:0:0:0:
331,189,128292,5,10,0:0:0:0:
339,188,128351,1,2,0:0:0:0:
347,187,128410,1,2,0:0:0:0:
355,186,128469,1,2,0:0:0:0:
390,157,128528,5,2,0:0:0:0:
407,159,128587,1,2,0:0:0:0:
424,161,128646,1,2,0:0:0:0:
441,163,128705,1,2,0:0:0:0:
489,170,128764,5,8,0:0:0:0:
459,209,128823,1,8,0:0:0:0:
410,201,128882,1,8,0:0:0:0:
390,157,128941,1,8,0:0:0:0:
419,117,129000,5,2,0:0:0:0:
415,99,129059,1,2,0:0:0:0:
411,81,129118,1,2,0:0:0:0:
406,62,129178,1,2,0:0:0:0:
396,18,129238,5,6,0:0:0:0:
395,26,129297,1,2,0:0:0:0:
394,35,129356,1,2,0:0:0:0:
393,44,129415,1,2,0:0:0:0:
393,53,129474,1,2,0:0:0:0:
392,62,129533,1,2,0:0:0:0:
391,71,129592,1,2,0:0:0:0:
391,80,129651,1,2,0:0:0:0:
390,89,129710,1,2,0:0:0:0:
389,98,129769,1,2,0:0:0:0:
389,107,129828,1,2,0:0:0:0:
388,116,129887,1,2,0:0:0:0:
387,125,129946,1,2,0:0:0:0:
387,134,130005,1,2,0:0:0:0:
386,143,130064,1,2,0:0:0:0:
385,152,130123,1,2,0:0:0:0:
348,177,130182,5,10,0:0:0:0:
348,185,130241,1,2,0:0:0:0:
349,194,130300,1,2,0:0:0:0:
350,203,130359,1,2,0:0:0:0:
378,239,130419,5,2,0:0:0:0:
369,238,130478,1,2,0:0:0:0:
360,238,130537,1,2,0:0:0:0:
351,240,130596,1,2,0:0:0:0:
342,242,130655,1,2,0:0:0:0:
334,246,130714,1,2,0:0:0:0:
326,251,130773,1,2,0:0:0:0:
319,256,130832,1,2,0:0:0:0:
299,296,130891,5,2,0:0:0:0:
290,294,130950,1,2,0:0:0:0:
281,292,131009,1,2,0:0:0:0:
272,290,131068,1,2,0:0:0:0:
241,323,131127,5,6,0:0:0:0:
231,324,131186,1,2,0:0:0:0:
222,325,131245,1,2,0:0:0:0:
213,326,131304,1,2,0:0:0:0:
204,327,131363,1,2,0:0:0:0:
195,328,131422,1,2,0:0:0:0:
186,329,131481,1,2,0:0:0:0:
176,330,131540,1,2,0:0:0:0:
167,331,131599,1,2,0:0:0:0:
157,332,131659,1,2,0:0:0:0:
148,333,131718,1,2,0:0:0:0:
139,334,131777,1,2,0:0:0:0:
99,311,131836,5,8,0:0:0:0:
269,186,132072,5,6,0:0:0:0:
276,181,132131,1,2,0:0:0:0:
284,177,132190,1,2,0:0:0:0:
292,175,132249,1,2,0:0:0:0:
300,173,132308,1,2,0:0:0:0:
308,172,132367,1,2,0:0:0:0:
341,141,132426,5,6,0:0:0:0:
348,146,132485,1,2,0:0:0:0:
356,150,132544,1,2,0:0:0:0:
364,152,132603,1,2,0:0:0:0:
372,154,132662,1,2,0:0:0:0:
380,155,132721,1,2,0:0:0:0:
413,184,132780,5,8,0:0:0:0:
130,273,133017,5,2,0:0:0:0:
129,264,133076,1,2,0:0:0:0:
128,255,133135,1,2,0:0:0:0:
127,246,133194,1,2,0:0:0:0:
126,237,133253,1,2,0:0:0:0:
125,228,133312,1,2,0:0:0:0:
83,210,133371,5,2,0:0:0:0:
84,201,133430,1,2,0:0:0:0:
85,192,133489,1,2,0:0:0:0:
86,183,133548,1,2,0:0:0:0:
87,174,133607,1,2,0:0:0:0:
88,165,133666,1,2,0:0:0:0:
129,145,133726,5,10,0:0:0:0:
128,136,133785,1,2,0:0:0:0:
127,127,133844,1,2,0:0:0:0:
126,118,133903,1,2,0:0:0:0:
99,81,133962,6,0,L|40:78,1,45,8|2,0:0|0:0,0:0:0:0:
239,86,134080,2,0,L|298:83,1,45,8|2,0:0|0:0,0:0:0:0:
87,69,134198,6,0,L|28:66,1,45,8|2,0:0|0:0,0:0:0:0:
251,74,134316,2,0,L|310:71,1,45,8|2,0:0|0:0,0:0:0:0:
75,57,134434,6,0,L|16:54,1,45,8|2,0:0|0:0,0:0:0:0:
263,62,134552,2,0,L|322:59,1,45,8|2,0:0|0:0,0:0:0:0:
197,202,134670,5,6,0:0:0:0:
197,202,135024,1,6,0:0:0:0:
413,178,135379,6,0,P|419:154|419:122,1,45,8|2,0:0|0:0,0:0:0:0:
311,248,135497,2,0,P|312:270|318:292,1,45,8|2,0:0|0:0,0:0:0:0:
401,166,135615,6,0,P|407:142|407:110,1,45,10|0,0:0|0:0,0:0:0:0:
323,260,135733,2,0,P|324:282|330:304,1,45,8|2,0:0|0:0,0:0:0:0:
389,154,135851,6,0,P|395:130|395:98,1,45,8|2,0:0|0:0,0:0:0:0:
335,272,135969,2,0,P|336:294|342:316,1,45,8|2,0:0|0:0,0:0:0:0:
254,137,136088,5,6,0:0:0:0:
254,137,136442,1,6,0:0:0:0:
254,137,136781,1,6,0:0:0:0:
460,251,137008,1,6,0:0:0:0:
202,286,137269,6,0,L|130:281,1,45,8|2,0:0|0:0,0:0:0:0:
308,273,137387,2,0,L|380:268,1,45,8|2,0:0|0:0,0:0:0:0:
190,298,137505,6,0,L|118:293,1,45,8|2,0:0|0:0,0:0:0:0:
320,285,137623,2,0,L|392:280,1,45,8|2,0:0|0:0,0:0:0:0:
178,310,137741,6,0,L|106:305,1,45,8|2,0:0|0:0,0:0:0:0:
332,297,137859,2,0,L|404:292,1,45,8|2,0:0|0:0,0:0:0:0:
242,163,137977,5,6,0:0:0:0:
242,163,138331,1,6,0:0:0:0:
60,226,138686,6,0,L|51:168,1,45,8|2,0:0|0:0,0:0:0:0:
77,44,138804,2,0,L|70:88,1,45,8|2,0:0|0:0,0:0:0:0:
72,238,138922,6,0,L|63:180,1,45,8|2,0:0|0:0,0:0:0:0:
89,32,139040,2,0,L|82:76,1,45,8|2,0:0|0:0,0:0:0:0:
84,250,139158,6,0,L|75:192,1,45,8|2,0:0|0:0,0:0:0:0:
101,20,139276,2,0,L|94:64,1,45,8|2,0:0|0:0,0:0:0:0:
259,174,139394,5,6,0:0:0:0:
259,174,139749,1,6,0:0:0:0:
275,190,140088,5,6,0:0:0:0:
275,190,140442,1,6,0:0:0:0:
292,205,140782,5,6,0:0:0:0:
292,205,140906,1,0,0:0:0:0:
113,310,141030,6,0,L|56:304,1,45,8|2,0:0|0:0,0:0:0:0:
228,319,141148,2,0,L|285:313,1,45,8|2,0:0|0:0,0:0:0:0:
101,322,141266,6,0,L|44:316,1,45,8|2,0:0|0:0,0:0:0:0:
240,331,141384,2,0,L|297:325,1,45,8|2,0:0|0:0,0:0:0:0:
167,180,141505,6,0,P|159:203|157:236,1,45,8|2,0:0|0:0,0:0:0:0:
155,168,141625,2,0,P|147:191|145:224,1,45,8|2,0:0|0:0,0:0:0:0:
19,135,141745,6,0,P|27:158|29:191,1,45,8|2,0:0|0:0,0:0:0:0:
31,123,141865,2,0,P|39:146|41:179,1,45,8|2,0:0|0:0,0:0:0:0:
162,51,141985,6,0,L|89:43,3,45,8|2|8|2,0:0|0:0|0:0|0:0,0:0:0:0:
276,85,142225,6,0,L|285:25,1,45,8|2,0:0|0:0,0:0:0:0:
264,175,142343,2,0,L|270:219,1,45,8|2,0:0|0:0,0:0:0:0:
288,73,142461,6,0,L|297:13,1,45,8|2,0:0|0:0,0:0:0:0:
276,187,142579,2,0,L|282:231,1,45,8|2,0:0|0:0,0:0:0:0:
300,61,142697,6,0,L|309:1,1,45,8|2,0:0|0:0,0:0:0:0:
288,199,142815,2,0,L|294:243,1,45,8|2,0:0|0:0,0:0:0:0:
436,155,142933,6,0,P|415:151|381:149,1,45,8|2,0:0|0:0,0:0:0:0:
448,167,143051,2,0,P|427:163|393:161,1,45,8|2,0:0|0:0,0:0:0:0:
488,41,143169,6,0,P|467:45|433:47,1,45,8|2,0:0|0:0,0:0:0:0:
500,29,143287,2,0,P|479:33|445:35,1,45,8|2,0:0|0:0,0:0:0:0:
276,85,143406,6,0,L|205:77,3,45,8|2|2|2,0:0|0:0|0:0|0:0,0:0:0:0:
104,17,143646,5,10,0:0:0:0:
140,50,143705,1,8,0:0:0:0:
151,98,143764,1,8,0:0:0:0:
135,145,143823,1,8,0:0:0:0:
93,172,143882,2,0,L|38:166,1,45,2|2,0:0|0:0,0:0:0:0:
176,232,144000,5,2,0:0:0:0:
193,230,144059,1,2,0:0:0:0:
210,228,144118,1,2,0:0:0:0:
227,226,144177,1,2,0:0:0:0:
244,224,144236,2,0,L|251:177,1,45,2|2,0:0|0:0,0:0:0:0:
323,284,144354,5,2,0:0:0:0:
340,286,144413,1,2,0:0:0:0:
357,288,144472,1,2,0:0:0:0:
374,290,144531,1,2,0:0:0:0:
416,317,144591,5,6,0:0:0:0:
385,277,144650,1,8,0:0:0:0:
385,227,144709,1,2,0:0:0:0:
416,188,144768,1,8,0:0:0:0:
464,177,144827,2,0,L|470:119,3,45,2|8|2|8,0:0|0:0|0:0|0:0,0:0:0:0:
404,17,145063,2,0,L|410:75,3,45,2|8|2|8,0:0|0:0|0:0|0:0,0:0:0:0:
287,142,145299,5,2,0:0:0:0:
269,147,145358,1,8,0:0:0:0:
251,148,145417,1,2,0:0:0:0:
233,145,145476,1,8,0:0:0:0:
207,107,145535,5,2,0:0:0:0:
189,102,145594,1,8,0:0:0:0:
171,101,145653,1,2,0:0:0:0:
153,104,145712,1,8,0:0:0:0:
127,142,145772,5,2,0:0:0:0:
109,147,145831,1,8,0:0:0:0:
91,148,145890,1,2,0:0:0:0:
73,145,145949,1,8,0:0:0:0:
26,129,146008,5,6,0:0:0:0:
58,166,146067,1,8,0:0:0:0:
67,214,146126,1,2,0:0:0:0:
45,258,146185,1,8,0:0:0:0:
3,285,146244,2,0,L|71:294,3,45,2|8|2|8,0:0|0:0|0:0|0:0,0:0:0:0:
183,307,146480,2,0,L|114:314,3,45,2|8|2|8,0:0|0:0|0:0|0:0,0:0:0:0:
281,292,146716,5,2,0:0:0:0:
284,273,146776,1,8,0:0:0:0:
287,255,146835,1,2,0:0:0:0:
290,237,146894,1,8,0:0:0:0:
248,218,146953,5,2,0:0:0:0:
245,199,147013,1,8,0:0:0:0:
242,181,147072,1,2,0:0:0:0:
239,163,147131,1,8,0:0:0:0:
279,145,147189,5,2,0:0:0:0:
282,126,147249,1,8,0:0:0:0:
285,108,147308,1,2,0:0:0:0:
288,90,147367,1,8,0:0:0:0:
262,48,147425,5,6,0:0:0:0:
295,84,147484,1,8,0:0:0:0:
342,97,147543,1,2,0:0:0:0:
389,83,147602,1,8,0:0:0:0:
419,44,147661,2,0,L|424:-7,3,45,2|8|2|8,0:0|0:0|0:0|0:0,0:0:0:0:
438,148,147898,2,0,L|442:192,3,45,2|8|2|8,0:0|0:0|0:0|0:0,0:0:0:0:
488,290,148134,5,2,0:0:0:0:
470,284,148193,1,8,0:0:0:0:
452,283,148252,1,2,0:0:0:0:
434,288,148311,1,8,0:0:0:0:
400,258,148370,5,2,0:0:0:0:
382,264,148429,1,8,0:0:0:0:
364,265,148488,1,2,0:0:0:0:
346,260,148547,1,8,0:0:0:0:
318,295,148606,5,2,0:0:0:0:
300,289,148665,1,8,0:0:0:0:
282,288,148724,1,2,0:0:0:0:
264,293,148783,1,8,0:0:0:0:
230,329,148842,5,6,0:0:0:0:
227,278,148902,1,8,0:0:0:0:
224,228,148961,1,2,0:0:0:0:
221,178,149020,1,8,0:0:0:0:
218,128,149079,2,0,L|154:122,3,45,2|8|2|8,0:0|0:0|0:0|0:0,0:0:0:0:
308,111,149315,2,0,L|372:105,3,45,2|8|2|8,0:0|0:0|0:0|0:0,0:0:0:0:
455,97,149551,5,2,0:0:0:0:
456,88,149610,1,2,0:0:0:0:
457,79,149669,1,2,0:0:0:0:
458,70,149728,1,2,0:0:0:0:
459,61,149787,5,8,0:0:0:0:
463,110,149846,1,8,0:0:0:0:
467,159,149905,1,8,0:0:0:0:
472,209,149965,1,8,0:0:0:0:
477,258,150024,5,2,0:0:0:0:
482,240,150083,1,2,0:0:0:0:
488,223,150142,1,2,0:0:0:0:
494,206,150201,1,2,0:0:0:0:
500,189,150260,5,4,0:0:0:0:
338,313,150496,2,0,L|276:305,3,45,2|8|2|8,0:0|0:0|0:0|0:0,0:0:0:0:
169,292,150732,2,0,L|231:284,3,45,2|8|2|8,0:0|0:0|0:0|0:0,0:0:0:0:
88,215,150970,5,6,0:0:0:0:
88,206,151029,1,2,0:0:0:0:
89,197,151088,1,2,0:0:0:0:
89,188,151147,1,2,0:0:0:0:
93,138,151206,5,10,0:0:0:0:
134,166,151265,1,8,0:0:0:0:
130,215,151324,1,8,0:0:0:0:
86,236,151383,1,8,0:0:0:0:
45,209,151442,5,10,0:0:0:0:
89,188,151501,1,8,0:0:0:0:
130,215,151560,1,8,0:0:0:0:
127,265,151620,1,8,0:0:0:0:
83,287,151679,5,10,0:0:0:0:
86,236,151738,1,8,0:0:0:0:
130,215,151797,1,8,0:0:0:0:
171,243,151856,1,8,0:0:0:0:
166,292,151915,5,2,0:0:0:0:
170,308,151973,1,2,0:0:0:0:
173,326,152032,1,2,0:0:0:0:
178,343,152092,1,2,0:0:0:0:
210,374,152151,5,6,0:0:0:0:
455,106,152387,6,0,L|447:33,1,45,8|2,0:0|0:0,0:0:0:0:
468,192,152505,2,0,L|463:236,1,45,8|2,0:0|0:0,0:0:0:0:
443,94,152623,6,0,L|435:21,1,45,8|2,0:0|0:0,0:0:0:0:
480,204,152741,2,0,L|475:248,1,45,8|2,0:0|0:0,0:0:0:0:
371,151,152859,5,8,0:0:0:0:
339,147,152918,1,2,0:0:0:0:
307,143,152977,1,8,0:0:0:0:
275,139,153036,1,2,0:0:0:0:
263,182,153095,5,8,0:0:0:0:
231,186,153154,1,2,0:0:0:0:
199,190,153213,1,8,0:0:0:0:
167,194,153272,1,2,0:0:0:0:
150,151,153332,5,8,0:0:0:0:
118,147,153391,1,2,0:0:0:0:
86,143,153450,1,8,0:0:0:0:
54,139,153509,1,2,0:0:0:0:
0,162,153568,5,12,0:0:0:0:
46,197,153627,1,2,0:0:0:0:
100,175,153686,1,8,0:0:0:0:
108,117,153745,1,2,0:0:0:0:
60,82,153804,6,0,L|5:76,1,45,8|2,0:0|0:0,0:0:0:0:
166,59,153922,2,0,L|221:53,1,45,8|2,0:0|0:0,0:0:0:0:
48,70,154040,6,0,L|-7:64,1,45,8|2,0:0|0:0,0:0:0:0:
178,47,154158,2,0,L|233:41,1,45,8|2,0:0|0:0,0:0:0:0:
386,158,154276,6,0,L|441:164,3,45,8|2|2|2,0:0|0:0|0:0|0:0,0:0:0:0:
306,205,154513,1,8,0:0:0:0:
305,213,154572,1,2,0:0:0:0:
304,221,154631,1,2,0:0:0:0:
303,229,154690,1,2,0:0:0:0:
262,248,154749,5,2,0:0:0:0:
263,256,154808,1,2,0:0:0:0:
264,264,154867,1,2,0:0:0:0:
265,272,154926,1,2,0:0:0:0:
292,307,154985,5,6,0:0:0:0:
283,304,155044,1,2,0:0:0:0:
274,302,155103,1,2,0:0:0:0:
265,301,155162,1,2,0:0:0:0:
256,302,155221,1,2,0:0:0:0:
247,303,155280,1,2,0:0:0:0:
239,306,155339,1,2,0:0:0:0:
231,310,155398,1,2,0:0:0:0:
223,314,155457,1,2,0:0:0:0:
216,320,155516,1,2,0:0:0:0:
210,327,155575,1,2,0:0:0:0:
205,334,155634,1,2,0:0:0:0:
163,351,155694,6,0,L|99:346,3,45,6|2|2|2,0:0|0:0|0:0|0:0,0:0:0:0:
58,280,155930,5,8,0:0:0:0:
57,271,155989,1,2,0:0:0:0:
57,262,156048,1,2,0:0:0:0:
56,253,156107,1,2,0:0:0:0:
56,244,156166,1,2,0:0:0:0:
55,235,156225,1,2,0:0:0:0:
55,226,156284,1,2,0:0:0:0:
54,217,156343,1,2,0:0:0:0:
35,175,156402,5,6,0:0:0:0:
43,178,156461,1,2,0:0:0:0:
51,180,156520,1,2,0:0:0:0:
60,182,156579,1,2,0:0:0:0:
69,183,156638,1,2,0:0:0:0:
78,182,156697,1,2,0:0:0:0:
87,181,156756,1,2,0:0:0:0:
96,179,156815,1,2,0:0:0:0:
104,176,156874,1,2,0:0:0:0:
112,172,156933,1,2,0:0:0:0:
120,167,156992,1,2,0:0:0:0:
127,161,157051,1,2,0:0:0:0:
154,124,157111,6,0,L|217:120,3,45,6|2|2|2,0:0|0:0|0:0|0:0,0:0:0:0:
269,193,157347,5,8,0:0:0:0:
277,195,157406,1,2,0:0:0:0:
285,197,157465,1,2,0:0:0:0:
293,199,157525,1,2,0:0:0:0:
325,230,157584,5,2,0:0:0:0:
333,228,157643,1,2,0:0:0:0:
341,226,157702,1,2,0:0:0:0:
349,224,157762,1,2,0:0:0:0:
380,191,157820,6,0,L|385:130,3,45,2|2|2|2,0:0|0:0|0:0|0:0,0:0:0:0:
321,11,158056,2,0,L|324:55,3,45,2|2|2|2,0:0|0:0|0:0|0:0,0:0:0:0:
242,116,158292,5,2,0:0:0:0:
233,115,158351,1,2,0:0:0:0:
224,114,158410,1,2,0:0:0:0:
215,113,158469,1,2,0:0:0:0:
177,139,158528,5,2,0:0:0:0:
168,140,158587,1,2,0:0:0:0:
159,141,158646,1,2,0:0:0:0:
150,142,158705,1,2,0:0:0:0:
100,137,158764,5,8,0:0:0:0:
134,172,158823,1,8,0:0:0:0:
141,220,158882,1,8,0:0:0:0:
116,263,158942,1,8,0:0:0:0:
64,205,159001,5,2,0:0:0:0:
113,207,159060,1,8,0:0:0:0:
162,209,159119,1,8,0:0:0:0:
212,211,159178,1,8,0:0:0:0:
261,213,159237,1,8,0:0:0:0:
311,215,159296,1,8,0:0:0:0:
360,217,159355,1,8,0:0:0:0:
410,220,159414,1,8,0:0:0:0:
459,222,159473,5,2,0:0:0:0:
443,230,159532,1,2,0:0:0:0:
426,238,159591,1,2,0:0:0:0:
409,246,159650,1,2,0:0:0:0:
364,253,159709,6,0,L|297:248,3,45,6|2|2|2,0:0|0:0|0:0|0:0,0:0:0:0:
185,270,159945,5,8,0:0:0:0:
228,245,160005,1,8,0:0:0:0:
251,201,160064,1,8,0:0:0:0:
243,152,160123,1,8,0:0:0:0:
209,115,160182,5,6,0:0:0:0:
209,115,160418,1,6,0:0:0:0:
259,335,160654,5,8,0:0:0:0:
308,335,160713,1,8,0:0:0:0:
357,336,160772,1,8,0:0:0:0:
406,337,160831,1,8,0:0:0:0:
455,338,160890,5,6,0:0:0:0:
455,338,161127,5,2,0:0:0:0:
454,329,161186,1,2,0:0:0:0:
453,320,161245,1,2,0:0:0:0:
452,311,161304,1,2,0:0:0:0:
478,274,161363,5,2,0:0:0:0:
481,256,161422,1,2,0:0:0:0:
484,238,161481,1,2,0:0:0:0:
487,220,161540,1,2,0:0:0:0:
451,193,161599,5,2,0:0:0:0:
450,184,161658,1,2,0:0:0:0:
449,175,161717,1,2,0:0:0:0:
448,166,161776,1,2,0:0:0:0:
476,124,161835,5,8,0:0:0:0:
499,167,161894,1,8,0:0:0:0:
474,209,161953,1,8,0:0:0:0:
425,213,162012,1,8,0:0:0:0:
398,171,162071,5,2,0:0:0:0:
389,170,162130,1,2,0:0:0:0:
380,170,162189,1,2,0:0:0:0:
371,169,162248,1,2,0:0:0:0:
362,169,162307,1,2,0:0:0:0:
353,168,162366,1,2,0:0:0:0:
344,168,162425,1,2,0:0:0:0:
335,167,162484,1,2,0:0:0:0:
290,166,162543,5,6,0:0:0:0:
91,363,162780,1,6,0:0:0:0:
278,151,163016,5,6,0:0:0:0:
79,348,163253,1,6,0:0:0:0:
266,135,163489,5,6,0:0:0:0:
234,172,163548,1,8,0:0:0:0:
184,178,163607,1,2,0:0:0:0:
140,154,163666,1,8,0:0:0:0:
124,107,163725,2,0,L|127:43,3,45,2|8|2|8,0:0|0:0|0:0|0:0,0:0:0:0:
62,187,163961,2,0,L|64:231,3,45,2|8|2|8,0:0|0:0|0:0|0:0,0:0:0:0:
157,307,164197,5,2,0:0:0:0:
174,310,164256,1,8,0:0:0:0:
191,313,164315,1,2,0:0:0:0:
208,316,164374,1,8,0:0:0:0:
231,354,164433,5,2,0:0:0:0:
248,351,164492,1,8,0:0:0:0:
265,348,164551,1,2,0:0:0:0:
282,345,164610,1,8,0:0:0:0:
306,306,164670,5,2,0:0:0:0:
323,309,164729,1,8,0:0:0:0:
340,312,164788,1,2,0:0:0:0:
357,315,164847,1,8,0:0:0:0:
388,353,164906,5,2,0:0:0:0:
339,361,164965,1,8,0:0:0:0:
309,321,165024,1,2,0:0:0:0:
328,275,165083,1,8,0:0:0:0:
376,267,165142,2,0,L|382:210,3,45,2|8|2|8,0:0|0:0|0:0|0:0,0:0:0:0:
397,89,165378,2,0,L|401:133,3,45,2|8|2|8,0:0|0:0|0:0|0:0,0:0:0:0:
321,158,165614,5,2,0:0:0:0:
303,152,165674,1,8,0:0:0:0:
285,151,165733,1,2,0:0:0:0:
267,156,165792,1,8,0:0:0:0:
237,190,165851,5,2,0:0:0:0:
219,196,165911,1,8,0:0:0:0:
201,197,165970,1,2,0:0:0:0:
183,192,166029,1,8,0:0:0:0:
159,154,166087,5,2,0:0:0:0:
132,150,166146,1,2,0:0:0:0:
105,146,166205,1,2,0:0:0:0:
78,143,166264,1,2,0:0:0:0:
44,172,166323,6,0,L|-11:181,3,45,12|2|2|2,0:0|0:0|0:0|0:0,0:0:0:0:
83,53,166559,6,0,P|88:39|93:4,1,45,8|2,0:0|0:0,0:0:0:0:
212,100,166677,2,0,P|207:86|202:51,1,45,8|2,0:0|0:0,0:0:0:0:
75,69,166796,6,0,P|76:54|71:19,1,45,8|2,0:0|0:0,0:0:0:0:
220,116,166914,2,0,P|218:101|223:66,1,45,8|2,0:0|0:0,0:0:0:0:
90,180,167032,5,8,0:0:0:0:
121,184,167091,1,2,0:0:0:0:
152,188,167150,1,8,0:0:0:0:
183,192,167209,1,2,0:0:0:0:
206,230,167268,5,8,0:0:0:0:
237,226,167327,1,2,0:0:0:0:
268,222,167386,1,8,0:0:0:0:
299,218,167445,1,2,0:0:0:0:
330,185,167504,5,8,0:0:0:0:
361,189,167563,1,2,0:0:0:0:
392,193,167622,1,8,0:0:0:0:
423,197,167681,1,2,0:0:0:0:
461,240,167740,5,8,0:0:0:0:
402,250,167800,1,2,0:0:0:0:
366,203,167859,1,8,0:0:0:0:
391,150,167918,1,2,0:0:0:0:
449,146,167977,6,0,L|501:149,1,45,8|2,0:0|0:0,0:0:0:0:
269,132,168095,2,0,L|217:135,1,45,8|2,0:0|0:0,0:0:0:0:
461,158,168213,6,0,L|513:161,1,45,8|2,0:0|0:0,0:0:0:0:
257,144,168331,2,0,L|205:147,1,45,8|2,0:0|0:0,0:0:0:0:
405,64,168449,6,0,L|412:2,3,45,2|2|2|2,0:0|0:0|0:0|0:0,0:0:0:0:
345,151,168685,5,8,0:0:0:0:
346,159,168744,1,2,0:0:0:0:
347,167,168803,1,2,0:0:0:0:
348,175,168863,1,2,0:0:0:0:
315,206,168922,5,2,0:0:0:0:
314,214,168981,1,2,0:0:0:0:
313,222,169040,1,2,0:0:0:0:
312,230,169100,1,2,0:0:0:0:
339,264,169158,5,6,0:0:0:0:
332,258,169217,1,2,0:0:0:0:
324,253,169276,1,2,0:0:0:0:
315,250,169335,1,2,0:0:0:0:
306,249,169394,1,2,0:0:0:0:
298,249,169453,1,2,0:0:0:0:
289,250,169512,1,2,0:0:0:0:
280,253,169571,1,2,0:0:0:0:
272,257,169630,1,2,0:0:0:0:
265,263,169689,1,2,0:0:0:0:
259,269,169748,1,2,0:0:0:0:
254,277,169807,1,2,0:0:0:0:
251,285,169866,1,2,0:0:0:0:
249,294,169925,1,2,0:0:0:0:
248,303,169984,1,2,0:0:0:0:
249,312,170043,1,2,0:0:0:0:
276,353,170102,5,8,0:0:0:0:
226,348,170161,1,8,0:0:0:0:
177,344,170220,1,8,0:0:0:0:
126,339,170280,1,8,0:0:0:0:
76,336,170339,6,0,L|74:260,3,45,2|2|2|2,0:0|0:0|0:0|0:0,0:0:0:0:
5,156,170575,5,8,0:0:0:0:
47,181,170634,1,8,0:0:0:0:
96,177,170693,1,8,0:0:0:0:
137,149,170752,1,8,0:0:0:0:
153,102,170811,6,0,L|220:95,3,45,2|2|2|2,0:0|0:0|0:0|0:0,0:0:0:0:
332,17,171048,5,12,0:0:0:0:
301,56,171107,1,2,0:0:0:0:
299,105,171166,1,8,0:0:0:0:
325,146,171225,1,2,0:0:0:0:
368,169,171284,1,8,0:0:0:0:
402,203,171343,1,2,0:0:0:0:
413,251,171402,1,8,0:0:0:0:
396,297,171461,1,2,0:0:0:0:
355,325,171520,1,8,0:0:0:0:
305,327,171579,1,2,0:0:0:0:
263,300,171638,1,8,0:0:0:0:
243,254,171697,1,2,0:0:0:0:
253,205,171756,5,6,0:0:0:0:
253,205,172110,1,6,0:0:0:0:
499,278,172465,5,12,0:0:0:0:
465,241,172524,1,2,0:0:0:0:
417,226,172583,1,8,0:0:0:0:
368,237,172642,1,2,0:0:0:0:
330,269,172701,1,8,0:0:0:0:
291,300,172760,1,2,0:0:0:0:
241,305,172819,1,8,0:0:0:0:
195,286,172878,1,2,0:0:0:0:
162,248,172937,1,8,0:0:0:0:
155,198,172996,1,2,0:0:0:0:
171,151,173055,1,8,0:0:0:0:
208,118,173114,1,2,0:0:0:0:
256,108,173173,5,6,0:0:0:0:
256,108,173527,1,6,0:0:0:0:
416,321,173881,5,6,0:0:0:0:
253,205,174117,1,6,0:0:0:0:
512,101,174355,5,12,0:0:0:0:
464,67,174414,1,2,0:0:0:0:
406,78,174473,1,8,0:0:0:0:
373,126,174532,1,2,0:0:0:0:
386,182,174591,1,8,0:0:0:0:
427,222,174650,1,2,0:0:0:0:
427,280,174709,1,8,0:0:0:0:
386,321,174768,1,2,0:0:0:0:
327,320,174827,1,8,0:0:0:0:
290,274,174886,1,2,0:0:0:0:
231,270,174945,1,8,0:0:0:0:
186,308,175004,1,2,0:0:0:0:
183,366,175063,5,6,0:0:0:0:
183,366,175417,1,6,0:0:0:0:
71,83,175772,5,12,0:0:0:0:
110,125,175831,1,2,0:0:0:0:
166,138,175890,1,8,0:0:0:0:
221,120,175949,1,2,0:0:0:0:
256,73,176008,1,8,0:0:0:0:
296,31,176067,1,2,0:0:0:0:
353,22,176126,1,8,0:0:0:0:
406,46,176185,1,2,0:0:0:0:
437,95,176244,1,8,0:0:0:0:
434,153,176303,1,2,0:0:0:0:
400,201,176362,1,8,0:0:0:0:
344,219,176421,1,2,0:0:0:0:
287,204,176480,5,6,0:0:0:0:
287,204,176834,1,6,0:0:0:0:
162,39,177188,5,6,0:0:0:0:
340,120,177424,1,6,0:0:0:0:
45,341,177661,5,12,0:0:0:0:
74,331,177720,1,2,0:0:0:0:
105,331,177779,1,8,0:0:0:0:
135,338,177838,1,2,0:0:0:0:
164,349,177897,1,8,0:0:0:0:
195,347,177956,1,2,0:0:0:0:
224,337,178015,5,8,0:0:0:0:
190,300,178074,1,2,0:0:0:0:
185,250,178133,1,8,0:0:0:0:
207,205,178192,1,2,0:0:0:0:
250,182,178251,1,8,0:0:0:0:
298,174,178310,1,2,0:0:0:0:
333,139,178369,1,8,0:0:0:0:
343,90,178428,1,2,0:0:0:0:
324,44,178487,6,0,L|390:37,5,45,8|2|8|2|8|2,0:0|0:0|0:0|0:0|0:0|0:0,0:0:0:0:
254,96,178842,5,8,0:0:0:0:
222,94,178901,1,2,0:0:0:0:
190,92,178960,1,8,0:0:0:0:
158,90,179019,1,2,0:0:0:0:
126,88,179078,1,8,0:0:0:0:
94,86,179137,1,2,0:0:0:0:
49,56,179196,5,8,0:0:0:0:
80,99,179255,1,2,0:0:0:0:
76,152,179314,1,8,0:0:0:0:
36,188,179373,1,2,0:0:0:0:
0,228,179432,1,8,0:0:0:0:
0,281,179491,1,2,0:0:0:0:
36,320,179550,1,8,0:0:0:0:
89,326,179609,1,2,0:0:0:0:
134,297,179668,6,0,L|208:293,5,45,8|2|8|2|8|2,0:0|0:0|0:0|0:0|0:0|0:0,0:0:0:0:
306,341,180023,5,8,0:0:0:0:
293,311,180082,1,2,0:0:0:0:
291,279,180141,1,8,0:0:0:0:
300,248,180200,1,2,0:0:0:0:
311,218,180259,1,8,0:0:0:0:
312,186,180318,1,2,0:0:0:0:
301,156,180377,5,8,0:0:0:0:
273,207,180436,1,2,0:0:0:0:
220,233,180495,1,8,0:0:0:0:
161,227,180554,1,2,0:0:0:0:
118,186,180613,1,8,0:0:0:0:
107,128,180672,1,2,0:0:0:0:
128,73,180731,1,8,0:0:0:0:
178,41,180791,1,2,0:0:0:0:
236,44,180850,6,0,L|241:-1,5,45,8|2|8|2|8|2,0:0|0:0|0:0|0:0|0:0|0:0,0:0:0:0:
299,119,181204,5,8,0:0:0:0:
330,118,181263,1,2,0:0:0:0:
361,117,181322,1,8,0:0:0:0:
392,116,181381,1,2,0:0:0:0:
423,115,181440,1,8,0:0:0:0:
454,115,181499,1,2,0:0:0:0:
490,64,181558,5,8,0:0:0:0:
427,63,181617,1,2,0:0:0:0:
392,116,181676,1,8,0:0:0:0:
426,168,181735,1,2,0:0:0:0:
475,207,181794,1,8,0:0:0:0:
477,270,181854,1,2,0:0:0:0:
430,312,181913,1,8,0:0:0:0:
367,306,181972,1,2,0:0:0:0:
332,253,182031,6,0,L|267:252,5,45,8|2|8|2|8|2,0:0|0:0|0:0|0:0|0:0|0:0,0:0:0:0:
188,165,182385,6,0,L|184:113,1,45,8|2,0:0|0:0,0:0:0:0:
154,272,182503,2,0,L|150:316,1,45,8|2,0:0|0:0,0:0:0:0:
200,153,182621,6,0,L|196:101,1,45,8|2,0:0|0:0,0:0:0:0:
166,284,182739,2,0,L|162:328,1,45,8|2,0:0|0:0,0:0:0:0:
290,200,182857,5,8,0:0:0:0:
333,174,182917,1,2,0:0:0:0:
382,176,182976,1,8,0:0:0:0:
422,204,183035,1,2,0:0:0:0:
438,250,183094,6,0,L|431:311,1,45,8|2,0:0|0:0,0:0:0:0:
496,165,183212,2,0,L|490:120,1,45,8|2,0:0|0:0,0:0:0:0:
426,262,183330,6,0,L|419:323,1,45,8|2,0:0|0:0,0:0:0:0:
484,153,183448,2,0,L|478:108,1,45,8|2,0:0|0:0,0:0:0:0:
354,258,183566,6,0,L|347:319,3,45,2|2|2|2,0:0|0:0|0:0|0:0,0:0:0:0:
243,197,183802,5,6,0:0:0:0:
128,157,184157,1,6,0:0:0:0:
331,126,184511,1,6,0:0:0:0:
257,332,184747,5,6,0:0:0:0:
252,324,184806,1,2,0:0:0:0:
246,317,184865,1,2,0:0:0:0:
240,310,184924,1,2,0:0:0:0:
233,304,184983,1,2,0:0:0:0:
226,299,185042,1,2,0:0:0:0:
218,294,185101,1,2,0:0:0:0:
210,290,185160,1,2,0:0:0:0:
202,286,185219,1,2,0:0:0:0:
194,283,185278,1,2,0:0:0:0:
185,281,185337,1,2,0:0:0:0:
176,280,185396,1,2,0:0:0:0:
167,279,185455,1,2,0:0:0:0:
158,280,185514,1,2,0:0:0:0:
149,280,185573,1,2,0:0:0:0:
140,282,185632,1,2,0:0:0:0:
114,324,185691,5,2,0:0:0:0:
157,300,185750,1,8,0:0:0:0:
182,257,185809,1,8,0:0:0:0:
175,207,185869,1,8,0:0:0:0:
144,167,185928,1,8,0:0:0:0:
96,153,185987,1,8,0:0:0:0:
49,170,186046,5,2,0:0:0:0:
91,195,186105,1,8,0:0:0:0:
140,194,186164,1,8,0:0:0:0:
179,163,186223,1,8,0:0:0:0:
220,136,186282,1,8,0:0:0:0:
269,135,186341,1,8,0:0:0:0:
310,161,186400,5,2,0:0:0:0:
311,152,186459,1,2,0:0:0:0:
312,143,186518,1,2,0:0:0:0:
313,134,186577,1,2,0:0:0:0:
320,85,186636,5,8,0:0:0:0:
293,292,186754,1,8,0:0:0:0:
179,163,186872,5,2,0:0:0:0:
178,154,186931,1,2,0:0:0:0:
171,105,186991,5,8,0:0:0:0:
198,312,187109,1,8,0:0:0:0:
312,143,187227,5,2,0:0:0:0:
313,134,187286,1,2,0:0:0:0:
320,85,187345,5,8,0:0:0:0:
273,101,187404,1,8,0:0:0:0:
266,149,187463,1,8,0:0:0:0:
302,182,187522,1,8,0:0:0:0:
349,169,187581,5,2,0:0:0:0:
100,221,187817,5,8,0:0:0:0:
353,265,187935,1,6,0:0:0:0:
82,234,188172,5,8,0:0:0:0:
335,278,188290,1,6,0:0:0:0:
402,124,188526,5,6,0:0:0:0:
400,131,188585,1,2,0:0:0:0:
394,139,188644,1,2,0:0:0:0:
387,144,188703,1,2,0:0:0:0:
378,146,188762,1,2,0:0:0:0:
369,145,188821,1,2,0:0:0:0:
362,141,188880,1,2,0:0:0:0:
356,134,188939,1,2,0:0:0:0:
353,125,188998,1,2,0:0:0:0:
353,116,189058,1,2,0:0:0:0:
357,108,189117,1,2,0:0:0:0:
363,102,189176,1,2,0:0:0:0:
371,99,189235,1,2,0:0:0:0:
381,98,189294,1,2,0:0:0:0:
389,100,189353,1,2,0:0:0:0:
396,106,189412,1,2,0:0:0:0:
377,122,189471,5,8,0:0:0:0:
327,118,189530,1,8,0:0:0:0:
277,115,189589,1,8,0:0:0:0:
227,112,189648,1,8,0:0:0:0:
177,108,189707,5,2,0:0:0:0:
191,117,189766,1,2,0:0:0:0:
205,126,189825,1,2,0:0:0:0:
219,136,189884,1,2,0:0:0:0:
233,145,189943,5,8,0:0:0:0:
183,141,190002,1,8,0:0:0:0:
133,138,190061,1,8,0:0:0:0:
83,135,190120,1,8,0:0:0:0:
32,132,190180,6,0,L|26:60,3,45,2|2|2|2,0:0|0:0|0:0|0:0,0:0:0:0:
40,223,190416,5,12,0:0:0:0:
40,223,190536,1,8,0:0:0:0:
273,274,190656,1,8,0:0:0:0:
124,312,190776,1,2,0:0:0:0:
300,139,190896,5,8,0:0:0:0:
300,139,191016,1,8,0:0:0:0:
382,339,191136,1,8,0:0:0:0:
382,339,191256,1,8,0:0:0:0:
159,144,191376,5,6,0:0:0:0:
423,192,191597,5,8,0:0:0:0:
155,269,191716,1,6,0:0:0:0:
440,202,191952,5,8,0:0:0:0:
172,279,192070,1,6,0:0:0:0:
432,336,192306,5,6,0:0:0:0:
432,327,192365,1,2,0:0:0:0:
433,318,192424,1,2,0:0:0:0:
433,309,192483,1,2,0:0:0:0:
433,300,192542,1,2,0:0:0:0:
434,291,192601,1,2,0:0:0:0:
434,282,192660,1,2,0:0:0:0:
434,273,192719,1,2,0:0:0:0:
435,264,192778,1,2,0:0:0:0:
435,255,192837,1,2,0:0:0:0:
435,246,192896,1,2,0:0:0:0:
436,237,192955,1,2,0:0:0:0:
436,228,193014,1,2,0:0:0:0:
436,219,193073,1,2,0:0:0:0:
437,210,193132,1,2,0:0:0:0:
437,201,193191,1,2,0:0:0:0:
457,156,193250,5,8,0:0:0:0:
488,194,193309,1,8,0:0:0:0:
469,239,193368,1,8,0:0:0:0:
420,248,193427,1,8,0:0:0:0:
388,210,193486,5,2,0:0:0:0:
378,208,193546,1,2,0:0:0:0:
369,206,193605,1,2,0:0:0:0:
360,205,193664,1,2,0:0:0:0:
311,198,193723,5,8,0:0:0:0:
328,244,193782,1,8,0:0:0:0:
376,254,193841,1,8,0:0:0:0:
409,217,193900,1,8,0:0:0:0:
395,169,193959,5,2,0:0:0:0:
398,151,194018,1,2,0:0:0:0:
401,133,194077,1,2,0:0:0:0:
404,115,194136,1,2,0:0:0:0:
421,71,194195,5,6,0:0:0:0:
370,103,194254,1,2,0:0:0:0:
309,105,194313,1,2,0:0:0:0:
256,73,194372,1,2,0:0:0:0:
218,25,194431,1,2,0:0:0:0:
158,19,194490,1,2,0:0:0:0:
107,51,194549,1,2,0:0:0:0:
93,110,194608,1,2,0:0:0:0:
121,163,194667,1,2,0:0:0:0:
175,190,194726,1,2,0:0:0:0:
214,236,194785,1,2,0:0:0:0:
216,296,194844,1,2,0:0:0:0:
185,348,194903,1,2,0:0:0:0:
128,369,194962,1,2,0:0:0:0:
68,357,195021,1,2,0:0:0:0:
27,311,195080,1,2,0:0:0:0:
24,239,195139,5,2,0:0:0:0:
403,350,195612,5,6,0:0:0:0:
406,300,195671,1,8,0:0:0:0:
408,250,195730,1,2,0:0:0:0:
410,200,195789,1,8,0:0:0:0:
411,150,195848,6,0,L|465:146,3,45,2|8|2|8,0:0|0:0|0:0|0:0,0:0:0:0:
321,155,196084,2,0,L|297:203,3,45,2|8|2|8,0:0|0:0|0:0|0:0,0:0:0:0:
367,77,196320,2,0,L|336:32,3,45,2|8|2|8,0:0|0:0|0:0|0:0,0:0:0:0:
242,87,196556,5,2,0:0:0:0:
216,78,196615,1,8,0:0:0:0:
189,78,196674,1,2,0:0:0:0:
162,86,196734,1,8,0:0:0:0:
140,102,196793,1,2,0:0:0:0:
115,112,196852,1,8,0:0:0:0:
88,115,196911,1,2,0:0:0:0:
61,110,196970,1,8,0:0:0:0:
18,84,197029,5,6,0:0:0:0:
60,59,197088,1,8,0:0:0:0:
103,82,197147,1,2,0:0:0:0:
106,131,197206,1,8,0:0:0:0:
67,162,197265,2,0,L|61:226,3,45,2|8|2|8,0:0|0:0|0:0|0:0,0:0:0:0:
15,309,197501,5,2,0:0:0:0:
40,299,197560,1,8,0:0:0:0:
66,299,197619,1,2,0:0:0:0:
91,306,197678,1,8,0:0:0:0:
113,320,197737,1,2,0:0:0:0:
136,333,197796,1,8,0:0:0:0:
162,337,197855,1,2,0:0:0:0:
188,333,197914,1,8,0:0:0:0:
212,322,197973,6,0,L|220:266,3,45,2|8|2|8,0:0|0:0|0:0|0:0,0:0:0:0:
230,152,198210,2,0,L|236:196,3,45,2|8|2|8,0:0|0:0|0:0|0:0,0:0:0:0:
328,235,198446,5,6,0:0:0:0:
345,237,198505,1,8,0:0:0:0:
362,239,198564,1,2,0:0:0:0:
379,241,198623,1,8,0:0:0:0:
399,200,198682,5,6,0:0:0:0:
416,198,198741,1,8,0:0:0:0:
433,196,198800,1,2,0:0:0:0:
450,194,198859,1,8,0:0:0:0:
490,222,198918,5,6,0:0:0:0:
446,246,198977,1,8,0:0:0:0:
406,216,199036,1,2,0:0:0:0:
408,166,199095,1,8,0:0:0:0:
452,144,199154,2,0,L|457:87,3,45,2|8|2|8,0:0|0:0|0:0|0:0,0:0:0:0:
340,65,199391,5,2,0:0:0:0:
313,62,199450,1,8,0:0:0:0:
286,60,199509,1,2,0:0:0:0:
259,58,199568,1,8,0:0:0:0:
232,56,199627,1,2,0:0:0:0:
205,54,199686,1,8,0:0:0:0:
178,52,199745,1,2,0:0:0:0:
151,50,199804,1,8,0:0:0:0:
111,20,199863,5,6,0:0:0:0:
156,1,199922,1,8,0:0:0:0:
196,29,199981,1,2,0:0:0:0:
191,78,200040,1,8,0:0:0:0:
146,100,200099,2,0,L|142:158,3,45,2|8|2|8,0:0|0:0|0:0|0:0,0:0:0:0:
0,277,200336,5,6,0:0:0:0:
43,252,200395,1,8,0:0:0:0:
92,256,200454,1,2,0:0:0:0:
130,287,200513,1,8,0:0:0:0:
147,333,200572,2,0,L|138:400,3,45,2|8|2|8,0:0|0:0|0:0|0:0,0:0:0:0:
226,296,200808,5,12,0:0:0:0:
234,297,200867,1,2,0:0:0:0:
242,298,200926,1,2,0:0:0:0:
250,299,200985,1,2,0:0:0:0:
258,300,201044,1,2,0:0:0:0:
266,301,201103,1,2,0:0:0:0:
286,342,201162,5,8,0:0:0:0:
294,341,201221,1,2,0:0:0:0:
302,340,201280,1,2,0:0:0:0:
310,339,201339,1,2,0:0:0:0:
318,338,201398,1,2,0:0:0:0:
326,337,201457,1,2,0:0:0:0:
359,306,201517,5,8,0:0:0:0:
367,307,201576,1,2,0:0:0:0:
375,308,201635,1,2,0:0:0:0:
383,309,201694,1,2,0:0:0:0:
427,305,201753,5,12,0:0:0:0:
423,296,201812,1,2,0:0:0:0:
422,287,201871,1,2,0:0:0:0:
421,278,201930,1,2,0:0:0:0:
422,269,201989,1,2,0:0:0:0:
424,261,202048,1,2,0:0:0:0:
464,240,202107,5,8,0:0:0:0:
468,231,202166,1,2,0:0:0:0:
469,222,202225,1,2,0:0:0:0:
470,213,202284,1,2,0:0:0:0:
469,204,202343,1,2,0:0:0:0:
467,196,202402,1,2,0:0:0:0:
429,169,202462,5,8,0:0:0:0:
425,160,202521,1,2,0:0:0:0:
423,151,202580,1,2,0:0:0:0:
423,142,202639,1,2,0:0:0:0:
437,99,202698,5,6,0:0:0:0:
430,104,202757,1,2,0:0:0:0:
422,109,202816,1,2,0:0:0:0:
414,114,202875,1,2,0:0:0:0:
406,117,202934,1,2,0:0:0:0:
397,119,202993,1,2,0:0:0:0:
388,120,203052,1,2,0:0:0:0:
379,120,203111,1,2,0:0:0:0:
370,118,203170,1,2,0:0:0:0:
362,116,203229,1,2,0:0:0:0:
353,113,203288,1,2,0:0:0:0:
345,108,203347,1,2,0:0:0:0:
338,103,203406,1,2,0:0:0:0:
331,97,203465,1,2,0:0:0:0:
326,90,203524,1,2,0:0:0:0:
321,83,203583,1,2,0:0:0:0:
282,51,203642,5,8,0:0:0:0:
231,49,203702,1,8,0:0:0:0:
181,47,203761,1,8,0:0:0:0:
131,45,203820,1,8,0:0:0:0:
81,43,203879,2,0,L|76:-10,1,45,2|2,0:0|0:0,0:0:0:0:
155,124,203997,5,8,0:0:0:0:
198,147,204056,1,8,0:0:0:0:
212,194,204115,1,8,0:0:0:0:
188,237,204174,1,8,0:0:0:0:
155,274,204233,1,8,0:0:0:0:
159,323,204292,1,8,0:0:0:0:
197,354,204351,5,2,0:0:0:0:
179,356,204410,1,2,0:0:0:0:
161,358,204469,1,2,0:0:0:0:
142,360,204529,1,2,0:0:0:0:
97,366,204588,5,6,0:0:0:0:
316,343,204824,2,0,L|372:336,3,45,2|8|2|8,0:0|0:0|0:0|0:0,0:0:0:0:
479,366,205060,5,2,0:0:0:0:
468,341,205119,1,8,0:0:0:0:
463,314,205178,1,2,0:0:0:0:
467,287,205237,1,8,0:0:0:0:
479,263,205296,1,2,0:0:0:0:
494,240,205355,1,8,0:0:0:0:
501,213,205414,1,2,0:0:0:0:
498,186,205473,1,8,0:0:0:0:
486,161,205532,6,0,L|420:154,3,45,2|8|2|8,0:0|0:0|0:0|0:0,0:0:0:0:
291,116,205769,2,0,L|357:109,3,45,2|8|2|8,0:0|0:0|0:0|0:0,0:0:0:0:
486,84,206005,2,0,L|420:77,3,45,2|8|2|8,0:0|0:0|0:0|0:0,0:0:0:0:
295,34,206241,2,0,L|361:27,3,45,2|8|2|8,0:0|0:0|0:0|0:0,0:0:0:0:
172,7,206477,5,6,0:0:0:0:
208,40,206536,1,8,0:0:0:0:
220,87,206595,1,2,0:0:0:0:
199,132,206654,1,8,0:0:0:0:
154,155,206714,2,0,L|93:149,3,45,2|8|2|8,0:0|0:0|0:0|0:0,0:0:0:0:
231,219,206950,5,2,0:0:0:0:
251,236,207009,1,8,0:0:0:0:
262,260,207068,1,2,0:0:0:0:
266,286,207127,1,8,0:0:0:0:
260,312,207186,1,2,0:0:0:0:
245,334,207245,1,8,0:0:0:0:
224,351,207304,1,2,0:0:0:0:
198,358,207363,1,8,0:0:0:0:
171,357,207422,6,0,L|118:349,3,45,2|8|2|8,0:0|0:0|0:0|0:0,0:0:0:0:
0,336,207658,2,0,L|53:328,3,45,2|8|2|8,0:0|0:0|0:0|0:0,0:0:0:0:
134,253,207895,5,6,0:0:0:0:
137,235,207954,1,8,0:0:0:0:
140,217,208013,1,2,0:0:0:0:
144,199,208072,1,8,0:0:0:0:
182,175,208131,5,6,0:0:0:0:
179,157,208190,1,8,0:0:0:0:
176,139,208249,1,2,0:0:0:0:
172,121,208308,1,8,0:0:0:0:
134,88,208367,5,6,0:0:0:0:
125,136,208426,1,8,0:0:0:0:
161,169,208485,1,2,0:0:0:0:
209,157,208544,1,8,0:0:0:0:
220,108,208603,2,0,L|281:101,3,45,2|8|2|8,0:0|0:0|0:0|0:0,0:0:0:0:
400,142,208840,5,2,0:0:0:0:
408,167,208899,1,8,0:0:0:0:
408,193,208958,1,2,0:0:0:0:
402,219,209017,1,8,0:0:0:0:
390,242,209076,1,2,0:0:0:0:
378,265,209135,1,8,0:0:0:0:
374,291,209194,1,2,0:0:0:0:
377,317,209253,1,8,0:0:0:0:
403,359,209312,5,6,0:0:0:0:
427,315,209371,1,8,0:0:0:0:
398,275,209430,1,2,0:0:0:0:
349,279,209489,1,8,0:0:0:0:
328,323,209548,2,0,L|262:326,3,45,2|8|2|8,0:0|0:0|0:0|0:0,0:0:0:0:
160,284,209784,5,6,0:0:0:0:
157,266,209843,1,8,0:0:0:0:
154,247,209903,1,2,0:0:0:0:
151,229,209962,1,8,0:0:0:0:
192,211,210021,5,6,0:0:0:0:
195,193,210080,1,8,0:0:0:0:
198,174,210140,1,2,0:0:0:0:
201,156,210199,1,8,0:0:0:0:
191,112,210257,5,12,0:0:0:0:
200,114,210316,1,2,0:0:0:0:
209,116,210375,1,2,0:0:0:0:
218,117,210434,1,2,0:0:0:0:
227,118,210493,1,2,0:0:0:0:
236,118,210552,1,2,0:0:0:0:
263,82,210611,5,8,0:0:0:0:
272,80,210670,1,2,0:0:0:0:
281,78,210729,1,2,0:0:0:0:
290,77,210788,1,2,0:0:0:0:
299,76,210847,1,2,0:0:0:0:
308,76,210906,1,2,0:0:0:0:
332,114,210966,5,8,0:0:0:0:
341,116,211025,1,2,0:0:0:0:
350,118,211084,1,2,0:0:0:0:
359,119,211143,1,2,0:0:0:0:
403,110,211202,5,12,0:0:0:0:
400,118,211261,1,2,0:0:0:0:
398,126,211320,1,2,0:0:0:0:
397,134,211379,1,2,0:0:0:0:
397,142,211438,1,2,0:0:0:0:
398,150,211497,1,2,0:0:0:0:
432,179,211556,5,8,0:0:0:0:
435,187,211615,1,2,0:0:0:0:
437,195,211674,1,2,0:0:0:0:
438,203,211733,1,2,0:0:0:0:
438,211,211792,1,2,0:0:0:0:
437,219,211851,1,2,0:0:0:0:
400,244,211910,5,8,0:0:0:0:
397,252,211969,1,2,0:0:0:0:
395,260,212028,1,2,0:0:0:0:
394,268,212087,1,2,0:0:0:0:
425,301,212147,5,6,0:0:0:0:
416,298,212206,1,2,0:0:0:0:
407,296,212265,1,2,0:0:0:0:
398,295,212324,1,2,0:0:0:0:
390,294,212383,1,2,0:0:0:0:
381,295,212442,1,2,0:0:0:0:
372,297,212501,1,2,0:0:0:0:
363,300,212560,1,2,0:0:0:0:
355,304,212619,1,2,0:0:0:0:
348,309,212678,1,2,0:0:0:0:
341,315,212737,1,2,0:0:0:0:
334,321,212796,1,2,0:0:0:0:
329,328,212855,1,2,0:0:0:0:
324,336,212914,1,2,0:0:0:0:
321,344,212973,1,2,0:0:0:0:
318,353,213032,1,2,0:0:0:0:
285,383,213091,5,6,0:0:0:0:
44,263,213328,2,0,L|-11:259,3,45,2|8|2|8,0:0|0:0|0:0|0:0,0:0:0:0:
133,238,213564,5,2,0:0:0:0:
146,214,213623,1,8,0:0:0:0:
153,188,213682,1,2,0:0:0:0:
150,161,213741,1,8,0:0:0:0:
140,135,213800,1,2,0:0:0:0:
124,112,213859,1,8,0:0:0:0:
120,85,213918,1,2,0:0:0:0:
126,58,213977,1,8,0:0:0:0:
141,36,214036,6,0,L|201:30,3,45,2|8|2|8,0:0|0:0|0:0|0:0,0:0:0:0:
304,88,214273,2,0,L|259:83,3,45,2|8|2|8,0:0|0:0|0:0|0:0,0:0:0:0:
153,24,214509,2,0,L|213:18,3,45,2|8|2|8,0:0|0:0|0:0|0:0,0:0:0:0:
316,76,214746,2,0,L|271:71,3,45,2|8|2|8,0:0|0:0|0:0|0:0,0:0:0:0:
453,68,214981,5,6,0:0:0:0:
418,103,215040,1,8,0:0:0:0:
407,151,215099,1,2,0:0:0:0:
426,196,215158,1,8,0:0:0:0:
466,224,215217,2,0,L|520:220,3,45,2|8|2|8,0:0|0:0|0:0|0:0,0:0:0:0:
411,311,215454,5,2,0:0:0:0:
386,299,215513,1,8,0:0:0:0:
359,294,215572,1,2,0:0:0:0:
332,297,215631,1,8,0:0:0:0:
307,308,215690,1,2,0:0:0:0:
284,322,215749,1,8,0:0:0:0:
259,332,215808,1,2,0:0:0:0:
232,333,215867,1,8,0:0:0:0:
205,326,215926,6,0,L|200:270,3,45,2|8|2|8,0:0|0:0|0:0|0:0,0:0:0:0:
189,158,216162,2,0,L|184:202,3,45,2|8|2|8,0:0|0:0|0:0|0:0,0:0:0:0:
193,338,216399,2,0,L|188:282,3,45,2|8|2|8,0:0|0:0|0:0|0:0,0:0:0:0:
177,146,216635,2,0,L|172:190,3,45,2|8|2|8,0:0|0:0|0:0|0:0,0:0:0:0:
153,23,216871,5,6,0:0:0:0:
180,64,216930,1,8,0:0:0:0:
225,84,216989,1,2,0:0:0:0:
273,76,217048,1,8,0:0:0:0:
309,43,217107,2,0,L|365:38,3,45,2|8|2|8,0:0|0:0|0:0|0:0,0:0:0:0:
437,103,217343,5,2,0:0:0:0:
452,125,217403,1,8,0:0:0:0:
456,151,217462,1,2,0:0:0:0:
452,177,217521,1,8,0:0:0:0:
441,201,217580,1,2,0:0:0:0:
429,225,217639,1,8,0:0:0:0:
426,251,217698,1,2,0:0:0:0:
432,277,217757,1,8,0:0:0:0:
446,299,217816,6,0,L|516:303,3,45,6|8|2|8,0:0|0:0|0:0|0:0,0:0:0:0:
329,316,218052,2,0,L|259:320,3,45,2|8|2|8,0:0|0:0|0:0|0:0,0:0:0:0:
164,274,218288,5,6,0:0:0:0:
161,256,218347,1,8,0:0:0:0:
158,238,218406,1,2,0:0:0:0:
155,219,218466,1,8,0:0:0:0:
116,195,218525,5,6,0:0:0:0:
119,177,218584,1,8,0:0:0:0:
122,159,218643,1,2,0:0:0:0:
125,140,218703,1,8,0:0:0:0:
157,110,218761,6,0,L|149:57,3,45,2|2|2|2,0:0|0:0|0:0|0:0,0:0:0:0:
236,167,218997,5,12,0:0:0:0:
244,169,219056,1,2,0:0:0:0:
252,170,219115,1,2,0:0:0:0:
260,170,219174,1,2,0:0:0:0:
268,169,219233,1,2,0:0:0:0:
276,168,219292,1,2,0:0:0:0:
295,208,219351,5,8,0:0:0:0:
303,206,219410,1,2,0:0:0:0:
311,205,219469,1,2,0:0:0:0:
319,205,219528,1,2,0:0:0:0:
327,206,219587,1,2,0:0:0:0:
335,207,219646,1,2,0:0:0:0:
360,169,219706,5,8,0:0:0:0:
368,171,219765,1,2,0:0:0:0:
376,172,219824,1,2,0:0:0:0:
384,172,219883,1,2,0:0:0:0:
392,171,219942,1,2,0:0:0:0:
400,170,220001,1,2,0:0:0:0:
424,207,220060,5,8,0:0:0:0:
432,205,220119,1,2,0:0:0:0:
440,204,220178,1,2,0:0:0:0:
448,204,220237,1,2,0:0:0:0:
456,205,220296,1,2,0:0:0:0:
464,206,220355,1,2,0:0:0:0:
492,170,220414,6,0,L|495:111,3,45,8|2|2|2,0:0|0:0|0:0|0:0,0:0:0:0:
352,248,220649,6,0,L|308:237,3,45,2|2|2|2,0:0|0:0|0:0|0:0,0:0:0:0:
273,121,220885,2,0,L|286:164,3,45,2|2|2|2,0:0|0:0|0:0|0:0,0:0:0:0:
205,253,221121,2,0,L|235:220,3,45,2|2|2|2,0:0|0:0|0:0|0:0,0:0:0:0:
84,307,221357,5,8,0:0:0:0:
80,257,221416,1,8,0:0:0:0:
76,207,221475,1,8,0:0:0:0:
72,157,221534,1,8,0:0:0:0:
69,107,221593,5,10,0:0:0:0:
27,133,221652,1,8,0:0:0:0:
33,182,221711,1,8,0:0:0:0:
76,207,221771,1,8,0:0:0:0:
117,180,221830,6,0,L|188:185,3,45,2|2|2|2,0:0|0:0|0:0|0:0,0:0:0:0:
301,121,222066,5,8,0:0:0:0:
267,157,222125,1,8,0:0:0:0:
280,204,222184,1,8,0:0:0:0:
326,220,222243,1,8,0:0:0:0:
364,188,222302,5,10,0:0:0:0:
317,170,222361,1,8,0:0:0:0:
269,184,222420,1,8,0:0:0:0:
235,220,222479,1,8,0:0:0:0:
227,268,222538,1,8,0:0:0:0:
209,314,222597,1,8,0:0:0:0:
168,342,222656,1,8,0:0:0:0:
118,342,222715,1,8,0:0:0:0:
76,314,222774,5,2,0:0:0:0:
75,305,222833,1,2,0:0:0:0:
74,296,222892,1,2,0:0:0:0:
73,287,222951,1,2,0:0:0:0:
69,242,223010,5,2,0:0:0:0:
444,161,223247,5,6,0:0:0:0:
237,66,223483,2,0,L|230:138,3,45,2|8|2|8,0:0|0:0|0:0|0:0,0:0:0:0:
355,56,223719,2,0,L|296:13,3,45,2|8|2|8,0:0|0:0|0:0|0:0,0:0:0:0:
307,164,223955,2,0,L|372:134,3,45,2|8|2|8,0:0|0:0|0:0|0:0,0:0:0:0:
214,243,224191,5,2,0:0:0:0:
239,235,224250,1,8,0:0:0:0:
265,237,224309,1,2,0:0:0:0:
291,245,224369,1,8,0:0:0:0:
312,261,224428,1,2,0:0:0:0:
330,280,224487,1,8,0:0:0:0:
355,288,224546,1,2,0:0:0:0:
381,293,224605,1,8,0:0:0:0:
428,281,224664,5,6,0:0:0:0:
394,244,224723,1,8,0:0:0:0:
346,258,224782,1,2,0:0:0:0:
334,306,224841,1,8,0:0:0:0:
369,340,224900,2,0,L|372:392,3,45,2|8|2|8,0:0|0:0|0:0|0:0,0:0:0:0:
428,281,225136,5,2,0:0:0:0:
437,255,225195,1,8,0:0:0:0:
438,228,225254,1,2,0:0:0:0:
430,202,225313,1,8,0:0:0:0:
414,179,225372,1,2,0:0:0:0:
400,155,225431,1,8,0:0:0:0:
394,128,225490,1,2,0:0:0:0:
398,101,225549,1,8,0:0:0:0:
409,76,225608,6,0,L|471:72,3,45,2|8|2|8,0:0|0:0|0:0|0:0,0:0:0:0:
305,52,225845,2,0,L|243:48,3,45,2|8|2|8,0:0|0:0|0:0|0:0,0:0:0:0:
155,55,226081,5,2,0:0:0:0:
137,57,226140,1,8,0:0:0:0:
119,59,226199,1,2,0:0:0:0:
101,61,226258,1,8,0:0:0:0:
83,63,226317,2,0,L|19:54,3,45,2|8|2|8,0:0|0:0|0:0|0:0,0:0:0:0:
192,128,226553,5,6,0:0:0:0:
228,160,226612,1,8,0:0:0:0:
237,208,226671,1,2,0:0:0:0:
213,251,226730,1,8,0:0:0:0:
168,273,226789,2,0,L|108:263,3,45,2|8|2|8,0:0|0:0|0:0|0:0,0:0:0:0:
43,365,227026,2,0,L|81:318,3,45,2|8|2|8,0:0|0:0|0:0|0:0,0:0:0:0:
27,212,227262,2,0,L|48:268,3,45,2|8|2|8,0:0|0:0|0:0|0:0,0:0:0:0:
70,116,227498,5,6,0:0:0:0:
112,90,227557,1,8,0:0:0:0:
161,92,227616,1,2,0:0:0:0:
202,119,227675,1,8,0:0:0:0:
220,164,227734,2,0,L|212:230,3,45,2|8|2|8,0:0|0:0|0:0|0:0,0:0:0:0:
267,312,227971,5,6,0:0:0:0:
316,317,228030,1,8,0:0:0:0:
365,322,228089,1,2,0:0:0:0:
414,327,228148,1,8,0:0:0:0:
463,332,228207,2,0,L|470:385,3,45,2|8|2|8,0:0|0:0|0:0|0:0,0:0:0:0:
396,246,228443,5,6,0:0:0:0:
392,237,228502,1,2,0:0:0:0:
389,228,228561,1,2,0:0:0:0:
388,219,228620,1,2,0:0:0:0:
388,210,228679,1,2,0:0:0:0:
389,201,228738,1,2,0:0:0:0:
392,192,228797,5,2,0:0:0:0:
385,185,228856,1,2,0:0:0:0:
379,177,228915,1,2,0:0:0:0:
375,168,228975,1,2,0:0:0:0:
373,159,229034,1,2,0:0:0:0:
372,150,229093,1,2,0:0:0:0:
372,141,229152,6,0,L|307:135,3,45,2|2|2|2,0:0|0:0|0:0|0:0,0:0:0:0:
221,210,229388,5,8,0:0:0:0:
213,214,229447,1,2,0:0:0:0:
205,218,229506,1,2,0:0:0:0:
197,222,229565,1,2,0:0:0:0:
190,225,229624,1,2,0:0:0:0:
182,230,229683,1,2,0:0:0:0:
174,234,229742,5,2,0:0:0:0:
166,229,229801,1,2,0:0:0:0:
158,225,229860,1,2,0:0:0:0:
150,220,229919,1,2,0:0:0:0:
142,215,229978,1,2,0:0:0:0:
135,210,230037,1,2,0:0:0:0:
127,205,230097,6,0,L|66:212,3,45,2|2|2|2,0:0|0:0|0:0|0:0,0:0:0:0:
182,133,230333,5,6,0:0:0:0:
185,124,230392,1,2,0:0:0:0:
188,116,230451,1,2,0:0:0:0:
190,107,230510,1,2,0:0:0:0:
190,98,230569,1,2,0:0:0:0:
189,89,230628,1,2,0:0:0:0:
186,80,230687,1,2,0:0:0:0:
183,72,230746,1,2,0:0:0:0:
178,65,230805,1,2,0:0:0:0:
172,58,230864,1,2,0:0:0:0:
166,52,230923,1,2,0:0:0:0:
158,47,230982,1,2,0:0:0:0:
150,43,231041,1,2,0:0:0:0:
141,40,231100,1,2,0:0:0:0:
132,39,231159,1,2,0:0:0:0:
123,39,231218,1,2,0:0:0:0:
128,103,231278,5,8,0:0:0:0:
136,103,231337,1,2,0:0:0:0:
145,104,231396,1,2,0:0:0:0:
154,105,231455,1,2,0:0:0:0:
163,106,231514,1,2,0:0:0:0:
172,107,231573,1,2,0:0:0:0:
181,108,231632,1,2,0:0:0:0:
190,109,231691,1,2,0:0:0:0:
199,110,231750,1,2,0:0:0:0:
208,110,231809,1,2,0:0:0:0:
217,111,231868,1,2,0:0:0:0:
226,112,231927,1,2,0:0:0:0:
235,113,231986,1,2,0:0:0:0:
244,114,232045,1,2,0:0:0:0:
253,115,232104,1,2,0:0:0:0:
262,116,232163,1,2,0:0:0:0:
307,95,232222,5,12,0:0:0:0:
273,132,232282,1,8,0:0:0:0:
287,179,232341,1,8,0:0:0:0:
335,190,232400,1,8,0:0:0:0:
367,152,232459,5,10,0:0:0:0:
321,143,232518,1,8,0:0:0:0:
287,179,232577,1,8,0:0:0:0:
302,225,232636,1,8,0:0:0:0:
349,237,232695,5,10,0:0:0:0:
335,190,232754,1,8,0:0:0:0:
287,179,232813,1,8,0:0:0:0:
252,214,232872,1,8,0:0:0:0:
269,260,232931,5,2,0:0:0:0:
264,277,232990,1,2,0:0:0:0:
259,294,233049,1,2,0:0:0:0:
255,311,233108,1,2,0:0:0:0:
250,328,233167,6,0,L|181:333,7,45,2|2|2|2|2|2|2|2,0:0|0:0|0:0|0:0|0:0|0:0|0:0|0:0,0:0:0:0:
401,352,233640,5,6,0:0:0:0:
151,178,233876,2,0,L|146:241,3,45,2|8|2|8,0:0|0:0|0:0|0:0,0:0:0:0:
140,322,234112,2,0,L|197:294,3,45,2|8|2|8,0:0|0:0|0:0|0:0,0:0:0:0:
269,260,234348,2,0,L|216:224,3,45,2|8|2|8,0:0|0:0|0:0|0:0,0:0:0:0:
373,263,234585,5,2,0:0:0:0:
385,239,234644,1,8,0:0:0:0:
391,212,234703,1,2,0:0:0:0:
388,185,234762,1,8,0:0:0:0:
376,160,234821,1,2,0:0:0:0:
359,138,234880,1,8,0:0:0:0:
349,112,234939,1,2,0:0:0:0:
350,85,234998,1,8,0:0:0:0:
372,41,235057,5,6,0:0:0:0:
401,80,235116,1,8,0:0:0:0:
378,124,235175,1,2,0:0:0:0:
328,126,235234,1,8,0:0:0:0:
300,84,235293,2,0,L|232:78,3,45,2|8|2|8,0:0|0:0|0:0|0:0,0:0:0:0:
150,47,235529,5,2,0:0:0:0:
165,69,235588,1,8,0:0:0:0:
170,95,235647,1,2,0:0:0:0:
166,121,235706,1,8,0:0:0:0:
152,144,235765,1,2,0:0:0:0:
137,166,235824,1,8,0:0:0:0:
132,192,235883,1,2,0:0:0:0:
137,218,235942,1,8,0:0:0:0:
151,240,236001,6,0,L|212:246,3,45,2|8|2|8,0:0|0:0|0:0|0:0,0:0:0:0:
334,261,236238,2,0,L|273:267,3,45,2|8|2|8,0:0|0:0|0:0|0:0,0:0:0:0:
452,225,236474,5,6,0:0:0:0:
454,207,236533,1,8,0:0:0:0:
456,189,236592,1,2,0:0:0:0:
458,171,236651,1,8,0:0:0:0:
460,153,236710,2,0,L|530:148,3,45,2|8|2|8,0:0|0:0|0:0|0:0,0:0:0:0:
410,45,236946,5,6,0:0:0:0:
395,92,237005,1,8,0:0:0:0:
357,124,237064,1,2,0:0:0:0:
308,131,237123,1,8,0:0:0:0:
263,108,237182,2,0,L|256:48,3,45,2|8|2|8,0:0|0:0|0:0|0:0,0:0:0:0:
242,197,237419,5,2,0:0:0:0:
227,219,237478,1,8,0:0:0:0:
204,233,237537,1,2,0:0:0:0:
178,240,237596,1,8,0:0:0:0:
151,240,237655,1,2,0:0:0:0:
126,229,237714,1,8,0:0:0:0:
103,214,237773,1,2,0:0:0:0:
88,191,237832,1,8,0:0:0:0:
81,142,237891,5,6,0:0:0:0:
126,161,237950,1,8,0:0:0:0:
132,210,238009,1,2,0:0:0:0:
93,241,238068,1,8,0:0:0:0:
47,221,238127,2,0,L|-8:229,3,45,2|8|2|8,0:0|0:0|0:0|0:0,0:0:0:0:
135,315,238364,5,6,0:0:0:0:
184,319,238423,1,8,0:0:0:0:
233,323,238482,1,2,0:0:0:0:
282,327,238541,1,8,0:0:0:0:
331,331,238600,2,0,L|338:387,3,45,2|8|2|8,0:0|0:0|0:0|0:0,0:0:0:0:
410,269,238836,5,6,0:0:0:0:
411,260,238895,1,2,0:0:0:0:
412,251,238954,1,2,0:0:0:0:
413,242,239013,1,2,0:0:0:0:
414,233,239072,1,2,0:0:0:0:
415,224,239131,1,2,0:0:0:0:
375,201,239190,5,8,0:0:0:0:
374,192,239249,1,2,0:0:0:0:
373,183,239308,1,2,0:0:0:0:
372,174,239367,1,2,0:0:0:0:
371,165,239426,1,2,0:0:0:0:
370,156,239485,1,2,0:0:0:0:
409,133,239545,5,8,0:0:0:0:
410,124,239604,1,2,0:0:0:0:
411,115,239663,1,2,0:0:0:0:
412,106,239722,1,2,0:0:0:0:
379,74,239781,5,8,0:0:0:0:
370,78,239840,1,2,0:0:0:0:
361,79,239899,1,2,0:0:0:0:
352,79,239958,1,2,0:0:0:0:
343,78,240017,1,2,0:0:0:0:
334,76,240076,1,2,0:0:0:0:
301,107,240135,5,8,0:0:0:0:
292,103,240194,1,2,0:0:0:0:
283,102,240253,1,2,0:0:0:0:
274,102,240312,1,2,0:0:0:0:
265,103,240371,1,2,0:0:0:0:
256,105,240430,1,2,0:0:0:0:
219,76,240490,5,8,0:0:0:0:
117,321,240726,6,0,L|38:328,1,45,12|2,0:0|0:0,0:0:0:0:
196,264,240844,2,0,P|204:233|204:199,3,45,8|2|2|2,0:0|0:0|0:0|0:0,0:0:0:0:
311,158,241080,6,0,L|365:152,1,45,12|2,0:0|0:0,0:0:0:0:
219,76,241198,2,0,P|208:105|206:140,3,45,8|2|2|2,0:0|0:0|0:0|0:0,0:0:0:0:
351,37,241434,6,0,B|287:31|288:31,1,45,12|2,0:0|0:0,0:0:0:0:
455,119,241552,2,0,P|464:95|469:64,3,45,8|2|2|2,0:0|0:0|0:0|0:0,0:0:0:0:
311,158,241789,6,0,L|321:210,1,45,12|2,0:0|0:0,0:0:0:0:
350,323,241907,2,0,P|356:304|358:278,3,45,8|2|2|2,0:0|0:0|0:0|0:0,0:0:0:0:
212,352,242143,6,0,L|152:358,1,45,12|2,0:0|0:0,0:0:0:0:
24,344,242261,2,0,L|84:350,1,45,8|2,0:0|0:0,0:0:0:0:
224,340,242379,6,0,L|164:346,1,45,8|2,0:0|0:0,0:0:0:0:
12,332,242497,2,0,L|72:338,1,45,8|2,0:0|0:0,0:0:0:0:
236,328,242615,6,0,L|176:334,1,45,8|2,0:0|0:0,0:0:0:0:
0,320,242733,2,0,L|60:326,1,45,8|2,0:0|0:0,0:0:0:0:
170,192,242851,6,0,L|163:129,1,45,12|2,0:0|0:0,0:0:0:0:
303,233,242970,2,0,P|275:244|233:251,3,45,8|2|2|2,0:0|0:0|0:0|0:0,0:0:0:0:
374,155,243206,6,0,L|444:165,1,45,12|2,0:0|0:0,0:0:0:0:
299,102,243324,2,0,P|291:73|290:35,3,45,8|2|2|2,0:0|0:0|0:0|0:0,0:0:0:0:
184,205,243560,6,0,L|126:197,1,45,12|2,0:0|0:0,0:0:0:0:
284,242,243678,2,0,P|294:272|296:298,3,45,8|2|2|2,0:0|0:0|0:0|0:0,0:0:0:0:
383,170,243914,6,0,L|393:108,1,45,12|2,0:0|0:0,0:0:0:0:
423,257,244033,2,0,P|449:265|487:268,3,45,8|2|2|2,0:0|0:0|0:0|0:0,0:0:0:0:
284,242,244269,5,12,0:0:0:0:
303,196,244328,1,8,0:0:0:0:
271,157,244387,1,8,0:0:0:0:
222,165,244446,1,8,0:0:0:0:
205,211,244505,5,10,0:0:0:0:
253,203,244564,1,8,0:0:0:0:
271,157,244623,1,8,0:0:0:0:
241,117,244682,1,8,0:0:0:0:
192,128,244741,5,2,0:0:0:0:
174,124,244800,1,2,0:0:0:0:
156,121,244859,1,2,0:0:0:0:
138,117,244918,1,2,0:0:0:0:
120,113,244977,6,0,L|113:57,5,45,6|2|2|2|2|2,0:0|0:0|0:0|0:0|0:0|0:0,0:0:0:0:
33,188,245332,2,0,L|37:121,5,45,6|2|2|2|2|2,0:0|0:0|0:0|0:0|0:0|0:0,0:0:0:0:
120,264,245686,6,0,P|145:268|168:276,3,45,6|2|2|2,0:0|0:0|0:0|0:0,0:0:0:0:
221,352,245922,5,12,0:0:0:0:
238,350,245981,1,2,0:0:0:0:
255,348,246040,1,2,0:0:0:0:
273,346,246100,1,2,0:0:0:0:
290,344,246159,2,0,L|297:292,3,45,6|2|2|2,0:0|0:0|0:0|0:0,0:0:0:0:
424,284,246395,5,8,0:0:0:0:
377,267,246454,1,8,0:0:0:0:
349,226,246513,1,8,0:0:0:0:
349,177,246572,1,8,0:0:0:0:
374,135,246631,5,2,0:0:0:0:
382,132,246690,1,2,0:0:0:0:
390,129,246749,1,2,0:0:0:0:
398,126,246808,1,2,0:0:0:0:
445,112,246867,5,8,0:0:0:0:
395,110,246926,1,8,0:0:0:0:
345,107,246985,1,8,0:0:0:0:
295,104,247044,1,8,0:0:0:0:
245,101,247103,5,2,0:0:0:0:
261,94,247162,1,2,0:0:0:0:
277,87,247221,1,2,0:0:0:0:
293,80,247280,1,2,0:0:0:0:
342,79,247339,5,6,0:0:0:0:
162,287,295329,5,6,0:0:0:0:
204,313,295391,1,8,0:0:0:0:
253,313,295454,1,8,0:0:0:0:
295,289,295516,1,8,0:0:0:0:
333,257,295579,1,8,0:0:0:0:
381,249,295641,1,8,0:0:0:0:
427,269,295704,5,6,0:0:0:0:
386,297,295766,1,8,0:0:0:0:
336,291,295829,1,8,0:0:0:0:
301,255,295891,1,8,0:0:0:0:
296,205,295954,1,8,0:0:0:0:
323,164,296016,1,8,0:0:0:0:
370,148,296079,5,2,0:0:0:0:
372,130,296141,1,2,0:0:0:0:
374,112,296204,1,2,0:0:0:0:
376,94,296266,1,2,0:0:0:0:
346,59,296329,5,6,0:0:0:0:
337,62,296391,1,2,0:0:0:0:
328,64,296454,1,2,0:0:0:0:
319,65,296516,1,2,0:0:0:0:
310,66,296579,1,2,0:0:0:0:
301,66,296641,1,2,0:0:0:0:
268,97,296704,5,6,0:0:0:0:
259,94,296766,1,2,0:0:0:0:
250,92,296829,1,2,0:0:0:0:
241,91,296891,1,2,0:0:0:0:
232,90,296954,1,2,0:0:0:0:
223,90,297016,1,2,0:0:0:0:
181,62,297079,5,6,0:0:0:0:
206,104,297141,1,8,0:0:0:0:
183,148,297204,1,8,0:0:0:0:
134,153,297266,1,8,0:0:0:0:
105,111,297329,5,2,0:0:0:0:
154,106,297391,1,8,0:0:0:0:
183,148,297453,1,8,0:0:0:0:
165,193,297516,1,8,0:0:0:0:
115,200,297578,5,2,0:0:0:0:
128,211,297641,1,2,0:0:0:0:
139,226,297703,1,2,0:0:0:0:
146,242,297765,1,2,0:0:0:0:
149,260,297828,1,2,0:0:0:0:
148,278,297890,1,2,0:0:0:0:
144,295,297953,1,2,0:0:0:0:
135,311,298015,1,2,0:0:0:0:
124,325,298078,1,2,0:0:0:0:
110,336,298140,1,2,0:0:0:0:
93,343,298203,1,2,0:0:0:0:
76,347,298265,1,2,0:0:0:0:
27,335,298328,5,6,0:0:0:0:
362,343,299329,5,6,0:0:0:0:
362,334,299391,1,2,0:0:0:0:
362,325,299454,1,2,0:0:0:0:
363,316,299516,1,2,0:0:0:0:
363,307,299579,1,2,0:0:0:0:
364,298,299641,1,2,0:0:0:0:
364,289,299704,1,2,0:0:0:0:
365,280,299766,1,2,0:0:0:0:
321,269,299829,5,2,0:0:0:0:
320,260,299891,1,2,0:0:0:0:
320,251,299954,1,2,0:0:0:0:
319,242,300016,1,2,0:0:0:0:
319,233,300079,1,2,0:0:0:0:
318,224,300141,1,2,0:0:0:0:
318,215,300202,1,2,0:0:0:0:
317,206,300265,1,2,0:0:0:0:
356,150,300327,5,8,0:0:0:0:
347,151,300390,1,2,0:0:0:0:
338,152,300452,1,2,0:0:0:0:
329,151,300515,1,2,0:0:0:0:
321,150,300577,1,2,0:0:0:0:
312,147,300640,1,2,0:0:0:0:
304,143,300702,1,2,0:0:0:0:
296,138,300765,1,2,0:0:0:0:
290,132,300827,1,2,0:0:0:0:
283,126,300890,1,2,0:0:0:0:
278,119,300952,1,2,0:0:0:0:
274,111,301015,1,2,0:0:0:0:
240,80,301077,6,0,L|179:74,3,45,2|2|2|2,0:0|0:0|0:0|0:0,0:0:0:0:
105,116,301329,5,6,0:0:0:0:
103,124,301391,1,2,0:0:0:0:
101,133,301454,1,2,0:0:0:0:
100,142,301516,1,2,0:0:0:0:
99,151,301579,1,2,0:0:0:0:
99,160,301641,1,2,0:0:0:0:
100,169,301704,1,2,0:0:0:0:
101,178,301766,1,2,0:0:0:0:
68,209,301829,5,2,0:0:0:0:
70,217,301891,1,2,0:0:0:0:
72,226,301954,1,2,0:0:0:0:
73,235,302016,1,2,0:0:0:0:
74,244,302079,1,2,0:0:0:0:
74,253,302141,1,2,0:0:0:0:
73,262,302204,1,2,0:0:0:0:
72,271,302266,1,2,0:0:0:0:
40,330,302329,5,8,0:0:0:0:
48,329,302391,1,2,0:0:0:0:
57,328,302454,1,2,0:0:0:0:
66,327,302516,1,2,0:0:0:0:
75,327,302579,1,2,0:0:0:0:
84,326,302641,1,2,0:0:0:0:
93,325,302704,1,2,0:0:0:0:
102,324,302766,1,2,0:0:0:0:
133,358,302829,5,2,0:0:0:0:
141,358,302891,1,2,0:0:0:0:
150,359,302954,1,2,0:0:0:0:
159,360,303016,1,2,0:0:0:0:
168,360,303079,1,2,0:0:0:0:
177,361,303141,1,2,0:0:0:0:
186,362,303204,1,2,0:0:0:0:
195,363,303266,1,2,0:0:0:0:
226,330,303329,5,6,0:0:0:0:
231,322,303391,1,2,0:0:0:0:
235,314,303454,1,2,0:0:0:0:
238,306,303516,1,2,0:0:0:0:
240,297,303579,1,2,0:0:0:0:
240,288,303641,1,2,0:0:0:0:
240,279,303704,1,2,0:0:0:0:
238,270,303766,1,2,0:0:0:0:
273,242,303829,5,2,0:0:0:0:
267,234,303891,1,2,0:0:0:0:
263,226,303954,1,2,0:0:0:0:
260,218,304016,1,2,0:0:0:0:
258,209,304079,1,2,0:0:0:0:
258,200,304141,1,2,0:0:0:0:
258,191,304204,1,2,0:0:0:0:
260,182,304266,1,2,0:0:0:0:
303,125,304329,5,8,0:0:0:0:
309,130,304391,1,2,0:0:0:0:
315,137,304454,1,2,0:0:0:0:
320,144,304516,1,2,0:0:0:0:
325,152,304579,1,2,0:0:0:0:
328,161,304641,1,2,0:0:0:0:
330,170,304704,1,2,0:0:0:0:
331,179,304766,1,2,0:0:0:0:
330,188,304829,1,2,0:0:0:0:
329,196,304891,1,2,0:0:0:0:
327,205,304954,1,2,0:0:0:0:
323,213,305016,1,2,0:0:0:0:
319,221,305079,1,2,0:0:0:0:
313,228,305141,1,2,0:0:0:0:
307,235,305204,1,2,0:0:0:0:
300,240,305266,1,2,0:0:0:0:
292,245,305329,1,2,0:0:0:0:
284,248,305391,1,2,0:0:0:0:
275,251,305454,1,2,0:0:0:0:
266,252,305516,1,2,0:0:0:0:
257,252,305579,1,2,0:0:0:0:
248,251,305641,1,2,0:0:0:0:
239,249,305704,1,2,0:0:0:0:
231,246,305766,1,2,0:0:0:0:
223,242,305829,1,2,0:0:0:0:
216,237,305891,1,2,0:0:0:0:
209,231,305954,1,2,0:0:0:0:
203,224,306016,1,2,0:0:0:0:
198,216,306079,1,2,0:0:0:0:
194,208,306141,1,2,0:0:0:0:
191,200,306204,1,2,0:0:0:0:
189,191,306266,1,2,0:0:0:0:
191,141,306329,5,6,0:0:0:0:
442,80,307329,5,6,0:0:0:0:
433,77,307391,1,2,0:0:0:0:
424,75,307454,1,2,0:0:0:0:
415,74,307516,1,2,0:0:0:0:
406,73,307579,1,2,0:0:0:0:
397,72,307641,1,2,0:0:0:0:
388,73,307704,1,2,0:0:0:0:
379,74,307766,1,2,0:0:0:0:
352,110,307829,5,2,0:0:0:0:
343,112,307891,1,2,0:0:0:0:
334,114,307954,1,2,0:0:0:0:
325,115,308016,1,2,0:0:0:0:
316,116,308079,1,2,0:0:0:0:
307,117,308141,1,2,0:0:0:0:
298,116,308204,1,2,0:0:0:0:
289,115,308266,1,2,0:0:0:0:
243,64,308329,5,8,0:0:0:0:
243,73,308391,1,2,0:0:0:0:
242,82,308454,1,2,0:0:0:0:
240,91,308516,1,2,0:0:0:0:
237,99,308579,1,2,0:0:0:0:
233,107,308641,1,2,0:0:0:0:
228,114,308704,1,2,0:0:0:0:
221,121,308766,1,2,0:0:0:0:
214,126,308829,1,2,0:0:0:0:
207,131,308891,1,2,0:0:0:0:
198,134,308954,1,2,0:0:0:0:
189,136,309016,1,2,0:0:0:0:
144,143,309079,6,0,L|134:215,3,45,2|2|2|2,0:0|0:0|0:0|0:0,0:0:0:0:
91,300,309329,5,6,0:0:0:0:
99,300,309391,1,2,0:0:0:0:
108,301,309454,1,2,0:0:0:0:
117,301,309516,1,2,0:0:0:0:
126,302,309579,1,2,0:0:0:0:
135,303,309641,1,2,0:0:0:0:
144,303,309704,1,2,0:0:0:0:
153,304,309766,1,2,0:0:0:0:
180,268,309829,5,2,0:0:0:0:
188,267,309891,1,2,0:0:0:0:
197,266,309954,1,2,0:0:0:0:
206,266,310016,1,2,0:0:0:0:
215,265,310079,1,2,0:0:0:0:
224,264,310141,1,2,0:0:0:0:
233,264,310204,1,2,0:0:0:0:
242,263,310266,1,2,0:0:0:0:
307,279,310329,5,8,0:0:0:0:
304,270,310391,1,2,0:0:0:0:
302,262,310454,1,2,0:0:0:0:
301,253,310516,1,2,0:0:0:0:
300,244,310579,1,2,0:0:0:0:
300,235,310641,1,2,0:0:0:0:
301,226,310704,1,2,0:0:0:0:
302,217,310766,1,2,0:0:0:0:
344,201,310829,5,2,0:0:0:0:
347,192,310891,1,2,0:0:0:0:
349,184,310954,1,2,0:0:0:0:
350,175,311016,1,2,0:0:0:0:
351,166,311079,1,2,0:0:0:0:
351,157,311141,1,2,0:0:0:0:
350,148,311204,1,2,0:0:0:0:
349,139,311266,1,2,0:0:0:0:
308,119,311329,5,6,0:0:0:0:
299,118,311391,1,2,0:0:0:0:
290,117,311454,1,2,0:0:0:0:
281,116,311516,1,2,0:0:0:0:
272,115,311579,1,2,0:0:0:0:
263,114,311641,1,2,0:0:0:0:
254,113,311704,1,2,0:0:0:0:
245,112,311766,1,2,0:0:0:0:
220,150,311829,5,2,0:0:0:0:
211,150,311891,1,2,0:0:0:0:
202,151,311954,1,2,0:0:0:0:
193,152,312016,1,2,0:0:0:0:
184,153,312079,1,2,0:0:0:0:
175,154,312141,1,2,0:0:0:0:
166,155,312204,1,2,0:0:0:0:
157,156,312266,1,2,0:0:0:0:
102,115,312329,5,8,0:0:0:0:
107,108,312391,1,2,0:0:0:0:
114,102,312454,1,2,0:0:0:0:
121,97,312516,1,2,0:0:0:0:
130,93,312579,1,2,0:0:0:0:
138,90,312641,1,2,0:0:0:0:
147,88,312704,1,2,0:0:0:0:
156,87,312766,1,2,0:0:0:0:
165,87,312829,1,2,0:0:0:0:
174,89,312891,1,2,0:0:0:0:
182,92,312954,1,2,0:0:0:0:
190,96,313016,1,2,0:0:0:0:
198,101,313079,1,2,0:0:0:0:
204,107,313141,1,2,0:0:0:0:
210,113,313204,1,2,0:0:0:0:
216,121,313266,1,2,0:0:0:0:
220,129,313329,1,2,0:0:0:0:
223,137,313391,1,2,0:0:0:0:
224,146,313454,1,2,0:0:0:0:
225,155,313516,1,2,0:0:0:0:
225,164,313579,1,2,0:0:0:0:
223,173,313641,1,2,0:0:0:0:
220,181,313704,1,2,0:0:0:0:
216,189,313766,1,2,0:0:0:0:
211,197,313829,1,2,0:0:0:0:
205,204,313891,1,2,0:0:0:0:
198,210,313954,1,2,0:0:0:0:
191,215,314016,1,2,0:0:0:0:
183,219,314079,1,2,0:0:0:0:
174,222,314141,1,2,0:0:0:0:
166,223,314204,1,2,0:0:0:0:
157,224,314266,1,2,0:0:0:0:
108,213,314329,5,6,0:0:0:0:
108,213,314829,1,2,0:0:0:0:
323,22,315329,5,6,0:0:0:0:
321,30,315391,1,2,0:0:0:0:
319,39,315454,1,2,0:0:0:0:
318,48,315516,1,2,0:0:0:0:
318,57,315579,1,2,0:0:0:0:
318,66,315641,1,2,0:0:0:0:
319,75,315704,1,2,0:0:0:0:
320,84,315766,1,2,0:0:0:0:
279,104,315829,5,2,0:0:0:0:
280,112,315891,1,2,0:0:0:0:
282,121,315954,1,2,0:0:0:0:
283,130,316016,1,2,0:0:0:0:
283,139,316079,1,2,0:0:0:0:
283,148,316141,1,2,0:0:0:0:
282,157,316204,1,2,0:0:0:0:
281,166,316266,1,2,0:0:0:0:
265,232,316329,5,8,0:0:0:0:
272,227,316391,1,2,0:0:0:0:
280,223,316454,1,2,0:0:0:0:
289,221,316516,1,2,0:0:0:0:
298,220,316579,1,2,0:0:0:0:
307,220,316641,1,2,0:0:0:0:
316,221,316704,1,2,0:0:0:0:
325,224,316766,1,2,0:0:0:0:
333,227,316829,1,2,0:0:0:0:
340,232,316891,1,2,0:0:0:0:
347,238,316954,1,2,0:0:0:0:
353,245,317016,1,2,0:0:0:0:
375,285,317079,6,0,L|437:280,3,45,2|2|2|2,0:0|0:0|0:0|0:0,0:0:0:0:
495,204,317329,5,6,0:0:0:0:
496,195,317391,1,2,0:0:0:0:
497,186,317454,1,2,0:0:0:0:
498,177,317516,1,2,0:0:0:0:
499,168,317579,1,2,0:0:0:0:
500,159,317641,1,2,0:0:0:0:
501,150,317704,1,2,0:0:0:0:
502,141,317766,1,2,0:0:0:0:
458,130,317829,5,2,0:0:0:0:
456,121,317891,1,2,0:0:0:0:
455,112,317954,1,2,0:0:0:0:
454,103,318016,1,2,0:0:0:0:
453,94,318079,1,2,0:0:0:0:
452,85,318141,1,2,0:0:0:0:
451,76,318204,1,2,0:0:0:0:
450,67,318266,1,2,0:0:0:0:
462,0,318329,5,8,0:0:0:0:
454,5,318391,1,2,0:0:0:0:
446,9,318454,1,2,0:0:0:0:
437,11,318516,1,2,0:0:0:0:
429,13,318579,1,2,0:0:0:0:
420,13,318641,1,2,0:0:0:0:
411,12,318704,1,2,0:0:0:0:
402,10,318766,1,2,0:0:0:0:
371,43,318829,5,2,0:0:0:0:
363,37,318891,1,2,0:0:0:0:
355,33,318954,1,2,0:0:0:0:
346,31,319016,1,2,0:0:0:0:
338,29,319079,1,2,0:0:0:0:
329,29,319141,1,2,0:0:0:0:
320,30,319204,1,2,0:0:0:0:
311,32,319266,1,2,0:0:0:0:
272,55,319329,5,6,0:0:0:0:
270,63,319391,1,2,0:0:0:0:
269,72,319454,1,2,0:0:0:0:
268,81,319516,1,2,0:0:0:0:
266,90,319579,1,2,0:0:0:0:
265,99,319641,1,2,0:0:0:0:
264,108,319704,1,2,0:0:0:0:
262,117,319766,1,2,0:0:0:0:
220,134,319829,5,2,0:0:0:0:
221,142,319891,1,2,0:0:0:0:
222,151,319954,1,2,0:0:0:0:
223,160,320016,1,2,0:0:0:0:
225,169,320079,1,2,0:0:0:0:
226,178,320141,1,2,0:0:0:0:
227,187,320204,1,2,0:0:0:0:
229,196,320266,1,2,0:0:0:0:
282,237,320329,5,8,0:0:0:0:
286,229,320391,1,2,0:0:0:0:
290,221,320454,1,2,0:0:0:0:
293,212,320516,1,2,0:0:0:0:
295,204,320579,1,2,0:0:0:0:
295,195,320641,1,2,0:0:0:0:
295,186,320704,1,2,0:0:0:0:
293,177,320766,1,2,0:0:0:0:
290,168,320829,1,2,0:0:0:0:
286,160,320891,1,2,0:0:0:0:
281,153,320954,1,2,0:0:0:0:
274,146,321016,1,2,0:0:0:0:
268,141,321079,1,2,0:0:0:0:
260,136,321141,1,2,0:0:0:0:
252,132,321204,1,2,0:0:0:0:
243,129,321266,1,2,0:0:0:0:
234,128,321329,1,2,0:0:0:0:
225,128,321391,1,2,0:0:0:0:
216,128,321454,1,2,0:0:0:0:
208,130,321516,1,2,0:0:0:0:
199,134,321579,1,2,0:0:0:0:
191,138,321641,1,2,0:0:0:0:
184,143,321704,1,2,0:0:0:0:
178,150,321766,1,2,0:0:0:0:
172,157,321829,1,2,0:0:0:0:
167,164,321891,1,2,0:0:0:0:
164,173,321954,1,2,0:0:0:0:
161,181,322016,1,2,0:0:0:0:
160,190,322079,1,2,0:0:0:0:
160,199,322141,1,2,0:0:0:0:
161,208,322204,1,2,0:0:0:0:
163,217,322266,1,2,0:0:0:0:
229,196,322329,5,8,0:0:0:0:
199,156,322391,1,8,0:0:0:0:
149,148,322454,1,8,0:0:0:0:
108,175,322516,1,8,0:0:0:0:
93,221,322578,6,0,L|37:217,3,45,2|2|2|2,0:0|0:0|0:0|0:0,0:0:0:0:
7,299,322829,5,8,0:0:0:0:
55,303,322891,1,8,0:0:0:0:
104,307,322954,1,8,0:0:0:0:
152,311,323016,1,8,0:0:0:0:
201,315,323078,6,0,L|209:366,3,45,2|2|2|2,0:0|0:0|0:0|0:0,0:0:0:0:
242,237,323329,5,6,0:0:0:0:
250,237,323391,1,2,0:0:0:0:
259,238,323454,1,2,0:0:0:0:
268,239,323516,1,2,0:0:0:0:
277,240,323579,1,2,0:0:0:0:
286,241,323641,1,2,0:0:0:0:
295,242,323704,1,2,0:0:0:0:
304,243,323766,1,2,0:0:0:0:
329,281,323829,5,2,0:0:0:0:
337,280,323891,1,2,0:0:0:0:
346,279,323954,1,2,0:0:0:0:
355,278,324016,1,2,0:0:0:0:
364,277,324079,1,2,0:0:0:0:
373,276,324141,1,2,0:0:0:0:
382,275,324204,1,2,0:0:0:0:
391,274,324266,1,2,0:0:0:0:
442,229,324329,5,8,0:0:0:0:
437,221,324391,1,2,0:0:0:0:
433,213,324454,1,2,0:0:0:0:
431,204,324516,1,2,0:0:0:0:
431,195,324579,1,2,0:0:0:0:
432,186,324641,1,2,0:0:0:0:
434,177,324704,1,2,0:0:0:0:
438,169,324766,1,2,0:0:0:0:
443,162,324829,1,2,0:0:0:0:
449,155,324891,1,2,0:0:0:0:
456,150,324954,1,2,0:0:0:0:
464,146,325016,1,2,0:0:0:0:
502,122,325079,6,0,L|507:58,3,45,2|2|2|2,0:0|0:0|0:0|0:0,0:0:0:0:
376,115,325329,5,6,0:0:0:0:
367,114,325391,1,2,0:0:0:0:
358,113,325454,1,2,0:0:0:0:
349,112,325516,1,2,0:0:0:0:
341,111,325579,1,2,0:0:0:0:
332,110,325641,1,2,0:0:0:0:
323,109,325704,1,2,0:0:0:0:
314,107,325766,1,2,0:0:0:0:
295,149,325829,5,2,0:0:0:0:
286,150,325891,1,2,0:0:0:0:
277,151,325954,1,2,0:0:0:0:
268,152,326016,1,2,0:0:0:0:
259,153,326079,1,2,0:0:0:0:
250,154,326141,1,2,0:0:0:0:
241,155,326204,1,2,0:0:0:0:
232,156,326266,1,2,0:0:0:0:
169,128,326329,5,8,0:0:0:0:
172,136,326391,1,2,0:0:0:0:
173,145,326454,1,2,0:0:0:0:
175,154,326516,1,2,0:0:0:0:
175,163,326579,1,2,0:0:0:0:
175,172,326641,1,2,0:0:0:0:
174,181,326704,1,2,0:0:0:0:
173,190,326766,1,2,0:0:0:0:
135,215,326829,5,2,0:0:0:0:
132,223,326891,1,2,0:0:0:0:
130,232,326954,1,2,0:0:0:0:
129,241,327016,1,2,0:0:0:0:
129,250,327079,1,2,0:0:0:0:
129,259,327141,1,2,0:0:0:0:
129,268,327204,1,2,0:0:0:0:
131,277,327266,1,2,0:0:0:0:
164,307,327329,5,6,0:0:0:0:
173,308,327391,1,2,0:0:0:0:
182,309,327454,1,2,0:0:0:0:
191,310,327516,1,2,0:0:0:0:
200,311,327579,1,2,0:0:0:0:
209,312,327641,1,2,0:0:0:0:
218,313,327704,1,2,0:0:0:0:
227,314,327766,1,2,0:0:0:0:
250,276,327829,5,2,0:0:0:0:
258,274,327891,1,2,0:0:0:0:
267,273,327954,1,2,0:0:0:0:
276,272,328016,1,2,0:0:0:0:
285,271,328079,1,2,0:0:0:0:
294,270,328141,1,2,0:0:0:0:
303,269,328204,1,2,0:0:0:0:
312,268,328266,1,2,0:0:0:0:
369,305,328329,5,8,0:0:0:0:
364,312,328391,1,2,0:0:0:0:
358,318,328454,1,2,0:0:0:0:
350,324,328516,1,2,0:0:0:0:
343,328,328579,1,2,0:0:0:0:
334,332,328641,1,2,0:0:0:0:
326,334,328704,1,2,0:0:0:0:
317,335,328766,1,2,0:0:0:0:
308,336,328829,1,2,0:0:0:0:
299,334,328891,1,2,0:0:0:0:
290,332,328954,1,2,0:0:0:0:
282,329,329016,1,2,0:0:0:0:
274,324,329079,1,2,0:0:0:0:
267,319,329141,1,2,0:0:0:0:
261,312,329204,1,2,0:0:0:0:
255,305,329266,1,2,0:0:0:0:
251,297,329329,1,2,0:0:0:0:
247,289,329391,1,2,0:0:0:0:
245,280,329454,1,2,0:0:0:0:
244,271,329516,1,2,0:0:0:0:
244,262,329579,1,2,0:0:0:0:
245,254,329641,1,2,0:0:0:0:
248,245,329704,1,2,0:0:0:0:
251,237,329766,1,2,0:0:0:0:
256,229,329829,1,2,0:0:0:0:
262,222,329891,1,2,0:0:0:0:
268,216,329954,1,2,0:0:0:0:
275,210,330016,1,2,0:0:0:0:
283,206,330079,1,2,0:0:0:0:
292,203,330141,1,2,0:0:0:0:
300,201,330204,1,2,0:0:0:0:
309,200,330266,1,2,0:0:0:0:
368,233,330329,5,8,0:0:0:0:
369,224,330391,1,2,0:0:0:0:
370,215,330454,1,2,0:0:0:0:
371,206,330516,1,2,0:0:0:0:
372,197,330579,1,2,0:0:0:0:
373,188,330641,1,2,0:0:0:0:
438,169,330704,5,8,0:0:0:0:
437,160,330766,1,2,0:0:0:0:
436,151,330829,1,2,0:0:0:0:
435,142,330891,1,2,0:0:0:0:
434,133,330954,1,2,0:0:0:0:
433,124,331016,1,2,0:0:0:0:
392,103,331079,5,2,0:0:0:0:
393,94,331141,1,2,0:0:0:0:
394,85,331204,1,2,0:0:0:0:
395,76,331266,1,2,0:0:0:0:
427,44,331329,6,0,L|422:-4,5,45,6|2|2|2|2|2,0:0|0:0|0:0|0:0|0:0|0:0,0:0:0:0:
307,112,331704,2,0,L|312:64,5,45,2|2|2|2|2|2,0:0|0:0|0:0|0:0|0:0|0:0,0:0:0:0:
217,152,332079,5,2,0:0:0:0:
218,161,332141,1,2,0:0:0:0:
219,170,332204,1,2,0:0:0:0:
220,179,332266,1,2,0:0:0:0:
247,241,332329,5,8,0:0:0:0:
238,238,332391,1,2,0:0:0:0:
229,236,332454,1,2,0:0:0:0:
220,235,332516,1,2,0:0:0:0:
211,235,332579,1,2,0:0:0:0:
202,235,332641,1,2,0:0:0:0:
165,261,332704,5,2,0:0:0:0:
156,263,332766,1,2,0:0:0:0:
147,265,332829,1,2,0:0:0:0:
138,266,332891,1,2,0:0:0:0:
129,266,332954,1,2,0:0:0:0:
120,266,333016,1,2,0:0:0:0:
91,231,333079,5,2,0:0:0:0:
82,228,333141,1,2,0:0:0:0:
72,227,333204,1,2,0:0:0:0:
63,227,333266,1,2,0:0:0:0:
6,265,333329,5,6,0:0:0:0:
401,326,334329,5,8,0:0:0:0:
401,317,334391,1,2,0:0:0:0:
401,308,334454,1,2,0:0:0:0:
402,299,334516,1,2,0:0:0:0:
402,290,334579,1,2,0:0:0:0:
403,281,334641,1,2,0:0:0:0:
403,272,334704,1,2,0:0:0:0:
404,263,334766,1,2,0:0:0:0:
404,254,334829,1,2,0:0:0:0:
187,204,335329,5,6,0:0:0:0:
326,169,335829,1,6,0:0:0:0:
255,330,336329,5,6,0:0:0:0:
246,326,336391,1,2,0:0:0:0:
238,323,336454,1,2,0:0:0:0:
229,320,336516,1,2,0:0:0:0:
221,317,336579,1,2,0:0:0:0:
212,315,336641,1,2,0:0:0:0:
203,313,336704,1,2,0:0:0:0:
194,311,336766,1,2,0:0:0:0:
186,310,336829,1,2,0:0:0:0:
177,308,336891,1,2,0:0:0:0:
168,307,336954,1,2,0:0:0:0:
159,306,337016,1,2,0:0:0:0:
150,306,337079,1,2,0:0:0:0:
141,306,337141,1,2,0:0:0:0:
132,305,337204,1,2,0:0:0:0:
123,306,337266,1,2,0:0:0:0:
139,372,337329,5,8,0:0:0:0:
148,369,337391,1,2,0:0:0:0:
156,365,337454,1,2,0:0:0:0:
163,360,337516,1,2,0:0:0:0:
170,355,337579,1,2,0:0:0:0:
176,348,337641,1,2,0:0:0:0:
182,341,337704,1,2,0:0:0:0:
186,333,337766,1,2,0:0:0:0:
189,324,337829,1,2,0:0:0:0:
191,316,337891,1,2,0:0:0:0:
191,307,337954,1,2,0:0:0:0:
191,298,338016,1,2,0:0:0:0:
189,289,338079,1,2,0:0:0:0:
187,280,338141,1,2,0:0:0:0:
183,272,338204,1,2,0:0:0:0:
178,265,338266,1,2,0:0:0:0:
118,232,338329,5,6,0:0:0:0:
455,160,339329,5,8,0:0:0:0:
446,161,339391,1,2,0:0:0:0:
437,161,339454,1,2,0:0:0:0:
428,159,339516,1,2,0:0:0:0:
420,156,339579,1,2,0:0:0:0:
412,151,339641,1,2,0:0:0:0:
405,145,339704,1,2,0:0:0:0:
400,137,339766,1,2,0:0:0:0:
396,129,339829,1,2,0:0:0:0:
242,228,340329,5,6,0:0:0:0:
380,268,340829,1,6,0:0:0:0:
134,273,341329,5,6,0:0:0:0:
133,264,341391,1,2,0:0:0:0:
132,255,341454,1,2,0:0:0:0:
131,246,341516,1,2,0:0:0:0:
130,237,341579,1,2,0:0:0:0:
130,228,341641,1,2,0:0:0:0:
129,219,341704,1,2,0:0:0:0:
128,210,341766,1,2,0:0:0:0:
127,201,341829,1,2,0:0:0:0:
127,192,341891,1,2,0:0:0:0:
126,183,341954,1,2,0:0:0:0:
125,174,342016,1,2,0:0:0:0:
124,165,342079,1,2,0:0:0:0:
124,156,342141,1,2,0:0:0:0:
123,147,342204,1,2,0:0:0:0:
122,138,342266,1,2,0:0:0:0:
54,148,342329,5,8,0:0:0:0:
55,155,342391,1,2,0:0:0:0:
57,164,342454,1,2,0:0:0:0:
61,173,342516,1,2,0:0:0:0:
66,180,342579,1,2,0:0:0:0:
71,187,342641,1,2,0:0:0:0:
78,193,342704,1,2,0:0:0:0:
85,199,342766,1,2,0:0:0:0:
93,203,342829,1,2,0:0:0:0:
101,207,342891,1,2,0:0:0:0:
110,208,342954,1,2,0:0:0:0:
119,209,343016,1,2,0:0:0:0:
128,209,343079,1,2,0:0:0:0:
137,207,343141,1,2,0:0:0:0:
146,205,343204,1,2,0:0:0:0:
153,202,343266,1,2,0:0:0:0:
201,154,343329,5,8,0:0:0:0:
209,155,343391,1,2,0:0:0:0:
218,156,343454,1,2,0:0:0:0:
227,157,343516,1,2,0:0:0:0:
236,158,343579,1,2,0:0:0:0:
245,159,343641,1,2,0:0:0:0:
276,220,343704,5,8,0:0:0:0:
284,218,343766,1,2,0:0:0:0:
293,217,343829,1,2,0:0:0:0:
302,216,343891,1,2,0:0:0:0:
311,215,343954,1,2,0:0:0:0:
320,214,344016,1,2,0:0:0:0:
357,157,344079,5,8,0:0:0:0:
365,158,344141,1,2,0:0:0:0:
374,159,344204,1,2,0:0:0:0:
383,160,344266,1,2,0:0:0:0:
427,211,344329,5,6,0:0:0:0:
122,310,345329,5,8,0:0:0:0:
116,303,345391,1,2,0:0:0:0:
110,295,345454,1,2,0:0:0:0:
106,288,345516,1,2,0:0:0:0:
102,280,345579,1,2,0:0:0:0:
98,271,345641,1,2,0:0:0:0:
95,263,345704,1,2,0:0:0:0:
93,254,345766,1,2,0:0:0:0:
91,245,345829,1,2,0:0:0:0:
301,182,346329,5,6,0:0:0:0:
159,156,346829,1,6,0:0:0:0:
205,336,347329,5,6,0:0:0:0:
213,333,347391,1,2,0:0:0:0:
222,330,347454,1,2,0:0:0:0:
230,328,347516,1,2,0:0:0:0:
239,325,347579,1,2,0:0:0:0:
248,323,347641,1,2,0:0:0:0:
257,321,347704,1,2,0:0:0:0:
265,320,347766,1,2,0:0:0:0:
274,318,347829,1,2,0:0:0:0:
283,317,347891,1,2,0:0:0:0:
292,315,347954,1,2,0:0:0:0:
301,314,348016,1,2,0:0:0:0:
310,313,348079,1,2,0:0:0:0:
319,313,348141,1,2,0:0:0:0:
328,312,348204,1,2,0:0:0:0:
337,312,348266,1,2,0:0:0:0:
396,346,348329,5,8,0:0:0:0:
390,339,348391,1,2,0:0:0:0:
385,332,348454,1,2,0:0:0:0:
381,324,348516,1,2,0:0:0:0:
378,315,348579,1,2,0:0:0:0:
377,306,348641,1,2,0:0:0:0:
377,297,348704,1,2,0:0:0:0:
379,288,348766,1,2,0:0:0:0:
382,280,348829,1,2,0:0:0:0:
387,272,348891,1,2,0:0:0:0:
392,265,348954,1,2,0:0:0:0:
399,259,349016,1,2,0:0:0:0:
407,254,349079,1,2,0:0:0:0:
415,251,349141,1,2,0:0:0:0:
424,249,349204,1,2,0:0:0:0:
432,248,349266,1,2,0:0:0:0:
482,202,349329,5,8,0:0:0:0:
483,193,349391,1,2,0:0:0:0:
484,184,349454,1,2,0:0:0:0:
485,175,349516,1,2,0:0:0:0:
486,166,349579,1,2,0:0:0:0:
487,157,349641,1,2,0:0:0:0:
422,137,349704,5,8,0:0:0:0:
420,128,349766,1,2,0:0:0:0:
419,119,349829,1,2,0:0:0:0:
418,110,349891,1,2,0:0:0:0:
417,101,349954,1,2,0:0:0:0:
416,92,350016,1,2,0:0:0:0:
478,64,350079,5,8,0:0:0:0:
479,55,350141,1,2,0:0:0:0:
480,46,350204,1,2,0:0:0:0:
481,37,350266,1,2,0:0:0:0:
421,3,350329,5,6,0:0:0:0:
263,260,351329,5,8,0:0:0:0:
254,260,351391,1,2,0:0:0:0:
245,261,351454,1,2,0:0:0:0:
236,261,351516,1,2,0:0:0:0:
227,262,351579,1,2,0:0:0:0:
218,263,351641,1,2,0:0:0:0:
209,263,351704,1,2,0:0:0:0:
200,264,351766,1,2,0:0:0:0:
191,265,351829,1,2,0:0:0:0:
73,88,352329,5,6,0:0:0:0:
35,226,352829,1,6,0:0:0:0:
249,172,353329,5,6,0:0:0:0:
248,163,353391,1,2,0:0:0:0:
247,154,353454,1,2,0:0:0:0:
247,145,353516,1,2,0:0:0:0:
246,136,353579,1,2,0:0:0:0:
246,127,353641,1,2,0:0:0:0:
245,118,353704,1,2,0:0:0:0:
245,109,353766,1,2,0:0:0:0:
244,100,353829,1,2,0:0:0:0:
244,91,353891,1,2,0:0:0:0:
243,82,353954,1,2,0:0:0:0:
243,73,354016,1,2,0:0:0:0:
242,64,354079,1,2,0:0:0:0:
241,55,354141,1,2,0:0:0:0:
241,46,354204,1,2,0:0:0:0:
240,37,354266,1,2,0:0:0:0:
176,59,354329,5,8,0:0:0:0:
179,67,354391,1,2,0:0:0:0:
184,75,354454,1,2,0:0:0:0:
189,82,354516,1,2,0:0:0:0:
195,88,354579,1,2,0:0:0:0:
203,94,354641,1,2,0:0:0:0:
210,99,354704,1,2,0:0:0:0:
218,102,354766,1,2,0:0:0:0:
227,105,354829,1,2,0:0:0:0:
236,106,354891,1,2,0:0:0:0:
245,106,354954,1,2,0:0:0:0:
254,105,355016,1,2,0:0:0:0:
263,103,355079,1,2,0:0:0:0:
271,99,355141,1,2,0:0:0:0:
279,95,355204,1,2,0:0:0:0:
286,90,355266,1,2,0:0:0:0:
320,31,355329,5,6,0:0:0:0:
159,250,356329,5,8,0:0:0:0:
150,246,356391,1,2,0:0:0:0:
142,243,356454,1,2,0:0:0:0:
133,240,356516,1,2,0:0:0:0:
124,238,356579,1,2,0:0:0:0:
116,237,356641,1,2,0:0:0:0:
107,235,356704,1,2,0:0:0:0:
98,235,356766,1,2,0:0:0:0:
89,235,356829,1,2,0:0:0:0:
281,140,357329,5,6,0:0:0:0:
281,140,357829,1,2,0:0:0:0:
475,277,358329,6,0,L|430:271,1,45,8|2,0:0|0:0,0:0:0:0:
487,289,358454,2,0,L|442:283,1,45,8|2,0:0|0:0,0:0:0:0:
294,265,358579,6,0,L|338:259,1,45,8|2,0:0|0:0,0:0:0:0:
282,277,358704,2,0,L|326:271,1,45,8|2,0:0|0:0,0:0:0:0:
405,177,358829,6,0,P|412:146|412:113,1,45,8|2,0:0|0:0,0:0:0:0:
417,189,358954,2,0,P|424:158|424:125,1,45,8|2,0:0|0:0,0:0:0:0:
299,59,359079,6,0,P|301:81|306:103,1,45,8|2,0:0|0:0,0:0:0:0:
311,47,359204,2,0,P|313:69|318:91,1,45,8|2,0:0|0:0,0:0:0:0:
193,179,359329,6,0,L|148:173,1,45,8|2,0:0|0:0,0:0:0:0:
205,191,359454,2,0,L|160:185,1,45,8|2,0:0|0:0,0:0:0:0:
294,265,359579,6,0,L|338:259,1,45,8|2,0:0|0:0,0:0:0:0:
282,277,359704,2,0,L|326:271,1,45,8|2,0:0|0:0,0:0:0:0:
175,303,359829,6,0,P|166:330|164:359,1,45,8|2,0:0|0:0,0:0:0:0:
163,291,359954,2,0,P|154:318|152:347,1,45,8|2,0:0|0:0,0:0:0:0:
37,228,360079,6,0,P|46:255|48:284,1,45,8|2,0:0|0:0,0:0:0:0:
49,216,360204,2,0,P|58:243|60:272,1,45,8|2,0:0|0:0,0:0:0:0:
194,96,360329,6,0,L|201:33,5,45,6|2|2|2|2|2,0:0|0:0|0:0|0:0|0:0|0:0,0:0:0:0:
105,139,360704,2,0,L|98:76,5,45,6|2|2|2|2|2,0:0|0:0|0:0|0:0|0:0|0:0,0:0:0:0:
185,201,361079,5,6,0:0:0:0:
193,203,361141,1,2,0:0:0:0:
201,205,361204,1,2,0:0:0:0:
209,207,361266,1,2,0:0:0:0:
274,225,361329,5,6,0:0:0:0:
109,330,362329,5,8,0:0:0:0:
108,321,362391,1,2,0:0:0:0:
107,312,362454,1,2,0:0:0:0:
106,303,362516,1,2,0:0:0:0:
105,294,362579,1,2,0:0:0:0:
104,285,362641,1,2,0:0:0:0:
103,276,362704,1,2,0:0:0:0:
102,267,362766,1,2,0:0:0:0:
101,258,362829,1,2,0:0:0:0:
307,193,363329,5,6,0:0:0:0:
307,184,363391,1,2,0:0:0:0:
308,175,363454,1,2,0:0:0:0:
309,166,363516,1,2,0:0:0:0:
310,157,363579,1,2,0:0:0:0:
311,148,363641,1,2,0:0:0:0:
312,139,363704,1,2,0:0:0:0:
313,130,363766,1,2,0:0:0:0:
314,121,363829,1,2,0:0:0:0:
314,121,364079,1,2,0:0:0:0:
292,229,364329,6,0,P|270:235|227:238,1,45,8|2,0:0|0:0,0:0:0:0:
304,241,364454,2,0,P|282:247|239:250,1,45,8|2,0:0|0:0,0:0:0:0:
395,199,364579,6,0,P|417:201|438:207,1,45,8|2,0:0|0:0,0:0:0:0:
407,211,364704,2,0,P|429:213|450:219,1,45,8|2,0:0|0:0,0:0:0:0:
314,121,364829,6,0,L|307:54,1,45,8|2,0:0|0:0,0:0:0:0:
326,133,364954,2,0,L|319:66,1,45,8|2,0:0|0:0,0:0:0:0:
191,54,365079,6,0,P|166:49|133:49,1,45,8|2,0:0|0:0,0:0:0:0:
203,66,365204,2,0,P|178:61|145:61,1,45,8|2,0:0|0:0,0:0:0:0:
40,149,365329,6,0,P|62:147|84:143,1,45,8|2,0:0|0:0,0:0:0:0:
27,161,365454,2,0,P|49:159|71:155,1,45,8|2,0:0|0:0,0:0:0:0:
225,212,365579,6,0,L|234:272,1,45,8|2,0:0|0:0,0:0:0:0:
237,200,365704,2,0,L|246:260,1,45,8|2,0:0|0:0,0:0:0:0:
343,348,365829,6,0,L|352:288,1,45,8|2,0:0|0:0,0:0:0:0:
355,360,365954,2,0,L|364:300,1,45,8|2,0:0|0:0,0:0:0:0:
421,179,366079,6,0,P|454:173|493:171,1,45,8|2,0:0|0:0,0:0:0:0:
409,167,366204,2,0,P|442:161|481:159,1,45,8|2,0:0|0:0,0:0:0:0:
301,102,366329,6,0,L|295:41,1,45,8|2,0:0|0:0,0:0:0:0:
289,114,366454,2,0,L|283:53,1,45,8|2,0:0|0:0,0:0:0:0:
183,192,366579,6,0,P|207:199|243:202,1,45,8|2,0:0|0:0,0:0:0:0:
171,204,366704,2,0,P|195:211|231:214,1,45,8|2,0:0|0:0,0:0:0:0:
80,128,366829,6,0,P|57:131|36:137,1,45,8|2,0:0|0:0,0:0:0:0:
68,140,366954,2,0,P|45:143|24:149,1,45,8|2,0:0|0:0,0:0:0:0:
186,92,367079,6,0,P|194:74|199:36,1,45,8|2,0:0|0:0,0:0:0:0:
198,104,367204,2,0,P|206:86|211:48,1,45,8|2,0:0|0:0,0:0:0:0:
80,225,367329,5,6,0:0:0:0:
78,242,367704,1,6,0:0:0:0:
76,259,368079,1,6,0:0:0:0:
222,306,368329,5,6,0:0:0:0:
311,297,368588,1,2,0:0:0:0:
401,289,368849,1,0,0:0:0:0:
401,289,369110,1,0,0:0:0:0:
222,306,369329,5,6,0:0:0:0:
191,267,369391,1,8,0:0:0:0:
187,217,369454,1,8,0:0:0:0:
212,174,369516,1,8,0:0:0:0:
256,152,369579,1,8,0:0:0:0:
304,157,369641,1,8,0:0:0:0:
343,187,369704,5,6,0:0:0:0:
300,212,369766,1,8,0:0:0:0:
250,205,369829,1,8,0:0:0:0:
212,174,369891,1,8,0:0:0:0:
173,141,369954,1,8,0:0:0:0:
124,137,370016,1,8,0:0:0:0:
80,160,370079,5,2,0:0:0:0:
78,142,370141,1,2,0:0:0:0:
76,123,370204,1,2,0:0:0:0:
74,105,370266,1,2,0:0:0:0:
72,86,370329,6,0,L|21:81,5,45,6|2|2|2|2|2,0:0|0:0|0:0|0:0|0:0|0:0,0:0:0:0:
163,11,370704,2,0,L|112:16,5,45,6|2|2|2|2|2,0:0|0:0|0:0|0:0|0:0|0:0,0:0:0:0:
318,85,371079,5,2,0:0:0:0:
305,132,371141,1,8,0:0:0:0:
257,142,371204,1,8,0:0:0:0:
222,108,371266,1,8,0:0:0:0:
233,59,371329,5,2,0:0:0:0:
270,93,371391,1,8,0:0:0:0:
284,140,371454,1,8,0:0:0:0:
268,186,371516,1,8,0:0:0:0:
237,225,371579,1,8,0:0:0:0:
232,273,371641,1,8,0:0:0:0:
255,316,371704,5,2,0:0:0:0:
237,316,371766,1,2,0:0:0:0:
219,317,371829,1,2,0:0:0:0:
201,318,371891,1,2,0:0:0:0:
183,319,371954,1,2,0:0:0:0:
165,320,372016,1,2,0:0:0:0:
147,321,372079,1,2,0:0:0:0:
129,321,372141,1,2,0:0:0:0:
111,322,372204,1,2,0:0:0:0:
93,323,372266,1,2,0:0:0:0:
25,326,372329,5,6,0:0:0:0:
27,317,372391,1,2,0:0:0:0:
29,308,372454,1,2,0:0:0:0:
31,299,372516,1,2,0:0:0:0:
31,290,372579,1,2,0:0:0:0:
32,281,372641,1,2,0:0:0:0:
31,272,372704,1,2,0:0:0:0:
30,263,372766,1,2,0:0:0:0:
68,239,372829,5,2,0:0:0:0:
65,230,372891,1,2,0:0:0:0:
63,221,372954,1,2,0:0:0:0:
61,212,373016,1,2,0:0:0:0:
61,203,373079,1,2,0:0:0:0:
60,194,373141,1,2,0:0:0:0:
61,185,373204,1,2,0:0:0:0:
62,176,373266,1,2,0:0:0:0:
24,119,373329,5,8,0:0:0:0:
32,123,373391,1,2,0:0:0:0:
41,125,373454,1,2,0:0:0:0:
50,126,373516,1,2,0:0:0:0:
59,125,373579,1,2,0:0:0:0:
67,123,373641,1,2,0:0:0:0:
76,119,373704,1,2,0:0:0:0:
83,114,373766,1,2,0:0:0:0:
89,108,373829,1,2,0:0:0:0:
94,101,373891,1,2,0:0:0:0:
98,92,373954,1,2,0:0:0:0:
100,84,374016,1,2,0:0:0:0:
118,42,374079,6,0,L|178:38,3,45,2|2|2|2,0:0|0:0|0:0|0:0,0:0:0:0:
235,117,374329,5,6,0:0:0:0:
243,117,374391,1,2,0:0:0:0:
252,118,374454,1,2,0:0:0:0:
261,119,374516,1,2,0:0:0:0:
270,120,374579,1,2,0:0:0:0:
279,121,374641,1,2,0:0:0:0:
288,122,374704,1,2,0:0:0:0:
297,123,374766,1,2,0:0:0:0:
312,166,374829,5,2,0:0:0:0:
320,165,374891,1,2,0:0:0:0:
329,164,374954,1,2,0:0:0:0:
338,163,375016,1,2,0:0:0:0:
347,162,375079,1,2,0:0:0:0:
356,161,375141,1,2,0:0:0:0:
365,160,375204,1,2,0:0:0:0:
374,159,375266,1,2,0:0:0:0:
430,120,375329,5,8,0:0:0:0:
427,128,375391,1,2,0:0:0:0:
425,137,375454,1,2,0:0:0:0:
424,146,375516,1,2,0:0:0:0:
424,155,375579,1,2,0:0:0:0:
424,164,375641,1,2,0:0:0:0:
424,173,375704,1,2,0:0:0:0:
425,182,375766,1,2,0:0:0:0:
466,201,375829,5,2,0:0:0:0:
468,209,375891,1,2,0:0:0:0:
470,218,375954,1,2,0:0:0:0:
471,227,376016,1,2,0:0:0:0:
471,236,376079,1,2,0:0:0:0:
471,245,376141,1,2,0:0:0:0:
471,254,376204,1,2,0:0:0:0:
470,263,376266,1,2,0:0:0:0:
435,292,376329,5,6,0:0:0:0:
426,292,376391,1,2,0:0:0:0:
417,293,376454,1,2,0:0:0:0:
408,294,376516,1,2,0:0:0:0:
399,295,376579,1,2,0:0:0:0:
390,296,376641,1,2,0:0:0:0:
381,297,376704,1,2,0:0:0:0:
372,297,376766,1,2,0:0:0:0:
343,263,376829,5,2,0:0:0:0:
334,262,376891,1,2,0:0:0:0:
325,261,376954,1,2,0:0:0:0:
316,260,377016,1,2,0:0:0:0:
307,259,377079,1,2,0:0:0:0:
298,258,377141,1,2,0:0:0:0:
289,257,377204,1,2,0:0:0:0:
280,257,377266,1,2,0:0:0:0:
225,297,377329,5,8,0:0:0:0:
230,303,377391,1,2,0:0:0:0:
237,309,377454,1,2,0:0:0:0:
244,315,377516,1,2,0:0:0:0:
252,319,377579,1,2,0:0:0:0:
261,322,377641,1,2,0:0:0:0:
269,324,377704,1,2,0:0:0:0:
278,325,377766,1,2,0:0:0:0:
287,324,377829,1,2,0:0:0:0:
296,323,377891,1,2,0:0:0:0:
305,320,377954,1,2,0:0:0:0:
313,316,378016,1,2,0:0:0:0:
320,311,378079,1,2,0:0:0:0:
327,306,378141,1,2,0:0:0:0:
333,299,378204,1,2,0:0:0:0:
339,292,378266,1,2,0:0:0:0:
343,284,378329,1,2,0:0:0:0:
346,275,378391,1,2,0:0:0:0:
348,266,378454,1,2,0:0:0:0:
349,258,378516,1,2,0:0:0:0:
348,249,378579,1,2,0:0:0:0:
346,240,378641,1,2,0:0:0:0:
344,231,378704,1,2,0:0:0:0:
340,223,378766,1,2,0:0:0:0:
335,215,378829,1,2,0:0:0:0:
329,209,378891,1,2,0:0:0:0:
323,203,378954,1,2,0:0:0:0:
315,197,379016,1,2,0:0:0:0:
307,193,379079,1,2,0:0:0:0:
299,190,379141,1,2,0:0:0:0:
290,188,379204,1,2,0:0:0:0:
281,188,379266,1,2,0:0:0:0:
235,206,379329,5,8,0:0:0:0:
273,236,379391,1,8,0:0:0:0:
320,220,379454,1,8,0:0:0:0:
328,171,379516,1,8,0:0:0:0:
288,140,379579,6,0,L|283:78,3,45,2|2|2|2,0:0|0:0|0:0|0:0,0:0:0:0:
317,4,379829,5,8,0:0:0:0:
291,45,379891,1,8,0:0:0:0:
245,66,379954,1,8,0:0:0:0:
196,59,380016,1,8,0:0:0:0:
158,26,380079,6,0,L|96:21,3,45,2|2|2|2,0:0|0:0|0:0|0:0,0:0:0:0:
65,96,380329,5,6,0:0:0:0:
68,104,380391,1,2,0:0:0:0:
70,113,380454,1,2,0:0:0:0:
71,122,380516,1,2,0:0:0:0:
72,131,380579,1,2,0:0:0:0:
72,140,380641,1,2,0:0:0:0:
72,149,380704,1,2,0:0:0:0:
71,158,380766,1,2,0:0:0:0:
111,177,380829,5,2,0:0:0:0:
109,185,380891,1,2,0:0:0:0:
107,194,380954,1,2,0:0:0:0:
106,203,381016,1,2,0:0:0:0:
105,212,381079,1,2,0:0:0:0:
105,221,381141,1,2,0:0:0:0:
105,230,381204,1,2,0:0:0:0:
106,239,381266,1,2,0:0:0:0:
65,292,381329,5,8,0:0:0:0:
73,286,381391,1,2,0:0:0:0:
81,282,381454,1,2,0:0:0:0:
90,280,381516,1,2,0:0:0:0:
98,279,381579,1,2,0:0:0:0:
107,280,381641,1,2,0:0:0:0:
116,283,381704,1,2,0:0:0:0:
124,287,381766,1,2,0:0:0:0:
131,292,381829,1,2,0:0:0:0:
137,299,381891,1,2,0:0:0:0:
142,307,381954,1,2,0:0:0:0:
145,315,382016,1,2,0:0:0:0:
179,345,382079,6,0,L|254:350,3,45,2|2|2|2,0:0|0:0|0:0|0:0,0:0:0:0:
317,299,382329,5,6,0:0:0:0:
320,290,382391,1,2,0:0:0:0:
322,281,382454,1,2,0:0:0:0:
323,272,382516,1,2,0:0:0:0:
324,263,382579,1,2,0:0:0:0:
324,254,382641,1,2,0:0:0:0:
323,245,382704,1,2,0:0:0:0:
321,236,382766,1,2,0:0:0:0:
278,223,382829,5,2,0:0:0:0:
276,214,382891,1,2,0:0:0:0:
274,205,382954,1,2,0:0:0:0:
273,196,383016,1,2,0:0:0:0:
272,187,383079,1,2,0:0:0:0:
272,178,383141,1,2,0:0:0:0:
273,169,383204,1,2,0:0:0:0:
275,160,383266,1,2,0:0:0:0:
304,98,383329,5,8,0:0:0:0:
296,100,383391,1,2,0:0:0:0:
287,103,383454,1,2,0:0:0:0:
278,104,383516,1,2,0:0:0:0:
269,105,383579,1,2,0:0:0:0:
260,106,383641,1,2,0:0:0:0:
251,105,383704,1,2,0:0:0:0:
243,104,383766,1,2,0:0:0:0:
213,70,383829,5,2,0:0:0:0:
205,67,383891,1,2,0:0:0:0:
196,65,383954,1,2,0:0:0:0:
187,63,384016,1,2,0:0:0:0:
178,62,384079,1,2,0:0:0:0:
169,62,384141,1,2,0:0:0:0:
160,62,384204,1,2,0:0:0:0:
151,63,384266,1,2,0:0:0:0:
115,90,384329,5,6,0:0:0:0:
114,98,384391,1,2,0:0:0:0:
113,107,384454,1,2,0:0:0:0:
112,116,384516,1,2,0:0:0:0:
111,125,384579,1,2,0:0:0:0:
110,134,384641,1,2,0:0:0:0:
109,143,384704,1,2,0:0:0:0:
108,152,384766,1,2,0:0:0:0:
146,177,384829,5,2,0:0:0:0:
148,185,384891,1,2,0:0:0:0:
149,194,384954,1,2,0:0:0:0:
150,203,385016,1,2,0:0:0:0:
151,212,385079,1,2,0:0:0:0:
152,221,385141,1,2,0:0:0:0:
153,230,385204,1,2,0:0:0:0:
154,239,385266,1,2,0:0:0:0:
97,276,385329,5,8,0:0:0:0:
93,268,385391,1,2,0:0:0:0:
90,259,385454,1,2,0:0:0:0:
88,250,385516,1,2,0:0:0:0:
87,242,385579,1,2,0:0:0:0:
87,233,385641,1,2,0:0:0:0:
88,224,385704,1,2,0:0:0:0:
91,215,385766,1,2,0:0:0:0:
95,207,385829,1,2,0:0:0:0:
99,199,385891,1,2,0:0:0:0:
105,192,385954,1,2,0:0:0:0:
111,186,386016,1,2,0:0:0:0:
119,181,386079,1,2,0:0:0:0:
127,177,386141,1,2,0:0:0:0:
135,173,386204,1,2,0:0:0:0:
144,171,386266,1,2,0:0:0:0:
153,170,386329,1,2,0:0:0:0:
162,171,386391,1,2,0:0:0:0:
171,172,386454,1,2,0:0:0:0:
179,175,386516,1,2,0:0:0:0:
187,179,386579,1,2,0:0:0:0:
195,183,386641,1,2,0:0:0:0:
202,189,386704,1,2,0:0:0:0:
208,196,386766,1,2,0:0:0:0:
213,203,386829,1,2,0:0:0:0:
217,211,386891,1,2,0:0:0:0:
220,219,386954,1,2,0:0:0:0:
222,228,387016,1,2,0:0:0:0:
256,258,387079,6,0,L|326:262,3,45,2|2|2|2,0:0|0:0|0:0|0:0,0:0:0:0:
381,185,387329,6,0,L|388:125,5,45,6|2|2|2|2|2,0:0|0:0|0:0|0:0|0:0|0:0,0:0:0:0:
503,90,387704,2,0,L|448:113,5,45,6|2|2|2|2|2,0:0|0:0|0:0|0:0|0:0|0:0,0:0:0:0:
360,31,388079,2,0,L|409:67,3,45,6|2|2|2,0:0|0:0|0:0|0:0,0:0:0:0:
233,80,388329,6,0,P|211:72|182:69,1,45,8|2,0:0|0:0,0:0:0:0:
245,68,388454,2,0,P|223:60|194:57,1,45,8|2,0:0|0:0,0:0:0:0:
329,153,388579,6,0,P|352:149|373:142,1,45,8|2,0:0|0:0,0:0:0:0:
318,164,388704,2,0,P|341:160|362:153,1,45,8|2,0:0|0:0,0:0:0:0:
219,198,388829,6,0,P|211:226|210:255,1,45,8|2,0:0|0:0,0:0:0:0:
207,186,388954,2,0,P|199:214|198:243,1,45,8|2,0:0|0:0,0:0:0:0:
323,317,389079,6,0,L|383:321,1,45,8|2,0:0|0:0,0:0:0:0:
311,329,389204,2,0,L|371:333,1,45,8|2,0:0|0:0,0:0:0:0:
190,350,389329,6,0,L|130:354,1,45,8|2,0:0|0:0,0:0:0:0:
202,362,389454,2,0,L|142:366,1,45,8|2,0:0|0:0,0:0:0:0:
47,267,389579,6,0,P|41:246|38:209,1,45,8|2,0:0|0:0,0:0:0:0:
35,279,389704,2,0,P|29:258|26:221,1,45,8|2,0:0|0:0,0:0:0:0:
141,131,389829,6,0,P|139:153|133:174,1,45,8|2,0:0|0:0,0:0:0:0:
153,119,389954,2,0,P|151:141|145:162,1,45,8|2,0:0|0:0,0:0:0:0:
22,52,390079,6,0,L|76:43,3,45,8|2|2|2,0:0|0:0|0:0|0:0,0:0:0:0:
201,23,390329,5,6,0:0:0:0:
256,192,390391,12,0,403954,0:0:0:0:
