osu file format v14

[General]
AudioFilename: audio.mp3
AudioLeadIn: 0
PreviewTime: 36092
Countdown: 0
SampleSet: Normal
StackLeniency: 0.3
Mode: 0
LetterboxInBreaks: 0
WidescreenStoryboard: 0

[Editor]
DistanceSpacing: 5.9
BeatDivisor: 4
GridSize: 8
TimelineZoom: 1

[Metadata]
Title:Monkey Target 2
TitleUnicode:Monkey Target 2
Artist:Hidenori Shoji, Haruyoshi Tomita
ArtistUnicode:Hidenori Shoji, Haruyoshi Tomita
Creator:NOIN
Version:Flight
Source:Super Monkey Ball 2
Tags:
BeatmapID:2239593
BeatmapSetID:1069903

[Difficulty]
HPDrainRate:5.5
CircleSize:5
OverallDifficulty:9
ApproachRate:8.5
SliderMultiplier:2.4
SliderTickRate:1

[Events]
//Background and Video events
0,0,"ssssk.jpg",0,0
//Break Periods
//Storyboard Layer 0 (Background)
//Storyboard Layer 1 (Fail)
//Storyboard Layer 2 (Pass)
//Storyboard Layer 3 (Foreground)
//Storyboard Layer 4 (Overlay)
//Storyboard Sound Samples

[TimingPoints]
150,500,4,1,0,40,1,0
150,-400,4,1,0,20,0,0
3400,-400,4,1,0,40,0,0
4150,-80,4,1,0,40,0,0
11400,-64.5161290322581,4,1,0,40,0,0
11650,-68.9655172413793,4,1,0,40,0,0
11900,-74.0740740740741,4,1,0,40,0,0
12150,-80,4,1,0,40,0,0
19400,-64.5161290322581,4,1,0,40,0,0
19650,-68.9655172413793,4,1,0,40,0,0
19900,-74.0740740740741,4,1,0,40,0,0
20150,-80,4,1,0,40,0,0
27400,-64.5161290322581,4,1,0,40,0,0
27650,-68.9655172413793,4,1,0,40,0,0
27900,-74.0740740740741,4,1,0,40,0,0
28150,-80,4,1,0,40,0,0
35400,-64.5161290322581,4,1,0,40,0,0
35650,-68.9655172413793,4,1,0,40,0,0
35900,-74.0740740740741,4,1,0,40,0,0
36150,-57.1428571428571,4,1,0,40,0,0
38150,-60.6060606060606,4,1,0,40,0,0
40150,-64.5161290322581,4,1,0,40,0,0
42150,-68.9655172413793,4,1,0,40,0,0
43150,-74.0740740740741,4,1,0,40,0,0
44150,-80,4,1,0,40,0,0
51400,-74.0740740740741,4,1,0,40,0,0
51650,-68.9655172413793,4,1,0,40,0,0
51900,-64.5161290322581,4,1,0,40,0,0
52150,-57.1428571428571,4,1,0,40,0,0
54150,-60.6060606060606,4,1,0,40,0,0
56150,-64.5161290322581,4,1,0,40,0,0
58150,-68.9655172413793,4,1,0,40,0,0
59150,-74.0740740740741,4,1,0,40,0,0
60150,-80,4,1,0,40,0,0
67400,-64.5161290322581,4,1,0,40,0,0
67650,-68.9655172413793,4,1,0,40,0,0
67900,-74.0740740740741,4,1,0,40,0,0
68150,-80,4,1,0,40,0,0
69150,-86.9565217391304,4,1,0,30,0,0
70150,-95.2380952380952,4,1,0,20,0,0
71150,-105.263157894737,4,1,0,10,0,0
72150,-117.647058823529,4,1,0,5,0,0

[Colours]
Combo1 : 140,255,155
Combo2 : 179,255,255
Combo3 : 125,162,255
Combo4 : 214,214,214

[HitObjects]
208,296,150,6,0,P|206:314|208:331,1,30
303,256,650,2,0,P|305:274|303:291,1,30
200,288,1150,2,0,P|198:306|200:323,1,30
296,248,1650,1,0,0:0:0:0:
290,173,1900,6,0,P|286:202|290:231,1,60
296,157,2650,2,0,P|298:139|296:122,1,30
191,145,3150,1,0,0:0:0:0:
437,331,3400,5,2,0:0:0:0:
446,339,3650,5,8,0:0:0:0:
339,325,3775,1,8,0:0:0:0:
231,310,3900,1,8,0:0:0:0:
124,296,4025,1,8,0:0:0:0:
94,153,4150,5,6,0:0:0:0:
506,208,4400,2,0,P|469:213|432:208,1,75
332,159,4650,1,8,0:0:0:0:
438,121,4775,2,0,P|444:158|438:195,1,75
374,286,5025,1,0,0:0:0:0:
268,238,5150,6,0,P|259:164|268:90,1,150,2|0,0:0|0:0,0:0:0:0:
344,159,5525,1,0,0:0:0:0:
235,171,5650,2,0,P|198:176|161:171,1,75,8|0,0:0|0:0,0:0:0:0:
0,40,5900,2,0,P|37:35|74:40,1,75
256,340,6150,5,2,0:0:0:0:
195,25,6400,2,0,P|190:62|195:99,1,75
244,199,6650,1,8,0:0:0:0:
282,93,6775,2,0,P|245:87|208:93,1,75
117,163,7025,1,0,0:0:0:0:
160,290,7150,5,2,0:0:0:0:
494,151,7400,2,0,P|457:146|420:151,1,75
172,285,7650,5,8,0:0:0:0:
227,384,7775,1,0,0:0:0:0:
336,362,7900,1,0,0:0:0:0:
350,251,8025,1,0,0:0:0:0:
248,204,8150,5,2,0:0:0:0:
0,40,8400,2,0,P|37:35|74:40,1,75
194,130,8650,1,8,0:0:0:0:
74,220,8775,2,0,P|37:225|0:220,1,75
37,130,9025,1,0,0:0:0:0:
202,143,9150,6,0,P|211:217|202:291,1,150,2|0,0:0|0:0,0:0:0:0:
115,347,9525,1,0,0:0:0:0:
217,283,9650,2,0,P|254:278|291:283,1,75,8|0,0:0|0:0,0:0:0:0:
512,377,9900,2,0,P|475:382|438:377,1,75
345,33,10150,5,2,0:0:0:0:
414,303,10400,2,0,P|419:266|414:229,1,75
323,108,10650,1,8,0:0:0:0:
234,229,10775,2,0,P|229:266|234:303,1,75
324,266,11025,1,0,0:0:0:0:
329,94,11150,5,2,0:0:0:0:
278,373,11400,2,0,P|323:379|369:373,1,93.0000007095337
500,244,11650,2,0,P|505:201|500:158,1,87.0000026550294,8|0,0:0|0:0,0:0:0:0:
418,78,11900,2,0,P|378:72|338:78,1,81.0000003089905,2|0,0:0|0:0,0:0:0:0:
124,310,12150,5,6,0:0:0:0:
40,0,12400,2,0,P|35:37|40:74,1,75
147,218,12650,1,8,0:0:0:0:
184,128,12775,2,0,P|147:123|110:128,1,75
44,309,13025,1,0,0:0:0:0:
153,382,13150,6,0,P|162:307|153:233,1,150,2|0,0:0|0:0,0:0:0:0:
69,182,13525,1,0,0:0:0:0:
58,316,13650,2,0,P|95:321|132:316,1,75,8|0,0:0|0:0,0:0:0:0:
270,125,13900,2,0,P|233:120|196:125,1,75
341,374,14150,5,2,0:0:0:0:
506,75,14400,2,0,P|511:112|506:149,1,75
409,291,14650,1,8,0:0:0:0:
372,201,14775,2,0,P|409:196|446:201,1,75
512,382,15025,1,0,0:0:0:0:
314,384,15150,5,2,0:0:0:0:
416,50,15400,2,0,P|421:87|416:124,1,75
319,372,15650,5,8,0:0:0:0:
220,317,15775,1,0,0:0:0:0:
242,208,15900,1,0,0:0:0:0:
353,194,16025,1,0,0:0:0:0:
400,296,16150,5,2,0:0:0:0:
82,377,16400,2,0,P|119:382|156:377,1,75
275,277,16650,1,8,0:0:0:0:
246,184,16775,2,0,P|209:179|172:184,1,75
90,281,17025,1,0,0:0:0:0:
179,170,17150,6,0,P|188:95|179:21,1,150,2|0,0:0|0:0,0:0:0:0:
82,39,17525,1,0,0:0:0:0:
211,95,17650,2,0,P|248:100|285:95,1,75,8|0,0:0|0:0,0:0:0:0:
512,9,17900,2,0,P|475:4|438:9,1,75
379,308,18150,5,2,0:0:0:0:
441,20,18400,2,0,P|446:57|441:94,1,75
341,213,18650,1,8,0:0:0:0:
248,184,18775,2,0,P|243:147|248:110,1,75
345,28,19025,1,0,0:0:0:0:
346,200,19150,5,2,0:0:0:0:
101,247,19400,2,0,P|95:202|101:156,1,93.0000007095337
246,21,19650,2,0,P|289:16|332:21,1,87.0000026550294,8|0,0:0|0:0,0:0:0:0:
420,106,19900,2,0,P|426:146|420:186,1,81.0000003089905,2|0,0:0|0:0,0:0:0:0:
152,300,20150,5,6,0:0:0:0:
512,378,20400,2,0,P|475:383|438:378,1,75
321,231,20650,1,8,0:0:0:0:
417,197,20775,2,0,P|422:234|417:271,1,75
216,328,21025,1,0,0:0:0:0:
379,333,21150,6,0,P|304:342|230:333,1,150,2|0,0:0|0:0,0:0:0:0:
152,224,21525,1,0,0:0:0:0:
243,186,21650,2,0,P|248:223|243:260,1,75,8|0,0:0|0:0,0:0:0:0:
47,384,21900,2,0,P|42:347|47:310,1,75
218,68,22150,5,2,0:0:0:0:
400,384,22400,2,0,P|405:347|400:310,1,75
253,193,22650,1,8,0:0:0:0:
219,289,22775,2,0,P|256:294|293:289,1,75
350,88,23025,1,0,0:0:0:0:
172,123,23150,5,2,0:0:0:0:
512,13,23400,2,0,P|474:7|437:13,1,75
184,118,23650,5,8,0:0:0:0:
239,217,23775,1,0,0:0:0:0:
348,195,23900,1,0,0:0:0:0:
362,84,24025,1,0,0:0:0:0:
260,37,24150,5,2,0:0:0:0:
107,346,24400,2,0,P|102:309|107:272,1,75
164,151,24650,1,8,0:0:0:0:
254,114,24775,2,0,P|259:151|254:188,1,75
112,258,25025,1,0,0:0:0:0:
4,148,25150,6,0,P|79:139|153:148,1,150,2|0,0:0|0:0,0:0:0:0:
211,267,25525,1,0,0:0:0:0:
107,346,25650,2,0,P|102:309|107:272,1,75,8|0,0:0|0:0,0:0:0:0:
155,63,25900,2,0,P|160:100|155:137,1,75
0,333,26150,5,2,0:0:0:0:
382,204,26400,2,0,P|344:198|307:204,1,75
186,260,26650,1,8,0:0:0:0:
149,350,26775,2,0,P|186:355|223:349,1,75
293,208,27025,1,0,0:0:0:0:
118,226,27150,5,2,0:0:0:0:
468,243,27400,2,0,P|474:198|468:152,1,93.0000007095337
339,21,27650,2,0,P|296:16|253:21,1,87.0000026550294,8|0,0:0|0:0,0:0:0:0:
173,103,27900,2,0,P|167:143|173:183,1,81.0000003089905,2|0,0:0|0:0,0:0:0:0:
512,309,28150,5,6,0:0:0:0:
182,378,28400,2,0,P|219:383|256:377,1,75
400,214,28650,1,8,0:0:0:0:
310,181,28775,2,0,P|305:218|311:255,1,75
415,211,29025,1,0,0:0:0:0:
385,80,29150,6,0,P|310:71|236:80,1,150,2|0,0:0|0:0,0:0:0:0:
91,140,29525,1,0,0:0:0:0:
217,162,29650,2,0,P|222:125|216:88,1,75,8|0,0:0|0:0,0:0:0:0:
43,0,29900,2,0,P|38:37|44:74,1,75
235,334,30150,5,2,0:0:0:0:
412,29,30400,2,0,P|417:66|411:103,1,75
248,247,30650,1,8,0:0:0:0:
215,157,30775,2,0,P|252:152|289:158,1,75
245,262,31025,1,0,0:0:0:0:
190,83,31150,5,2,0:0:0:0:
60,384,31400,2,0,P|55:347|60:310,1,75
185,95,31650,5,8,0:0:0:0:
284,150,31775,1,0,0:0:0:0:
262,259,31900,1,0,0:0:0:0:
151,273,32025,1,0,0:0:0:0:
104,171,32150,5,2,0:0:0:0:
480,108,32400,2,0,P|443:103|406:109,1,75
218,187,32650,1,8,0:0:0:0:
278,264,32775,2,0,P|315:269|352:263,1,75
391,116,33025,1,0,0:0:0:0:
278,29,33150,6,0,P|203:20|129:29,1,150,2|0,0:0|0:0,0:0:0:0:
46,173,33525,1,0,0:0:0:0:
100,294,33650,2,0,P|105:257|99:220,1,75,8|0,0:0|0:0,0:0:0:0:
4,46,33900,2,0,P|-1:83|5:120,1,75
238,355,34150,5,2,0:0:0:0:
405,0,34400,2,0,P|410:37|404:74,1,75
326,262,34650,1,8,0:0:0:0:
249,202,34775,2,0,P|244:165|250:128,1,75
397,89,35025,1,0,0:0:0:0:
457,229,35150,5,2,0:0:0:0:
229,377,35400,2,0,P|184:383|138:377,1,93.0000007095337
3,232,35650,2,0,P|-2:189|3:146,1,87.0000026550294,8|0,0:0|0:0,0:0:0:0:
88,58,35900,2,0,P|128:52|168:58,1,81.0000003089905,2|0,0:0|0:0,0:0:0:0:
312,296,36150,6,0,P|299:192|312:88,1,210.000002002716,6|0,0:0|0:0,0:0:0:0:
407,2,36525,1,0,0:0:0:0:
500,87,36650,2,0,P|512:190|499:294,1,210.000002002716,8|0,0:0|0:0,0:0:0:0:
405,381,37025,1,0,0:0:0:0:
312,296,37150,6,0,P|299:192|312:88,1,210.000002002716,2|0,0:0|0:0,0:0:0:0:
407,2,37525,1,0,0:0:0:0:
500,87,37650,1,8,0:0:0:0:
106,300,37900,1,0,0:0:0:0:
49,142,38025,1,0,0:0:0:0:
119,305,38150,6,0,P|216:316|314:305,1,198.000001888275,2|0,0:0|0:0,0:0:0:0:
391,214,38525,1,0,0:0:0:0:
315,123,38650,2,0,P|216:110|118:122,1,198.000001888275,8|0,0:0|0:0,0:0:0:0:
43,213,39025,1,0,0:0:0:0:
119,305,39150,6,0,P|216:316|314:305,1,198.000001888275,2|0,0:0|0:0,0:0:0:0:
391,214,39525,1,0,0:0:0:0:
315,123,39650,1,8,0:0:0:0:
17,315,39900,1,0,0:0:0:0:
164,375,40025,1,0,0:0:0:0:
12,301,40150,6,0,P|0:208|11:116,1,186.000001419067,2|0,0:0|0:0,0:0:0:0:
87,33,40525,1,0,0:0:0:0:
162,116,40650,2,0,P|173:208|161:300,1,186.000001419067,8|0,0:0|0:0,0:0:0:0:
87,384,41025,1,0,0:0:0:0:
12,301,41150,6,0,P|0:208|11:116,1,186.000001419067,2|0,0:0|0:0,0:0:0:0:
87,33,41525,1,0,0:0:0:0:
162,116,41650,1,8,0:0:0:0:
466,230,41900,1,0,0:0:0:0:
512,372,42025,1,0,0:0:0:0:
454,225,42150,6,0,P|367:214|281:225,1,174.000005310059,2|0,0:0|0:0,0:0:0:0:
194,284,42525,1,0,0:0:0:0:
281,343,42650,1,8,0:0:0:0:
319,70,42900,1,0,0:0:0:0:
181,88,43025,1,0,0:0:0:0:
330,75,43150,5,2,0:0:0:0:
190,379,43400,2,0,P|184:339|190:299,1,81.0000003089905
341,81,43650,5,8,0:0:0:0:
452,67,43775,1,0,0:0:0:0:
418,245,43900,1,2,0:0:0:0:
319,190,44025,1,0,0:0:0:0:
499,169,44150,5,6,0:0:0:0:
63,58,44400,2,0,P|100:53|137:58,1,75
214,267,44650,1,8,0:0:0:0:
136,209,44775,2,0,P|131:172|136:135,1,75
260,71,45025,1,0,0:0:0:0:
358,172,45150,6,0,P|284:181|210:172,1,150,2|0,0:0|0:0,0:0:0:0:
248,73,45525,1,0,0:0:0:0:
290,202,45650,2,0,P|295:239|290:276,1,75,8|0,0:0|0:0,0:0:0:0:
134,384,45900,2,0,P|129:347|134:310,1,75
444,305,46150,5,2,0:0:0:0:
302,0,46400,2,0,P|297:37|302:74,1,75
511,151,46650,1,8,0:0:0:0:
453,73,46775,2,0,P|416:68|379:73,1,75
315,197,47025,1,0,0:0:0:0:
480,275,47150,5,2,0:0:0:0:
127,378,47400,2,0,P|165:384|202:378,1,75
468,280,47650,5,8,0:0:0:0:
413,181,47775,1,0,0:0:0:0:
392,361,47900,1,0,0:0:0:0:
304,203,48025,1,0,0:0:0:0:
290,314,48150,5,2,0:0:0:0:
398,0,48400,2,0,P|403:37|398:74,1,75
288,199,48650,1,8,0:0:0:0:
219,129,48775,2,0,P|214:92|219:55,1,75
322,91,49025,1,0,0:0:0:0:
364,220,49150,6,0,P|290:229|216:220,1,150,2|0,0:0|0:0,0:0:0:0:
103,91,49525,1,0,0:0:0:0:
219,54,49650,2,0,P|224:91|219:128,1,75,8|0,0:0|0:0,0:0:0:0:
125,326,49900,2,0,P|120:289|125:252,1,75
378,143,50150,5,2,0:0:0:0:
137,334,50400,2,0,P|174:339|211:334,1,75
336,224,50650,1,8,0:0:0:0:
266,155,50775,2,0,P|229:150|192:155,1,75
228,258,51025,1,0,0:0:0:0:
286,73,51150,5,2,0:0:0:0:
276,355,51400,2,0,P|315:360|355:354,1,81.0000003089905
464,261,51650,2,0,P|469:217|464:174,1,87.0000026550294,8|0,0:0|0:0,0:0:0:0:
333,6,51900,2,0,P|287:0|241:5,1,93.0000007095337,2|0,0:0|0:0,0:0:0:0:
255,348,52150,6,0,P|267:244|255:140,1,210.000002002716,6|0,0:0|0:0,0:0:0:0:
133,105,52525,1,0,0:0:0:0:
12,141,52650,2,0,P|0:244|12:348,1,210.000002002716,8|0,0:0|0:0,0:0:0:0:
134,384,53025,1,0,0:0:0:0:
255,348,53150,6,0,P|267:244|255:140,1,210.000002002716,2|0,0:0|0:0,0:0:0:0:
133,105,53525,1,0,0:0:0:0:
12,141,53650,1,8,0:0:0:0:
367,318,53900,1,0,0:0:0:0:
323,156,54025,1,0,0:0:0:0:
354,323,54150,6,0,P|255:334|157:323,1,198.000001888275,2|0,0:0|0:0,0:0:0:0:
128,207,54525,1,0,0:0:0:0:
157,92,54650,2,0,P|255:81|353:92,1,198.000001888275,8|0,0:0|0:0,0:0:0:0:
383,207,55025,1,0,0:0:0:0:
354,323,55150,6,0,P|255:334|157:323,1,198.000001888275,2|0,0:0|0:0,0:0:0:0:
128,207,55525,1,0,0:0:0:0:
157,92,55650,1,8,0:0:0:0:
487,263,55900,1,0,0:0:0:0:
338,209,56025,1,0,0:0:0:0:
494,251,56150,6,0,P|505:159|495:66,1,186.000001419067,2|0,0:0|0:0,0:0:0:0:
384,52,56525,1,0,0:0:0:0:
273,67,56650,2,0,P|262:159|274:251,1,186.000001419067,8|0,0:0|0:0,0:0:0:0:
383,266,57025,1,0,0:0:0:0:
494,251,57150,6,0,P|505:159|495:66,1,186.000001419067,2|0,0:0|0:0,0:0:0:0:
384,52,57525,1,0,0:0:0:0:
273,67,57650,1,8,0:0:0:0:
12,133,57900,1,0,0:0:0:0:
65,272,58025,1,0,0:0:0:0:
26,128,58150,6,0,P|113:117|199:128,1,174.000005310059,2|0,0:0|0:0,0:0:0:0:
209,232,58525,1,0,0:0:0:0:
198,336,58650,1,8,0:0:0:0:
355,92,58900,1,0,0:0:0:0:
491,122,59025,1,0,0:0:0:0:
344,95,59150,5,2,0:0:0:0:
506,384,59400,2,0,P|512:344|506:304,1,81.0000003089905
332,98,59650,5,8,0:0:0:0:
255,262,59775,1,0,0:0:0:0:
413,174,59900,1,2,0:0:0:0:
233,153,60025,1,0,0:0:0:0:
366,276,60150,5,6,0:0:0:0:
0,379,60400,2,0,P|37:384|74:379,1,75
102,155,60650,1,8,0:0:0:0:
36,227,60775,2,0,P|31:264|36:301,1,75
162,351,61025,1,0,0:0:0:0:
259,242,61150,6,0,P|267:167|258:93,1,150,2|0,0:0|0:0,0:0:0:0:
149,31,61525,1,0,0:0:0:0:
115,160,61650,2,0,P|152:165|189:160,1,75,8|0,0:0|0:0,0:0:0:0:
404,54,61900,2,0,P|367:49|330:54,1,75
143,296,62150,5,2,0:0:0:0:
477,377,62400,2,0,P|440:382|403:377,1,75
375,153,62650,1,8,0:0:0:0:
441,225,62775,2,0,P|446:262|441:299,1,75
315,349,63025,1,0,0:0:0:0:
208,283,63150,5,2,0:0:0:0:
364,0,63400,2,0,P|369:37|364:74,1,75
213,271,63650,5,8,0:0:0:0:
114,216,63775,1,0,0:0:0:0:
136,107,63900,1,0,0:0:0:0:
294,195,64025,1,0,0:0:0:0:
247,93,64150,5,2,0:0:0:0:
383,384,64400,2,0,P|388:347|383:310,1,75
311,195,64650,1,8,0:0:0:0:
220,160,64775,2,0,P|215:197|220:234,1,75
378,295,65025,1,0,0:0:0:0:
503,229,65150,6,0,P|511:154|502:80,1,150,2|0,0:0|0:0,0:0:0:0:
369,19,65525,1,0,0:0:0:0:
294,125,65650,2,0,P|289:162|294:199,1,75,8|0,0:0|0:0,0:0:0:0:
463,384,65900,2,0,P|468:347|463:310,1,75
127,315,66150,5,2,0:0:0:0:
206,0,66400,2,0,P|211:37|206:74,1,75
134,189,66650,1,8,0:0:0:0:
43,224,66775,2,0,P|38:187|43:150,1,75
201,89,67025,1,0,0:0:0:0:
193,252,67150,5,2,0:0:0:0:
152,6,67400,2,0,P|197:0|243:6,1,93.0000007095337
381,149,67650,2,0,P|386:192|381:235,1,87.0000026550294,8|0,0:0|0:0,0:0:0:0:
296,323,67900,2,0,P|256:329|216:323,1,81.0000003089905,2|0,0:0|0:0,0:0:0:0:
256,192,68150,5,6,0:0:0:0:
256,192,68275,12,2,72150,0:0:0:0:
