osu file format v14

[General]
AudioFilename: audio.mp3
AudioLeadIn: 0
PreviewTime: 13763
Countdown: 1
SampleSet: Normal
StackLeniency: 0.2
Mode: 0
LetterboxInBreaks: 0
WidescreenStoryboard: 0

[Editor]
DistanceSpacing: 1
BeatDivisor: 4
GridSize: 16
TimelineZoom: 2.2

[Metadata]
Title:Contra Stage 1
TitleUnicode:Contra Stage 1
Artist:Hidenori Maezawa & Kiyohiro Sada
ArtistUnicode:Hidenori Maezawa & Kiyohiro Sada
Creator:GothemCloud
Version:iNTENSE
Source:
Tags:8bit 8 bit retro nes contra
BeatmapID:2053230
BeatmapSetID:981142

[Difficulty]
HPDrainRate:6
CircleSize:4.5
OverallDifficulty:8
ApproachRate:9
SliderMultiplier:1.59999990463257
SliderTickRate:1

[Events]
//Background and Video events
0,0,"contra.jpg",0,0
//Break Periods
//Storyboard Layer 0 (Background)
//Storyboard Layer 1 (Fail)
//Storyboard Layer 2 (Pass)
//Storyboard Layer 3 (Foreground)
//Storyboard Sound Samples

[TimingPoints]
563,400,4,1,0,70,1,0
14663,-95.2380952380952,4,1,0,70,0,1
20513,-100,4,1,0,5,0,1
20563,-100,4,1,0,70,0,1
20963,-100,4,1,0,70,0,1
22563,-100,4,1,0,70,0,0
28563,-100,4,1,0,70,0,1
35363,-100,4,1,0,70,0,0
36663,-95.2380952380952,4,1,0,70,0,0
36963,-100,4,1,0,70,0,0
38263,-95.2380952380952,4,1,0,70,0,0
38563,-100,4,1,0,70,0,0
39863,-95.2380952380952,4,1,0,70,0,0
40163,-100,4,1,0,70,0,0
40763,-100,4,1,0,70,0,1
41463,-95.2380952380952,4,1,0,70,0,1
41763,-100,4,1,0,70,0,1
43063,-95.2380952380952,4,1,0,70,0,1
43363,-100,4,1,0,70,0,1
44663,-95.2380952380952,4,1,0,70,0,1
44963,-100,4,1,0,70,0,1
46263,-95.2380952380952,4,1,0,70,0,1
46563,-100,4,1,0,70,0,1
47163,-166.666666666667,4,1,0,40,0,0
50563,-100,4,1,0,70,0,0
64263,-95.2380952380952,4,1,0,70,0,1
70138,-100,4,1,0,5,0,1
70163,-100,4,1,0,70,0,1
72163,-100,4,1,0,70,0,0

[HitObjects]
384,320,1763,6,0,L|223:320,1,159.999990463257,0|0,3:0|3:0,3:0:0:0:
80,320,2763,1,0,3:0:0:0:
80,240,2963,1,0,3:0:0:0:
80,208,3063,1,0,3:0:0:0:
80,128,3263,1,0,3:0:0:0:
80,96,3363,2,0,L|240:96,1,159.999990463257,0|0,3:0|3:0,3:0:0:0:
400,96,4563,5,0,3:0:0:0:
400,128,4663,1,0,3:0:0:0:
400,208,4863,1,0,3:0:0:0:
400,240,4963,2,0,L|240:240,1,159.999990463257,0|0,3:0|3:0,3:0:0:0:
32,240,5963,5,0,3:0:0:0:
112,240,6163,1,0,3:0:0:0:
112,208,6263,1,0,3:0:0:0:
160,144,6463,1,0,3:0:0:0:
160,176,6563,2,0,L|160:336,1,159.999990463257,0|0,3:0|3:0,3:0:0:0:
464,336,7763,5,0,3:0:0:0:
432,336,7863,1,0,3:0:0:0:
352,336,8063,1,0,3:0:0:0:
320,336,8163,2,0,L|140:336,1,159.999990463257,0|0,3:0|3:0,3:0:0:0:
160,256,9163,5,0,3:0:0:0:
160,176,9363,1,0,3:0:0:0:
160,144,9463,1,0,3:0:0:0:
240,144,9663,1,0,3:0:0:0:
240,112,9763,2,0,L|400:112,1,159.999990463257,0|0,3:0|3:0,3:0:0:0:
400,192,10963,5,0,3:0:0:0:
368,192,11063,1,0,3:0:0:0:
288,192,11263,1,0,3:0:0:0:
256,192,11363,2,0,L|256:352,1,159.999990463257,0|0,3:0|3:0,3:0:0:0:
464,352,12363,5,0,3:0:0:0:
464,272,12563,1,0,3:0:0:0:
464,240,12663,1,0,3:0:0:0:
384,240,12863,1,0,3:0:0:0:
384,272,12963,2,0,L|224:272,1,159.999990463257,0|0,3:0|3:0,3:0:0:0:
64,272,13763,5,0,3:0:0:0:
64,240,13863,1,0,3:0:0:0:
144,240,14063,5,0,3:0:0:0:
144,272,14163,1,0,3:0:0:0:
224,272,14363,5,0,3:0:0:0:
256,272,14463,1,0,3:0:0:0:
288,272,14563,1,0,3:0:0:0:
370,272,14763,2,0,L|496:272,1,125.9999886446,0|0,3:0|3:0,3:0:0:0:
496,144,15363,5,0,3:0:0:0:
416,144,15563,1,0,3:0:0:0:
320,240,15863,1,0,3:0:0:0:
320,192,15963,1,0,3:0:0:0:
320,144,16063,1,0,3:0:0:0:
272,144,16163,5,0,3:0:0:0:
192,144,16363,2,0,L|64:144,1,125.9999886446,0|0,3:0|3:0,3:0:0:0:
64,16,16963,1,0,3:0:0:0:
144,16,17163,1,0,3:0:0:0:
224,16,17363,1,0,3:0:0:0:
272,16,17463,1,0,3:0:0:0:
272,144,17763,5,0,3:0:0:0:
272,224,17963,2,0,L|272:352,1,125.9999886446,0|0,3:0|3:0,3:0:0:0:
400,352,18563,1,0,3:0:0:0:
400,272,18763,1,0,3:0:0:0:
400,144,19063,1,0,3:0:0:0:
400,96,19163,1,0,3:0:0:0:
400,48,19263,1,0,3:0:0:0:
400,0,19363,5,0,3:0:0:0:
320,0,19563,2,0,L|320:128,1,125.9999886446,0|0,3:0|3:0,3:0:0:0:
320,256,20163,2,0,B|160:256,1,157.49998580575,0|0,3:0|3:0,3:0:0:0:
144,256,20563,2,0,L|144:96,1,159.999990463257,0|0,3:0|3:0,3:0:0:0:
144,64,21063,5,0,3:0:0:0:
144,32,21163,1,0,3:0:0:0:
176,32,21263,1,0,3:0:0:0:
208,32,21363,1,0,3:0:0:0:
208,64,21463,1,0,3:0:0:0:
208,96,21563,1,0,3:0:0:0:
240,96,21663,1,0,3:0:0:0:
272,96,21763,1,0,3:0:0:0:
272,128,21863,5,0,3:0:0:0:
272,160,21963,1,0,3:0:0:0:
304,160,22063,1,0,3:0:0:0:
336,160,22163,1,0,3:0:0:0:
336,192,22263,1,0,3:0:0:0:
336,224,22363,1,0,3:0:0:0:
368,224,22463,1,0,3:0:0:0:
400,224,22563,1,0,3:0:0:0:
400,384,22963,5,0,3:0:0:0:
400,352,23063,1,0,3:0:0:0:
320,352,23263,1,0,3:0:0:0:
320,320,23363,2,0,L|208:320,1,79.9999952316285,0|0,3:0|3:0,3:0:0:0:
240,240,23763,5,0,3:0:0:0:
240,272,23863,1,0,3:0:0:0:
160,272,24063,1,0,3:0:0:0:
160,304,24163,2,0,L|0:304,1,159.999990463257,0|0,3:0|3:0,3:0:0:0:
0,144,24963,5,0,3:0:0:0:
192,144,25363,1,0,3:0:0:0:
272,144,25563,1,0,3:0:0:0:
304,144,25663,1,0,3:0:0:0:
336,144,25763,5,0,3:0:0:0:
496,144,26163,1,0,3:0:0:0:
496,112,26263,1,0,3:0:0:0:
384,112,26563,1,0,3:0:0:0:
224,112,26963,1,0,3:0:0:0:
224,80,27063,1,0,3:0:0:0:
112,112,27363,1,0,3:0:0:0:
0,80,27763,5,0,3:0:0:0:
0,48,27863,1,0,3:0:0:0:
80,48,28063,1,0,3:0:0:0:
80,16,28163,1,0,3:0:0:0:
80,176,28563,5,0,3:0:0:0:
112,176,28663,1,0,3:0:0:0:
144,176,28763,1,0,3:0:0:0:
176,176,28863,1,0,3:0:0:0:
208,176,28963,1,0,3:0:0:0:
240,176,29063,1,0,3:0:0:0:
272,176,29163,1,0,3:0:0:0:
272,208,29263,1,0,3:0:0:0:
272,288,29463,5,0,3:0:0:0:
304,288,29563,1,0,3:0:0:0:
336,288,29663,1,0,3:0:0:0:
368,288,29763,1,0,3:0:0:0:
368,208,29963,2,0,L|368:256,1,39.9999976158142,0|0,3:0|3:0,3:0:0:0:
368,144,30163,2,0,L|368:192,1,39.9999976158142,0|0,3:0|3:0,3:0:0:0:
448,144,30463,5,0,3:0:0:0:
448,176,30563,1,0,3:0:0:0:
448,208,30663,1,0,3:0:0:0:
448,240,30763,1,0,3:0:0:0:
448,272,30863,1,0,3:0:0:0:
368,272,31063,1,0,3:0:0:0:
368,240,31163,1,0,3:0:0:0:
368,208,31263,1,0,3:0:0:0:
368,176,31363,1,0,3:0:0:0:
288,176,31563,5,0,3:0:0:0:
288,144,31663,1,0,3:0:0:0:
224,144,31763,1,0,3:0:0:0:
224,112,31863,1,0,3:0:0:0:
224,32,32063,5,0,3:0:0:0:
192,32,32163,2,0,L|32:32,1,159.999990463257,0|0,3:0|3:0,3:0:0:0:
0,32,32663,1,0,3:0:0:0:
0,144,32963,2,0,L|160:144,1,159.999990463257,0|0,3:0|3:0,3:0:0:0:
192,144,33463,1,0,3:0:0:0:
304,144,33763,5,0,3:0:0:0:
336,144,33863,1,0,3:0:0:0:
368,144,33963,1,0,3:0:0:0:
448,144,34163,5,0,3:0:0:0:
448,112,34263,1,0,3:0:0:0:
512,96,34463,1,0,3:0:0:0:
512,64,34563,1,0,3:0:0:0:
512,224,34963,2,0,L|512:384,1,159.999990463257,0|0,3:0|3:0,3:0:0:0:
480,384,35463,5,0,3:0:0:0:
448,384,35563,1,0,3:0:0:0:
416,384,35663,1,0,3:0:0:0:
304,384,35963,5,0,3:0:0:0:
272,384,36063,1,0,3:0:0:0:
240,384,36163,1,0,3:0:0:0:
208,384,36263,1,0,3:0:0:0:
208,304,36463,5,0,3:0:0:0:
176,304,36563,1,0,3:0:0:0:
144,304,36663,2,0,L|-16:304,1,125.9999886446,0|0,3:0|3:0,3:0:0:0:
16,272,37063,5,0,3:0:0:0:
16,240,37163,1,0,3:0:0:0:
16,208,37263,1,0,3:0:0:0:
16,96,37563,1,0,3:0:0:0:
16,64,37663,1,0,3:0:0:0:
16,32,37763,1,0,3:0:0:0:
16,0,37863,1,0,3:0:0:0:
128,0,38063,5,0,3:0:0:0:
128,32,38163,1,0,3:0:0:0:
128,64,38263,2,0,L|256:64,1,125.9999886446,0|0,3:0|3:0,3:0:0:0:
256,96,38663,5,0,3:0:0:0:
256,128,38763,1,0,3:0:0:0:
256,160,38863,1,0,3:0:0:0:
256,272,39163,1,0,3:0:0:0:
224,272,39263,1,0,3:0:0:0:
192,272,39363,1,0,3:0:0:0:
160,272,39463,1,0,3:0:0:0:
160,192,39663,5,0,3:0:0:0:
160,160,39763,1,0,3:0:0:0:
128,160,39863,2,0,L|0:160,1,125.9999886446,0|0,3:0|3:0,3:0:0:0:
0,192,40263,1,0,3:0:0:0:
0,224,40363,1,0,3:0:0:0:
0,256,40463,1,0,3:0:0:0:
0,368,40763,5,0,3:0:0:0:
32,368,40863,1,0,3:0:0:0:
64,368,40963,1,0,3:0:0:0:
96,368,41063,1,0,3:0:0:0:
128,368,41163,1,0,3:0:0:0:
160,368,41263,1,0,3:0:0:0:
240,368,41463,6,0,L|240:240,1,125.9999886446,0|0,3:0|3:0,3:0:0:0:
272,240,41863,1,0,3:0:0:0:
304,240,41963,1,0,3:0:0:0:
336,240,42063,1,0,3:0:0:0:
448,240,42363,1,0,3:0:0:0:
480,240,42463,1,0,3:0:0:0:
480,208,42563,1,0,3:0:0:0:
480,176,42663,1,0,3:0:0:0:
480,96,42863,5,0,3:0:0:0:
480,64,42963,1,0,3:0:0:0:
480,32,43063,2,0,L|320:32,1,125.9999886446,0|0,3:0|3:0,3:0:0:0:
320,32,43463,1,0,3:0:0:0:
320,64,43563,1,0,3:0:0:0:
320,96,43663,1,0,3:0:0:0:
320,208,43963,5,0,3:0:0:0:
288,208,44063,1,0,3:0:0:0:
256,208,44163,1,0,3:0:0:0:
224,208,44263,1,0,3:0:0:0:
144,208,44463,5,0,3:0:0:0:
144,240,44563,1,0,3:0:0:0:
144,272,44663,2,0,L|272:272,1,125.9999886446,0|0,3:0|3:0,3:0:0:0:
304,272,45063,1,0,3:0:0:0:
336,272,45163,1,0,3:0:0:0:
368,272,45263,1,0,3:0:0:0:
368,368,45563,5,0,3:0:0:0:
336,368,45663,1,0,3:0:0:0:
304,368,45763,1,0,3:0:0:0:
272,368,45863,1,0,3:0:0:0:
192,368,46063,1,0,3:0:0:0:
160,368,46163,1,0,3:0:0:0:
128,368,46263,2,0,B|64:367|64:367|64:288,1,125.9999886446,0|0,3:0|3:0,3:0:0:0:
64,272,46663,5,0,3:0:0:0:
64,240,46763,5,0,3:0:0:0:
64,208,46863,5,0,3:0:0:0:
64,176,46963,5,0,3:0:0:0:
64,96,47163,2,0,L|64:64,3,23.9999978370667,0|0|0|0,3:0|3:0|3:0|3:0,3:0:0:0:
224,64,48163,5,0,3:0:0:0:
320,64,48563,1,0,3:0:0:0:
320,160,48963,1,0,3:0:0:0:
224,160,49363,1,0,3:0:0:0:
224,256,49763,5,0,3:0:0:0:
224,352,50163,1,0,3:0:0:0:
128,352,50563,1,0,3:0:0:0:
128,320,50663,6,0,L|128:272,1,39.9999976158142,0|0,3:0|3:0,3:0:0:0:
80,320,50863,2,0,L|80:272,1,39.9999976158142,0|0,3:0|3:0,3:0:0:0:
32,320,51063,2,0,L|32:272,1,39.9999976158142,0|0,3:0|3:0,3:0:0:0:
32,208,51363,6,0,L|208:208,1,159.999990463257,0|0,3:0|3:0,3:0:0:0:
432,208,52363,5,0,3:0:0:0:
432,128,52563,1,0,3:0:0:0:
432,96,52663,1,0,3:0:0:0:
352,96,52863,1,0,3:0:0:0:
352,64,52963,2,0,L|160:64,1,159.999990463257,0|0,3:0|3:0,3:0:0:0:
192,160,54163,5,0,3:0:0:0:
160,160,54263,1,0,3:0:0:0:
80,160,54463,1,0,3:0:0:0:
48,160,54563,2,0,L|48:336,1,159.999990463257,0|0,3:0|3:0,3:0:0:0:
288,320,55563,5,0,3:0:0:0:
288,240,55763,1,0,3:0:0:0:
288,208,55863,1,0,3:0:0:0:
352,160,56063,1,0,3:0:0:0:
352,192,56163,2,0,L|352:352,1,159.999990463257,0|0,3:0|3:0,3:0:0:0:
464,352,57363,5,0,3:0:0:0:
464,320,57463,1,0,3:0:0:0:
464,240,57663,1,0,3:0:0:0:
464,208,57763,2,0,L|304:208,1,159.999990463257,0|0,3:0|3:0,3:0:0:0:
64,208,58763,5,0,3:0:0:0:
64,128,58963,1,0,3:0:0:0:
64,96,59063,1,0,3:0:0:0:
144,96,59263,1,0,3:0:0:0:
144,64,59363,2,0,L|320:64,1,159.999990463257,0|0,3:0|3:0,3:0:0:0:
448,64,60563,5,0,3:0:0:0:
480,64,60663,1,0,3:0:0:0:
480,144,60863,1,0,3:0:0:0:
480,176,60963,2,0,L|480:336,1,159.999990463257,0|0,3:0|3:0,3:0:0:0:
240,336,61963,5,0,3:0:0:0:
240,256,62163,1,0,3:0:0:0:
240,224,62263,1,0,3:0:0:0:
160,224,62463,1,0,3:0:0:0:
160,256,62563,1,0,3:0:0:0:
0,256,62963,5,0,3:0:0:0:
0,96,63363,1,0,3:0:0:0:
32,96,63463,1,0,3:0:0:0:
112,96,63663,1,0,3:0:0:0:
144,96,63763,1,0,3:0:0:0:
224,96,63963,5,0,3:0:0:0:
256,96,64063,1,0,3:0:0:0:
288,96,64163,1,0,3:0:0:0:
368,96,64363,2,0,L|496:96,1,125.9999886446,0|0,3:0|3:0,3:0:0:0:
496,224,64963,5,0,3:0:0:0:
496,304,65163,1,0,3:0:0:0:
368,304,65463,1,0,3:0:0:0:
368,256,65563,1,0,3:0:0:0:
368,208,65663,1,0,3:0:0:0:
320,208,65763,5,0,3:0:0:0:
240,208,65963,2,0,L|240:336,1,125.9999886446,0|0,3:0|3:0,3:0:0:0:
112,336,66563,1,0,3:0:0:0:
32,336,66763,1,0,3:0:0:0:
32,256,66963,1,0,3:0:0:0:
32,208,67063,1,0,3:0:0:0:
32,80,67363,5,0,3:0:0:0:
112,80,67563,2,0,L|240:80,1,125.9999886446,0|0,3:0|3:0,3:0:0:0:
240,208,68163,1,0,3:0:0:0:
320,208,68363,1,0,3:0:0:0:
448,208,68663,5,0,3:0:0:0:
448,160,68763,1,0,3:0:0:0:
448,112,68863,1,0,3:0:0:0:
400,112,68963,1,0,3:0:0:0:
320,112,69163,2,0,L|176:112,1,125.9999886446,0|0,3:0|3:0,3:0:0:0:
192,240,69763,6,0,L|352:240,1,157.49998580575,0|0,3:0|3:0,3:0:0:0:
352,240,70163,2,0,L|352:80,1,159.999990463257,0|0,3:0|3:0,3:0:0:0:
352,48,70663,1,0,3:0:0:0:
352,16,70763,5,0,3:0:0:0:
320,16,70863,1,0,3:0:0:0:
288,16,70963,1,0,3:0:0:0:
288,48,71063,1,0,3:0:0:0:
288,80,71163,1,0,3:0:0:0:
256,80,71263,1,0,3:0:0:0:
224,80,71363,1,0,3:0:0:0:
224,112,71463,1,0,3:0:0:0:
224,144,71563,5,0,3:0:0:0:
192,144,71663,1,0,3:0:0:0:
160,144,71763,1,0,3:0:0:0:
160,176,71863,1,0,3:0:0:0:
160,208,71963,1,0,3:0:0:0:
128,208,72063,1,0,3:0:0:0:
96,208,72163,1,0,3:0:0:0:
