osu file format v14

[General]
AudioFilename: audio.mp3
AudioLeadIn: 0
PreviewTime: 373508
Countdown: 1
SampleSet: Normal
StackLeniency: 0.7
Mode: 1
LetterboxInBreaks: 0
WidescreenStoryboard: 0

[Editor]
DistanceSpacing: 0.1
BeatDivisor: 4
GridSize: 32
TimelineZoom: 2.600001

[Metadata]
Title:Flight
TitleUnicode:Flight
Artist:Hidden Orchestra
ArtistUnicode:Hidden Orchestra
Creator:Brames
Version:Oni
Source:
Tags:Joe Acheson Quartet Avant garde
BeatmapID:1651055
BeatmapSetID:786546

[Difficulty]
HPDrainRate:6
CircleSize:5
OverallDifficulty:5
ApproachRate:4
SliderMultiplier:1.4
SliderTickRate:1

[Events]
//Background and Video events
0,0,"flight.jpg",0,0
//Break Periods
//Storyboard Layer 0 (Background)
//Storyboard Layer 1 (Fail)
//Storyboard Layer 2 (Pass)
//Storyboard Layer 3 (Foreground)
//Storyboard Sound Samples

[TimingPoints]
1508,428.571428571429,4,1,0,10,1,8
3222,-400,4,1,0,10,0,0
9008,-384.615384615385,4,1,0,10,0,0
10079,-400,4,1,0,10,0,0
13508,-384.615384615385,4,1,0,10,0,0
14793,-400,4,1,0,10,0,0
15865,-384.615384615385,4,1,0,10,0,0
16508,-400,4,1,0,10,0,0
20365,-384.615384615385,4,1,0,10,0,0
21650,-400,4,1,0,10,0,0
22079,-384.615384615385,4,1,0,10,0,0
22722,-400,4,1,0,10,0,0
23793,-384.615384615385,4,1,0,10,0,0
24436,-400,4,1,0,10,0,0
27222,-384.615384615385,4,1,0,10,0,0
28508,-400,4,1,0,10,0,0
30115,-50,4,1,0,70,0,0
30650,-250,4,1,0,50,0,0
36972,-50,4,1,0,70,0,0
37508,-200,4,1,0,50,0,0
43829,-50,4,1,0,70,0,0
44365,-166.666666666667,4,1,0,50,0,0
50686,-50,4,1,0,70,0,0
51222,-142.857142857143,4,1,0,50,0,0
57543,-50,4,1,0,70,0,0
58079,-125,4,1,0,50,0,0
64400,-50,4,1,0,70,0,0
64936,-125,4,1,0,50,0,0
71258,-50,4,1,0,70,0,0
71793,-100,4,1,0,25,0,0
78650,-95.2380952380952,4,1,0,25,0,0
85293,-90.9090909090909,4,1,0,25,0,0
167793,-25,4,1,0,10,0,0
169508,-26.3157894736842,4,1,0,10,0,0
171222,-27.7777777777778,4,1,0,10,0,0
172936,-29.4117647058824,4,1,0,10,0,0
174650,-31.25,4,1,0,10,0,0
176365,-33.3333333333333,4,1,0,10,0,0
178079,-35.7142857142857,4,1,0,10,0,0
179793,-38.4615384615385,4,1,0,10,0,0
181508,-41.6666666666667,4,1,0,10,0,0
183222,-45.4545454545455,4,1,0,10,0,0
184936,-50,4,1,0,10,0,0
186650,-55.5555555555556,4,1,0,10,0,0
188365,-62.5,4,1,0,10,0,0
190079,-71.4285714285714,4,1,0,10,0,0
191793,-83.3333333333333,4,1,0,10,0,0
193508,-88.4955752212389,4,1,0,10,0,0
193936,-94.3396226415094,4,1,0,40,0,0
194365,-101.010101010101,4,1,0,40,0,0
194686,-108.695652173913,4,1,0,40,0,0
195008,-117.647058823529,4,1,0,40,0,0
195222,-125,4,1,0,20,0,0
233579,-123.456790123457,4,1,0,50,0,0
233900,-121.951219512195,4,1,0,50,0,0
234008,-120.481927710843,4,1,0,50,0,0
234115,-119.047619047619,4,1,0,50,0,0
234222,-117.647058823529,4,1,0,50,0,0
234543,-116.279069767442,4,1,0,50,0,0
234650,-114.942528735632,4,1,0,50,0,0
234758,-113.636363636364,4,1,0,50,0,0
234865,-112.359550561798,4,1,0,50,0,0
235186,-111.111111111111,4,1,0,50,0,0
235293,-109.89010989011,4,1,0,50,0,0
235400,-108.695652173913,4,1,0,50,0,0
235508,-107.52688172043,4,1,0,50,0,0
235722,-106.382978723404,4,1,0,50,0,0
235829,-105.263157894737,4,1,0,50,0,0
235936,-104.166666666667,4,1,0,50,0,0
236043,-103.092783505155,4,1,0,50,0,0
236150,-102.040816326531,4,1,0,50,0,0
236258,-101.010101010101,4,1,0,50,0,0
236365,-100,4,1,0,50,0,0
250079,-100,4,1,0,40,0,0
316722,-97.0873786407767,4,1,0,50,0,0
316829,-94.3396226415094,4,1,0,50,0,0
316936,-91.743119266055,4,1,0,50,0,0
317043,-89.2857142857143,4,1,0,50,0,0
317150,-86.9565217391304,4,1,0,50,0,0
317258,-84.7457627118644,4,1,0,50,0,0
317365,-82.6446280991736,4,1,0,50,0,0
317472,-80.6451612903226,4,1,0,50,0,0
317579,-78.7401574803149,4,1,0,50,0,0
317686,-76.9230769230769,4,1,0,50,0,0
317793,-75.187969924812,4,1,0,50,0,0
317900,-73.5294117647059,4,1,0,50,0,0
318008,-71.9424460431655,4,1,0,50,0,0
318115,-70.4225352112676,4,1,0,50,0,0
318222,-68.9655172413793,4,1,0,50,0,0
318329,-67.5675675675676,4,1,0,50,0,0
318436,-66.2251655629139,4,1,0,50,0,0
318543,-64.9350649350649,4,1,0,50,0,0
318650,-63.6942675159236,4,1,0,50,0,0
318758,-62.5,4,1,0,10,0,0
320365,-100,4,1,0,10,0,0
324972,-50,4,1,0,70,0,0
325508,-100,4,1,0,50,0,0
331829,-50,4,1,0,70,0,0
332365,-60.6060606060606,4,1,0,70,0,0
332686,-62.5,4,1,0,65,0,0
332936,-64.5161290322581,4,1,0,60,0,0
333079,-66.6666666666667,4,1,0,55,0,0
333150,-68.9655172413793,4,1,0,50,0,0
333222,-71.4285714285714,4,1,0,45,0,0
333650,-74.0740740740741,4,1,0,40,0,0
333758,-76.9230769230769,4,1,0,35,0,0
333865,-80,4,1,0,30,0,0
333972,-83.3333333333333,4,1,0,25,0,0
334186,-86.9565217391304,4,1,0,20,0,0
335365,-90.9090909090909,4,1,0,15,0,0
335793,-95.2380952380952,4,1,0,10,0,0
336008,-100,4,1,0,5,0,0
338686,-50,4,1,0,70,0,0
339222,-100,4,1,0,50,0,0
340936,-83.3333333333333,4,1,0,50,0,0
342650,-71.4285714285714,4,1,0,50,0,0
343936,-62.5,4,1,0,50,0,0
345543,-50,4,1,0,70,0,0
346079,-100,4,1,0,60,0,0
373508,-95.2380952380952,4,1,0,60,0,1
387222,-90.9090909090909,4,1,0,60,0,1
400936,-86.9565217391304,4,1,0,60,0,1
414650,-83.3333333333333,4,1,0,60,0,1
427722,-85.4700854700855,4,1,0,60,0,1
427829,-87.719298245614,4,1,0,60,0,1
427936,-90.0900900900901,4,1,0,60,0,1
428043,-92.5925925925926,4,1,0,60,0,1
428150,-95.2380952380952,4,1,0,60,0,1
428258,-98.0392156862745,4,1,0,60,0,1
428365,-100,4,1,0,40,0,0
435865,-133.333333333333,4,1,0,35,0,0
442722,-166.666666666667,4,1,0,20,0,0
449579,-250,4,1,0,5,0,0

[HitObjects]
256,192,3222,5,0,0:0:0:0:
256,192,4936,1,0,0:0:0:0:
256,192,5579,1,8,0:0:0:0:
256,192,6650,1,0,0:0:0:0:
256,192,8365,1,0,0:0:0:0:
256,192,9008,1,8,0:0:0:0:
256,192,10079,1,0,0:0:0:0:
256,192,11793,1,0,0:0:0:0:
256,192,12436,1,8,0:0:0:0:
256,192,13508,1,0,0:0:0:0:
256,192,14793,1,8,0:0:0:0:
256,192,15222,1,0,0:0:0:0:
256,192,15865,1,8,0:0:0:0:
256,192,16508,1,0,0:0:0:0:
256,192,16936,1,0,0:0:0:0:
256,192,17579,1,8,0:0:0:0:
256,192,18650,1,0,0:0:0:0:
256,192,19293,1,8,0:0:0:0:
256,192,20365,1,0,0:0:0:0:
256,192,21008,1,8,0:0:0:0:
256,192,21650,1,8,0:0:0:0:
256,192,22079,1,0,0:0:0:0:
256,192,22722,1,8,0:0:0:0:
256,192,23365,1,8,0:0:0:0:
256,192,23793,1,0,0:0:0:0:
256,192,24436,1,8,0:0:0:0:
256,192,25508,1,0,0:0:0:0:
256,192,26150,1,8,0:0:0:0:
256,192,27222,1,0,0:0:0:0:
256,192,27865,1,8,0:0:0:0:
256,192,28508,1,8,0:0:0:0:
256,192,28936,1,0,0:0:0:0:
256,192,29579,1,8,0:0:0:0:
256,192,30115,1,4,0:0:0:0:
256,192,30436,1,4,0:0:0:0:
256,192,30650,1,0,0:0:0:0:
256,192,31293,1,8,0:0:0:0:
256,192,31508,1,8,0:0:0:0:
256,192,31722,1,0,0:0:0:0:
256,192,32365,1,0,0:0:0:0:
256,192,32686,1,8,0:0:0:0:
256,192,33008,1,0,0:0:0:0:
256,192,33222,1,0,0:0:0:0:
256,192,33436,1,0,0:0:0:0:
256,192,34079,1,0,0:0:0:0:
256,192,34722,1,0,0:0:0:0:
256,192,34936,1,8,0:0:0:0:
256,192,35150,1,8,0:0:0:0:
256,192,35258,1,8,0:0:0:0:
256,192,35365,1,0,0:0:0:0:
256,192,35579,1,0,0:0:0:0:
256,192,35793,1,8,0:0:0:0:
256,192,36436,1,8,0:0:0:0:
256,192,36650,1,0,0:0:0:0:
256,192,36972,1,4,0:0:0:0:
256,192,37293,1,4,0:0:0:0:
256,192,37508,1,8,0:0:0:0:
256,192,37722,1,0,0:0:0:0:
256,192,38365,1,8,0:0:0:0:
256,192,38579,1,0,0:0:0:0:
256,192,39222,1,8,0:0:0:0:
256,192,39543,1,8,0:0:0:0:
256,192,39865,1,0,0:0:0:0:
256,192,40079,1,0,0:0:0:0:
256,192,40293,1,0,0:0:0:0:
256,192,40936,1,0,0:0:0:0:
256,192,41579,1,0,0:0:0:0:
256,192,41793,1,8,0:0:0:0:
256,192,42008,1,8,0:0:0:0:
256,192,42115,1,8,0:0:0:0:
256,192,42222,1,0,0:0:0:0:
256,192,42436,1,8,0:0:0:0:
256,192,42650,1,0,0:0:0:0:
256,192,43079,1,0,0:0:0:0:
256,192,43293,1,0,0:0:0:0:
256,192,43508,1,0,0:0:0:0:
256,192,43829,1,4,0:0:0:0:
256,192,44150,1,4,0:0:0:0:
256,192,44365,1,8,0:0:0:0:
256,192,45008,1,8,0:0:0:0:
256,192,45222,1,8,0:0:0:0:
256,192,45436,1,0,0:0:0:0:
256,192,46079,1,0,0:0:0:0:
256,192,46400,1,8,0:0:0:0:
256,192,46722,1,0,0:0:0:0:
256,192,46936,1,0,0:0:0:0:
256,192,47150,1,0,0:0:0:0:
256,192,47793,1,8,0:0:0:0:
256,192,48436,1,0,0:0:0:0:
256,192,48650,1,8,0:0:0:0:
256,192,48865,1,8,0:0:0:0:
256,192,48972,1,8,0:0:0:0:
256,192,49079,1,0,0:0:0:0:
256,192,49293,1,0,0:0:0:0:
256,192,49508,1,8,0:0:0:0:
256,192,50150,1,8,0:0:0:0:
256,192,50365,1,0,0:0:0:0:
256,192,50686,1,4,0:0:0:0:
256,192,51008,1,4,0:0:0:0:
256,192,51222,1,8,0:0:0:0:
256,192,51436,1,0,0:0:0:0:
256,192,52079,1,8,0:0:0:0:
256,192,52293,1,0,0:0:0:0:
256,192,52936,1,8,0:0:0:0:
256,192,53258,1,8,0:0:0:0:
256,192,53579,1,0,0:0:0:0:
256,192,53793,1,0,0:0:0:0:
256,192,54008,1,0,0:0:0:0:
256,192,54650,1,8,0:0:0:0:
256,192,55293,1,0,0:0:0:0:
256,192,55508,1,8,0:0:0:0:
256,192,55722,1,8,0:0:0:0:
256,192,55829,1,8,0:0:0:0:
256,192,55936,1,0,0:0:0:0:
256,192,56150,1,8,0:0:0:0:
256,192,56365,1,0,0:0:0:0:
256,192,56793,1,0,0:0:0:0:
256,192,57008,1,0,0:0:0:0:
256,192,57222,1,0,0:0:0:0:
256,192,57543,1,4,0:0:0:0:
256,192,57865,1,4,0:0:0:0:
256,192,58079,1,0,0:0:0:0:
256,192,58722,1,8,0:0:0:0:
256,192,59793,1,8,0:0:0:0:
256,192,60436,1,8,0:0:0:0:
256,192,61508,1,0,0:0:0:0:
256,192,62150,1,8,0:0:0:0:
256,192,62793,1,8,0:0:0:0:
256,192,63222,1,8,0:0:0:0:
256,192,63865,1,8,0:0:0:0:
256,192,64400,1,4,0:0:0:0:
256,192,64722,1,4,0:0:0:0:
256,192,64936,1,0,0:0:0:0:
256,192,65579,1,8,0:0:0:0:
256,192,66650,1,8,0:0:0:0:
256,192,67293,1,8,0:0:0:0:
256,192,68365,1,0,0:0:0:0:
256,192,69008,1,8,0:0:0:0:
256,192,69650,1,8,0:0:0:0:
256,192,70079,1,8,0:0:0:0:
256,192,70722,1,8,0:0:0:0:
256,192,71258,1,4,0:0:0:0:
256,192,71579,1,4,0:0:0:0:
256,192,71793,1,0,0:0:0:0:
256,192,72008,1,8,0:0:0:0:
256,192,72222,1,8,0:0:0:0:
256,192,72329,1,0,0:0:0:0:
256,192,72436,1,8,0:0:0:0:
256,192,72543,1,0,0:0:0:0:
256,192,72650,1,8,0:0:0:0:
256,192,72758,1,0,0:0:0:0:
256,192,72865,1,8,0:0:0:0:
256,192,72972,1,8,0:0:0:0:
256,192,73079,1,0,0:0:0:0:
256,192,73186,1,8,0:0:0:0:
256,192,73293,1,8,0:0:0:0:
256,192,73400,1,0,0:0:0:0:
256,192,73508,1,8,0:0:0:0:
256,192,73615,1,8,0:0:0:0:
256,192,73722,1,0,0:0:0:0:
256,192,73829,1,0,0:0:0:0:
256,192,73936,1,8,0:0:0:0:
256,192,74043,1,0,0:0:0:0:
256,192,74150,1,8,0:0:0:0:
256,192,74258,1,8,0:0:0:0:
256,192,74365,1,0,0:0:0:0:
256,192,74472,1,8,0:0:0:0:
256,192,74579,1,8,0:0:0:0:
256,192,74686,1,0,0:0:0:0:
256,192,74793,1,8,0:0:0:0:
256,192,75008,1,0,0:0:0:0:
256,192,75222,1,8,0:0:0:0:
256,192,75293,1,8,0:0:0:0:
256,192,75365,1,8,0:0:0:0:
256,192,75436,1,8,0:0:0:0:
256,192,75650,1,8,0:0:0:0:
256,192,75865,1,4,0:0:0:0:
256,192,76079,1,8,0:0:0:0:
256,192,76186,1,8,0:0:0:0:
256,192,76293,1,0,0:0:0:0:
256,192,76508,1,8,0:0:0:0:
256,192,76722,1,0,0:0:0:0:
256,192,76936,1,0,0:0:0:0:
256,192,77043,1,8,0:0:0:0:
256,192,77150,1,0,0:0:0:0:
256,192,77365,1,8,0:0:0:0:
256,192,77579,1,8,0:0:0:0:
256,192,77793,1,4,0:0:0:0:
256,192,78008,1,8,0:0:0:0:
256,192,78079,1,8,0:0:0:0:
256,192,78150,1,0,0:0:0:0:
256,192,78222,1,8,0:0:0:0:
256,192,78293,1,8,0:0:0:0:
256,192,78365,1,0,0:0:0:0:
256,192,78436,1,0,0:0:0:0:
256,192,78650,1,8,0:0:0:0:
256,192,78758,1,0,0:0:0:0:
256,192,78865,1,8,0:0:0:0:
256,192,78972,1,0,0:0:0:0:
256,192,79079,1,8,0:0:0:0:
256,192,79186,1,8,0:0:0:0:
256,192,79293,1,0,0:0:0:0:
256,192,79400,1,8,0:0:0:0:
256,192,79508,1,8,0:0:0:0:
256,192,79615,1,0,0:0:0:0:
256,192,79722,1,8,0:0:0:0:
256,192,79829,1,0,0:0:0:0:
256,192,79936,1,8,0:0:0:0:
256,192,80150,1,0,0:0:0:0:
256,192,80258,1,8,0:0:0:0:
256,192,80365,1,8,0:0:0:0:
256,192,80472,1,0,0:0:0:0:
256,192,80579,1,8,0:0:0:0:
256,192,80686,1,8,0:0:0:0:
256,192,80793,1,0,0:0:0:0:
256,192,80900,1,8,0:0:0:0:
256,192,81008,1,0,0:0:0:0:
256,192,81222,1,8,0:0:0:0:
256,192,81329,1,0,0:0:0:0:
256,192,81436,1,0,0:0:0:0:
256,192,81543,1,0,0:0:0:0:
256,192,81650,1,0,0:0:0:0:
256,192,81865,1,0,0:0:0:0:
256,192,82079,1,0,0:0:0:0:
256,192,82150,1,8,0:0:0:0:
256,192,82222,1,8,0:0:0:0:
256,192,82293,1,8,0:0:0:0:
256,192,82400,1,8,0:0:0:0:
256,192,82508,1,8,0:0:0:0:
256,192,82615,1,8,0:0:0:0:
256,192,82722,1,0,0:0:0:0:
256,192,82936,1,8,0:0:0:0:
256,192,83043,1,8,0:0:0:0:
256,192,83150,1,8,0:0:0:0:
256,192,83258,1,8,0:0:0:0:
256,192,83365,1,0,0:0:0:0:
256,192,83579,1,8,0:0:0:0:
256,192,83686,1,0,0:0:0:0:
256,192,83793,1,0,0:0:0:0:
256,192,83900,1,8,0:0:0:0:
256,192,84008,1,0,0:0:0:0:
256,192,84115,1,0,0:0:0:0:
256,192,84222,1,8,0:0:0:0:
256,192,84329,1,8,0:0:0:0:
256,192,84436,1,0,0:0:0:0:
256,192,84543,1,8,0:0:0:0:
256,192,84650,1,0,0:0:0:0:
256,192,84865,1,8,0:0:0:0:
256,192,84972,1,8,0:0:0:0:
256,192,85079,1,0,0:0:0:0:
256,192,85293,1,8,0:0:0:0:
256,192,85365,1,8,0:0:0:0:
256,192,85436,1,8,0:0:0:0:
256,192,85508,1,0,0:0:0:0:
256,192,85615,1,8,0:0:0:0:
256,192,85722,1,0,0:0:0:0:
256,192,85829,1,8,0:0:0:0:
256,192,85936,1,8,0:0:0:0:
256,192,86043,1,0,0:0:0:0:
256,192,86150,1,0,0:0:0:0:
256,192,86258,1,8,0:0:0:0:
256,192,86365,1,8,0:0:0:0:
256,192,86472,1,0,0:0:0:0:
256,192,86579,1,8,0:0:0:0:
256,192,86686,1,0,0:0:0:0:
256,192,86793,1,8,0:0:0:0:
256,192,86900,1,0,0:0:0:0:
256,192,87008,1,0,0:0:0:0:
256,192,87115,1,8,0:0:0:0:
256,192,87222,1,8,0:0:0:0:
256,192,87329,1,0,0:0:0:0:
256,192,87436,1,8,0:0:0:0:
256,192,87543,1,0,0:0:0:0:
256,192,87650,1,8,0:0:0:0:
256,192,87758,1,8,0:0:0:0:
256,192,87865,1,0,0:0:0:0:
256,192,88079,1,0,0:0:0:0:
256,192,88186,1,8,0:0:0:0:
256,192,88293,1,0,0:0:0:0:
256,192,88508,1,8,0:0:0:0:
256,192,88722,1,0,0:0:0:0:
256,192,88829,1,8,0:0:0:0:
256,192,88936,1,0,0:0:0:0:
256,192,89043,1,8,0:0:0:0:
256,192,89150,1,8,0:0:0:0:
256,192,89258,1,0,0:0:0:0:
256,192,89365,1,8,0:0:0:0:
256,192,89579,1,0,0:0:0:0:
256,192,89686,1,8,0:0:0:0:
256,192,89793,1,8,0:0:0:0:
256,192,90008,1,8,0:0:0:0:
256,192,90222,1,0,0:0:0:0:
256,192,90436,1,0,0:0:0:0:
256,192,90508,1,0,0:0:0:0:
256,192,90579,1,0,0:0:0:0:
256,192,90650,1,0,0:0:0:0:
256,192,90865,1,8,0:0:0:0:
256,192,90936,1,8,0:0:0:0:
256,192,91008,1,8,0:0:0:0:
256,192,91079,1,8,0:0:0:0:
256,192,91293,1,0,0:0:0:0:
256,192,91508,1,8,0:0:0:0:
256,192,91615,1,0,0:0:0:0:
256,192,91722,1,8,0:0:0:0:
256,192,91829,1,0,0:0:0:0:
256,192,91936,1,8,0:0:0:0:
256,192,92043,1,8,0:0:0:0:
256,192,92150,1,8,0:0:0:0:
256,192,92258,1,8,0:0:0:0:
256,192,92365,1,0,0:0:0:0:
256,192,92579,1,8,0:0:0:0:
256,192,92686,1,8,0:0:0:0:
256,192,92793,1,8,0:0:0:0:
256,192,93008,1,4,0:0:0:0:
256,192,93222,1,8,0:0:0:0:
256,192,93329,1,0,0:0:0:0:
256,192,93436,1,8,0:0:0:0:
256,192,93543,1,8,0:0:0:0:
256,192,93650,1,0,0:0:0:0:
256,192,93758,1,0,0:0:0:0:
256,192,93865,1,0,0:0:0:0:
256,192,93972,1,8,0:0:0:0:
256,192,94079,1,0,0:0:0:0:
256,192,94186,1,8,0:0:0:0:
256,192,94293,1,8,0:0:0:0:
256,192,94400,1,0,0:0:0:0:
256,192,94508,1,8,0:0:0:0:
256,192,94615,1,0,0:0:0:0:
256,192,94722,1,0,0:0:0:0:
256,192,94936,1,0,0:0:0:0:
256,192,95150,1,8,0:0:0:0:
256,192,95258,1,0,0:0:0:0:
256,192,95365,1,8,0:0:0:0:
256,192,95579,1,0,0:0:0:0:
256,192,95793,1,8,0:0:0:0:
256,192,95865,1,8,0:0:0:0:
256,192,95936,1,8,0:0:0:0:
256,192,96008,1,8,0:0:0:0:
256,192,96222,1,8,0:0:0:0:
256,192,96436,1,0,0:0:0:0:
256,192,96650,1,8,0:0:0:0:
256,192,96758,1,0,0:0:0:0:
256,192,96865,1,8,0:0:0:0:
256,192,97079,1,0,0:0:0:0:
256,192,97293,1,0,0:0:0:0:
256,192,97365,1,0,0:0:0:0:
256,192,97436,1,0,0:0:0:0:
256,192,97508,1,8,0:0:0:0:
256,192,97722,1,8,0:0:0:0:
256,192,97793,1,8,0:0:0:0:
256,192,97865,1,8,0:0:0:0:
256,192,97936,1,8,0:0:0:0:
256,192,98150,1,0,0:0:0:0:
256,192,98365,1,0,0:0:0:0:
256,192,98472,1,8,0:0:0:0:
256,192,98579,1,0,0:0:0:0:
256,192,98686,1,0,0:0:0:0:
256,192,98793,1,8,0:0:0:0:
256,192,98900,1,0,0:0:0:0:
256,192,99008,1,0,0:0:0:0:
256,192,99115,1,0,0:0:0:0:
256,192,99222,1,8,0:0:0:0:
256,192,99329,1,0,0:0:0:0:
256,192,99436,1,8,0:0:0:0:
256,192,99543,1,0,0:0:0:0:
256,192,99650,1,8,0:0:0:0:
256,192,99758,1,0,0:0:0:0:
256,192,99865,1,0,0:0:0:0:
256,192,99972,1,8,0:0:0:0:
256,192,100079,1,8,0:0:0:0:
256,192,100186,1,8,0:0:0:0:
256,192,100293,1,0,0:0:0:0:
256,192,100400,1,0,0:0:0:0:
256,192,100508,1,8,0:0:0:0:
256,192,100615,1,8,0:0:0:0:
256,192,100722,1,0,0:0:0:0:
256,192,100829,1,8,0:0:0:0:
256,192,100936,1,0,0:0:0:0:
256,192,101043,1,8,0:0:0:0:
256,192,101150,1,8,0:0:0:0:
256,192,101258,1,0,0:0:0:0:
256,192,101365,1,8,0:0:0:0:
256,192,101579,1,0,0:0:0:0:
256,192,101793,1,8,0:0:0:0:
256,192,101900,1,0,0:0:0:0:
256,192,102008,1,8,0:0:0:0:
256,192,102222,1,8,0:0:0:0:
256,192,102436,1,0,0:0:0:0:
256,192,102650,1,8,0:0:0:0:
256,192,102721,1,8,0:0:0:0:
256,192,102793,1,8,0:0:0:0:
256,192,102864,1,8,0:0:0:0:
256,192,102936,1,8,0:0:0:0:
256,192,103008,1,8,0:0:0:0:
256,192,103079,1,8,0:0:0:0:
256,192,103150,1,8,0:0:0:0:
256,192,103222,1,8,0:0:0:0:
256,192,103293,1,0,0:0:0:0:
256,192,103508,1,8,0:0:0:0:
256,192,103722,1,8,0:0:0:0:
256,192,103829,1,8,0:0:0:0:
256,192,103936,1,0,0:0:0:0:
256,192,104150,1,0,0:0:0:0:
256,192,104222,1,0,0:0:0:0:
256,192,104293,1,0,0:0:0:0:
256,192,104365,1,0,0:0:0:0:
256,192,104579,1,8,0:0:0:0:
256,192,104686,1,8,0:0:0:0:
256,192,104793,1,8,0:0:0:0:
256,192,105008,1,8,0:0:0:0:
256,192,105222,1,0,0:0:0:0:
256,192,105436,1,0,0:0:0:0:
256,192,105543,1,0,0:0:0:0:
256,192,105650,1,8,0:0:0:0:
256,192,105758,1,0,0:0:0:0:
256,192,105865,1,8,0:0:0:0:
256,192,105936,1,8,0:0:0:0:
256,192,106008,1,8,0:0:0:0:
256,192,106079,1,0,0:0:0:0:
256,192,106186,1,0,0:0:0:0:
256,192,106293,1,8,0:0:0:0:
256,192,106400,1,0,0:0:0:0:
256,192,106508,1,8,0:0:0:0:
256,192,106722,1,4,0:0:0:0:
256,192,106936,1,8,0:0:0:0:
256,192,107043,1,0,0:0:0:0:
256,192,107150,1,8,0:0:0:0:
256,192,107258,1,0,0:0:0:0:
256,192,107365,1,8,0:0:0:0:
256,192,107579,1,0,0:0:0:0:
256,192,107650,1,0,0:0:0:0:
256,192,107722,1,0,0:0:0:0:
256,192,107793,1,8,0:0:0:0:
256,192,107900,1,0,0:0:0:0:
256,192,108008,1,8,0:0:0:0:
256,192,108115,1,0,0:0:0:0:
256,192,108222,1,8,0:0:0:0:
256,192,108329,1,8,0:0:0:0:
256,192,108436,1,0,0:0:0:0:
256,192,108543,1,8,0:0:0:0:
256,192,108650,1,0,0:0:0:0:
256,192,108865,1,0,0:0:0:0:
256,192,109079,1,8,0:0:0:0:
256,192,109293,1,0,0:0:0:0:
256,192,109508,1,8,0:0:0:0:
256,192,109615,1,8,0:0:0:0:
256,192,109722,1,8,0:0:0:0:
256,192,109936,1,8,0:0:0:0:
256,192,110150,1,0,0:0:0:0:
256,192,110365,1,8,0:0:0:0:
256,192,110579,1,8,0:0:0:0:
256,192,110793,1,0,0:0:0:0:
256,192,111008,1,8,0:0:0:0:
256,192,111079,1,0,0:0:0:0:
256,192,111150,1,0,0:0:0:0:
256,192,111222,1,0,0:0:0:0:
256,192,111436,1,8,0:0:0:0:
256,192,111508,1,8,0:0:0:0:
256,192,111579,1,8,0:0:0:0:
256,192,111650,1,8,0:0:0:0:
256,192,111865,1,0,0:0:0:0:
256,192,112079,1,8,0:0:0:0:
256,192,112150,1,0,0:0:0:0:
256,192,112222,1,0,0:0:0:0:
256,192,112293,1,0,0:0:0:0:
256,192,112400,1,0,0:0:0:0:
256,192,112508,1,8,0:0:0:0:
256,192,112615,1,0,0:0:0:0:
256,192,112722,1,0,0:0:0:0:
256,192,112829,1,0,0:0:0:0:
256,192,112936,1,8,0:0:0:0:
256,192,113043,1,0,0:0:0:0:
256,192,113150,1,0,0:0:0:0:
256,192,113258,1,8,0:0:0:0:
256,192,113365,1,8,0:0:0:0:
256,192,113472,1,8,0:0:0:0:
256,192,113579,1,0,0:0:0:0:
256,192,113686,1,8,0:0:0:0:
256,192,113793,1,8,0:0:0:0:
256,192,113900,1,8,0:0:0:0:
256,192,114008,1,0,0:0:0:0:
256,192,114115,1,8,0:0:0:0:
256,192,114222,1,8,0:0:0:0:
256,192,114329,1,0,0:0:0:0:
256,192,114436,1,0,0:0:0:0:
256,192,114543,1,8,0:0:0:0:
256,192,114650,1,0,0:0:0:0:
256,192,114758,1,8,0:0:0:0:
256,192,114865,1,0,0:0:0:0:
256,192,114972,1,0,0:0:0:0:
256,192,115079,1,8,0:0:0:0:
256,192,115186,1,8,0:0:0:0:
256,192,115293,1,0,0:0:0:0:
256,192,115508,1,8,0:0:0:0:
256,192,115615,1,8,0:0:0:0:
256,192,115722,1,8,0:0:0:0:
256,192,115829,1,0,0:0:0:0:
256,192,115936,1,8,0:0:0:0:
256,192,116150,1,0,0:0:0:0:
256,192,116222,1,0,0:0:0:0:
256,192,116293,1,0,0:0:0:0:
256,192,116365,1,8,0:0:0:0:
256,192,116472,1,8,0:0:0:0:
256,192,116579,1,8,0:0:0:0:
256,192,116793,1,8,0:0:0:0:
256,192,117008,1,0,0:0:0:0:
256,192,117079,1,8,0:0:0:0:
256,192,117150,1,8,0:0:0:0:
256,192,117222,1,8,0:0:0:0:
256,192,117436,1,8,0:0:0:0:
256,192,117650,1,0,0:0:0:0:
256,192,117865,1,0,0:0:0:0:
256,192,117936,1,0,0:0:0:0:
256,192,118008,1,0,0:0:0:0:
256,192,118079,1,8,0:0:0:0:
256,192,118186,1,0,0:0:0:0:
256,192,118293,1,8,0:0:0:0:
256,192,118365,1,8,0:0:0:0:
256,192,118436,1,8,0:0:0:0:
256,192,118508,1,8,0:0:0:0:
256,192,118615,1,0,0:0:0:0:
256,192,118722,1,0,0:0:0:0:
256,192,118936,1,0,0:0:0:0:
256,192,119043,1,8,0:0:0:0:
256,192,119150,1,8,0:0:0:0:
256,192,119258,1,0,0:0:0:0:
256,192,119365,1,8,0:0:0:0:
256,192,119472,1,0,0:0:0:0:
256,192,119579,1,8,0:0:0:0:
256,192,119686,1,0,0:0:0:0:
256,192,119793,1,0,0:0:0:0:
256,192,119900,1,0,0:0:0:0:
256,192,120008,1,8,0:0:0:0:
256,192,120115,1,8,0:0:0:0:
256,192,120222,1,0,0:0:0:0:
256,192,120329,1,8,0:0:0:0:
256,192,120436,1,0,0:0:0:0:
256,192,120543,1,0,0:0:0:0:
256,192,120650,1,8,0:0:0:0:
256,192,120758,1,8,0:0:0:0:
256,192,120865,1,0,0:0:0:0:
256,192,120972,1,8,0:0:0:0:
256,192,121079,1,8,0:0:0:0:
256,192,121186,1,0,0:0:0:0:
256,192,121293,1,0,0:0:0:0:
256,192,121400,1,8,0:0:0:0:
256,192,121508,1,8,0:0:0:0:
256,192,121615,1,8,0:0:0:0:
256,192,121722,1,0,0:0:0:0:
256,192,121829,1,0,0:0:0:0:
256,192,121936,1,8,0:0:0:0:
256,192,122043,1,8,0:0:0:0:
256,192,122150,1,0,0:0:0:0:
256,192,122365,1,8,0:0:0:0:
256,192,122436,1,8,0:0:0:0:
256,192,122508,1,8,0:0:0:0:
256,192,122579,1,8,0:0:0:0:
256,192,122686,1,0,0:0:0:0:
256,192,122793,1,8,0:0:0:0:
256,192,123008,1,0,0:0:0:0:
256,192,123222,1,0,0:0:0:0:
256,192,123436,1,8,0:0:0:0:
256,192,123543,1,8,0:0:0:0:
256,192,123650,1,8,0:0:0:0:
256,192,123865,1,0,0:0:0:0:
256,192,124079,1,8,0:0:0:0:
256,192,124186,1,0,0:0:0:0:
256,192,124293,1,8,0:0:0:0:
256,192,124508,1,0,0:0:0:0:
256,192,124722,1,8,0:0:0:0:
256,192,124829,1,8,0:0:0:0:
256,192,124936,1,0,0:0:0:0:
256,192,125043,1,8,0:0:0:0:
256,192,125150,1,8,0:0:0:0:
256,192,125222,1,8,0:0:0:0:
256,192,125293,1,8,0:0:0:0:
256,192,125365,1,8,0:0:0:0:
256,192,125579,1,0,0:0:0:0:
256,192,125793,1,0,0:0:0:0:
256,192,125865,1,8,0:0:0:0:
256,192,125936,1,8,0:0:0:0:
258,191,126008,1,8,0:0:0:0:
256,192,126222,1,0,0:0:0:0:
256,192,126329,1,0,0:0:0:0:
256,192,126436,1,0,0:0:0:0:
256,192,126543,1,0,0:0:0:0:
256,192,126650,1,8,0:0:0:0:
256,192,126758,1,0,0:0:0:0:
256,192,126865,1,8,0:0:0:0:
256,192,126972,1,0,0:0:0:0:
256,192,127079,1,8,0:0:0:0:
256,192,127186,1,8,0:0:0:0:
256,192,127293,1,0,0:0:0:0:
256,192,127400,1,0,0:0:0:0:
256,192,127508,1,8,0:0:0:0:
256,192,127615,1,0,0:0:0:0:
256,192,127722,1,8,0:0:0:0:
256,192,127829,1,8,0:0:0:0:
256,192,127936,1,8,0:0:0:0:
256,192,128043,1,0,0:0:0:0:
256,192,128150,1,0,0:0:0:0:
256,192,128258,1,8,0:0:0:0:
256,192,128365,1,0,0:0:0:0:
256,192,128472,1,8,0:0:0:0:
256,192,128579,1,8,0:0:0:0:
256,192,128686,1,0,0:0:0:0:
256,192,128793,1,8,0:0:0:0:
256,192,128900,1,8,0:0:0:0:
256,192,129008,1,0,0:0:0:0:
256,192,129115,1,8,0:0:0:0:
256,192,129222,1,0,0:0:0:0:
256,192,129436,1,8,0:0:0:0:
256,192,129543,1,0,0:0:0:0:
256,192,129650,1,8,0:0:0:0:
256,192,129865,1,0,0:0:0:0:
256,192,129972,1,8,0:0:0:0:
256,192,130079,1,0,0:0:0:0:
256,192,130150,1,8,0:0:0:0:
256,192,130222,1,8,0:0:0:0:
256,192,130293,1,8,0:0:0:0:
256,192,130400,1,0,0:0:0:0:
256,192,130508,1,8,0:0:0:0:
256,192,130615,1,8,0:0:0:0:
256,192,130722,1,0,0:0:0:0:
256,192,130936,1,8,0:0:0:0:
256,192,131043,1,0,0:0:0:0:
256,192,131150,1,8,0:0:0:0:
256,192,131258,1,0,0:0:0:0:
256,192,131365,1,0,0:0:0:0:
256,192,131579,1,0,0:0:0:0:
256,192,131650,1,0,0:0:0:0:
256,192,131722,1,0,0:0:0:0:
256,192,131793,1,8,0:0:0:0:
256,192,132008,1,8,0:0:0:0:
256,192,132079,1,8,0:0:0:0:
256,192,132150,1,8,0:0:0:0:
256,192,132222,1,8,0:0:0:0:
256,192,132436,1,0,0:0:0:0:
256,192,132650,1,8,0:0:0:0:
256,192,132865,1,0,0:0:0:0:
256,192,132972,1,0,0:0:0:0:
256,192,133079,1,0,0:0:0:0:
256,192,133293,1,0,0:0:0:0:
256,192,133508,1,0,0:0:0:0:
256,192,133722,1,0,0:0:0:0:
256,192,133829,1,8,0:0:0:0:
256,192,133936,1,8,0:0:0:0:
256,192,134043,1,8,0:0:0:0:
256,192,134150,1,0,0:0:0:0:
256,192,134258,1,0,0:0:0:0:
256,192,134365,1,8,0:0:0:0:
256,192,134472,1,8,0:0:0:0:
256,192,134579,1,0,0:0:0:0:
256,192,134686,1,8,0:0:0:0:
256,192,134793,1,8,0:0:0:0:
256,192,134900,1,0,0:0:0:0:
256,192,135008,1,0,0:0:0:0:
256,192,135115,1,8,0:0:0:0:
256,192,135222,1,0,0:0:0:0:
256,192,135329,1,8,0:0:0:0:
256,192,135436,1,8,0:0:0:0:
256,192,135543,1,0,0:0:0:0:
256,192,135650,1,8,0:0:0:0:
256,192,135758,1,0,0:0:0:0:
256,192,135865,1,0,0:0:0:0:
256,192,135972,1,8,0:0:0:0:
256,192,136079,1,8,0:0:0:0:
256,192,136186,1,0,0:0:0:0:
256,192,136293,1,8,0:0:0:0:
256,192,136400,1,0,0:0:0:0:
256,192,136508,1,8,0:0:0:0:
256,192,136722,1,0,0:0:0:0:
256,192,136936,1,0,0:0:0:0:
256,192,137043,1,8,0:0:0:0:
256,192,137150,1,8,0:0:0:0:
256,192,137258,1,0,0:0:0:0:
256,192,137365,1,8,0:0:0:0:
256,192,137472,1,8,0:0:0:0:
256,192,137579,1,0,0:0:0:0:
256,192,137793,1,8,0:0:0:0:
256,192,138008,1,8,0:0:0:0:
256,192,138222,1,0,0:0:0:0:
256,192,138329,1,8,0:0:0:0:
256,192,138436,1,8,0:0:0:0:
256,192,138543,1,8,0:0:0:0:
256,192,138650,1,0,0:0:0:0:
256,192,138758,1,8,0:0:0:0:
256,192,138865,1,8,0:0:0:0:
256,192,138972,1,0,0:0:0:0:
256,192,139079,1,8,0:0:0:0:
256,192,139186,1,0,0:0:0:0:
256,192,139293,1,0,0:0:0:0:
256,192,139400,1,8,0:0:0:0:
256,192,139508,1,0,0:0:0:0:
256,192,139615,1,8,0:0:0:0:
256,192,139722,1,8,0:0:0:0:
256,192,139829,1,8,0:0:0:0:
256,192,139936,1,0,0:0:0:0:
256,192,140043,1,0,0:0:0:0:
256,192,140150,1,8,0:0:0:0:
256,192,140258,1,0,0:0:0:0:
256,192,140365,1,8,0:0:0:0:
256,192,140472,1,8,0:0:0:0:
256,192,140579,1,0,0:0:0:0:
256,192,140686,1,8,0:0:0:0:
256,192,140793,1,8,0:0:0:0:
256,192,140900,1,0,0:0:0:0:
256,192,141008,1,0,0:0:0:0:
256,192,141115,1,8,0:0:0:0:
256,192,141222,1,8,0:0:0:0:
256,192,141329,1,8,0:0:0:0:
256,192,141436,1,0,0:0:0:0:
256,192,141543,1,8,0:0:0:0:
256,192,141650,1,0,0:0:0:0:
256,192,141758,1,0,0:0:0:0:
256,192,141865,1,8,0:0:0:0:
256,192,141972,1,8,0:0:0:0:
256,192,142079,1,0,0:0:0:0:
256,192,142186,1,8,0:0:0:0:
256,192,142293,1,8,0:0:0:0:
256,192,142400,1,0,0:0:0:0:
256,192,142508,1,8,0:0:0:0:
256,192,142615,1,0,0:0:0:0:
256,192,142722,1,8,0:0:0:0:
256,192,142936,1,8,0:0:0:0:
256,192,143008,1,8,0:0:0:0:
256,192,143079,1,8,0:0:0:0:
256,192,143150,1,8,0:0:0:0:
256,192,143258,1,0,0:0:0:0:
256,192,143365,1,8,0:0:0:0:
256,192,143579,1,0,0:0:0:0:
256,192,143793,1,0,0:0:0:0:
256,192,144008,1,8,0:0:0:0:
256,192,144115,1,0,0:0:0:0:
256,192,144222,1,8,0:0:0:0:
256,192,144329,1,8,0:0:0:0:
256,192,144436,1,0,0:0:0:0:
256,192,144650,1,8,0:0:0:0:
256,192,144865,1,8,0:0:0:0:
256,192,144972,1,8,0:0:0:0:
256,192,145079,1,0,0:0:0:0:
256,192,145293,1,8,0:0:0:0:
256,192,145508,1,8,0:0:0:0:
256,192,145615,1,0,0:0:0:0:
256,192,145722,1,8,0:0:0:0:
256,192,145829,1,0,0:0:0:0:
256,192,145936,1,0,0:0:0:0:
256,192,146043,1,0,0:0:0:0:
256,192,146150,1,8,0:0:0:0:
256,192,146258,1,8,0:0:0:0:
256,192,146365,1,0,0:0:0:0:
256,192,146472,1,8,0:0:0:0:
256,192,146579,1,8,0:0:0:0:
256,192,146686,1,0,0:0:0:0:
256,192,146793,1,8,0:0:0:0:
256,192,146900,1,0,0:0:0:0:
256,192,147008,1,0,0:0:0:0:
256,192,147115,1,8,0:0:0:0:
256,192,147222,1,0,0:0:0:0:
256,192,147329,1,8,0:0:0:0:
256,192,147436,1,8,0:0:0:0:
256,192,147543,1,0,0:0:0:0:
256,192,147650,1,8,0:0:0:0:
256,192,147758,1,8,0:0:0:0:
256,192,147865,1,0,0:0:0:0:
256,192,148079,1,8,0:0:0:0:
256,192,148186,1,8,0:0:0:0:
256,192,148293,1,0,0:0:0:0:
256,192,148400,1,0,0:0:0:0:
256,192,148508,1,8,0:0:0:0:
256,192,148615,1,8,0:0:0:0:
256,192,148722,1,0,0:0:0:0:
256,192,148829,1,8,0:0:0:0:
256,192,148936,1,0,0:0:0:0:
258,190,149043,1,8,0:0:0:0:
256,192,149150,1,8,0:0:0:0:
256,192,149258,1,0,0:0:0:0:
256,192,149365,1,8,0:0:0:0:
256,192,149472,1,8,0:0:0:0:
256,192,149579,1,0,0:0:0:0:
256,192,149793,1,8,0:0:0:0:
256,192,149865,1,8,0:0:0:0:
258,190,149936,1,8,0:0:0:0:
258,190,150008,1,8,0:0:0:0:
256,192,150115,1,0,0:0:0:0:
256,192,150222,1,8,0:0:0:0:
256,192,150436,1,0,0:0:0:0:
256,192,150650,1,8,0:0:0:0:
256,192,150865,1,8,0:0:0:0:
256,192,150972,1,0,0:0:0:0:
256,192,151079,1,8,0:0:0:0:
256,192,151186,1,0,0:0:0:0:
256,192,151293,1,0,0:0:0:0:
256,192,151508,1,8,0:0:0:0:
256,192,151722,1,8,0:0:0:0:
256,192,151936,1,0,0:0:0:0:
256,192,152043,1,0,0:0:0:0:
256,192,152150,1,8,0:0:0:0:
256,192,152258,1,0,0:0:0:0:
256,192,152365,1,8,0:0:0:0:
256,192,152472,1,8,0:0:0:0:
256,192,152579,1,8,0:0:0:0:
256,192,152686,1,0,0:0:0:0:
256,192,152793,1,8,0:0:0:0:
256,192,152900,1,8,0:0:0:0:
256,192,153008,1,0,0:0:0:0:
256,192,153115,1,8,0:0:0:0:
256,192,153222,1,0,0:0:0:0:
256,192,153436,1,0,0:0:0:0:
256,192,153543,1,8,0:0:0:0:
256,192,153650,1,0,0:0:0:0:
256,192,153758,1,0,0:0:0:0:
256,192,153865,1,0,0:0:0:0:
256,192,153972,1,0,0:0:0:0:
256,192,154079,1,8,0:0:0:0:
256,192,154186,1,0,0:0:0:0:
256,192,154293,1,0,0:0:0:0:
256,192,154400,1,8,0:0:0:0:
256,192,154508,1,8,0:0:0:0:
256,192,154615,1,0,0:0:0:0:
256,192,154722,1,0,0:0:0:0:
256,192,154936,1,8,0:0:0:0:
256,192,155043,1,0,0:0:0:0:
256,192,155150,1,8,0:0:0:0:
256,192,155222,1,8,0:0:0:0:
256,192,155293,1,8,0:0:0:0:
256,192,155365,1,0,0:0:0:0:
256,192,155472,1,8,0:0:0:0:
256,192,155579,1,8,0:0:0:0:
256,192,155686,1,0,0:0:0:0:
256,192,155793,1,0,0:0:0:0:
256,192,155900,1,8,0:0:0:0:
256,192,156008,1,0,0:0:0:0:
256,192,156115,1,0,0:0:0:0:
256,192,156222,1,8,0:0:0:0:
256,192,156329,1,8,0:0:0:0:
256,192,156436,1,0,0:0:0:0:
256,192,156650,1,8,0:0:0:0:
256,192,156758,1,0,0:0:0:0:
256,192,156865,1,8,0:0:0:0:
256,192,156972,1,0,0:0:0:0:
256,192,157079,1,8,0:0:0:0:
256,192,157293,1,0,0:0:0:0:
256,192,157400,1,8,0:0:0:0:
256,192,157508,1,0,0:0:0:0:
256,192,157722,1,8,0:0:0:0:
256,192,157829,1,0,0:0:0:0:
256,192,157936,1,8,0:0:0:0:
256,192,158043,1,0,0:0:0:0:
256,192,158150,1,8,0:0:0:0:
256,192,158365,1,0,0:0:0:0:
256,192,158472,1,0,0:0:0:0:
256,192,158579,1,8,0:0:0:0:
256,192,158686,1,0,0:0:0:0:
256,192,158793,1,0,0:0:0:0:
256,192,159008,1,8,0:0:0:0:
256,192,159115,1,8,0:0:0:0:
256,192,159222,1,0,0:0:0:0:
256,192,159329,1,8,0:0:0:0:
256,192,159543,1,0,0:0:0:0:
256,192,159650,1,8,0:0:0:0:
256,192,159758,1,0,0:0:0:0:
256,192,159865,1,0,0:0:0:0:
256,192,160079,1,0,0:0:0:0:
256,192,160186,1,0,0:0:0:0:
256,192,160293,1,8,0:0:0:0:
256,192,160400,1,0,0:0:0:0:
256,192,160508,1,8,0:0:0:0:
256,192,160615,1,8,0:0:0:0:
256,192,160722,1,0,0:0:0:0:
256,192,160829,1,0,0:0:0:0:
256,192,160936,1,0,0:0:0:0:
256,192,161150,1,8,0:0:0:0:
256,192,161258,1,0,0:0:0:0:
256,192,161365,1,8,0:0:0:0:
256,192,161472,1,0,0:0:0:0:
256,192,161579,1,0,0:0:0:0:
256,192,161793,1,8,0:0:0:0:
256,192,161900,1,0,0:0:0:0:
256,192,162008,1,0,0:0:0:0:
256,192,162115,1,0,0:0:0:0:
256,192,162222,1,8,0:0:0:0:
256,192,162329,1,8,0:0:0:0:
256,192,162436,1,0,0:0:0:0:
256,192,162543,1,8,0:0:0:0:
256,192,162650,1,8,0:0:0:0:
256,192,162758,1,8,0:0:0:0:
256,192,162865,1,0,0:0:0:0:
256,192,162972,1,8,0:0:0:0:
256,192,163079,1,8,0:0:0:0:
256,192,163186,1,0,0:0:0:0:
256,192,163293,1,8,0:0:0:0:
256,192,163400,1,0,0:0:0:0:
256,192,163508,1,8,0:0:0:0:
256,192,163579,1,8,0:0:0:0:
256,192,163650,1,8,0:0:0:0:
256,192,163722,1,8,0:0:0:0:
256,192,163829,1,0,0:0:0:0:
256,192,163936,1,8,0:0:0:0:
256,192,164150,1,0,0:0:0:0:
256,192,164258,1,8,0:0:0:0:
256,192,164365,1,8,0:0:0:0:
256,192,164579,1,8,0:0:0:0:
256,192,164686,1,0,0:0:0:0:
256,192,164793,1,8,0:0:0:0:
256,192,164900,1,0,0:0:0:0:
256,192,165008,1,0,0:0:0:0:
256,192,165222,1,8,0:0:0:0:
256,192,165436,1,8,0:0:0:0:
256,192,165543,1,8,0:0:0:0:
256,192,165650,1,0,0:0:0:0:
256,192,165865,1,8,0:0:0:0:
256,192,165972,1,8,0:0:0:0:
256,192,166079,1,0,0:0:0:0:
256,192,166186,1,8,0:0:0:0:
256,192,166293,1,0,0:0:0:0:
256,192,166365,1,0,0:0:0:0:
256,192,166436,1,0,0:0:0:0:
256,192,166508,5,8,0:0:0:0:
256,192,166615,1,8,0:0:0:0:
256,192,166722,1,0,0:0:0:0:
256,192,166829,1,8,0:0:0:0:
256,192,166936,1,8,0:0:0:0:
256,192,167043,1,0,0:0:0:0:
256,192,167150,1,8,0:0:0:0:
256,192,167258,1,8,0:0:0:0:
256,192,167365,1,0,0:0:0:0:
256,192,167472,1,8,0:0:0:0:
256,192,167579,1,8,0:0:0:0:
256,192,167686,1,8,0:0:0:0:
256,192,167793,12,0,193508,0:0:0:0:
256,192,193936,5,0,0:0:0:0:
256,192,194365,1,8,0:0:0:0:
256,192,194686,1,8,0:0:0:0:
256,192,195008,1,0,0:0:0:0:
256,192,195222,1,4,0:0:0:0:
256,192,196079,1,0,0:0:0:0:
256,192,196722,1,0,0:0:0:0:
256,192,196829,1,0,0:0:0:0:
256,192,196936,1,0,0:0:0:0:
256,192,197258,1,0,0:0:0:0:
256,192,197365,1,4,0:0:0:0:
256,192,197579,1,0,0:0:0:0:
256,192,197793,1,0,0:0:0:0:
256,192,198436,1,0,0:0:0:0:
256,192,198650,1,4,0:0:0:0:
256,192,199508,1,4,0:0:0:0:
256,192,199829,1,0,0:0:0:0:
256,192,200150,1,0,0:0:0:0:
256,192,200579,1,0,0:0:0:0:
256,192,200793,1,0,0:0:0:0:
256,192,201008,1,4,0:0:0:0:
256,192,201222,1,0,0:0:0:0:
256,192,201650,1,0,0:0:0:0:
256,192,201758,1,0,0:0:0:0:
256,192,201865,1,0,0:0:0:0:
256,192,202079,1,4,0:0:0:0:
256,192,202936,1,0,0:0:0:0:
256,192,203579,1,0,0:0:0:0:
256,192,203686,1,0,0:0:0:0:
256,192,203793,1,0,0:0:0:0:
256,192,204115,1,0,0:0:0:0:
256,192,204436,1,4,0:0:0:0:
256,192,204650,1,0,0:0:0:0:
256,192,204972,1,0,0:0:0:0:
256,192,205293,1,0,0:0:0:0:
256,192,205508,1,4,0:0:0:0:
256,192,205722,1,0,0:0:0:0:
256,192,206150,1,0,0:0:0:0:
256,192,206365,1,0,0:0:0:0:
256,192,206686,1,0,0:0:0:0:
256,192,207008,1,0,0:0:0:0:
256,192,207436,1,0,0:0:0:0:
256,192,207650,1,0,0:0:0:0:
256,192,207758,1,0,0:0:0:0:
256,192,207865,1,4,0:0:0:0:
256,192,208079,1,0,0:0:0:0:
256,192,208400,1,0,0:0:0:0:
256,192,208722,1,0,0:0:0:0:
256,192,208936,1,4,0:0:0:0:
256,192,209793,1,0,0:0:0:0:
256,192,210436,1,0,0:0:0:0:
256,192,210543,1,0,0:0:0:0:
256,192,210650,1,0,0:0:0:0:
256,192,210972,1,0,0:0:0:0:
256,192,211079,1,4,0:0:0:0:
256,192,211293,1,0,0:0:0:0:
256,192,211508,1,0,0:0:0:0:
256,192,211579,1,0,0:0:0:0:
256,192,211650,1,0,0:0:0:0:
256,192,211722,1,0,0:0:0:0:
256,192,211936,1,0,0:0:0:0:
256,192,212150,1,0,0:0:0:0:
256,192,212365,1,4,0:0:0:0:
256,192,212579,1,0,0:0:0:0:
256,192,212686,1,0,0:0:0:0:
256,192,213008,1,0,0:0:0:0:
256,192,213222,1,4,0:0:0:0:
256,192,213865,1,0,0:0:0:0:
256,192,214293,1,0,0:0:0:0:
256,192,214508,1,0,0:0:0:0:
256,192,214722,1,4,0:0:0:0:
256,192,214936,1,0,0:0:0:0:
256,192,215150,1,0,0:0:0:0:
256,192,215222,1,0,0:0:0:0:
256,192,215293,1,0,0:0:0:0:
256,192,215365,1,0,0:0:0:0:
256,192,215436,1,0,0:0:0:0:
256,192,215508,1,0,0:0:0:0:
256,192,215579,1,0,0:0:0:0:
256,192,215793,1,4,0:0:0:0:
256,192,216650,1,0,0:0:0:0:
256,192,217293,1,0,0:0:0:0:
256,192,217400,1,0,0:0:0:0:
256,192,217508,1,0,0:0:0:0:
256,192,217829,1,0,0:0:0:0:
256,192,217936,1,0,0:0:0:0:
256,192,218150,1,4,0:0:0:0:
256,192,218365,1,0,0:0:0:0:
256,192,218472,1,0,0:0:0:0:
256,192,218579,1,0,0:0:0:0:
256,192,218686,1,0,0:0:0:0:
256,192,218793,1,0,0:0:0:0:
256,192,219008,1,0,0:0:0:0:
256,192,219222,1,4,0:0:0:0:
256,192,220079,1,0,0:0:0:0:
256,192,220400,1,0,0:0:0:0:
256,192,220722,1,0,0:0:0:0:
256,192,221150,1,0,0:0:0:0:
256,192,221365,1,0,0:0:0:0:
256,192,221472,1,0,0:0:0:0:
256,192,221579,1,4,0:0:0:0:
256,192,221793,1,0,0:0:0:0:
256,192,222115,1,0,0:0:0:0:
256,192,222436,1,0,0:0:0:0:
256,192,222650,1,4,0:0:0:0:
256,192,223508,1,0,0:0:0:0:
256,192,224150,1,0,0:0:0:0:
256,192,224258,1,0,0:0:0:0:
256,192,224365,1,0,0:0:0:0:
256,192,224686,1,0,0:0:0:0:
256,192,224793,1,4,0:0:0:0:
256,192,225008,1,0,0:0:0:0:
256,192,225222,1,0,0:0:0:0:
256,192,225865,1,0,0:0:0:0:
256,192,226079,1,4,0:0:0:0:
256,192,226936,1,4,0:0:0:0:
256,192,227579,1,0,0:0:0:0:
256,192,228008,1,0,0:0:0:0:
256,192,228222,1,0,0:0:0:0:
256,192,228436,1,4,0:0:0:0:
256,192,228650,1,0,0:0:0:0:
256,192,228865,1,0,0:0:0:0:
256,192,228936,1,0,0:0:0:0:
256,192,229008,1,0,0:0:0:0:
256,192,229079,1,0,0:0:0:0:
256,192,229150,1,0,0:0:0:0:
256,192,229222,1,0,0:0:0:0:
256,192,229293,1,0,0:0:0:0:
256,192,229508,1,4,0:0:0:0:
256,192,230150,1,0,0:0:0:0:
256,192,230365,1,0,0:0:0:0:
256,192,231008,1,0,0:0:0:0:
256,192,231115,1,0,0:0:0:0:
256,192,231222,1,0,0:0:0:0:
256,192,231543,1,0,0:0:0:0:
256,192,231865,1,4,0:0:0:0:
256,192,232079,1,0,0:0:0:0:
256,192,232722,1,0,0:0:0:0:
256,192,232936,1,0,0:0:0:0:
256,192,233365,1,0,0:0:0:0:
256,192,233579,1,8,0:0:0:0:
256,192,233793,1,8,0:0:0:0:
256,192,233900,1,0,0:0:0:0:
256,192,234008,1,8,0:0:0:0:
256,192,234115,1,0,0:0:0:0:
256,192,234222,1,8,0:0:0:0:
256,192,234436,1,8,0:0:0:0:
256,192,234543,1,0,0:0:0:0:
256,192,234650,1,8,0:0:0:0:
256,192,234758,1,0,0:0:0:0:
256,192,234865,1,8,0:0:0:0:
256,192,235079,5,0,0:0:0:0:
256,192,235186,1,0,0:0:0:0:
256,192,235293,1,8,0:0:0:0:
256,192,235400,1,0,0:0:0:0:
256,192,235508,1,8,0:0:0:0:
256,192,235722,1,8,0:0:0:0:
256,192,235829,1,8,0:0:0:0:
256,192,235936,1,0,0:0:0:0:
256,192,236043,1,8,0:0:0:0:
256,192,236150,1,0,0:0:0:0:
256,192,236258,1,8,0:0:0:0:
256,192,236365,5,0,0:0:0:0:
256,192,237008,1,0,0:0:0:0:
256,192,237115,1,0,0:0:0:0:
256,192,237222,1,8,0:0:0:0:
256,192,237650,1,0,0:0:0:0:
256,192,237865,1,8,0:0:0:0:
256,192,238079,1,0,0:0:0:0:
256,192,238293,1,0,0:0:0:0:
256,192,238400,1,0,0:0:0:0:
256,192,238508,1,8,0:0:0:0:
256,192,238615,1,8,0:0:0:0:
256,192,238722,1,0,0:0:0:0:
256,192,238936,1,0,0:0:0:0:
256,192,239043,1,8,0:0:0:0:
256,192,239150,1,0,0:0:0:0:
256,192,239258,1,8,0:0:0:0:
256,192,239365,1,0,0:0:0:0:
256,192,239579,1,4,0:0:0:0:
256,192,239793,1,8,0:0:0:0:
256,192,240008,1,0,0:0:0:0:
256,192,240115,1,8,0:0:0:0:
256,192,240222,1,0,0:0:0:0:
256,192,240436,1,8,0:0:0:0:
256,192,240543,1,8,0:0:0:0:
256,192,240650,1,0,0:0:0:0:
256,192,240758,1,8,0:0:0:0:
256,192,240865,1,0,0:0:0:0:
256,192,241079,1,8,0:0:0:0:
256,192,241293,1,12,0:0:0:0:
256,192,241508,1,0,0:0:0:0:
256,192,241615,1,8,0:0:0:0:
256,192,241722,1,0,0:0:0:0:
256,192,241829,1,8,0:0:0:0:
256,192,241936,1,8,0:0:0:0:
256,192,242043,1,8,0:0:0:0:
256,192,242150,1,0,0:0:0:0:
256,192,242258,1,8,0:0:0:0:
256,192,242365,1,0,0:0:0:0:
256,192,242472,1,8,0:0:0:0:
256,192,242579,1,0,0:0:0:0:
256,192,242686,1,0,0:0:0:0:
256,192,242793,1,0,0:0:0:0:
256,192,242865,1,8,0:0:0:0:
256,192,242936,1,8,0:0:0:0:
256,192,243008,1,0,0:0:0:0:
256,192,243115,1,0,0:0:0:0:
256,192,243222,1,8,0:0:0:0:
256,192,243329,1,0,0:0:0:0:
256,192,243436,1,0,0:0:0:0:
256,192,243650,1,8,0:0:0:0:
256,192,243758,1,8,0:0:0:0:
256,192,243865,1,0,0:0:0:0:
256,192,243972,1,8,0:0:0:0:
256,192,244079,1,0,0:0:0:0:
256,192,244508,1,8,0:0:0:0:
256,192,244722,1,0,0:0:0:0:
256,192,244829,1,8,0:0:0:0:
256,192,244936,1,8,0:0:0:0:
256,192,245043,1,0,0:0:0:0:
256,192,245150,1,8,0:0:0:0:
256,192,245258,1,0,0:0:0:0:
256,192,245365,1,0,0:0:0:0:
256,192,245472,1,8,0:0:0:0:
256,192,245579,1,8,0:0:0:0:
256,192,245686,1,0,0:0:0:0:
256,192,245793,1,0,0:0:0:0:
256,192,245900,1,8,0:0:0:0:
256,192,246008,1,0,0:0:0:0:
256,192,246115,1,8,0:0:0:0:
256,192,246222,1,0,0:0:0:0:
256,192,246436,1,0,0:0:0:0:
256,192,246650,1,4,0:0:0:0:
256,192,246865,1,0,0:0:0:0:
256,192,246972,1,8,0:0:0:0:
256,192,247079,1,0,0:0:0:0:
256,192,247186,1,8,0:0:0:0:
256,192,247293,1,0,0:0:0:0:
256,192,247508,1,8,0:0:0:0:
256,192,247615,1,8,0:0:0:0:
256,192,247722,1,0,0:0:0:0:
256,192,247829,1,8,0:0:0:0:
256,192,247936,1,0,0:0:0:0:
256,192,248150,1,0,0:0:0:0:
256,192,248258,1,8,0:0:0:0:
256,192,248365,1,0,0:0:0:0:
256,192,248472,1,8,0:0:0:0:
256,192,248579,1,0,0:0:0:0:
256,192,248793,1,0,0:0:0:0:
256,192,248900,1,8,0:0:0:0:
256,192,249008,1,0,0:0:0:0:
256,192,249115,1,8,0:0:0:0:
256,192,249222,1,0,0:0:0:0:
256,192,249329,1,0,0:0:0:0:
256,192,249436,1,0,0:0:0:0:
256,192,249543,1,8,0:0:0:0:
256,192,249650,1,0,0:0:0:0:
256,192,249758,1,8,0:0:0:0:
256,192,249865,1,0,0:0:0:0:
256,192,249972,1,0,0:0:0:0:
256,192,250079,1,8,0:0:0:0:
256,192,250400,1,8,0:0:0:0:
256,192,250508,1,0,0:0:0:0:
256,192,250615,1,8,0:0:0:0:
256,192,250722,1,0,0:0:0:0:
256,192,250829,1,0,0:0:0:0:
256,192,250936,1,0,0:0:0:0:
256,192,251150,1,12,0:0:0:0:
256,192,251365,1,0,0:0:0:0:
256,192,251472,1,8,0:0:0:0:
256,192,251579,1,8,0:0:0:0:
256,192,251686,1,8,0:0:0:0:
256,192,251793,1,0,0:0:0:0:
256,192,252008,1,0,0:0:0:0:
256,192,252115,1,8,0:0:0:0:
256,192,252222,1,8,0:0:0:0:
256,192,252329,1,0,0:0:0:0:
256,192,252436,1,0,0:0:0:0:
256,192,252650,1,0,0:0:0:0:
256,192,252758,1,8,0:0:0:0:
256,192,252865,1,0,0:0:0:0:
256,192,252972,1,8,0:0:0:0:
256,192,253079,1,0,0:0:0:0:
256,192,253293,1,4,0:0:0:0:
256,192,253508,1,8,0:0:0:0:
256,192,253722,1,0,0:0:0:0:
256,192,253829,1,8,0:0:0:0:
256,192,253936,1,0,0:0:0:0:
256,192,254150,1,8,0:0:0:0:
256,192,254258,1,8,0:0:0:0:
256,192,254365,1,0,0:0:0:0:
256,192,254472,1,8,0:0:0:0:
256,192,254579,1,0,0:0:0:0:
256,192,254793,1,8,0:0:0:0:
256,192,255008,1,8,0:0:0:0:
256,192,255115,1,0,0:0:0:0:
256,192,255222,1,0,0:0:0:0:
256,192,255329,1,8,0:0:0:0:
256,192,255436,1,0,0:0:0:0:
256,192,255650,1,8,0:0:0:0:
256,192,255758,1,8,0:0:0:0:
256,192,255865,1,0,0:0:0:0:
256,192,255972,1,8,0:0:0:0:
256,192,256079,1,0,0:0:0:0:
256,192,256186,1,8,0:0:0:0:
256,192,256293,1,0,0:0:0:0:
256,192,256400,1,8,0:0:0:0:
256,192,256508,1,0,0:0:0:0:
256,192,256579,1,8,0:0:0:0:
256,192,256650,1,0,0:0:0:0:
256,192,256722,1,0,0:0:0:0:
256,192,256936,1,8,0:0:0:0:
256,192,257008,1,0,0:0:0:0:
256,192,257079,1,0,0:0:0:0:
256,192,257150,1,0,0:0:0:0:
256,192,257365,1,8,0:0:0:0:
256,192,257472,1,0,0:0:0:0:
256,192,257579,1,0,0:0:0:0:
256,192,257793,1,0,0:0:0:0:
256,192,258115,1,8,0:0:0:0:
256,192,258222,1,8,0:0:0:0:
256,192,258436,1,8,0:0:0:0:
256,192,258543,1,0,0:0:0:0:
256,192,258650,1,0,0:0:0:0:
256,192,258758,1,8,0:0:0:0:
256,192,258865,1,0,0:0:0:0:
256,192,259079,1,0,0:0:0:0:
256,192,259186,1,8,0:0:0:0:
256,192,259293,1,0,0:0:0:0:
256,192,259508,1,0,0:0:0:0:
256,192,259615,1,8,0:0:0:0:
256,192,259722,1,0,0:0:0:0:
256,192,259829,1,8,0:0:0:0:
256,192,259936,1,0,0:0:0:0:
256,192,260150,1,0,0:0:0:0:
256,192,260365,1,0,0:0:0:0:
256,192,260579,1,8,0:0:0:0:
256,192,260686,1,8,0:0:0:0:
256,192,260793,1,0,0:0:0:0:
256,192,260900,1,8,0:0:0:0:
256,192,261008,1,0,0:0:0:0:
256,192,261222,1,8,0:0:0:0:
256,192,261329,1,8,0:0:0:0:
256,192,261436,1,0,0:0:0:0:
256,192,261543,1,8,0:0:0:0:
256,192,261650,1,0,0:0:0:0:
256,192,261865,1,8,0:0:0:0:
256,192,261972,1,8,0:0:0:0:
256,192,262079,1,0,0:0:0:0:
256,192,262186,1,8,0:0:0:0:
256,192,262293,1,0,0:0:0:0:
256,192,262508,1,8,0:0:0:0:
256,192,262722,1,0,0:0:0:0:
256,192,262829,1,8,0:0:0:0:
256,192,262936,1,0,0:0:0:0:
256,192,263043,1,8,0:0:0:0:
256,192,263150,1,0,0:0:0:0:
256,192,263258,1,0,0:0:0:0:
256,192,263365,1,0,0:0:0:0:
256,192,263579,1,0,0:0:0:0:
256,192,263686,1,8,0:0:0:0:
256,192,263793,1,0,0:0:0:0:
256,192,263900,1,8,0:0:0:0:
256,192,264008,1,8,0:0:0:0:
256,192,264115,1,8,0:0:0:0:
256,192,264222,1,8,0:0:0:0:
256,192,264329,1,8,0:0:0:0:
256,192,264436,1,0,0:0:0:0:
256,192,264543,1,8,0:0:0:0:
256,192,264650,1,0,0:0:0:0:
256,192,264865,1,8,0:0:0:0:
256,192,265079,1,0,0:0:0:0:
256,192,265186,1,8,0:0:0:0:
256,192,265293,1,8,0:0:0:0:
256,192,265400,1,0,0:0:0:0:
256,192,265508,1,0,0:0:0:0:
256,192,265722,1,0,0:0:0:0:
256,192,265829,1,8,0:0:0:0:
256,192,266043,1,8,0:0:0:0:
256,192,266150,1,0,0:0:0:0:
256,192,266258,1,8,0:0:0:0:
256,192,266365,1,0,0:0:0:0:
256,192,266472,1,0,0:0:0:0:
256,192,266579,1,0,0:0:0:0:
256,192,266686,1,8,0:0:0:0:
256,192,266793,1,0,0:0:0:0:
256,192,267008,1,4,0:0:0:0:
256,192,267222,1,8,0:0:0:0:
256,192,267436,1,0,0:0:0:0:
256,192,267543,1,8,0:0:0:0:
256,192,267650,1,0,0:0:0:0:
256,192,267865,1,0,0:0:0:0:
256,192,267972,1,8,0:0:0:0:
256,192,268079,1,0,0:0:0:0:
256,192,268186,1,8,0:0:0:0:
256,192,268293,1,0,0:0:0:0:
256,192,268508,1,0,0:0:0:0:
256,192,268722,1,8,0:0:0:0:
256,192,268829,1,8,0:0:0:0:
256,192,268936,1,0,0:0:0:0:
256,192,269043,1,8,0:0:0:0:
256,192,269258,1,0,0:0:0:0:
256,192,269365,1,8,0:0:0:0:
256,192,269579,1,0,0:0:0:0:
256,192,269686,1,8,0:0:0:0:
256,192,269793,1,0,0:0:0:0:
256,192,269900,1,0,0:0:0:0:
256,192,270008,1,8,0:0:0:0:
256,192,270115,1,8,0:0:0:0:
256,192,270222,1,0,0:0:0:0:
256,192,270293,1,8,0:0:0:0:
256,192,270365,1,8,0:0:0:0:
256,192,270436,1,0,0:0:0:0:
256,192,270650,1,8,0:0:0:0:
256,192,270758,1,0,0:0:0:0:
256,192,270865,1,0,0:0:0:0:
256,192,270972,1,8,0:0:0:0:
256,192,271079,1,8,0:0:0:0:
256,192,271186,1,8,0:0:0:0:
256,192,271293,1,0,0:0:0:0:
256,192,271400,1,8,0:0:0:0:
256,192,271508,1,0,0:0:0:0:
256,192,271829,1,8,0:0:0:0:
256,192,271936,1,8,0:0:0:0:
256,192,272150,1,0,0:0:0:0:
256,192,272258,1,8,0:0:0:0:
256,192,272579,1,0,0:0:0:0:
256,192,272793,1,8,0:0:0:0:
256,192,272900,1,0,0:0:0:0:
256,192,273008,1,0,0:0:0:0:
256,192,273115,1,8,0:0:0:0:
256,192,273222,1,0,0:0:0:0:
256,192,273329,1,8,0:0:0:0:
256,192,273436,1,0,0:0:0:0:
256,192,273543,1,8,0:0:0:0:
256,192,273650,1,8,0:0:0:0:
256,192,273865,1,0,0:0:0:0:
256,192,274079,1,8,0:0:0:0:
256,192,274293,1,8,0:0:0:0:
256,192,274400,1,8,0:0:0:0:
256,192,274508,1,0,0:0:0:0:
256,192,274615,1,8,0:0:0:0:
256,192,274722,1,0,0:0:0:0:
256,192,274936,1,0,0:0:0:0:
256,192,275043,1,8,0:0:0:0:
256,192,275150,1,0,0:0:0:0:
256,192,275258,1,8,0:0:0:0:
256,192,275365,1,8,0:0:0:0:
256,192,275579,1,8,0:0:0:0:
256,192,275686,1,0,0:0:0:0:
256,192,275793,1,8,0:0:0:0:
256,192,275900,1,0,0:0:0:0:
256,192,276008,1,0,0:0:0:0:
256,192,276222,1,0,0:0:0:0:
256,192,276436,1,0,0:0:0:0:
256,192,276543,1,8,0:0:0:0:
256,192,276650,1,0,0:0:0:0:
256,192,276758,1,8,0:0:0:0:
256,192,276865,1,0,0:0:0:0:
256,192,276972,1,8,0:0:0:0:
256,192,277079,1,8,0:0:0:0:
256,192,277186,1,0,0:0:0:0:
256,192,277293,1,0,0:0:0:0:
256,192,277400,1,0,0:0:0:0:
256,192,277508,1,0,0:0:0:0:
256,192,277722,1,8,0:0:0:0:
256,192,277829,1,0,0:0:0:0:
256,192,277936,1,8,0:0:0:0:
256,192,278043,1,8,0:0:0:0:
256,192,278150,1,0,0:0:0:0:
256,192,278258,1,0,0:0:0:0:
256,192,278365,1,8,0:0:0:0:
256,192,278579,1,8,0:0:0:0:
256,192,278686,1,8,0:0:0:0:
256,192,278793,1,0,0:0:0:0:
256,192,278900,1,8,0:0:0:0:
256,192,279008,1,8,0:0:0:0:
256,192,279115,1,8,0:0:0:0:
256,192,279222,1,0,0:0:0:0:
256,192,279436,1,0,0:0:0:0:
256,192,279543,1,8,0:0:0:0:
256,192,279758,1,8,0:0:0:0:
256,192,279865,1,0,0:0:0:0:
256,192,280079,1,0,0:0:0:0:
256,192,280186,1,8,0:0:0:0:
256,192,280293,1,0,0:0:0:0:
256,192,280508,1,8,0:0:0:0:
256,192,280722,1,4,0:0:0:0:
256,192,281150,1,8,0:0:0:0:
256,192,281258,1,8,0:0:0:0:
256,192,281365,1,0,0:0:0:0:
256,192,281579,1,0,0:0:0:0:
256,192,281686,1,8,0:0:0:0:
256,192,281793,1,0,0:0:0:0:
256,192,281900,1,8,0:0:0:0:
256,192,282008,1,0,0:0:0:0:
256,192,282222,1,8,0:0:0:0:
256,192,282329,1,0,0:0:0:0:
256,192,282436,1,8,0:0:0:0:
256,192,282543,1,0,0:0:0:0:
256,192,282650,1,0,0:0:0:0:
256,192,282758,1,8,0:0:0:0:
256,192,282865,1,0,0:0:0:0:
256,192,282972,1,8,0:0:0:0:
256,192,283079,1,0,0:0:0:0:
256,192,283293,1,0,0:0:0:0:
256,192,283400,1,8,0:0:0:0:
256,192,283508,1,8,0:0:0:0:
256,192,283615,1,0,0:0:0:0:
256,192,283722,1,0,0:0:0:0:
256,192,283829,1,0,0:0:0:0:
256,192,283936,1,8,0:0:0:0:
256,192,284008,1,0,0:0:0:0:
256,192,284079,1,0,0:0:0:0:
256,192,284150,1,8,0:0:0:0:
256,192,284258,1,0,0:0:0:0:
256,192,284365,1,8,0:0:0:0:
256,192,284472,1,0,0:0:0:0:
256,192,284579,1,0,0:0:0:0:
256,192,284793,1,8,0:0:0:0:
256,192,284900,1,0,0:0:0:0:
256,192,285008,1,0,0:0:0:0:
256,192,285115,1,10,0:0:0:0:
256,192,285222,1,0,0:0:0:0:
256,192,285650,1,8,0:0:0:0:
256,192,285865,1,8,0:0:0:0:
256,192,285972,1,0,0:0:0:0:
256,192,286293,1,0,0:0:0:0:
256,192,286508,1,0,0:0:0:0:
256,192,286615,1,8,0:0:0:0:
256,192,286722,1,0,0:0:0:0:
256,192,286936,1,8,0:0:0:0:
256,192,287043,1,0,0:0:0:0:
256,192,287150,1,0,0:0:0:0:
256,192,287365,1,8,0:0:0:0:
256,192,287579,1,0,0:0:0:0:
256,192,287793,1,8,0:0:0:0:
256,192,288008,1,8,0:0:0:0:
256,192,288115,1,0,0:0:0:0:
256,192,288222,1,0,0:0:0:0:
256,192,288329,1,8,0:0:0:0:
256,192,288436,1,0,0:0:0:0:
256,192,288650,1,8,0:0:0:0:
256,192,288758,1,0,0:0:0:0:
256,192,288865,1,0,0:0:0:0:
256,192,288972,1,8,0:0:0:0:
256,192,289079,1,0,0:0:0:0:
256,192,289293,1,0,0:0:0:0:
256,192,289508,1,0,0:0:0:0:
256,192,289615,1,8,0:0:0:0:
256,192,289722,1,0,0:0:0:0:
256,192,289936,1,8,0:0:0:0:
256,192,290150,1,0,0:0:0:0:
256,192,290258,1,8,0:0:0:0:
256,192,290365,1,8,0:0:0:0:
256,192,290472,1,0,0:0:0:0:
256,192,290579,1,8,0:0:0:0:
256,192,290686,1,0,0:0:0:0:
256,192,290793,1,0,0:0:0:0:
256,192,290900,1,8,0:0:0:0:
256,192,291008,1,0,0:0:0:0:
256,192,291115,1,0,0:0:0:0:
256,192,291222,1,8,0:0:0:0:
256,192,291329,1,0,0:0:0:0:
256,192,291436,1,8,0:0:0:0:
256,192,291543,1,8,0:0:0:0:
256,192,291650,1,0,0:0:0:0:
256,192,291758,1,8,0:0:0:0:
256,192,291865,1,8,0:0:0:0:
256,192,291972,1,8,0:0:0:0:
256,192,292079,1,0,0:0:0:0:
256,192,292293,1,8,0:0:0:0:
256,192,292400,1,0,0:0:0:0:
256,192,292508,1,0,0:0:0:0:
256,192,292722,1,8,0:0:0:0:
256,192,292936,1,0,0:0:0:0:
256,192,293043,1,8,0:0:0:0:
256,192,293150,1,0,0:0:0:0:
256,192,293258,1,0,0:0:0:0:
256,192,293472,1,8,0:0:0:0:
256,192,293579,1,0,0:0:0:0:
256,192,293793,1,0,0:0:0:0:
256,192,294008,1,0,0:0:0:0:
256,192,294115,1,8,0:0:0:0:
256,192,294222,1,8,0:0:0:0:
256,192,294436,1,0,0:0:0:0:
256,192,294650,1,8,0:0:0:0:
256,192,294865,1,0,0:0:0:0:
256,192,294972,1,8,0:0:0:0:
256,192,295079,1,0,0:0:0:0:
256,192,295293,1,0,0:0:0:0:
256,192,295400,1,0,0:0:0:0:
256,192,295508,1,8,0:0:0:0:
256,192,295722,1,0,0:0:0:0:
256,192,295936,1,8,0:0:0:0:
256,192,296043,1,0,0:0:0:0:
256,192,296150,1,8,0:0:0:0:
256,192,296365,1,0,0:0:0:0:
256,192,296579,1,8,0:0:0:0:
256,192,296793,1,8,0:0:0:0:
256,192,297008,1,0,0:0:0:0:
256,192,297115,1,8,0:0:0:0:
256,192,297222,1,8,0:0:0:0:
256,192,297329,1,0,0:0:0:0:
256,192,297436,1,0,0:0:0:0:
256,192,297543,1,8,0:0:0:0:
256,192,297650,1,0,0:0:0:0:
256,192,297865,1,0,0:0:0:0:
256,192,297972,1,0,0:0:0:0:
256,192,298079,1,8,0:0:0:0:
256,192,298186,1,8,0:0:0:0:
256,192,298293,1,0,0:0:0:0:
256,192,298508,1,0,0:0:0:0:
256,192,298615,1,0,0:0:0:0:
256,192,298722,1,0,0:0:0:0:
256,192,298829,1,8,0:0:0:0:
256,192,298936,1,0,0:0:0:0:
256,192,299150,1,0,0:0:0:0:
256,192,299258,1,8,0:0:0:0:
256,192,299365,1,8,0:0:0:0:
256,192,299472,1,0,0:0:0:0:
256,192,299579,1,8,0:0:0:0:
256,192,299686,1,0,0:0:0:0:
256,192,299793,1,0,0:0:0:0:
256,192,300008,1,0,0:0:0:0:
256,192,300222,1,0,0:0:0:0:
256,192,300329,1,8,0:0:0:0:
256,192,300436,1,8,0:0:0:0:
256,192,300650,1,0,0:0:0:0:
256,192,300865,1,0,0:0:0:0:
256,192,300972,1,8,0:0:0:0:
256,192,301079,1,8,0:0:0:0:
256,192,301293,1,0,0:0:0:0:
256,192,301508,1,12,0:0:0:0:
256,192,301722,1,8,0:0:0:0:
256,192,301829,1,8,0:0:0:0:
256,192,301936,1,0,0:0:0:0:
256,192,302150,1,0,0:0:0:0:
256,192,302258,1,8,0:0:0:0:
256,192,302365,1,0,0:0:0:0:
256,192,302472,1,8,0:0:0:0:
256,192,302579,1,0,0:0:0:0:
256,192,302686,1,0,0:0:0:0:
256,192,302793,1,8,0:0:0:0:
256,192,302900,1,0,0:0:0:0:
256,192,303008,1,0,0:0:0:0:
256,192,303115,1,8,0:0:0:0:
256,192,303222,1,0,0:0:0:0:
256,192,303329,1,8,0:0:0:0:
256,192,303436,1,8,0:0:0:0:
256,192,303543,1,0,0:0:0:0:
256,192,303650,1,0,0:0:0:0:
256,192,303758,1,8,0:0:0:0:
256,192,303865,1,0,0:0:0:0:
256,192,303972,1,8,0:0:0:0:
256,192,304079,1,0,0:0:0:0:
256,192,304186,1,8,0:0:0:0:
256,192,304293,1,8,0:0:0:0:
256,192,304400,1,8,0:0:0:0:
256,192,304508,1,0,0:0:0:0:
256,192,304615,1,8,0:0:0:0:
256,192,304722,1,0,0:0:0:0:
256,192,304829,1,8,0:0:0:0:
256,192,304936,1,0,0:0:0:0:
256,192,305150,1,0,0:0:0:0:
256,192,305258,1,8,0:0:0:0:
256,192,305365,1,8,0:0:0:0:
256,192,305472,1,8,0:0:0:0:
256,192,305579,1,0,0:0:0:0:
256,192,305686,1,8,0:0:0:0:
256,192,305793,1,0,0:0:0:0:
256,192,306008,1,0,0:0:0:0:
256,192,306115,1,8,0:0:0:0:
256,192,306222,1,8,0:0:0:0:
256,192,306329,1,0,0:0:0:0:
256,192,306436,1,8,0:0:0:0:
256,192,306543,1,0,0:0:0:0:
256,192,306650,1,0,0:0:0:0:
256,192,306865,1,0,0:0:0:0:
256,192,306972,1,8,0:0:0:0:
256,192,307079,1,8,0:0:0:0:
256,192,307293,1,0,0:0:0:0:
256,192,307400,1,8,0:0:0:0:
256,192,307508,1,0,0:0:0:0:
256,192,307722,1,0,0:0:0:0:
256,192,307829,1,0,0:0:0:0:
256,192,307936,1,8,0:0:0:0:
256,192,308150,1,0,0:0:0:0:
256,192,308258,1,8,0:0:0:0:
256,192,308365,1,8,0:0:0:0:
256,192,308472,1,0,0:0:0:0:
256,192,308579,1,8,0:0:0:0:
256,192,308686,1,0,0:0:0:0:
256,192,308793,1,0,0:0:0:0:
256,192,308900,1,8,0:0:0:0:
256,192,309008,1,0,0:0:0:0:
256,192,309115,1,0,0:0:0:0:
256,192,309222,1,0,0:0:0:0:
256,192,309436,1,0,0:0:0:0:
256,192,309543,1,8,0:0:0:0:
256,192,309650,1,8,0:0:0:0:
256,192,309865,1,12,0:0:0:0:
256,192,310079,1,0,0:0:0:0:
256,192,310186,1,8,0:0:0:0:
256,192,310293,1,0,0:0:0:0:
256,192,310400,1,8,0:0:0:0:
256,192,310508,1,8,0:0:0:0:
256,192,310722,1,0,0:0:0:0:
256,192,310829,1,8,0:0:0:0:
256,192,310936,1,0,0:0:0:0:
256,192,311043,1,0,0:0:0:0:
256,192,311150,1,8,0:0:0:0:
256,192,311258,1,8,0:0:0:0:
256,192,311365,1,0,0:0:0:0:
256,192,311436,1,0,0:0:0:0:
256,192,311508,1,0,0:0:0:0:
256,192,311579,1,0,0:0:0:0:
256,192,311793,1,8,0:0:0:0:
256,192,311900,1,0,0:0:0:0:
256,192,312008,1,0,0:0:0:0:
256,192,312222,1,8,0:0:0:0:
256,192,312329,1,0,0:0:0:0:
256,192,312436,1,0,0:0:0:0:
256,192,312543,1,8,0:0:0:0:
256,192,312650,1,0,0:0:0:0:
256,192,313079,1,8,0:0:0:0:
256,192,313293,1,8,0:0:0:0:
256,192,313400,1,0,0:0:0:0:
256,192,313508,1,0,0:0:0:0:
256,192,313722,1,0,0:0:0:0:
256,192,313936,1,8,0:0:0:0:
256,192,314043,1,8,0:0:0:0:
256,192,314150,1,0,0:0:0:0:
256,192,314365,1,0,0:0:0:0:
256,192,314579,1,0,0:0:0:0:
256,192,314686,1,8,0:0:0:0:
256,192,314793,1,0,0:0:0:0:
256,192,315008,1,8,0:0:0:0:
256,192,315222,1,12,0:0:0:0:
256,192,315436,1,0,0:0:0:0:
256,192,315543,1,8,0:0:0:0:
256,192,315650,1,0,0:0:0:0:
256,192,315865,1,12,0:0:0:0:
256,192,316079,1,8,0:0:0:0:
256,192,316186,1,8,0:0:0:0:
256,192,316293,1,0,0:0:0:0:
256,192,316508,1,12,0:0:0:0:
256,192,316722,1,8,0:0:0:0:
256,192,316829,1,0,0:0:0:0:
256,192,316936,1,0,0:0:0:0:
256,192,317043,1,8,0:0:0:0:
256,192,317150,1,0,0:0:0:0:
256,192,317258,1,8,0:0:0:0:
256,192,317365,5,0,0:0:0:0:
256,192,317472,1,8,0:0:0:0:
256,192,317579,1,0,0:0:0:0:
256,192,317686,1,8,0:0:0:0:
256,192,317793,1,0,0:0:0:0:
256,192,317900,1,8,0:0:0:0:
256,192,318008,1,8,0:0:0:0:
256,192,318115,1,8,0:0:0:0:
256,192,318222,1,0,0:0:0:0:
256,192,318329,1,8,0:0:0:0:
256,192,318436,1,0,0:0:0:0:
256,192,318543,1,8,0:0:0:0:
256,192,318650,5,0,0:0:0:0:
256,192,318758,12,0,324650,0:0:0:0:
256,192,324972,5,4,0:0:0:0:
256,192,325293,1,4,0:0:0:0:
256,192,325508,1,0,0:0:0:0:
256,192,326151,1,8,0:0:0:0:
256,192,327222,1,0,0:0:0:0:
256,192,327865,1,8,0:0:0:0:
256,192,328937,1,0,0:0:0:0:
256,192,329580,1,8,0:0:0:0:
256,192,330222,1,0,0:0:0:0:
256,192,330651,1,0,0:0:0:0:
256,192,331294,1,8,0:0:0:0:
256,192,331829,1,4,0:0:0:0:
256,192,332150,1,4,0:0:0:0:
256,192,332365,1,8,0:0:0:0:
256,192,332686,1,8,0:0:0:0:
256,192,332936,1,0,0:0:0:0:
256,192,333079,1,8,0:0:0:0:
256,192,333150,1,0,0:0:0:0:
256,192,333222,1,0,0:0:0:0:
256,192,333650,1,0,0:0:0:0:
256,192,333758,1,8,0:0:0:0:
256,192,333865,1,0,0:0:0:0:
256,192,333972,1,0,0:0:0:0:
256,192,334186,1,8,0:0:0:0:
256,192,335365,1,8,0:0:0:0:
256,192,335793,1,0,0:0:0:0:
256,192,336008,1,0,0:0:0:0:
256,192,336436,1,8,0:0:0:0:
256,192,337078,1,8,0:0:0:0:
256,192,337507,1,0,0:0:0:0:
256,192,338150,1,8,0:0:0:0:
256,192,338686,1,4,0:0:0:0:
256,192,339008,1,4,0:0:0:0:
256,192,339222,1,0,0:0:0:0:
256,192,339865,1,8,0:0:0:0:
256,192,340937,1,0,0:0:0:0:
256,192,341579,1,8,0:0:0:0:
256,192,342651,1,0,0:0:0:0:
256,192,343294,1,8,0:0:0:0:
256,192,343937,1,8,0:0:0:0:
256,192,344365,1,0,0:0:0:0:
256,192,345008,5,8,0:0:0:0:
256,192,345544,1,4,0:0:0:0:
256,192,345865,1,4,0:0:0:0:
256,192,346079,1,0,0:0:0:0:
256,192,346508,1,8,0:0:0:0:
256,192,346722,1,0,0:0:0:0:
256,192,346936,1,0,0:0:0:0:
256,192,347365,1,8,0:0:0:0:
256,192,347579,1,0,0:0:0:0:
256,192,347793,1,8,0:0:0:0:
256,192,348222,1,0,0:0:0:0:
256,192,348650,1,8,0:0:0:0:
256,192,348758,1,0,0:0:0:0:
256,192,348865,1,0,0:0:0:0:
256,192,348972,1,8,0:0:0:0:
256,192,349079,1,0,0:0:0:0:
256,192,349508,1,8,0:0:0:0:
256,192,349722,1,0,0:0:0:0:
256,192,349936,1,0,0:0:0:0:
256,192,350150,1,8,0:0:0:0:
256,192,350365,1,0,0:0:0:0:
256,192,350793,1,8,0:0:0:0:
256,192,351008,1,0,0:0:0:0:
256,192,351222,1,0,0:0:0:0:
256,192,351436,1,8,0:0:0:0:
256,192,351650,1,0,0:0:0:0:
256,192,352079,1,8,0:0:0:0:
256,192,352186,1,8,0:0:0:0:
256,192,352293,1,0,0:0:0:0:
256,192,352400,1,0,0:0:0:0:
256,192,352508,1,0,0:0:0:0:
256,192,352722,1,0,0:0:0:0:
256,192,352936,1,0,0:0:0:0:
256,192,353365,1,8,0:0:0:0:
256,192,353793,1,0,0:0:0:0:
256,192,354222,1,8,0:0:0:0:
256,192,354436,1,0,0:0:0:0:
256,192,354650,1,4,0:0:0:0:
256,192,355079,1,8,0:0:0:0:
256,192,355186,1,0,0:0:0:0:
256,192,355293,1,0,0:0:0:0:
256,192,355400,1,8,0:0:0:0:
256,192,355508,1,8,0:0:0:0:
256,192,355615,1,0,0:0:0:0:
256,192,355722,1,0,0:0:0:0:
256,192,355829,1,8,0:0:0:0:
256,192,355936,1,0,0:0:0:0:
256,192,356365,1,8,0:0:0:0:
256,192,356793,1,0,0:0:0:0:
256,192,357008,1,8,0:0:0:0:
256,192,357222,1,0,0:0:0:0:
256,192,357650,1,8,0:0:0:0:
256,192,357865,1,0,0:0:0:0:
256,192,358079,1,8,0:0:0:0:
256,192,358186,1,0,0:0:0:0:
256,192,358293,1,8,0:0:0:0:
256,192,358508,1,8,0:0:0:0:
256,192,358722,1,0,0:0:0:0:
256,192,358829,1,0,0:0:0:0:
256,192,358936,1,8,0:0:0:0:
256,192,359043,1,0,0:0:0:0:
256,192,359150,1,0,0:0:0:0:
256,192,359258,1,8,0:0:0:0:
256,192,359365,1,8,0:0:0:0:
256,192,359579,1,0,0:0:0:0:
256,192,359793,1,8,0:0:0:0:
256,192,360008,1,0,0:0:0:0:
256,192,360222,1,8,0:0:0:0:
256,192,360650,1,0,0:0:0:0:
256,192,361079,1,8,0:0:0:0:
256,192,361293,1,0,0:0:0:0:
256,192,361508,1,8,0:0:0:0:
256,192,361936,1,8,0:0:0:0:
256,192,362365,1,8,0:0:0:0:
256,192,362472,1,0,0:0:0:0:
256,192,362579,1,0,0:0:0:0:
256,192,362686,1,8,0:0:0:0:
256,192,362793,1,0,0:0:0:0:
256,192,363008,1,8,0:0:0:0:
256,192,363222,1,0,0:0:0:0:
256,192,363650,1,0,0:0:0:0:
256,192,363865,1,8,0:0:0:0:
256,192,364079,1,0,0:0:0:0:
256,192,364293,1,0,0:0:0:0:
256,192,364508,1,8,0:0:0:0:
256,192,364722,1,0,0:0:0:0:
256,192,364936,1,0,0:0:0:0:
256,192,365365,1,0,0:0:0:0:
256,192,365793,1,8,0:0:0:0:
256,192,365900,1,0,0:0:0:0:
256,192,366008,1,8,0:0:0:0:
256,192,366222,1,8,0:0:0:0:
256,192,366436,1,0,0:0:0:0:
256,192,366650,1,0,0:0:0:0:
256,192,367079,1,8,0:0:0:0:
256,192,367293,1,8,0:0:0:0:
256,192,367508,1,0,0:0:0:0:
256,192,367936,1,8,0:0:0:0:
256,192,368150,1,0,0:0:0:0:
256,192,368258,1,8,0:0:0:0:
256,192,368365,1,0,0:0:0:0:
256,192,368579,1,8,0:0:0:0:
256,192,368793,1,0,0:0:0:0:
256,192,368900,1,0,0:0:0:0:
256,192,369008,1,8,0:0:0:0:
256,192,369222,1,0,0:0:0:0:
256,192,369329,1,8,0:0:0:0:
256,192,369436,1,0,0:0:0:0:
256,192,369543,1,8,0:0:0:0:
256,192,369650,1,0,0:0:0:0:
256,192,369865,1,0,0:0:0:0:
256,192,370079,1,8,0:0:0:0:
256,192,370293,1,8,0:0:0:0:
256,192,370508,1,0,0:0:0:0:
256,192,370722,1,8,0:0:0:0:
256,192,370936,1,0,0:0:0:0:
256,192,371365,1,8,0:0:0:0:
256,192,371579,1,0,0:0:0:0:
256,192,371793,1,8,0:0:0:0:
256,192,372008,1,0,0:0:0:0:
256,192,372222,5,8,0:0:0:0:
256,192,372436,1,0,0:0:0:0:
256,192,372543,1,8,0:0:0:0:
256,192,372650,1,0,0:0:0:0:
256,192,372865,1,0,0:0:0:0:
256,192,372972,1,8,0:0:0:0:
256,192,373079,1,0,0:0:0:0:
256,192,373508,5,8,0:0:0:0:
256,192,373936,1,8,0:0:0:0:
256,192,374150,1,8,0:0:0:0:
256,192,374365,1,0,0:0:0:0:
256,192,374579,1,0,0:0:0:0:
256,192,374793,1,8,0:0:0:0:
256,192,375008,1,0,0:0:0:0:
256,192,375115,1,0,0:0:0:0:
256,192,375222,1,0,0:0:0:0:
256,192,375436,1,8,0:0:0:0:
256,192,375543,1,0,0:0:0:0:
256,192,375650,1,8,0:0:0:0:
256,192,375865,1,0,0:0:0:0:
256,192,376079,1,0,0:0:0:0:
256,192,376293,1,0,0:0:0:0:
256,192,376400,1,0,0:0:0:0:
256,192,376508,1,8,0:0:0:0:
256,192,376615,1,8,0:0:0:0:
256,192,376722,1,0,0:0:0:0:
256,192,376829,1,0,0:0:0:0:
256,192,376936,1,8,0:0:0:0:
256,192,377150,1,8,0:0:0:0:
256,192,377258,1,0,0:0:0:0:
256,192,377365,1,8,0:0:0:0:
256,192,377579,1,0,0:0:0:0:
256,192,377793,1,8,0:0:0:0:
256,192,378008,1,8,0:0:0:0:
256,192,378115,1,0,0:0:0:0:
256,192,378222,1,0,0:0:0:0:
256,192,378436,1,0,0:0:0:0:
256,192,378650,1,12,0:0:0:0:
256,192,378865,1,8,0:0:0:0:
256,192,378972,1,0,0:0:0:0:
256,192,379079,1,8,0:0:0:0:
256,192,379293,1,0,0:0:0:0:
256,192,379400,1,8,0:0:0:0:
256,192,379508,1,0,0:0:0:0:
256,192,379615,1,8,0:0:0:0:
256,192,379722,1,0,0:0:0:0:
256,192,379829,1,8,0:0:0:0:
256,192,379936,1,8,0:0:0:0:
256,192,380043,1,8,0:0:0:0:
256,192,380150,1,0,0:0:0:0:
256,192,380258,1,8,0:0:0:0:
256,192,380365,1,0,0:0:0:0:
256,192,380579,1,0,0:0:0:0:
256,192,380686,1,0,0:0:0:0:
256,192,380793,1,8,0:0:0:0:
256,192,381008,1,0,0:0:0:0:
256,192,381222,1,0,0:0:0:0:
256,192,381436,1,0,0:0:0:0:
256,192,381650,1,8,0:0:0:0:
256,192,381865,1,8,0:0:0:0:
256,192,382079,1,0,0:0:0:0:
256,192,382293,1,0,0:0:0:0:
256,192,382400,1,8,0:0:0:0:
256,192,382508,1,0,0:0:0:0:
256,192,382722,1,8,0:0:0:0:
256,192,382936,1,0,0:0:0:0:
256,192,383150,1,0,0:0:0:0:
256,192,383365,1,8,0:0:0:0:
256,192,383472,1,0,0:0:0:0:
256,192,383579,1,0,0:0:0:0:
256,192,383686,1,8,0:0:0:0:
256,192,383793,1,8,0:0:0:0:
256,192,384008,1,8,0:0:0:0:
256,192,384115,1,0,0:0:0:0:
256,192,384222,1,8,0:0:0:0:
256,192,384436,1,8,0:0:0:0:
256,192,384650,1,0,0:0:0:0:
256,192,384865,1,8,0:0:0:0:
256,192,384936,1,0,0:0:0:0:
256,192,385008,1,0,0:0:0:0:
256,192,385079,1,0,0:0:0:0:
256,192,385293,1,0,0:0:0:0:
256,192,385508,1,8,0:0:0:0:
256,192,385722,1,0,0:0:0:0:
256,192,385829,1,0,0:0:0:0:
256,192,385936,1,8,0:0:0:0:
256,192,386150,1,0,0:0:0:0:
256,192,386365,1,0,0:0:0:0:
256,192,386579,1,0,0:0:0:0:
256,192,386793,1,8,0:0:0:0:
256,192,387222,1,0,0:0:0:0:
256,192,387436,1,0,0:0:0:0:
256,192,387543,1,0,0:0:0:0:
256,192,387650,1,8,0:0:0:0:
256,192,387865,1,8,0:0:0:0:
256,192,388080,1,8,0:0:0:0:
256,192,388294,1,0,0:0:0:0:
256,192,388508,1,8,0:0:0:0:
256,192,388937,1,0,0:0:0:0:
256,192,389150,1,8,0:0:0:0:
256,192,389258,1,8,0:0:0:0:
256,192,389365,1,8,0:0:0:0:
256,192,389580,1,0,0:0:0:0:
256,192,389794,1,8,0:0:0:0:
256,192,389900,1,0,0:0:0:0:
256,192,390008,1,0,0:0:0:0:
256,192,390222,1,8,0:0:0:0:
256,192,390651,1,0,0:0:0:0:
256,192,390865,1,8,0:0:0:0:
256,192,390972,1,0,0:0:0:0:
256,192,391079,1,8,0:0:0:0:
256,192,391186,1,0,0:0:0:0:
256,192,391294,1,0,0:0:0:0:
256,192,391400,1,8,0:0:0:0:
256,192,391508,1,8,0:0:0:0:
256,192,391722,1,8,0:0:0:0:
256,192,391830,1,8,0:0:0:0:
256,192,391937,1,0,0:0:0:0:
256,192,392151,1,0,0:0:0:0:
256,192,392365,1,8,0:0:0:0:
256,192,392579,1,0,0:0:0:0:
256,192,392686,1,8,0:0:0:0:
256,192,392793,1,0,0:0:0:0:
256,192,393008,1,8,0:0:0:0:
256,192,393222,1,0,0:0:0:0:
256,192,393436,1,0,0:0:0:0:
256,192,393650,1,8,0:0:0:0:
256,192,393865,1,0,0:0:0:0:
256,192,393972,1,0,0:0:0:0:
256,192,394079,1,8,0:0:0:0:
256,192,394293,1,0,0:0:0:0:
256,192,394508,1,8,0:0:0:0:
256,192,394615,1,0,0:0:0:0:
256,192,394722,1,0,0:0:0:0:
256,192,394936,1,8,0:0:0:0:
256,192,395150,1,0,0:0:0:0:
256,192,395365,1,0,0:0:0:0:
256,192,395579,1,0,0:0:0:0:
256,192,395686,1,0,0:0:0:0:
256,192,395793,1,8,0:0:0:0:
256,192,396008,1,0,0:0:0:0:
256,192,396115,1,8,0:0:0:0:
256,192,396222,1,0,0:0:0:0:
256,192,396436,1,0,0:0:0:0:
256,192,396650,1,0,0:0:0:0:
256,192,396865,1,0,0:0:0:0:
256,192,397079,1,8,0:0:0:0:
256,192,397293,1,0,0:0:0:0:
256,192,397507,1,8,0:0:0:0:
256,192,397722,1,0,0:0:0:0:
256,192,397829,1,0,0:0:0:0:
256,192,397936,1,8,0:0:0:0:
256,192,398150,1,0,0:0:0:0:
256,192,398365,1,8,0:0:0:0:
256,192,398579,1,8,0:0:0:0:
256,192,398686,1,8,0:0:0:0:
256,192,398793,1,0,0:0:0:0:
256,192,399007,1,8,0:0:0:0:
256,192,399222,1,0,0:0:0:0:
256,192,399436,1,0,0:0:0:0:
256,192,399543,1,8,0:0:0:0:
256,192,399650,1,8,0:0:0:0:
256,192,399865,1,0,0:0:0:0:
256,192,400079,1,0,0:0:0:0:
256,192,400186,1,0,0:0:0:0:
256,192,400293,1,0,0:0:0:0:
256,192,400400,1,0,0:0:0:0:
256,192,400508,1,8,0:0:0:0:
256,192,400722,1,8,0:0:0:0:
256,192,400936,1,0,0:0:0:0:
256,192,401150,1,0,0:0:0:0:
256,192,401258,1,0,0:0:0:0:
256,192,401365,1,8,0:0:0:0:
256,192,401472,1,0,0:0:0:0:
256,192,401579,1,8,0:0:0:0:
256,192,401794,1,8,0:0:0:0:
256,192,402008,1,0,0:0:0:0:
256,192,402222,1,8,0:0:0:0:
256,192,402329,1,0,0:0:0:0:
256,192,402436,1,0,0:0:0:0:
256,192,402543,1,0,0:0:0:0:
256,192,402651,1,8,0:0:0:0:
256,192,402865,1,0,0:0:0:0:
256,192,402972,1,8,0:0:0:0:
256,192,403079,1,0,0:0:0:0:
256,192,403294,1,0,0:0:0:0:
256,192,403508,1,0,0:0:0:0:
256,192,403722,1,0,0:0:0:0:
256,192,403829,1,0,0:0:0:0:
256,192,403936,1,8,0:0:0:0:
256,192,404150,1,0,0:0:0:0:
256,192,404365,1,0,0:0:0:0:
256,192,404579,1,8,0:0:0:0:
256,192,404686,1,0,0:0:0:0:
256,192,404793,1,8,0:0:0:0:
256,192,405008,1,0,0:0:0:0:
256,192,405222,1,8,0:0:0:0:
256,192,405436,1,8,0:0:0:0:
256,192,405508,1,8,0:0:0:0:
256,192,405579,1,8,0:0:0:0:
256,192,405650,1,0,0:0:0:0:
256,192,405865,1,0,0:0:0:0:
256,192,406079,1,8,0:0:0:0:
256,192,406186,1,0,0:0:0:0:
256,192,406293,1,0,0:0:0:0:
256,192,406400,1,8,0:0:0:0:
256,192,406508,1,0,0:0:0:0:
256,192,406722,1,8,0:0:0:0:
256,192,406936,1,0,0:0:0:0:
256,192,407150,1,8,0:0:0:0:
256,192,407258,1,0,0:0:0:0:
256,192,407365,1,0,0:0:0:0:
256,192,407579,1,0,0:0:0:0:
256,192,407794,1,8,0:0:0:0:
256,192,408008,1,0,0:0:0:0:
256,192,408115,1,0,0:0:0:0:
256,192,408222,1,8,0:0:0:0:
256,192,408436,1,0,0:0:0:0:
256,192,408651,1,8,0:0:0:0:
256,192,408758,1,0,0:0:0:0:
256,192,408865,1,0,0:0:0:0:
256,192,408972,1,0,0:0:0:0:
256,192,409079,1,0,0:0:0:0:
256,192,409293,1,0,0:0:0:0:
256,192,409508,1,8,0:0:0:0:
256,192,409722,1,0,0:0:0:0:
256,192,409829,1,8,0:0:0:0:
256,192,409936,1,0,0:0:0:0:
256,192,410151,1,0,0:0:0:0:
256,192,410365,1,8,0:0:0:0:
256,192,410579,1,0,0:0:0:0:
256,192,410793,1,8,0:0:0:0:
256,192,410900,1,0,0:0:0:0:
256,192,411008,1,0,0:0:0:0:
256,192,411115,1,8,0:0:0:0:
256,192,411222,1,8,0:0:0:0:
256,192,411436,1,0,0:0:0:0:
256,192,411650,1,8,0:0:0:0:
256,192,411865,1,0,0:0:0:0:
256,192,412079,1,8,0:0:0:0:
256,192,412293,1,8,0:0:0:0:
256,192,412365,1,8,0:0:0:0:
256,192,412436,1,8,0:0:0:0:
256,192,412508,1,0,0:0:0:0:
256,192,412722,1,8,0:0:0:0:
256,192,412936,1,0,0:0:0:0:
256,192,413150,1,0,0:0:0:0:
256,192,413258,1,8,0:0:0:0:
256,192,413365,1,0,0:0:0:0:
256,192,413579,1,0,0:0:0:0:
256,192,413794,1,0,0:0:0:0:
256,192,414008,1,8,0:0:0:0:
256,192,414115,1,8,0:0:0:0:
256,192,414222,1,0,0:0:0:0:
256,192,414436,1,0,0:0:0:0:
256,192,414650,1,0,0:0:0:0:
256,192,414865,1,8,0:0:0:0:
256,192,414972,1,0,0:0:0:0:
256,192,415079,1,0,0:0:0:0:
256,192,415186,1,8,0:0:0:0:
256,192,415293,1,8,0:0:0:0:
256,192,415400,1,0,0:0:0:0:
256,192,415508,1,8,0:0:0:0:
256,192,415615,1,0,0:0:0:0:
256,192,415722,1,0,0:0:0:0:
256,192,415829,1,0,0:0:0:0:
256,192,415936,1,8,0:0:0:0:
256,192,416150,1,0,0:0:0:0:
256,192,416365,1,0,0:0:0:0:
256,192,416579,1,8,0:0:0:0:
256,192,416686,1,8,0:0:0:0:
256,192,416793,1,0,0:0:0:0:
256,192,417008,1,0,0:0:0:0:
256,192,417222,1,0,0:0:0:0:
256,192,417436,1,8,0:0:0:0:
256,192,417543,1,0,0:0:0:0:
256,192,417650,1,8,0:0:0:0:
256,192,417758,1,8,0:0:0:0:
256,192,417865,1,0,0:0:0:0:
256,192,417972,1,0,0:0:0:0:
256,192,418079,1,8,0:0:0:0:
256,192,418293,1,8,0:0:0:0:
256,192,418400,1,8,0:0:0:0:
256,192,418508,1,0,0:0:0:0:
256,192,418722,1,0,0:0:0:0:
256,192,418936,1,8,0:0:0:0:
256,192,419150,1,8,0:0:0:0:
256,192,419258,1,8,0:0:0:0:
256,192,419365,1,0,0:0:0:0:
256,192,419579,1,0,0:0:0:0:
256,192,419793,1,8,0:0:0:0:
256,192,420008,1,0,0:0:0:0:
256,192,420115,1,8,0:0:0:0:
256,192,420222,1,0,0:0:0:0:
256,192,420436,1,8,0:0:0:0:
256,192,420650,1,0,0:0:0:0:
256,192,420865,1,8,0:0:0:0:
256,192,420972,1,0,0:0:0:0:
256,192,421079,1,0,0:0:0:0:
256,192,421293,1,0,0:0:0:0:
256,192,421508,1,8,0:0:0:0:
256,192,421615,1,0,0:0:0:0:
256,192,421722,1,0,0:0:0:0:
256,192,421829,1,8,0:0:0:0:
256,192,421936,1,8,0:0:0:0:
256,192,422043,1,8,0:0:0:0:
256,192,422150,1,0,0:0:0:0:
256,192,422365,1,8,0:0:0:0:
256,192,422472,1,0,0:0:0:0:
256,192,422579,1,0,0:0:0:0:
256,192,422793,1,8,0:0:0:0:
256,192,422900,1,8,0:0:0:0:
256,192,423008,1,0,0:0:0:0:
256,192,423222,1,8,0:0:0:0:
256,192,423329,1,0,0:0:0:0:
256,192,423436,1,0,0:0:0:0:
256,192,423543,1,8,0:0:0:0:
256,192,423650,1,0,0:0:0:0:
256,192,423865,1,0,0:0:0:0:
256,192,424079,1,0,0:0:0:0:
256,192,424293,1,8,0:0:0:0:
256,192,424400,1,0,0:0:0:0:
256,192,424508,1,8,0:0:0:0:
256,192,424722,1,0,0:0:0:0:
256,192,424829,1,0,0:0:0:0:
256,192,424936,1,0,0:0:0:0:
256,192,425150,1,8,0:0:0:0:
256,192,425258,1,8,0:0:0:0:
256,192,425365,1,0,0:0:0:0:
256,192,425579,1,0,0:0:0:0:
256,192,425793,1,8,0:0:0:0:
256,192,426008,1,8,0:0:0:0:
256,192,426115,1,8,0:0:0:0:
256,192,426222,1,0,0:0:0:0:
256,192,426436,1,8,0:0:0:0:
256,192,426543,1,0,0:0:0:0:
256,192,426650,1,0,0:0:0:0:
256,192,426758,1,8,0:0:0:0:
256,192,426865,1,8,0:0:0:0:
256,192,427079,5,0,0:0:0:0:
256,192,427293,1,8,0:0:0:0:
256,192,427508,1,0,0:0:0:0:
256,192,427722,1,8,0:0:0:0:
256,192,427829,1,0,0:0:0:0:
256,192,427936,1,8,0:0:0:0:
256,192,428043,1,0,0:0:0:0:
256,192,428150,1,8,0:0:0:0:
256,192,428258,1,8,0:0:0:0:
256,192,428365,5,0,0:0:0:0:
256,192,429008,1,8,0:0:0:0:
256,192,429222,1,0,0:0:0:0:
256,192,429436,1,0,0:0:0:0:
256,192,429650,1,8,0:0:0:0:
256,192,429865,1,8,0:0:0:0:
256,192,430079,1,8,0:0:0:0:
256,192,430293,1,0,0:0:0:0:
256,192,430508,1,0,0:0:0:0:
256,192,430722,1,8,0:0:0:0:
256,192,430936,1,0,0:0:0:0:
256,192,431150,1,0,0:0:0:0:
256,192,431365,1,8,0:0:0:0:
256,192,431579,1,8,0:0:0:0:
256,192,431793,1,8,0:0:0:0:
256,192,432008,1,0,0:0:0:0:
256,192,432222,1,0,0:0:0:0:
256,192,432436,1,8,0:0:0:0:
256,192,432650,1,0,0:0:0:0:
256,192,432865,1,0,0:0:0:0:
256,192,433079,1,0,0:0:0:0:
256,192,433293,1,8,0:0:0:0:
256,192,433508,1,8,0:0:0:0:
256,192,433722,1,0,0:0:0:0:
256,192,433936,1,0,0:0:0:0:
256,192,434150,1,8,0:0:0:0:
256,192,434365,1,0,0:0:0:0:
256,192,434579,1,0,0:0:0:0:
256,192,434793,1,8,0:0:0:0:
256,192,435008,1,0,0:0:0:0:
256,192,435222,1,0,0:0:0:0:
256,192,435365,1,8,0:0:0:0:
256,192,435865,1,8,0:0:0:0:
256,192,436079,1,0,0:0:0:0:
256,192,436293,1,0,0:0:0:0:
256,192,436508,1,8,0:0:0:0:
256,192,436722,1,0,0:0:0:0:
256,192,436936,1,8,0:0:0:0:
256,192,437150,1,0,0:0:0:0:
256,192,437365,1,0,0:0:0:0:
256,192,437579,1,8,0:0:0:0:
256,192,437793,1,0,0:0:0:0:
256,192,438008,1,8,0:0:0:0:
256,192,438222,1,0,0:0:0:0:
256,192,438436,1,8,0:0:0:0:
256,192,438650,1,8,0:0:0:0:
256,192,438865,1,0,0:0:0:0:
256,192,439079,1,8,0:0:0:0:
256,192,439293,1,8,0:0:0:0:
256,192,439508,1,0,0:0:0:0:
256,192,439722,1,0,0:0:0:0:
256,192,439936,1,8,0:0:0:0:
256,192,440150,1,8,0:0:0:0:
256,192,440365,1,8,0:0:0:0:
256,192,440579,1,0,0:0:0:0:
256,192,440793,1,0,0:0:0:0:
256,192,441008,1,8,0:0:0:0:
256,192,441222,1,0,0:0:0:0:
256,192,441436,1,0,0:0:0:0:
256,192,441650,1,8,0:0:0:0:
256,192,441865,1,0,0:0:0:0:
256,192,442079,1,8,0:0:0:0:
256,192,442722,1,8,0:0:0:0:
256,192,442936,1,0,0:0:0:0:
256,192,443150,1,0,0:0:0:0:
256,192,443365,1,8,0:0:0:0:
256,192,443579,1,8,0:0:0:0:
256,192,443793,1,8,0:0:0:0:
256,192,444008,1,0,0:0:0:0:
256,192,444222,1,0,0:0:0:0:
256,192,444436,1,8,0:0:0:0:
256,192,444650,1,0,0:0:0:0:
256,192,444865,1,0,0:0:0:0:
256,192,445079,1,8,0:0:0:0:
256,192,445293,1,8,0:0:0:0:
256,192,445508,1,8,0:0:0:0:
256,192,445722,1,0,0:0:0:0:
256,192,445936,1,0,0:0:0:0:
256,192,446150,1,8,0:0:0:0:
256,192,446365,1,0,0:0:0:0:
256,192,446579,1,0,0:0:0:0:
256,192,446793,1,8,0:0:0:0:
256,192,447008,1,8,0:0:0:0:
256,192,447222,1,8,0:0:0:0:
256,192,447436,1,0,0:0:0:0:
256,192,447650,1,0,0:0:0:0:
256,192,447865,1,8,0:0:0:0:
256,192,448079,1,0,0:0:0:0:
256,192,448293,1,0,0:0:0:0:
256,192,448508,1,8,0:0:0:0:
256,192,448722,1,8,0:0:0:0:
256,192,448936,1,0,0:0:0:0:
256,192,449079,1,8,0:0:0:0:
256,192,449579,1,8,0:0:0:0:
256,192,449793,1,0,0:0:0:0:
256,192,450008,1,0,0:0:0:0:
256,192,450222,1,8,0:0:0:0:
256,192,450436,1,8,0:0:0:0:
256,192,450650,1,8,0:0:0:0:
256,192,450865,1,0,0:0:0:0:
256,192,451079,1,0,0:0:0:0:
256,192,451293,1,8,0:0:0:0:
256,192,451508,1,0,0:0:0:0:
256,192,451722,1,0,0:0:0:0:
256,192,451936,1,0,0:0:0:0:
256,192,452150,1,8,0:0:0:0:
256,192,452365,1,8,0:0:0:0:
256,192,452579,1,0,0:0:0:0:
256,192,452793,1,0,0:0:0:0:
256,192,453008,1,8,0:0:0:0:
256,192,453222,1,0,0:0:0:0:
256,192,453436,1,0,0:0:0:0:
256,192,453650,1,8,0:0:0:0:
256,192,453865,1,8,0:0:0:0:
256,192,454079,1,8,0:0:0:0:
256,192,454293,1,0,0:0:0:0:
256,192,454508,5,0,0:0:0:0:
256,192,454722,1,8,0:0:0:0:
256,192,454936,1,0,0:0:0:0:
256,192,455150,1,8,0:0:0:0:
256,192,455365,1,0,0:0:0:0:
256,192,455508,1,8,0:0:0:0:
256,192,455650,1,0,0:0:0:0:
256,192,455793,5,8,0:0:0:0:
