osu file format v14

[General]
AudioFilename: Touhou x Hidamari - Misamari Sketch.mp3
AudioLeadIn: 0
PreviewTime: 37112
Countdown: 0
SampleSet: Normal
StackLeniency: 0.7
Mode: 0
LetterboxInBreaks: 0
WidescreenStoryboard: 0

[Editor]
Bookmarks: 1244,5092,14482,15823,21189,23872,31920,34603,37285,48016,61430,62772,68137,70820,78868,88258,92282,93623
DistanceSpacing: 1
BeatDivisor: 4
GridSize: 8
TimelineZoom: 1

[Metadata]
Title:Sketch Switch (TV size)
TitleUnicode:Sketch Switch (TV size)
Artist:Hidamari Sketch Cast
ArtistUnicode:Hidamari Sketch Cast
Creator:YunoWhoItIs
Version:YunoWhatItIs
Source:Hidamari Sketch
Tags:hidamari sketch anime op sketch switch tv size
BeatmapID:665810
BeatmapSetID:296555

[Difficulty]
HPDrainRate:6.5
CircleSize:4.2
OverallDifficulty:7.5
ApproachRate:9
SliderMultiplier:1.6
SliderTickRate:1

[Events]
//Background and Video events
0,0,"bg.jpg",0,0
//Break Periods
//Storyboard Layer 0 (Background)
//Storyboard Layer 1 (Fail)
//Storyboard Layer 2 (Pass)
//Storyboard Layer 3 (Foreground)
//Storyboard Sound Samples

[TimingPoints]
2390,335.345405767941,4,1,0,70,1,0
14314,-76.9230769230769,4,1,0,70,0,0
15488,-100,4,1,0,70,0,0
37112,-133.333333333333,4,1,0,70,0,0
47927,-100,4,1,0,70,0,0
61430,-200,4,1,0,70,0,0
62772,-100,4,1,0,70,0,1
68123,-100,4,1,0,70,0,0
73489,-100,4,1,0,70,0,1
78854,-100,4,1,0,70,0,0

[HitObjects]
80,176,5072,5,0,0:0:0:0:
160,88,5240,1,0,0:0:0:0:
280,56,5408,1,0,0:0:0:0:
426,104,5575,2,0,P|354:60|263:60,1,160
152,96,6078,1,0,0:0:0:0:
72,200,6246,2,0,P|66:283|112:344,1,160
248,352,6749,5,0,0:0:0:0:
384,304,6917,1,0,0:0:0:0:
88,112,7252,1,0,0:0:0:0:
208,168,7420,1,0,0:0:0:0:
344,216,7587,2,0,P|424:226|495:197,1,160
384,112,8090,5,0,0:0:0:0:
248,64,8258,1,0,0:0:0:0:
424,48,8593,1,0,0:0:0:0:
296,104,8761,1,0,0:0:0:0:
216,208,8929,1,0,0:0:0:0:
208,232,9013,1,0,0:0:0:0:
216,256,9096,1,0,0:0:0:0:
312,352,9264,5,0,0:0:0:0:
448,296,9432,1,0,0:0:0:0:
161,324,9599,2,0,P|225:356|321:348,1,160
416,264,10102,1,0,0:0:0:0:
464,136,10270,1,0,0:0:0:0:
144,216,10438,5,0,0:0:0:0:
288,176,10605,1,0,0:0:0:0:
120,48,10941,2,0,P|67:78|42:150,1,120
40,152,11276,1,0,0:0:0:0:
192,40,11444,1,0,0:0:0:0:
44,216,11779,6,0,P|70:295|144:344,1,160
272,352,12282,1,0,0:0:0:0:
400,296,12450,1,0,0:0:0:0:
112,216,12785,1,0,0:0:0:0:
320,64,13121,6,0,L|384:144,1,80
128,128,13456,2,0,L|192:48,1,80
192,320,13791,2,0,L|128:240,1,80
120,120,14127,1,0,0:0:0:0:
248,40,14294,2,0,P|376:48|464:216,1,311.999985717774
144,80,15803,5,0,0:0:0:0:
432,176,16139,1,0,0:0:0:0:
144,192,16474,1,0,0:0:0:0:
432,288,16809,1,0,0:0:0:0:
176,320,17145,5,0,0:0:0:0:
56,240,17312,1,0,0:0:0:0:
96,104,17480,1,0,0:0:0:0:
264,232,17648,2,0,P|181:207|128:151,1,160
336,296,18318,2,0,P|253:271|200:215,1,160
176,88,18821,5,0,0:0:0:0:
304,32,18989,1,0,0:0:0:0:
408,128,19157,1,0,0:0:0:0:
344,256,19324,1,0,0:0:0:0:
192,224,19492,2,0,L|248:288,1,80
112,168,19827,6,0,L|112:280,1,80
104,80,20163,2,0,L|32:128,1,80
176,32,20498,2,0,L|248:80,1,80
344,160,20833,1,0,0:0:0:0:
368,288,21001,1,0,0:0:0:0:
112,328,21169,5,0,0:0:0:0:
64,248,21337,1,0,0:0:0:0:
64,152,21504,1,0,0:0:0:0:
112,72,21672,1,0,0:0:0:0:
208,48,21840,1,0,0:0:0:0:
464,344,22175,1,0,0:0:0:0:
440,48,22510,5,0,0:0:0:0:
344,56,22678,1,0,0:0:0:0:
264,112,22846,1,0,0:0:0:0:
232,200,23013,1,0,0:0:0:0:
248,296,23181,1,0,0:0:0:0:
48,48,23516,1,0,0:0:0:0:
368,48,23852,6,0,L|448:48,1,80
304,96,24187,2,0,L|360:152,1,80
224,72,24522,2,0,L|224:160,1,80
224,304,24858,2,0,L|224:224,1,80
304,72,25193,6,0,P|240:112|224:168,1,120
224,176,25528,1,0,0:0:0:0:
256,312,25696,1,0,0:0:0:0:
96,136,26031,1,0,0:0:0:0:
160,280,26199,1,0,0:0:0:0:
184,304,26283,1,0,0:0:0:0:
216,312,26367,1,0,0:0:0:0:
408,280,26534,6,0,P|376:296|328:280,1,80
224,192,26870,2,0,P|256:176|304:192,1,80
296,336,27205,2,0,P|264:352|216:336,1,80
112,248,27541,2,0,P|144:232|192:248,1,80
80,332,27876,6,0,P|36:296|32:220,1,120
72,112,28211,1,0,0:0:0:0:
200,56,28379,1,0,0:0:0:0:
464,152,28714,1,0,0:0:0:0:
264,296,29049,2,0,P|344:296|408:232,1,160
448,120,29552,5,0,0:0:0:0:
352,24,29720,1,0,0:0:0:0:
232,88,29888,1,0,0:0:0:0:
96,48,30055,1,0,0:0:0:0:
32,176,30223,2,0,L|120:152,1,80
160,280,30559,6,0,L|216:216,1,80
320,328,30894,2,0,L|320:240,1,80
408,144,31229,2,0,L|480:192,1,80
344,88,31565,2,0,L|424:48,1,80
120,48,31900,5,0,0:0:0:0:
75,140,32068,1,0,0:0:0:0:
173,175,32235,1,0,0:0:0:0:
120,261,32403,1,0,0:0:0:0:
216,288,32571,1,0,0:0:0:0:
456,48,32906,1,0,0:0:0:0:
304,312,33241,5,0,0:0:0:0:
248,225,33409,1,0,0:0:0:0:
342,179,33576,1,0,0:0:0:0:
278,100,33744,1,0,0:0:0:0:
370,61,33912,1,0,0:0:0:0:
56,336,34247,1,0,0:0:0:0:
104,112,34583,5,0,0:0:0:0:
256,80,34918,2,0,L|336:64,1,80
232,160,35253,2,0,L|168:216,1,80
296,288,35589,2,0,L|368:328,1,80
208,328,35924,5,0,0:0:0:0:
96,248,36092,1,0,0:0:0:0:
328,136,36427,1,0,0:0:0:0:
96,48,36762,1,0,0:0:0:0:
360,32,37265,6,0,P|416:57|445:115,1,120.000004577637
456,216,37936,1,0,0:0:0:0:
392,296,38271,1,0,0:0:0:0:
288,312,38607,6,0,P|264:264|200:248,1,120.000004577637
136,336,39110,2,0,P|192:328|224:272,1,120.000004577637
240,176,39613,1,0,0:0:0:0:
144,280,39948,6,0,P|200:272|232:216,1,120.000004577637
240,120,40619,1,0,0:0:0:0:
160,48,40954,1,0,0:0:0:0:
32,224,41290,6,0,P|48:280|104:312,1,120.000004577637
216,328,41793,2,0,P|272:312|296:248,1,120.000004577637
304,160,42296,1,0,0:0:0:0:
176,192,42631,6,0,P|192:248|248:280,1,120.000004577637
360,296,43302,1,0,0:0:0:0:
464,256,43637,1,0,0:0:0:0:
416,96,43972,6,0,P|352:128|336:176,1,120.000004577637
328,280,44475,1,0,0:0:0:0:
432,328,44811,1,0,0:0:0:0:
464,216,45146,2,0,P|450:127|374:77,1,180.000006866455
248,56,45817,2,0,P|154:77|80:208,1,240.000009155274
72,304,46655,5,0,0:0:0:0:
160,192,46823,1,0,0:0:0:0:
184,176,46907,1,0,0:0:0:0:
216,168,46990,1,0,0:0:0:0:
376,136,47158,1,0,0:0:0:0:
352,120,47242,1,0,0:0:0:0:
320,112,47325,1,0,0:0:0:0:
176,120,47493,1,0,0:0:0:0:
80,216,47661,1,0,0:0:0:0:
104,344,47829,1,0,0:0:0:0:
240,272,47996,6,0,P|280:264|320:272,1,80
448,336,48332,1,0,0:0:0:0:
472,192,48499,1,0,0:0:0:0:
184,120,48835,1,0,0:0:0:0:
320,48,49003,1,0,0:0:0:0:
48,160,49338,6,0,P|28:229|83:295,1,160
248,312,49841,2,0,P|171:271|180:192,1,160
240,56,50344,1,0,0:0:0:0:
424,216,50679,6,0,P|422:255|397:295,1,80
264,336,51015,1,0,0:0:0:0:
128,304,51182,1,0,0:0:0:0:
384,288,51518,1,0,0:0:0:0:
248,256,51686,1,0,0:0:0:0:
72,200,52021,6,0,P|115:146|200:124,1,160
400,144,52524,2,0,P|356:90|271:68,1,160
112,96,53027,1,0,0:0:0:0:
392,144,53362,6,0,P|425:165|438:203,1,80
392,336,53697,1,0,0:0:0:0:
248,344,53865,1,0,0:0:0:0:
64,184,54200,1,0,0:0:0:0:
40,24,54368,1,0,0:0:0:0:
168,136,54536,1,0,0:0:0:0:
336,232,54703,6,0,P|415:230|464:168,1,160
480,32,55206,1,0,0:0:0:0:
176,256,55542,1,0,0:0:0:0:
40,344,55709,1,0,0:0:0:0:
104,192,55877,1,0,0:0:0:0:
208,64,56045,6,0,P|282:31|362:55,1,160
432,176,56548,2,0,P|368:208|280:176,1,160
176,72,57051,1,0,0:0:0:0:
256,192,57386,12,0,59231,0:0:0:0:
408,72,59566,5,0,0:0:0:0:
200,168,59734,1,0,0:0:0:0:
256,192,59901,12,0,61243,0:0:0:0:
120,168,61578,6,0,P|120:224|168:272,1,120
368,336,62416,1,0,0:0:0:0:
136,336,62752,5,0,0:0:0:0:
96,48,63087,1,0,0:0:0:0:
216,144,63255,1,0,0:0:0:0:
48,248,63590,1,0,0:0:0:0:
240,328,63925,1,0,0:0:0:0:
432,232,64261,6,0,P|468:155|438:85,1,160
272,32,64764,1,0,0:0:0:0:
464,216,65099,1,0,0:0:0:0:
200,224,65434,5,0,0:0:0:0:
448,104,65770,1,0,0:0:0:0:
312,168,65937,1,0,0:0:0:0:
96,264,66273,1,0,0:0:0:0:
272,328,66608,2,0,P|360:336|424:280,1,160
456,152,67111,5,0,0:0:0:0:
48,48,67614,1,0,0:0:0:0:
200,88,67782,1,0,0:0:0:0:
88,200,68117,5,0,0:0:0:0:
144,264,68285,1,0,0:0:0:0:
228,248,68453,1,0,0:0:0:0:
256,168,68620,1,0,0:0:0:0:
212,96,68788,1,0,0:0:0:0:
472,340,69123,1,0,0:0:0:0:
424,184,69459,5,0,0:0:0:0:
368,120,69627,1,0,0:0:0:0:
284,136,69795,1,0,0:0:0:0:
256,216,69962,1,0,0:0:0:0:
300,288,70130,1,0,0:0:0:0:
40,44,70465,1,0,0:0:0:0:
144,256,70800,6,0,P|219:306|290:285,1,160
432,216,71303,1,0,0:0:0:0:
128,160,71638,1,0,0:0:0:0:
432,104,71974,1,0,0:0:0:0:
192,48,72309,6,0,P|112:64|64:128,1,160
40,280,72812,1,0,0:0:0:0:
304,144,73147,1,0,0:0:0:0:
72,192,73483,6,0,P|71:273|123:333,1,160
280,352,73986,1,0,0:0:0:0:
488,144,74321,1,0,0:0:0:0:
216,32,74656,1,0,0:0:0:0:
32,216,74992,6,0,P|45:141|105:83,1,160
272,32,75495,1,0,0:0:0:0:
72,256,75830,1,0,0:0:0:0:
408,248,76166,5,0,0:0:0:0:
128,320,76501,1,0,0:0:0:0:
280,280,76669,1,0,0:0:0:0:
464,136,77004,2,0,P|445:94|404:64,1,80
248,32,77339,2,0,P|295:83|272:168,1,160
184,280,77842,5,0,0:0:0:0:
80,128,78178,1,0,0:0:0:0:
208,56,78345,1,0,0:0:0:0:
352,56,78513,1,0,0:0:0:0:
464,152,78681,1,0,0:0:0:0:
416,288,78848,6,0,P|355:342|280:341,1,160
208,200,79351,2,0,P|282:232|288:304,1,160
150,207,79854,2,0,P|158:168|192:144,1,80
328,224,80190,6,0,P|400:256|464:216,1,160
392,88,80693,2,0,P|314:73|261:126,1,160
208,272,81196,2,0,P|210:195|144:136,1,160
384,288,81866,5,0,0:0:0:0:
256,192,82034,12,0,83040,0:0:0:0:
216,232,83543,6,0,P|256:248|296:232,1,80
408,136,83878,1,0,0:0:0:0:
264,304,84214,6,0,P|184:344|104:320,1,160
48,200,84717,2,0,P|98:260|181:273,1,160
256,128,85220,2,0,P|181:156|149:229,1,160
368,128,85891,6,0,P|328:138|307:178,1,80
272,336,86394,1,0,0:0:0:0:
144,240,86561,1,0,0:0:0:0:
384,88,86897,5,0,0:0:0:0:
112,56,87232,1,0,0:0:0:0:
48,200,87400,2,0,P|91:323|203:343,1,240
408,296,88070,1,0,0:0:0:0:
280,56,88406,6,0,P|195:31|136:72,1,160
104,176,88909,1,0,0:0:0:0:
144,272,89076,1,0,0:0:0:0:
248,288,89244,1,0,0:0:0:0:
256,192,89412,12,0,90921,0:0:0:0:
256,192,92262,5,0,0:0:0:0:
256,192,92597,1,0,0:0:0:0:
256,336,92933,1,0,0:0:0:0:
416,192,93100,1,0,0:0:0:0:
256,48,93268,1,0,0:0:0:0:
96,192,93436,1,0,0:0:0:0:
