osu file format v14

[General]
AudioFilename: Open_Canvas.mp3
AudioLeadIn: 1500
PreviewTime: 51283
Countdown: 0
SampleSet: None
StackLeniency: 0.7
Mode: 0
LetterboxInBreaks: 0
WidescreenStoryboard: 0

[Editor]
Bookmarks: 5383,15875,26367,35711,44728,51285,61777
DistanceSpacing: 1.2
BeatDivisor: 4
GridSize: 4
TimelineZoom: 3

[Metadata]
Title:Open*Canvas (TV Size)
TitleUnicode:おーぷん☆きゃんばす (TV Size)
Artist:Hidamari Sketch Cast
ArtistUnicode:ひだまりスケッチキャスト
Creator:Akemi_Homura
Version:Insane
Source:ひだまりスケッチ×ハニカム
Tags:Hidamari Sketch x honeycomb opening Sonnyc
BeatmapID:401141
BeatmapSetID:164824

[Difficulty]
HPDrainRate:7
CircleSize:4
OverallDifficulty:7
ApproachRate:9
SliderMultiplier:1.6
SliderTickRate:1

[Events]
//Background and Video events
0,0,"hidamari.jpg",0,0
Video,0,"Hidamari.avi"
//Break Periods
//Storyboard Layer 0 (Background)
//Storyboard Layer 1 (Fail)
//Storyboard Layer 2 (Pass)
//Storyboard Layer 3 (Foreground)
//Storyboard Sound Samples

[TimingPoints]
131,327.868852459016,4,3,2,70,1,0
19721,-100,4,2,0,70,0,0
19885,-100,4,3,2,70,0,0
51278,-100,4,3,2,70,0,1
74885,-100,4,3,2,70,0,0
87999,-100,4,3,2,60,0,0
88327,-100,4,3,2,45,0,0
88655,-100,4,3,2,35,0,0
88983,-100,4,3,2,20,0,0
89311,-100,4,3,2,5,0,0

[Colours]
Combo1 : 255,255,140
Combo2 : 255,142,255
Combo3 : 117,255,117
Combo4 : 184,113,255

[HitObjects]
156,192,131,5,4,0:0:0:0:
356,192,458,1,8,0:0:0:0:
164,84,786,2,0,P|139:52|130:11,2,80,0|0|8,0:0|0:0|0:0,0:0:0:0:
348,84,1442,2,0,P|372:52|381:11,2,80,0|0|8,0:0|0:0|0:0,0:0:0:0:
348,84,1934,1,0,0:0:0:0:
256,280,2262,2,0,L|188:324,1,80,0|8,0:0|0:0,0:0:0:0:
44,272,2753,5,0,0:0:0:0:
44,112,3081,1,8,0:0:0:0:
188,60,3409,2,0,L|256:104,1,80,0|0,0:0|0:0,0:0:0:0:
44,272,3737,1,8,0:0:0:0:
256,104,4065,5,2,0:0:0:0:
336,192,4229,1,2,0:0:0:0:
256,279,4393,1,2,0:0:0:0:
176,192,4557,1,2,0:0:0:0:
320,60,4885,2,0,P|283:76|256:105,1,80,0|8,0:0|0:0,0:0:0:0:
60,320,5376,6,0,P|97:304|124:275,1,80,4|0,0:0|0:0,0:0:0:0:
255,76,5704,2,0,P|219:91|192:120,1,80,8|0,0:0|0:0,0:0:0:0:
284,252,6032,2,0,P|288:212|277:174,1,80,8|0,0:0|0:0,0:0:0:0:
116,180,6360,2,0,P|147:203|186:212,1,80,8|0,0:0|0:0,0:0:0:0:
384,104,6688,5,0,0:0:0:0:
384,104,6852,1,0,0:0:0:0:
424,276,7016,2,0,P|392:300|354:308,1,80,8|0,0:0|0:0,0:0:0:0:
180,272,7344,2,0,L|256:244,1,80,8|0,0:0|0:0,0:0:0:0:
396,188,7671,2,0,L|320:160,1,80,8|0,0:0|0:0,0:0:0:0:
256,68,7999,6,0,P|228:38|192:24,2,80,4|0|8,0:0|0:0|0:0,0:0:0:0:
236,192,8491,1,0,0:0:0:0:
256,316,8655,2,0,P|228:345|192:359,1,80,0|0,0:0|0:0,0:0:0:0:
112,220,8983,2,0,P|150:229|181:253,1,80,8|0,0:0|0:0,0:0:0:0:
88,384,9311,6,0,P|76:345|81:307,1,80,8|0,0:0|0:0,0:0:0:0:
60,80,9639,1,8,0:0:0:0:
60,80,9803,1,0,0:0:0:0:
182,169,9967,2,0,P|222:164|256:144,1,80,8|0,0:0|0:0,0:0:0:0:
472,116,10294,2,0,P|432:120|398:141,1,80,8|0,0:0|0:0,0:0:0:0:
280,224,10622,5,4,0:0:0:0:
328,88,10786,1,0,0:0:0:0:
376,224,10950,1,8,0:0:0:0:
256,144,11114,1,0,0:0:0:0:
400,140,11278,2,0,P|440:144|474:165,1,80
484,324,11606,2,0,P|444:320|411:298,1,80,8|0,0:0|0:0,0:0:0:0:
280,224,11934,5,0,0:0:0:0:
168,340,12098,2,0,P|128:328|100:300,1,80,0|8,0:0|0:0,0:0:0:0:
56,192,12426,1,0,0:0:0:0:
156,80,12590,2,0,P|196:84|230:105,1,80
392,116,12917,2,0,P|353:120|319:141,1,80,8|0,0:0|0:0,0:0:0:0:
208,228,13245,6,0,P|175:249|135:253,2,80,4|0|8,0:0|0:0|0:0,0:0:0:0:
320,140,13737,2,0,P|401:148|468:192,1,160
465,189,14229,1,8,0:0:0:0:
46,189,14557,1,4,0:0:0:0:
256,192,14639,12,2,15540,0:0:0:0:
256,312,15868,6,0,P|312:308|352:272,1,80,4|0,0:0|0:0,0:0:0:0:
420,180,16196,1,2,0:0:0:0:
280,148,16360,1,0,0:0:0:0:
176,248,16524,2,0,P|136:243|102:223,1,80,0|2,0:0|0:0,0:0:0:0:
48,88,16852,2,0,P|87:92|121:112,1,80,2|0,0:0|0:0,0:0:0:0:
244,196,17180,6,0,P|284:191|318:171,1,80
280,36,17508,1,2,0:0:0:0:
204,132,17671,2,0,P|168:196|216:264,1,160,0|2,0:0|0:0,0:0:0:0:
392,248,18163,1,2,0:0:0:0:
256,72,18491,6,0,P|220:48|180:44,1,80,0|0,0:0|0:0,0:0:0:0:
60,92,18819,2,0,P|96:116|136:120,1,80,2|0,0:0|0:0,0:0:0:0:
220,240,19147,2,0,P|184:216|144:212,1,80,0|2,0:0|0:0,0:0:0:0:
28,272,19475,2,0,P|64:296|104:300,1,80,2|0,0:0|0:0,0:0:0:0:
220,240,19803,6,0,B|284:228|304:296|376:276,1,160,2|2,0:0|0:0,0:0:0:0:
428,144,20294,2,0,P|492:188|508:268,1,160,0|2,0:0|0:0,0:0:0:0:
424,340,20786,1,2,0:0:0:0:
232,340,21114,6,0,P|161:312|112:244,1,160,4|2,0:0|0:0,0:0:0:0:
208,148,21606,1,0,0:0:0:0:
312,248,21770,2,0,P|356:234|381:181,1,80
428,108,22098,1,2,0:0:0:0:
304,52,22262,6,0,P|228:52|160:96,1,160
60,248,22753,2,0,P|96:272|136:276,1,80,2|0,0:0|0:0,0:0:0:0:
256,228,23081,1,0,0:0:0:0:
212,100,23245,1,2,0:0:0:0:
120,200,23409,1,2,0:0:0:0:
308,344,23737,6,0,P|351:339|384:316,1,80
451,191,24065,2,0,P|407:195|374:218,1,80,2|0,0:0|0:0,0:0:0:0:
200,180,24393,2,0,P|249:148|309:142,1,120,4|0,0:0|0:0,0:0:0:0:
340,116,24721,2,0,P|288:48|224:84,1,160,6|0,0:0|0:0,0:0:0:0:
200,180,25212,5,0,0:0:0:0:
224,288,25376,1,2,0:0:0:0:
316,352,25540,1,0,0:0:0:0:
452,304,25704,2,0,P|418:282|378:279,1,80,0|2,0:0|0:0,0:0:0:0:
244,228,26032,1,0,0:0:0:0:
276,204,26114,1,0,0:0:0:0:
316,203,26196,1,0,0:0:0:0:
460,192,26360,5,4,0:0:0:0:
496,52,26524,1,0,0:0:0:0:
496,52,26606,1,0,0:0:0:0:
496,52,26688,1,2,0:0:0:0:
352,48,26852,1,0,0:0:0:0:
352,48,26934,1,0,0:0:0:0:
352,48,27016,2,0,B|328:36|328:36|272:36,1,80
152,112,27344,2,0,B|176:100|176:100|232:100,1,80,2|0,0:0|0:0,0:0:0:0:
356,160,27671,5,0,0:0:0:0:
184,196,27835,1,0,0:0:0:0:
340,280,27999,1,2,0:0:0:0:
172,332,28163,2,0,P|100:299|66:229,1,160
84,84,28655,1,2,0:0:0:0:
240,148,28819,1,0,0:0:0:0:
368,36,28983,6,0,P|412:49|437:102,1,80,4|0,0:0|0:0,0:0:0:0:
508,196,29311,1,2,0:0:0:0:
372,248,29475,2,0,B|320:256|312:336|252:356,1,160
88,308,29967,6,0,P|127:304|161:283,1,80,2|0,0:0|0:0,0:0:0:0:
120,128,30294,2,0,P|103:163|104:203,1,80,0|0,0:0|0:0,0:0:0:0:
260,244,30622,2,0,P|237:211|202:192,1,80,2|0,0:0|0:0,0:0:0:0:
32,128,30950,1,0,0:0:0:0:
48,244,31114,1,2,0:0:0:0:
120,52,31278,1,2,0:0:0:0:
260,244,31606,5,0,0:0:0:0:
284,266,31688,1,0,0:0:0:0:
311,280,31770,1,0,0:0:0:0:
342,286,31852,1,0,0:0:0:0:
372,284,31934,1,2,0:0:0:0:
403,278,32016,1,0,0:0:0:0:
430,264,32098,1,0,0:0:0:0:
454,242,32180,1,0,0:0:0:0:
464,212,32262,2,0,P|457:172|435:140,1,80,0|0,0:0|0:0,0:0:0:0:
304,44,32590,2,0,P|310:83|332:115,1,80,2|0,0:0|0:0,0:0:0:0:
328,220,32917,6,0,P|314:264|261:289,1,80,0|0,0:0|0:0,0:0:0:0:
204,344,33245,1,2,0:0:0:0:
100,328,33409,2,0,P|53:292|44:192,1,160,0|2,0:0|0:0,0:0:0:0:
92,84,33901,1,2,0:0:0:0:
256,212,34229,6,0,P|295:205|327:183,1,80,12|0,0:0|0:0,0:0:0:0:
464,164,34557,2,0,P|424:157|392:135,1,80,6|0,0:0|0:0,0:0:0:0:
252,104,34885,2,0,P|291:97|323:75,1,80,12|0,0:0|0:0,0:0:0:0:
456,16,35212,1,2,0:0:0:0:
92,248,35704,5,0,0:0:0:0:
164,312,35868,1,2,0:0:0:0:
256,340,36032,1,0,0:0:0:0:
348,312,36196,1,0,0:0:0:0:
420,248,36360,1,0,0:0:0:0:
408,152,36524,1,2,0:0:0:0:
404,120,36606,1,0,0:0:0:0:
388,92,36688,1,0,0:0:0:0:
364,72,36770,1,0,0:0:0:0:
332,68,36852,6,0,P|291:67|256:84,1,80,4|0,0:0|0:0,0:0:0:0:
120,136,37180,2,0,P|160:135|195:152,1,80,2|0,0:0|0:0,0:0:0:0:
240,240,37508,2,0,P|200:239|165:256,1,80,0|0,0:0|0:0,0:0:0:0:
24,304,37835,6,0,P|59:321|99:320,1,80
232,336,38163,2,0,P|312:304|336:236,1,160,0|2,0:0|0:0,0:0:0:0:
408,152,38655,2,0,P|343:87|270:106,1,160,0|2,0:0|0:0,0:0:0:0:
212,188,39147,1,2,0:0:0:0:
102,162,39311,1,0,0:0:0:0:
32,248,39475,6,0,P|64:271|103:277,2,80,4|0|2,0:0|0:0|0:0,0:0:0:0:
102,162,39967,1,0,0:0:0:0:
212,188,40130,2,0,P|304:192|340:144,1,160,0|2,0:0|0:0,0:0:0:0:
324,24,40622,5,0,0:0:0:0:
264,128,40786,2,0,P|287:216|360:236,1,160,0|2,0:0|0:0,0:0:0:0:
448,192,41278,1,0,0:0:0:0:
368,356,41442,1,0,0:0:0:0:
468,304,41606,1,2,0:0:0:0:
268,316,41770,1,2,0:0:0:0:
228,315,41852,1,0,0:0:0:0:
196,291,41934,1,0,0:0:0:0:
96,240,42098,6,0,P|56:238|20:256,2,80,4|0|2,0:0|0:0|0:0,0:0:0:0:
184,192,42590,1,0,0:0:0:0:
256,124,42753,2,0,P|291:141|330:139,2,80,0|0|2,0:0|0:0|0:0,0:0:0:0:
188,52,43245,1,0,0:0:0:0:
104,172,43409,6,0,P|125:246|196:277,1,160,0|2,0:0|0:0,0:0:0:0:
315,277,43901,2,0,P|385:245|406:170,1,160,0|2,0:0|0:0,0:0:0:0:
328,56,44393,1,2,0:0:0:0:
120,176,44721,6,0,P|90:248|128:316,1,160,4|2,0:0|0:0,0:0:0:0:
280,364,45212,1,0,0:0:0:0:
424,296,45376,2,0,P|452:223|414:155,1,160,4|2,0:0|0:0,0:0:0:0:
384,48,45868,6,0,P|338:36|290:70,1,80,4|0,0:0|0:0,0:0:0:0:
200,80,46196,1,0,0:0:0:0:
148,180,46360,2,0,P|120:208|84:224,1,80,6|0,0:0|0:0,0:0:0:0:
4,264,46688,2,0,P|42:308|92:316,2,80,4|0|0,0:0|0:0|0:0,0:0:0:0:
28,152,47180,1,0,0:0:0:0:
184,336,47344,5,4,0:0:0:0:
324,272,47508,1,0,0:0:0:0:
196,188,47671,1,4,0:0:0:0:
332,116,47835,1,0,0:0:0:0:
196,44,47999,2,0,P|157:32|119:41,1,80,4|0,0:0|0:0,0:0:0:0:
28,152,48327,2,0,P|63:134|102:136,1,80,2|4,0:0|0:0,0:0:0:0:
280,128,48655,5,0,0:0:0:0:
312,136,48737,1,0,0:0:0:0:
336,156,48819,1,0,0:0:0:0:
348,184,48901,1,0,0:0:0:0:
356,216,48983,2,0,L|344:256,3,40,2|0|0|0,0:0|0:0|0:0|0:0,0:0:0:0:
332,284,49311,2,0,L|344:324,3,40,0|0|2|0,0:0|0:0|0:0|0:0,0:0:0:0:
356,352,49639,1,2,0:0:0:0:
387,366,49721,1,0,0:0:0:0:
417,362,49803,1,0,0:0:0:0:
447,350,49885,1,0,0:0:0:0:
256,192,49967,12,2,50950,0:0:0:0:
180,276,51278,6,0,P|216:294|255:292,1,80,4|0,0:0|0:0,0:0:0:0:
360,192,51606,2,0,P|324:209|285:208,1,80,2|0,0:0|0:0,0:0:0:0:
148,124,51934,1,0,0:0:0:0:
180,276,52098,1,0,0:0:0:0:
245,70,52262,2,0,P|284:70|319:87,1,80,2|0,0:0|0:0,0:0:0:0:
132,208,52590,6,0,L|45:255,2,80,4|0|2,0:0|0:0|0:0,0:0:0:0:
300,156,53081,1,0,0:0:0:0:
256,308,53245,1,0,0:0:0:0:
300,156,53409,1,0,0:0:0:0:
432,248,53573,6,0,P|465:225|483:191,1,80,2|0,0:0|0:0,0:0:0:0:
384,60,53901,2,0,P|307:51|251:105,1,160,4|2,0:0|0:0,0:0:0:0:
152,208,54393,2,0,P|133:242|99:264,2,80
84,64,54885,1,2,0:0:0:0:
300,156,55049,1,0,0:0:0:0:
77,190,55212,6,0,P|79:229|99:263,1,80,4|0,0:0|0:0,0:0:0:0:
208,348,55540,1,2,0:0:0:0:
336,304,55704,2,0,P|345:227|291:171,1,160
156,152,56196,6,0,P|167:112|196:88,1,80,2|0,0:0|0:0,0:0:0:0:
304,32,56524,1,4,0:0:0:0:
416,72,56688,1,0,0:0:0:0:
476,176,56852,2,0,P|493:210|495:250,1,80,2|0,0:0|0:0,0:0:0:0:
336,304,57180,2,0,P|309:333|273:349,2,80,0|0|2,0:0|0:0|0:0,0:0:0:0:
336,304,57671,1,0,0:0:0:0:
164,324,57835,6,0,P|124:299|113:241,1,80,4|0,0:0|0:0,0:0:0:0:
108,132,58163,1,2,0:0:0:0:
359,87,58327,2,0,P|293:47|220:70,1,160,4|0,0:0|0:0,0:0:0:0:
92,192,58819,6,0,P|92:232|104:272,1,80,2|0,0:0|0:0,0:0:0:0:
256,356,59147,2,0,P|296:356|336:344,1,80,0|0,0:0|0:0,0:0:0:0:
424,292,59475,1,2,0:0:0:0:
460,176,59639,1,0,0:0:0:0:
396,56,59803,2,0,P|368:27|331:15,2,80,0|0|2,0:0|0:0|0:0,0:0:0:0:
324,308,60294,6,0,P|342:272|345:233,1,80,4|0,0:0|0:0,0:0:0:0:
177,149,60622,2,0,P|181:188|199:223,1,80,4|2,0:0|0:0,0:0:0:0:
316,104,60950,2,0,P|334:68|337:29,2,80,4|0|2,0:0|0:0|0:0,0:0:0:0:
168,20,61442,1,2,0:0:0:0:
92,192,61770,6,0,P|123:215|162:223,1,80,4|0,0:0|0:0,0:0:0:0:
288,296,62098,2,0,P|256:319|217:327,1,80,2|0,0:0|0:0,0:0:0:0:
56,328,62426,1,0,0:0:0:0:
252,168,62590,1,0,0:0:0:0:
216,327,62753,1,2,0:0:0:0:
121,156,62917,6,0,P|135:112|188:87,1,80,4|0,0:0|0:0,0:0:0:0:
284,32,63245,1,0,0:0:0:0:
392,116,63409,2,0,P|352:120|318:141,1,80,2|0,0:0|0:0,0:0:0:0:
188,232,63737,1,0,0:0:0:0:
318,140,63901,1,0,0:0:0:0:
332,300,64065,6,0,P|371:301|407:284,1,80,2|0,0:0|0:0,0:0:0:0:
480,140,64393,2,0,P|464:60|392:24,1,160,0|2,0:0|0:0,0:0:0:0:
264,80,64885,2,0,L|188:104,2,80
372,196,65376,1,2,0:0:0:0:
264,80,65540,1,0,0:0:0:0:
272,288,65704,6,0,P|229:327|132:324,1,160,0|2,0:0|0:0,0:0:0:0:
20,244,66196,1,0,0:0:0:0:
72,116,66360,2,0,P|125:59|202:64,1,160,0|2,0:0|0:0,0:0:0:0:
236,196,66852,1,0,0:0:0:0:
372,196,67016,6,0,P|366:224|327:254,1,80,4|0,0:0|0:0,0:0:0:0:
184,272,67344,1,2,0:0:0:0:
72,116,67508,2,0,P|16:169|20:246,1,160,0|2,0:0|0:0,0:0:0:0:
160,340,67999,6,0,P|199:341|235:324,1,80,2|0,0:0|0:0,0:0:0:0:
400,332,68327,2,0,P|456:279|452:202,1,160,4|2,0:0|0:0,0:0:0:0:
408,116,68819,2,0,P|429:82|464:63,2,80,4|0|0,0:0|0:0|0:0,0:0:0:0:
296,208,69311,2,0,P|264:231|225:239,1,80,2|0,0:0|0:0,0:0:0:0:
148,352,69639,6,0,P|94:329|56:240,1,160,4|2,0:0|0:0,0:0:0:0:
36,116,70130,1,0,0:0:0:0:
160,84,70294,2,0,P|193:62|212:27,2,80,0|0|2,0:0|0:0|0:0,0:0:0:0:
256,192,70950,12,2,71934,0:0:0:0:
328,288,72262,6,0,P|401:263|430:192,1,160,4|2,0:0|0:0,0:0:0:0:
352,80,72753,2,0,P|312:73|280:51,1,80,4|0,0:0|0:0,0:0:0:0:
156,108,73081,2,0,P|196:115|228:137,1,80,4|2,0:0|0:0,0:0:0:0:
328,288,73409,6,0,P|262:328|188:304,1,160,4|0,0:0|0:0,0:0:0:0:
88,244,73901,2,0,P|66:276|59:315,1,80,6|0,0:0|0:0,0:0:0:0:
208,184,74229,2,0,P|230:152|237:113,2,80
308,312,74885,6,0,P|347:309|383:291,1,80,4|0,0:0|0:0,0:0:0:0:
492,224,75212,2,0,P|452:221|416:203,1,80,2|0,0:0|0:0,0:0:0:0:
310,105,75540,1,0,0:0:0:0:
310,105,75622,1,0,0:0:0:0:
310,105,75704,1,0,0:0:0:0:
172,68,75868,2,0,P|132:70|96:88,1,80,2|0,0:0|0:0,0:0:0:0:
44,224,76196,6,0,P|83:221|119:203,1,80,0|0,0:0|0:0,0:0:0:0:
200,304,76524,2,0,P|233:281|254:248,1,80,2|0,0:0|0:0,0:0:0:0:
356,144,76852,1,0,0:0:0:0:
356,144,76934,1,0,0:0:0:0:
356,144,77016,1,0,0:0:0:0:
236,60,77180,2,0,P|198:45|159:47,1,80,2|0,0:0|0:0,0:0:0:0:
84,152,77508,6,0,P|121:137|160:139,2,80,0|0|2,0:0|0:0|0:0,0:0:0:0:
220,232,77999,1,0,0:0:0:0:
312,296,78163,2,0,P|349:310|388:308,2,80,0|0|2,0:0|0:0|0:0,0:0:0:0:
452,236,78655,1,0,0:0:0:0:
440,124,78819,5,0,0:0:0:0:
428,108,78901,1,0,0:0:0:0:
416,92,78983,1,0,0:0:0:0:
400,80,79065,1,0,0:0:0:0:
380,72,79147,1,2,0:0:0:0:
360,68,79229,1,0,0:0:0:0:
340,68,79311,1,0,0:0:0:0:
320,72,79393,1,0,0:0:0:0:
300,76,79475,6,0,L|300:120,1,40
224,212,79639,2,0,L|224:168,1,40,2|0,0:0|0:0,0:0:0:0:
188,56,79803,2,0,L|188:100,1,40,2|0,0:0|0:0,0:0:0:0:
120,196,79967,2,0,L|120:152,1,40
44,44,80130,6,0,B|56:88|36:88|44:136,1,80,4|0,0:0|0:0,0:0:0:0:
160,316,80622,1,0,0:0:0:0:
309,275,80786,1,0,0:0:0:0:
165,219,80950,1,0,0:0:0:0:
249,349,81114,1,2,0:0:0:0:
256,193,81278,6,0,P|274:157|306:132,2,80,0|4|0,0:0|0:0|0:0,0:0:0:0:
356,328,81770,1,2,0:0:0:0:
464,204,81934,2,0,P|452:127|386:86,1,160,4|0,0:0|0:0,0:0:0:0:
290,71,82426,1,2,0:0:0:0:
80,148,82753,6,0,B|106:185|87:192|111:234,1,80,4|0,0:0|0:0,0:0:0:0:
312,324,83245,1,0,0:0:0:0:
163,283,83409,1,0,0:0:0:0:
307,227,83573,1,0,0:0:0:0:
223,357,83737,1,2,0:0:0:0:
216,201,83901,6,0,P|197:165|165:140,2,80,0|4|0,0:0|0:0|0:0,0:0:0:0:
120,336,84393,1,2,0:0:0:0:
20,208,84557,2,0,P|31:131|97:90,1,160,4|0,0:0|0:0,0:0:0:0:
194,75,85049,1,2,0:0:0:0:
416,56,85376,6,0,P|440:95|426:151,1,80,4|0,0:0|0:0,0:0:0:0:
460,240,85704,1,2,0:0:0:0:
408,340,85868,2,0,P|331:328|290:262,1,160
228,188,86360,1,2,0:0:0:0:
256,96,86524,1,0,0:0:0:0:
344,56,86688,6,0,P|381:41|420:43,1,80,4|0,0:0|0:0,0:0:0:0:
488,152,87016,2,0,P|450:137|411:139,1,80,2|0,0:0|0:0,0:0:0:0:
328,236,87344,2,0,P|365:221|404:223,2,80,4|0|2,0:0|0:0|0:0,0:0:0:0:
256,192,87999,12,0,89311,0:0:0:0:
