osu file format v14

[General]
AudioFilename: audio.mp3
AudioLeadIn: 0
PreviewTime: 65050
Countdown: 0
SampleSet: Soft
StackLeniency: 0.7
Mode: 0
LetterboxInBreaks: 0
WidescreenStoryboard: 0

[Editor]
DistanceSpacing: 2
BeatDivisor: 8
GridSize: 8
TimelineZoom: 1.6

[Metadata]
Title:Cold Beer
TitleUnicode:Cold Beer
Artist:Hibshi feat. Aimee
ArtistUnicode:Hibshi feat. Aimee
Creator:elena2705
Version:Besotted
Source:
Tags:
BeatmapID:1594291
BeatmapSetID:757914

[Difficulty]
HPDrainRate:6
CircleSize:3.4
OverallDifficulty:6
ApproachRate:8.3
SliderMultiplier:3.3
SliderTickRate:1

[Events]
//Background and Video events
0,0,"anime-muzyka-mobilnyj-telefon-devochka-n-979022.jpg",0,0
//Break Periods
//Storyboard Layer 0 (Background)
//Storyboard Layer 1 (Fail)
//Storyboard Layer 2 (Pass)
//Storyboard Layer 3 (Foreground)
//Storyboard Sound Samples

[TimingPoints]
2800,666.666666666667,4,2,1,100,1,0
2800,-200,4,2,1,40,0,0
13466,-166.666666666667,4,2,1,70,0,0
34800,-142.857142857143,4,2,1,80,0,0
45466,-200,4,2,1,75,0,0
56133,-166.666666666667,4,2,1,85,0,0
65133,-200,4,2,1,70,0,0
66800,-90.9090909090909,4,2,1,90,0,1
67716,-90.9090909090909,4,2,1,5,0,1
67800,-90.9090909090909,4,2,1,90,0,1
68383,-90.9090909090909,4,2,1,5,0,1
68466,-90.9090909090909,4,2,1,90,0,1
69050,-90.9090909090909,4,2,1,5,0,1
69133,-90.9090909090909,4,2,1,90,0,1
70050,-90.9090909090909,4,2,1,5,0,1
70133,-90.9090909090909,4,2,1,90,0,1
70716,-90.9090909090909,4,2,1,5,0,1
70800,-90.9090909090909,4,2,1,90,0,1
71716,-90.9090909090909,4,2,1,5,0,1
71800,-90.9090909090909,4,2,1,90,0,1
72716,-90.9090909090909,4,2,1,5,0,1
72800,-90.9090909090909,4,2,1,90,0,1
74383,-90.9090909090909,4,2,1,5,0,1
74466,-90.9090909090909,4,2,1,90,0,1
75383,-90.9090909090909,4,2,1,5,0,1
75466,-90.9090909090909,4,2,1,90,0,1
76050,-90.9090909090909,4,2,1,5,0,1
76133,-90.9090909090909,4,2,1,90,0,1
77800,-58.8235294117647,4,2,1,90,0,1
78466,-90.9090909090909,4,2,1,90,0,1
79716,-90.9090909090909,4,2,1,5,0,1
79800,-90.9090909090909,4,2,1,90,0,1
80383,-90.9090909090909,4,2,1,5,0,1
80466,-90.9090909090909,4,2,1,90,0,1
81050,-90.9090909090909,4,2,1,5,0,1
81133,-90.9090909090909,4,2,1,90,0,1
81716,-90.9090909090909,4,2,1,5,0,1
81800,-90.9090909090909,4,2,1,90,0,1
83050,-90.9090909090909,4,2,1,5,0,1
83133,-90.9090909090909,4,2,1,90,0,1
83716,-90.9090909090909,4,2,1,5,0,1
83800,-90.9090909090909,4,2,1,90,0,1
84383,-90.9090909090909,4,2,1,5,0,1
84466,-90.9090909090909,4,2,1,90,0,1
85050,-90.9090909090909,4,2,1,5,0,1
85133,-90.9090909090909,4,2,1,90,0,1
88133,-100,4,2,1,100,0,0

[Colours]
Combo1 : 243,118,193
Combo2 : 119,198,240
Combo3 : 188,227,153
Combo4 : 43,66,227

[HitObjects]
143,139,2800,5,2,0:1:0:0:
143,139,3133,1,0,0:0:0:0:
215,178,3300,1,2,0:3:0:0:
272,118,3466,2,0,P|314:91|361:95,1,82.5,0|2,0:0|0:3,0:0:0:0:
345,90,4133,1,0,0:0:0:0:
393,156,4300,1,2,0:3:0:0:
331,210,4466,2,0,L|313:300,2,82.5,0|2|2,0:0|0:3|0:1,0:0:0:0:
464,112,5466,5,2,0:1:0:0:
464,112,5800,1,0,0:0:0:0:
488,190,5966,1,2,0:3:0:0:
417,227,6133,1,0,0:0:0:0:
417,227,6466,1,2,0:3:0:0:
417,227,6800,2,0,B|358:247|358:247|305:299,1,123.75,2|0,0:1|0:0,0:0:0:0:
218,238,7466,2,0,P|236:272|230:331,1,82.5,2|0,0:3|0:0,0:0:0:0:
103,216,8133,5,2,0:1:0:0:
103,216,8466,1,0,0:0:0:0:
161,157,8633,2,0,P|166:131|160:90,1,41.25,2|0,0:3|0:0,0:0:0:0:
22,199,9133,1,2,0:3:0:0:
22,199,9466,1,0,0:0:0:0:
9,117,9633,2,0,P|9:96|13:76,1,41.25,2|0,0:3|0:0,0:0:0:0:
207,51,10133,1,2,0:3:0:0:
207,51,10466,1,2,0:1:0:0:
303,234,10800,5,2,0:1:0:0:
303,234,11133,1,0,0:0:0:0:
307,151,11300,2,0,P|318:125|341:104,1,41.25,2|0,0:3|0:0,0:0:0:0:
378,273,11800,1,2,0:3:0:0:
482,106,12133,2,0,P|450:58|376:37,1,123.75,2|0,0:1|0:0,0:0:0:0:
279,48,12800,2,0,L|334:126,1,82.5,2|0,0:3|0:0,0:0:0:0:
61,347,13466,6,0,P|89:285|188:265,1,148.49999546814,4|0,0:0|0:0,0:0:0:0:
255,288,14133,2,0,L|287:185,1,98.9999969787599,8|0,0:0|0:0,0:0:0:0:
383,195,14633,1,0,0:0:0:0:
434,279,14800,2,0,P|461:307|488:320,1,49.4999984893799,2|0,0:3|0:0,0:0:0:0:
482,106,15133,2,0,P|467:126|448:141,1,49.4999984893799,4|0,0:3|0:0,0:0:0:0:
265,70,15466,2,0,B|314:48|314:48|413:67,1,148.49999546814,8|0,0:0|0:0,0:0:0:0:
206,190,16133,6,0,L|174:96,1,98.9999969787599,4|0,0:0|0:0,0:0:0:0:
204,15,16633,1,0,0:0:0:0:
70,114,16800,1,8,0:0:0:0:
70,114,17133,2,0,P|98:144|103:165,1,49.4999984893799,2|0,0:3|0:0,0:0:0:0:
48,312,17466,2,0,P|60:264|102:232,1,98.9999969787599,0|4,0:0|0:3,0:0:0:0:
187,274,17966,1,0,0:0:0:0:
174,96,18133,2,0,B|223:58|223:58|332:46,1,148.49999546814,8|0,0:0|0:0,0:0:0:0:
453,180,18800,6,0,P|459:126|393:50,1,148.49999546814,4|0,0:0|0:0,0:0:0:0:
304,207,19466,2,0,B|337:171|337:171|348:115,1,98.9999969787599,8|0,0:0|0:0,0:0:0:0:
220,188,19966,1,0,0:0:0:0:
278,301,20133,2,0,P|305:342|315:349,1,49.4999984893799,2|0,0:3|0:0,0:0:0:0:
158,298,20466,2,0,P|117:325|110:335,1,49.4999984893799,4|0,0:3|0:0,0:0:0:0:
220,188,20800,2,0,L|84:106,1,148.49999546814,8|0,0:0|0:0,0:0:0:0:
46,24,21466,6,0,B|62:62|45:98|45:98|28:138|49:185,1,148.49999546814,4|0,0:0|0:0,0:0:0:0:
117,324,22133,2,0,P|113:278|105:260,1,49.4999984893799,8|0,0:0|0:0,0:0:0:0:
220,188,22466,2,0,P|219:163|224:139,1,49.4999984893799,2|0,0:3|0:0,0:0:0:0:
344,47,22800,2,0,L|369:167,1,98.9999969787599,0|4,0:0|0:3,0:0:0:0:
317,231,23300,1,0,0:0:0:0:
466,184,23466,2,0,B|475:239|475:239|445:348,1,148.49999546814,8|0,0:0|0:0,0:0:0:0:
232,274,24133,6,0,P|305:261|369:295,1,148.49999546814,4|0,0:0|0:0,0:0:0:0:
163,326,24800,2,0,L|139:219,1,98.9999969787599,8|0,0:0|0:0,0:0:0:0:
64,166,25300,1,0,0:0:0:0:
131,93,25466,2,0,L|185:83,1,49.4999984893799,2|0,0:3|0:0,0:0:0:0:
328,121,25800,2,0,L|274:131,1,49.4999984893799,4|0,0:3|0:0,0:0:0:0:
338,21,26133,2,0,P|393:41|423:88,1,98.9999969787599,8|0,0:0|0:0,0:0:0:0:
405,170,26633,1,0,0:0:0:0:
317,227,26800,6,0,B|359:263|359:263|381:304|381:304|420:335,1,148.49999546814,4|0,0:0|0:0,0:0:0:0:
450,240,27466,1,8,0:0:0:0:
268,312,27633,1,0,0:0:0:0:
144,223,27800,2,0,P|153:262|151:284,1,49.4999984893799,2|0,0:3|0:0,0:0:0:0:
33,171,28133,2,0,L|132:128,1,98.9999969787599,0|4,0:0|0:3,0:0:0:0:
183,52,28633,1,0,0:0:0:0:
312,175,28800,2,0,P|322:124|266:39,1,148.49999546814,8|0,0:0|0:0,0:0:0:0:
241,238,29466,6,0,B|297:216|297:216|411:229,1,148.49999546814,4|0,0:0|0:0,0:0:0:0:
465,346,30133,2,0,P|452:304|454:282,1,49.4999984893799,8|0,0:0|0:0,0:0:0:0:
450,133,30466,2,0,P|463:175|461:197,1,49.4999984893799,2|0,0:3|0:0,0:0:0:0:
333,112,30800,2,0,L|413:45,1,98.9999969787599,0|4,0:0|0:3,0:0:0:0:
276,38,31300,1,0,0:0:0:0:
132,190,31466,2,0,B|173:205|206:189|206:189|238:174|276:186,1,148.49999546814,8|0,0:0|0:0,0:0:0:0:
76,258,32133,6,0,P|44:190|78:122,1,148.49999546814,4|0,0:0|0:0,0:0:0:0:
168,101,32800,1,8,0:0:0:0:
245,283,33133,2,0,P|256:319|254:342,1,49.4999984893799,2|0,0:3|0:0,0:0:0:0:
276,186,33466,2,0,L|393:182,1,98.9999969787599,0|4,0:0|0:3,0:0:0:0:
439,257,33966,1,0,0:0:0:0:
483,28,34133,2,0,P|490:77|470:122,1,98.9999969787599,8|0,0:0|0:0,0:0:0:0:
384,6,34633,1,0,0:0:0:0:
245,59,34800,5,4,0:0:0:0:
265,294,34966,2,0,P|201:279|164:230,1,115.49999647522,0|0,0:0|3:0,0:0:0:0:
245,59,35466,2,0,P|230:123|181:160,1,115.49999647522,10|0,0:0|3:0,0:0:0:0:
11,77,35966,2,0,P|75:92|112:141,1,115.49999647522,0|0,0:0|3:0,0:0:0:0:
28,313,36466,2,0,P|43:249|92:212,1,115.49999647522,0|10,0:0|0:0,0:0:0:0:
397,200,37133,2,0,P|414:236|416:263,1,57.7499982376099,2|0,0:3|0:0,0:0:0:0:
311,205,37466,6,0,B|319:143|319:143|399:54,1,173.24999471283,4|0,0:0|0:0,0:0:0:0:
370,338,38133,2,0,L|238:381,1,115.49999647522,10|0,0:0|0:0,0:0:0:0:
145,240,38633,2,0,P|180:296|162:371,1,115.49999647522
58,196,39133,2,0,B|81:144|81:144|128:107,1,115.49999647522,4|10,0:3|0:0,0:0:0:0:
233,152,39633,1,0,0:0:0:0:
376,60,39800,2,0,P|357:117|357:132,1,57.7499982376099,2|0,0:3|0:0,0:0:0:0:
433,318,40133,5,4,0:0:0:0:
346,204,40300,2,0,P|296:206|339:234,1,115.49999647522,0|0,0:0|3:0,0:0:0:0:
434,144,40800,2,0,P|484:146|441:174,1,115.49999647522,10|0,0:0|3:0,0:0:0:0:
233,152,41300,2,0,B|171:134|171:134|128:89,1,115.49999647522,0|0,0:0|3:0,0:0:0:0:
273,75,41800,2,0,B|335:57|335:57|378:12,1,115.49999647522,0|10,0:0|0:0,0:0:0:0:
139,16,42466,1,0,0:0:0:0:
59,233,42800,6,0,B|74:280|121:289|121:289|167:297|184:349,1,173.24999471283,4|0,0:0|0:0,0:0:0:0:
196,202,43466,2,0,P|250:173|326:198,1,115.49999647522,8|0,0:0|0:0,0:0:0:0:
397,342,43966,2,0,L|417:217,1,115.49999647522
402,21,44466,2,0,L|382:146,1,115.49999647522,4|8,0:3|0:0,0:0:0:0:
284,344,45133,1,0,0:0:0:0:
203,199,45466,6,0,P|172:158|84:158,1,123.75,2|0,0:1|0:0,0:0:0:0:
80,157,46466,1,0,0:0:0:0:
56,340,46800,2,0,P|101:345|121:341,1,41.25,2|0,0:3|0:0,0:0:0:0:
164,284,47133,2,0,P|184:284|204:289,1,41.25,2|0,0:3|0:0,0:0:0:0:
277,343,47466,2,0,L|326:242,1,82.5,0|0,0:0|0:0,0:0:0:0:
410,115,48133,6,0,P|340:114|294:68,1,123.75,2|0,0:1|0:0,0:0:0:0:
291,57,49133,1,0,0:0:0:0:
111,31,49466,2,0,P|115:51|124:69,1,41.25,2|0,0:3|0:0,0:0:0:0:
71,143,49800,2,0,P|85:185|83:201,1,41.25,2|0,0:3|0:0,0:0:0:0:
46,263,50133,2,0,B|78:288|78:288|126:297,1,82.5
276,204,50800,6,0,L|302:342,1,123.75,2|0,0:1|0:0,0:0:0:0:
308,348,51800,2,0,P|322:302|332:288,1,41.25
387,248,52133,2,0,L|427:236,1,41.25,2|0,0:3|0:0,0:0:0:0:
480,162,52466,2,0,L|440:150,1,41.25,2|0,0:3|0:0,0:0:0:0:
349,160,52800,2,0,P|342:118|307:69,1,82.5
137,20,53466,6,0,L|113:171,1,123.75,2|0,0:1|0:0,0:0:0:0:
15,302,54466,2,0,L|39:151,1,123.75,2|0,0:1|0:0,0:0:0:0:
117,142,55133,2,0,L|139:208,1,41.25,2|0,0:3|0:0,0:0:0:0:
203,234,55466,2,0,L|227:183,1,41.25,2|0,0:3|0:0,0:0:0:0:
292,139,55800,1,4,0:3:0:0:
266,52,55966,1,8,0:3:0:0:
127,288,56133,6,0,B|168:324|168:324|229:331,1,98.9999969787599,4|2,0:0|0:0,0:0:0:0:
307,276,56633,1,0,0:0:0:0:
434,266,56800,2,0,L|422:326,1,49.4999984893799,8|0,0:0|0:0,0:0:0:0:
365,172,57133,1,0,0:0:0:0:
440,17,57300,2,0,P|463:68|444:130,1,98.9999969787599
298,48,57800,2,0,P|273:48|249:54,1,49.4999984893799,2|0,0:3|0:0,0:0:0:0:
198,150,58133,2,0,P|173:149|149:143,1,49.4999984893799,8|0,0:0|0:0,0:0:0:0:
82,57,58466,1,2,0:0:0:0:
56,212,58633,1,0,0:0:0:0:
162,314,58800,6,0,L|275:333,1,98.9999969787599,4|2,0:0|0:0,0:0:0:0:
359,286,59300,1,0,0:0:0:0:
296,138,59466,2,0,L|308:190,1,49.4999984893799,8|0,0:0|0:0,0:0:0:0:
388,106,59800,1,0,0:0:0:0:
204,208,59966,2,0,P|147:197|107:147,1,98.9999969787599
128,26,60466,2,0,L|70:50,2,49.4999984893799,2|0|8,0:3|0:0|0:0,0:0:0:0:
220,83,60966,1,0,0:0:0:0:
387,25,61133,1,2,0:0:0:0:
274,3,61300,1,0,0:0:0:0:
387,194,61466,6,0,P|427:239|493:256,1,98.9999969787599,4|2,0:0|0:0,0:0:0:0:
453,102,61966,1,0,0:0:0:0:
264,254,62133,2,0,L|279:202,1,49.4999984893799,8|0,0:0|0:0,0:0:0:0:
231,69,62466,1,0,0:0:0:0:
103,220,62633,1,0,0:0:0:0:
70,52,62800,2,0,P|108:87|117:106,1,49.4999984893799
185,181,63133,2,0,P|201:162|221:148,2,49.4999984893799,2|0|8,0:3|0:0|0:0,0:0:0:0:
230,336,63633,1,0,0:0:0:0:
289,256,63800,1,2,0:0:0:0:
131,304,63966,1,0,0:0:0:0:
367,318,64133,6,0,L|389:218,1,98.9999969787599,4|2,0:0|0:0,0:0:0:0:
306,49,64633,1,0,0:0:0:0:
185,181,64800,2,0,L|269:182,1,49.4999984893799,8|0,0:0|0:0,0:0:0:0:
473,185,65133,5,0,0:0:0:0:
285,254,65300,1,2,0:0:0:0:
358,137,65466,1,0,0:0:0:0:
358,137,65966,1,2,0:0:0:0:
20,52,66300,1,4,0:3:0:0:
77,163,66466,1,8,0:3:0:0:
257,32,66800,6,0,L|243:171,1,90.7500027694703,4|0,0:3|0:0,0:0:0:0:
139,279,67133,1,2,0:0:0:0:
352,140,67300,1,0,0:0:0:0:
77,163,67466,2,0,B|98:187|142:185|142:185|182:184|213:220,1,136.125004154205,8|0,0:0|0:0,0:0:0:0:
292,326,67800,2,0,L|326:216,1,90.7500027694703,4|0,0:3|0:0,0:0:0:0:
438,114,68133,6,0,P|436:176|490:239,1,136.125004154205,4|0,0:3|0:0,0:0:0:0:
505,61,68466,1,2,0:0:0:0:
352,140,68633,1,0,0:0:0:0:
182,342,68800,2,0,L|201:207,1,136.125004154205,8|0,0:0|0:0,0:0:0:0:
100,67,69133,2,0,P|127:108|184:127,1,90.7500027694703,2|0,0:0|0:0,0:0:0:0:
397,35,69466,5,4,0:3:0:0:
260,112,69633,1,0,0:0:0:0:
354,322,69800,2,0,B|344:266|344:266|263:183,1,136.125004154205,2|0,0:0|0:0,0:0:0:0:
102,300,70133,2,0,L|165:216,1,90.7500027694703,8|0,0:0|0:0,0:0:0:0:
112,45,70466,6,0,P|176:52|237:-4,1,136.125004154205,4|0,0:3|0:0,0:0:0:0:
29,1,70800,2,0,L|6:119,1,90.7500027694703,2|0,0:0|0:0,0:0:0:0:
156,227,71133,1,2,0:0:0:0:
27,343,71300,1,0,0:0:0:0:
94,151,71466,2,0,B|157:137|157:137|247:164,1,136.125004154205,8|0,0:0|0:0,0:0:0:0:
316,287,71800,2,0,L|365:175,1,90.7500027694703,2|0,0:0|0:0,0:0:0:0:
479,54,72133,5,4,0:3:0:0:
309,107,72300,1,0,0:0:0:0:
477,274,72466,2,0,P|479:207|424:155,1,136.125004154205,2|0,0:0|0:0,0:0:0:0:
381,344,72800,2,0,L|481:371,1,90.7500027694703,8|0,0:0|0:0,0:0:0:0:
352,203,73133,1,2,0:0:0:0:
170,270,73300,1,0,0:0:0:0:
307,378,73466,6,0,L|262:241,1,136.125004154205,4|0,0:3|0:0,0:0:0:0:
111,160,73800,1,2,0:0:0:0:
352,203,73966,1,0,0:0:0:0:
43,273,74133,2,0,L|27:117,1,136.125004154205,8|0,0:0|0:0,0:0:0:0:
173,35,74466,2,0,P|124:54|74:45,1,90.7500027694703,2|0,0:0|0:0,0:0:0:0:
255,125,74800,5,4,0:3:0:0:
182,312,74966,1,0,0:0:0:0:
431,186,75133,2,0,B|434:242|434:242|399:347,1,136.125004154205,2|0,0:0|0:0,0:0:0:0:
351,161,75466,2,0,P|391:110|440:104,1,90.7500027694703,8|0,0:0|0:0,0:0:0:0:
182,312,75800,6,0,B|152:263|152:263|68:223,1,136.125004154205,4|0,0:3|0:0,0:0:0:0:
287,359,76133,2,0,L|291:228,1,90.7500027694703,2|0,0:0|0:0,0:0:0:0:
121,73,76466,1,2,0:0:0:0:
293,85,76633,1,4,0:3:0:0:
78,328,76800,5,8,0:0:0:0:
218,29,76966,1,0,0:0:0:0:
224,221,77133,1,2,0:3:0:0:
53,137,77300,1,2,0:0:0:0:
293,85,77466,5,4,0:3:0:0:
447,339,77800,2,0,B|411:236|452:138|452:138|427:169|377:182,1,280.500005350113,2|8,0:1|0:0,0:0:0:0:
60,330,78466,5,4,0:3:0:0:
145,115,78633,1,0,0:0:0:0:
186,236,78800,1,4,0:3:0:0:
0,102,78966,1,0,0:0:0:0:
288,136,79133,1,2,0:0:0:0:
21,213,79300,1,0,0:0:0:0:
293,40,79466,2,0,P|359:68|381:152,1,136.125004154205,8|0,0:0|0:0,0:0:0:0:
450,293,79800,2,0,L|475:192,1,90.7500027694703,2|0,0:0|0:0,0:0:0:0:
288,136,80133,6,0,B|228:189|228:189|191:274,1,136.125004154205,4|0,0:3|0:0,0:0:0:0:
60,330,80466,2,0,P|52:266|26:218,1,90.7500027694703,2|0,0:0|0:0,0:0:0:0:
97,43,80800,2,0,L|124:195,1,136.125004154205,8|0,0:0|0:0,0:0:0:0:
271,346,81133,6,0,L|290:250,1,90.7500027694703,4|0,0:3|0:0,0:0:0:0:
363,65,81466,2,0,P|304:82|224:41,1,136.125004154205,2|0,0:0|0:0,0:0:0:0:
426,0,81800,1,2,0:0:0:0:
216,161,81966,1,0,0:0:0:0:
420,191,82133,1,8,0:0:0:0:
444,210,82216,1,0,0:0:0:0:
455,239,82299,1,0,0:0:0:0:
449,270,82382,1,0,0:0:0:0:
427,292,82466,1,2,0:0:0:0:
397,299,82549,1,0,0:0:0:0:
367,289,82632,1,0,0:0:0:0:
347,265,82716,1,0,0:0:0:0:
344,234,82800,6,0,L|170:261,1,136.125004154205,4|0,0:3|0:0,0:0:0:0:
62,356,83133,1,2,0:0:0:0:
99,105,83300,1,0,0:0:0:0:
143,320,83466,2,0,P|115:248|147:185,1,136.125004154205,8|0,0:0|0:0,0:0:0:0:
270,107,83800,2,0,B|243:149|243:149|185:183,1,90.7500027694703,2|0,0:0|0:0,0:0:0:0:
253,14,84133,6,0,L|423:58,1,136.125004154205,4|0,0:3|0:0,0:0:0:0:
471,245,84466,1,2,0:0:0:0:
498,46,84633,1,0,0:0:0:0:
334,281,84800,2,0,P|304:226|352:153,1,136.125004154205,8|0,0:0|0:0,0:0:0:0:
457,344,85133,2,0,L|354:380,1,90.7500027694703,2|0,0:0|0:0,0:0:0:0:
143,320,85466,5,4,0:3:0:0:
270,107,85633,1,0,0:0:0:0:
46,133,85800,2,0,B|72:185|72:185|169:222,1,136.125004154205,2|0,0:0|0:0,0:0:0:0:
191,45,86133,2,0,P|168:91|185:148,1,90.7500027694703,8|0,0:0|0:0,0:0:0:0:
471,245,86466,5,4,0:3:0:0:
369,21,86633,1,0,0:0:0:0:
143,320,86800,1,8,0:3:0:0:
143,320,87300,1,8,0:3:0:0:
211,157,87466,1,4,0:3:0:0:
60,248,87633,1,0,0:0:0:0:
236,263,87800,1,4,0:3:0:0:
103,148,87966,1,0,0:0:0:0:
143,320,88133,5,4,0:0:0:0:
