osu file format v14

[General]
AudioFilename: om.mp3
AudioLeadIn: 0
PreviewTime: 58651
Countdown: 0
SampleSet: Soft
StackLeniency: 0.7
Mode: 3
LetterboxInBreaks: 0
SpecialStyle: 0
WidescreenStoryboard: 0

[Editor]
DistanceSpacing: 1
BeatDivisor: 4
GridSize: 4
TimelineZoom: 0.8999999

[Metadata]
Title:Onegai Muscle (TV Size)
TitleUnicode:お願いマッスル (TV Size)
Artist:Hibiki Sakura (CV: Fairouz Ai) & Naruzo Machio (CV: Ishikawa Kaito)
ArtistUnicode:紗倉ひびき (CV: ファイルーズあい) & 街雄鳴造 (CV: 石川界人)
Creator:Syadow-
Version:Normal
Source:ダンベル何キロ持てる?
Tags:dumbbell nan kilo moteru? How Many Kilograms are the Dumbbells You Lift? opening op _Asha FAmoss Japanese anime summer 2019 j-pop ZMCZ-13191
BeatmapID:2099402
BeatmapSetID:1003093

[Difficulty]
HPDrainRate:7
CircleSize:4
OverallDifficulty:7.5
ApproachRate:5
SliderMultiplier:1.4
SliderTickRate:1

[Events]
//Background and Video events
0,0,"bg1.jpg",0,0
//Break Periods
//Storyboard Layer 0 (Background)
//Storyboard Layer 1 (Fail)
//Storyboard Layer 2 (Pass)
//Storyboard Layer 3 (Foreground)
//Storyboard Layer 4 (Overlay)
//Storyboard Sound Samples
Sample,29787,0,"tom01.wav",70
Sample,58878,0,"tom01.wav",70
Sample,87060,0,"tom02.wav",70

[TimingPoints]
1151,454.545454545455,4,2,1,50,1,0
59332,-100,4,2,1,70,0,1
73878,-100,4,2,1,60,0,0

[HitObjects]
448,192,241,5,2,0:0:0:0:
192,192,469,128,8,696:0:0:0:0:
320,192,696,128,8,1151:0:0:0:0:
448,192,1151,1,2,0:0:0:0:
64,192,1151,1,4,0:0:0:0:
192,192,1378,1,0,0:0:0:0:
320,192,1605,1,8,0:0:0:0:
448,192,1605,1,0,0:0:0:0:
192,192,1832,1,0,0:0:0:0:
448,192,2060,1,2,0:0:0:0:
320,192,2287,1,0,0:0:0:0:
192,192,2514,1,8,0:0:0:0:
64,192,2514,1,0,0:0:0:0:
448,192,2969,1,2,0:0:0:0:
64,192,3423,1,8,0:0:0:0:
320,192,3423,1,0,0:0:0:0:
192,192,3651,1,0,0:0:0:0:
448,192,3878,1,2,0:0:0:0:
320,192,4105,1,0,0:0:0:0:
192,192,4332,1,8,0:0:0:0:
64,192,4332,1,0,0:0:0:0:
320,192,4560,1,0,0:0:0:0:
448,192,4787,1,2,0:0:0:0:
64,192,5241,1,8,0:0:0:0:
320,192,5241,1,0,0:0:0:0:
448,192,5469,1,0,0:0:0:0:
192,192,5696,1,2,0:0:0:0:
320,192,5923,1,0,0:0:0:0:
64,192,6151,1,8,0:0:0:0:
192,192,6151,1,0,0:0:0:0:
448,192,6605,1,2,0:0:0:0:
192,192,7060,1,8,0:0:0:0:
64,192,7060,1,0,0:0:0:0:
448,192,7287,1,0,0:0:0:0:
320,192,7514,1,2,0:0:0:0:
64,192,7741,1,0,0:0:0:0:
448,192,7969,1,8,0:0:0:0:
320,192,7969,1,0,0:0:0:0:
192,192,8196,1,8,0:0:0:0:
320,192,8310,1,8,0:0:0:0:
64,192,8423,1,2,0:0:0:0:
192,192,8423,1,4,0:0:0:0:
64,192,8878,1,8,0:0:0:0:
448,192,8878,1,0,0:0:0:0:
192,192,9105,1,0,0:0:0:0:
448,192,9332,1,2,0:0:0:0:
320,192,9560,1,0,0:0:0:0:
192,192,9787,1,8,0:0:0:0:
64,192,9787,1,0,0:0:0:0:
320,192,10241,1,2,0:0:0:0:
448,192,10696,1,8,0:0:0:0:
64,192,10696,1,0,0:0:0:0:
192,192,10923,1,0,0:0:0:0:
320,192,11151,1,2,0:0:0:0:
192,192,11378,1,0,0:0:0:0:
448,192,11605,1,8,0:0:0:0:
64,192,11605,1,0,0:0:0:0:
320,192,11832,1,0,0:0:0:0:
192,192,12060,128,2,12514:0:0:0:0:
320,192,12514,128,8,12969:0:0:0:0:
448,192,12514,1,0,0:0:0:0:
64,192,12969,128,2,13423:0:0:0:0:
448,192,13423,1,8,0:0:0:0:
320,192,13423,128,0,13878:0:0:0:0:
64,192,13878,1,2,0:0:0:0:
448,192,13878,1,0,0:0:0:0:
320,192,14105,1,0,0:0:0:0:
192,192,14332,1,8,0:0:0:0:
64,192,14332,1,0,0:0:0:0:
320,192,14560,1,0,0:0:0:0:
448,192,14787,1,2,0:0:0:0:
64,192,14787,1,0,0:0:0:0:
192,192,15014,1,8,0:0:0:0:
448,192,15241,1,2,0:0:0:0:
320,192,15241,1,0,0:0:0:0:
64,192,15469,1,0,0:0:0:70:tom03.wav
448,192,15696,128,4,15923:0:0:0:0:
192,192,15696,1,2,0:0:0:0:
320,192,15923,128,0,16151:0:0:0:0:
64,192,16151,1,8,0:0:0:0:
192,192,16151,1,0,0:0:0:0:
448,192,16378,1,0,0:0:0:0:
64,192,16605,128,2,16832:0:0:0:0:
192,192,16832,128,0,17060:0:0:0:0:
320,192,17060,1,8,0:0:0:0:
448,192,17060,1,0,0:0:0:0:
192,192,17514,1,2,0:0:0:0:
448,192,17969,1,8,0:0:0:0:
64,192,17969,1,0,0:0:0:0:
192,192,18196,1,0,0:0:0:0:
448,192,18423,1,2,0:0:0:0:
320,192,18651,1,0,0:0:0:0:
192,192,18878,1,8,0:0:0:0:
64,192,18878,1,0,0:0:0:0:
320,192,19332,128,2,19560:0:0:0:0:
192,192,19560,128,0,19787:0:0:0:0:
448,192,19787,1,8,0:0:0:0:
64,192,19787,1,0,0:0:0:0:
320,192,20014,1,0,0:0:0:0:
192,192,20241,128,2,20469:0:0:0:0:
320,192,20469,128,0,20696:0:0:0:0:
448,192,20696,1,8,0:0:0:0:
64,192,20696,1,0,0:0:0:0:
192,192,21151,128,2,21605:0:0:0:0:
448,192,21605,1,8,0:0:0:0:
64,192,21605,1,0,0:0:0:0:
320,192,21832,1,0,0:0:0:0:
192,192,22060,1,2,0:0:0:0:
64,192,22287,1,0,0:0:0:0:
320,192,22514,1,8,0:0:0:0:
448,192,22514,1,0,0:0:0:0:
192,192,22741,1,8,0:0:0:0:
320,192,22855,1,8,0:0:0:0:
64,192,22969,1,4,0:0:0:0:
448,192,22969,128,2,23196:0:0:0:0:
192,192,23196,128,0,23423:0:0:0:0:
320,192,23423,1,8,0:0:0:0:
448,192,23423,1,0,0:0:0:0:
64,192,23651,1,0,0:0:0:0:
320,192,23878,128,2,24105:0:0:0:0:
64,192,24105,128,0,24332:0:0:0:0:
448,192,24332,1,8,0:0:0:0:
320,192,24332,1,0,0:0:0:0:
192,192,24787,1,2,0:0:0:0:
448,192,25241,1,8,0:0:0:0:
64,192,25241,1,0,0:0:0:0:
320,192,25469,1,0,0:0:0:0:
64,192,25696,1,2,0:0:0:0:
192,192,25923,1,0,0:0:0:0:
320,192,26151,1,8,0:0:0:0:
448,192,26151,1,0,0:0:0:0:
64,192,26605,128,2,27060:0:0:0:0:
192,192,27060,128,8,27514:0:0:0:0:
448,192,27060,1,0,0:0:0:0:
320,192,27514,128,2,27969:0:0:0:0:
64,192,27969,1,8,0:0:0:0:
192,192,27969,1,0,0:0:0:0:
320,192,28196,1,0,0:0:0:0:
64,192,28423,1,2,0:0:0:0:
448,192,28423,1,0,0:0:0:0:
192,192,28651,1,0,0:0:0:0:
448,192,28878,1,0,0:0:0:70:tom02.wav
320,192,29105,1,0,0:0:0:70:tom04.wav
64,192,29332,128,0,29787:0:0:0:70:tom04.wav
448,192,29787,128,2,30241:0:0:0:0:
192,192,30241,1,2,0:0:0:0:
64,192,30241,1,4,0:0:0:0:
320,192,30696,1,8,0:0:0:0:
448,192,30696,1,0,0:0:0:0:
64,192,31151,1,2,0:0:0:0:
320,192,31605,1,8,0:0:0:0:
192,192,31605,1,0,0:0:0:0:
448,192,32060,1,2,0:0:0:0:
192,192,32514,1,8,0:0:0:0:
64,192,32514,1,0,0:0:0:0:
320,192,32969,1,2,0:0:0:0:
192,192,33082,1,8,0:0:0:0:
320,192,33423,1,2,0:0:0:0:
448,192,33423,1,8,0:0:0:0:
64,192,33651,1,8,0:0:0:0:
192,192,33764,1,8,0:0:0:0:
448,192,33878,1,2,0:0:0:0:
320,192,34332,1,8,0:0:0:0:
192,192,34332,1,0,0:0:0:0:
64,192,34787,1,2,0:0:0:0:
448,192,35241,1,8,0:0:0:0:
192,192,35241,1,0,0:0:0:0:
320,192,35696,1,2,0:0:0:0:
192,192,36151,1,8,0:0:0:0:
64,192,36151,1,0,0:0:0:0:
448,192,36605,1,2,0:0:0:0:
64,192,36832,1,0,0:0:0:0:
320,192,37060,1,10,0:0:0:0:
192,192,37173,1,8,0:0:0:0:
448,192,37514,1,2,0:0:0:0:
320,192,37514,1,4,0:0:0:0:
64,192,37969,1,8,0:0:0:0:
192,192,37969,1,0,0:0:0:0:
320,192,38423,1,2,0:0:0:0:
192,192,38878,1,8,0:0:0:0:
448,192,38878,1,0,0:0:0:0:
64,192,39332,1,2,0:0:0:0:
448,192,39787,1,8,0:0:0:0:
320,192,39787,1,0,0:0:0:0:
192,192,40241,1,2,0:0:0:0:
320,192,40696,1,8,0:0:0:0:
64,192,40696,1,0,0:0:0:0:
448,192,41151,1,2,0:0:0:0:
64,192,41605,1,8,0:0:0:0:
192,192,41605,1,0,0:0:0:0:
320,192,42060,128,2,42514:0:0:0:0:
448,192,42514,1,8,0:0:0:0:
64,192,42969,1,2,0:0:0:0:
64,192,43423,1,8,0:0:0:0:
448,192,43878,1,2,0:0:0:0:
320,192,43878,1,8,0:0:0:0:
192,192,44105,1,8,0:0:0:0:
320,192,44219,1,8,0:0:0:0:
64,192,44446,128,8,44787:0:0:0:0:
448,192,44787,1,4,0:0:0:0:
320,192,44787,1,2,0:0:0:0:
192,192,45014,1,2,0:0:0:0:
448,192,45241,1,0,0:0:0:0:
64,192,45355,1,2,0:0:0:0:
320,192,45696,1,2,0:0:0:0:
448,192,45923,1,0,0:0:0:0:
64,192,46151,1,10,0:0:0:0:
192,192,46378,1,0,0:0:0:0:
448,192,46605,1,2,0:0:0:0:
448,192,46832,1,2,0:0:0:0:
64,192,47060,1,0,0:0:0:0:
320,192,47173,1,2,0:0:0:0:
192,192,47514,1,2,0:0:0:0:
448,192,47969,1,10,0:0:0:0:
192,192,48196,1,0,0:0:0:0:
320,192,48310,1,0,0:0:0:0:
64,192,48423,1,2,0:0:0:0:
64,192,48651,1,2,0:0:0:0:
448,192,48878,1,0,0:0:0:0:
192,192,48991,1,2,0:0:0:0:
448,192,49332,1,2,0:0:0:0:
320,192,49560,1,0,0:0:0:0:
64,192,49787,1,10,0:0:0:0:
192,192,50014,1,0,0:0:0:0:
448,192,50241,128,2,50696:0:0:0:0:
192,192,50696,128,2,51151:0:0:0:0:
64,192,51151,128,2,51605:0:0:0:0:
448,192,51605,1,8,0:0:0:0:
320,192,51719,1,8,0:0:0:0:
192,192,51832,1,2,0:0:0:0:
64,192,52060,1,2,0:0:0:0:
448,192,52060,1,4,0:0:0:0:
64,192,52287,1,2,0:0:0:0:
320,192,52514,1,0,0:0:0:0:
192,192,52628,1,2,0:0:0:0:
448,192,52969,1,2,0:0:0:0:
320,192,53196,1,0,0:0:0:0:
64,192,53423,1,10,0:0:0:0:
192,192,53651,1,0,0:0:0:0:
320,192,53878,1,2,0:0:0:0:
320,192,54105,1,2,0:0:0:0:
64,192,54332,1,0,0:0:0:0:
448,192,54446,1,2,0:0:0:0:
320,192,54787,1,2,0:0:0:0:
192,192,55241,1,10,0:0:0:0:
320,192,55469,1,0,0:0:0:0:
64,192,55696,128,2,56151:0:0:0:0:
448,192,56151,128,2,56605:0:0:0:0:
192,192,56605,128,2,57060:0:0:0:0:
64,192,56605,128,8,57060:0:0:0:0:
320,192,57060,128,2,57514:0:0:0:0:
448,192,57060,128,0,57514:0:0:0:0:
64,192,57514,1,2,0:0:0:0:
320,192,58651,1,2,0:0:0:0:
64,192,58878,128,8,59332:0:0:0:0:
192,192,59332,1,2,0:0:0:0:
448,192,59332,1,4,0:0:0:0:
320,192,59560,1,0,0:0:0:0:
64,192,59787,1,8,0:0:0:0:
192,192,59787,1,0,0:0:0:0:
448,192,60014,1,0,0:0:0:0:
320,192,60241,1,2,0:0:0:0:
64,192,60469,1,0,0:0:0:0:
448,192,60696,1,8,0:0:0:0:
192,192,60696,1,0,0:0:0:0:
320,192,61151,1,2,0:0:0:0:
192,192,61605,1,8,0:0:0:0:
64,192,61605,1,0,0:0:0:0:
448,192,61832,1,0,0:0:0:0:
64,192,62060,1,2,0:0:0:0:
192,192,62287,1,0,0:0:0:0:
320,192,62514,1,8,0:0:0:0:
448,192,62514,1,0,0:0:0:0:
192,192,62741,1,0,0:0:0:0:
64,192,62969,1,2,0:0:0:0:
448,192,63423,1,8,0:0:0:0:
192,192,63423,1,0,0:0:0:0:
64,192,63651,1,0,0:0:0:0:
320,192,63878,1,2,0:0:0:0:
192,192,64105,1,0,0:0:0:0:
448,192,64332,1,8,0:0:0:0:
320,192,64332,1,0,0:0:0:0:
64,192,64787,1,2,0:0:0:0:
448,192,65241,1,8,0:0:0:0:
192,192,65241,1,0,0:0:0:0:
320,192,65469,1,0,0:0:0:0:
192,192,65696,1,2,0:0:0:0:
64,192,65923,1,0,0:0:0:0:
448,192,66151,1,8,0:0:0:0:
320,192,66151,1,0,0:0:0:0:
192,192,66378,1,8,0:0:0:0:
320,192,66491,1,8,0:0:0:0:
64,192,66605,1,4,0:0:0:0:
192,192,66605,1,2,0:0:0:0:
448,192,67060,1,8,0:0:0:0:
320,192,67060,1,0,0:0:0:0:
64,192,67287,1,0,0:0:0:0:
192,192,67514,1,2,0:0:0:0:
448,192,67741,1,0,0:0:0:0:
320,192,67969,1,8,0:0:0:0:
64,192,67969,1,0,0:0:0:0:
192,192,68423,1,2,0:0:0:0:
448,192,68878,1,8,0:0:0:0:
320,192,68878,1,0,0:0:0:0:
64,192,69105,1,0,0:0:0:0:
192,192,69332,1,2,0:0:0:0:
448,192,69560,1,0,0:0:0:0:
64,192,69787,1,8,0:0:0:0:
320,192,69787,1,0,0:0:0:0:
192,192,70014,1,0,0:0:0:0:
448,192,70241,128,2,70696:0:0:0:0:
64,192,70696,128,8,71151:0:0:0:0:
320,192,70696,1,0,0:0:0:0:
192,192,71151,128,2,71605:0:0:0:0:
448,192,71605,1,8,0:0:0:0:
320,192,71605,128,0,72060:0:0:0:0:
448,192,72060,1,2,0:0:0:0:
64,192,72060,1,0,0:0:0:0:
320,192,72287,1,0,0:0:0:0:
192,192,72514,1,8,0:0:0:0:
64,192,72514,1,0,0:0:0:0:
320,192,72741,1,0,0:0:0:0:
64,192,72969,1,2,0:0:0:0:
448,192,72969,1,0,0:0:0:0:
192,192,73196,1,8,0:0:0:0:
448,192,73423,1,2,0:0:0:0:
320,192,73423,1,0,0:0:0:0:
64,192,73651,1,0,0:0:0:70:tom03.wav
448,192,73878,128,2,74105:0:0:0:0:
192,192,73878,1,4,0:0:0:0:
320,192,74105,128,0,74332:0:0:0:0:
64,192,74332,1,8,0:0:0:0:
192,192,74332,1,0,0:0:0:0:
448,192,74560,1,0,0:0:0:0:
64,192,74787,128,2,75014:0:0:0:0:
192,192,75014,128,0,75241:0:0:0:0:
320,192,75241,1,8,0:0:0:0:
448,192,75241,1,0,0:0:0:0:
192,192,75696,1,2,0:0:0:0:
64,192,76151,1,8,0:0:0:0:
448,192,76151,1,0,0:0:0:0:
320,192,76378,1,0,0:0:0:0:
192,192,76605,1,2,0:0:0:0:
320,192,76832,1,0,0:0:0:0:
64,192,77060,1,8,0:0:0:0:
192,192,77060,1,0,0:0:0:0:
320,192,77514,128,2,77741:0:0:0:0:
192,192,77741,128,0,77969:0:0:0:0:
448,192,77969,1,8,0:0:0:0:
64,192,77969,1,0,0:0:0:0:
320,192,78196,1,0,0:0:0:0:
192,192,78423,128,2,78651:0:0:0:0:
320,192,78651,128,0,78878:0:0:0:0:
448,192,78878,1,8,0:0:0:0:
64,192,78878,1,0,0:0:0:0:
192,192,79332,128,2,79787:0:0:0:0:
64,192,79787,1,8,0:0:0:0:
448,192,79787,1,0,0:0:0:0:
320,192,80014,1,0,0:0:0:0:
192,192,80241,1,2,0:0:0:0:
448,192,80469,1,0,0:0:0:0:
192,192,80696,1,8,0:0:0:0:
64,192,80696,1,0,0:0:0:0:
320,192,80923,1,8,0:0:0:0:
192,192,81037,1,8,0:0:0:0:
448,192,81151,1,2,0:0:0:0:
64,192,81151,128,4,81378:0:0:0:0:
320,192,81378,128,0,81605:0:0:0:0:
192,192,81605,1,8,0:0:0:0:
64,192,81605,1,0,0:0:0:0:
448,192,81832,1,0,0:0:0:0:
192,192,82060,128,2,82287:0:0:0:0:
448,192,82287,128,0,82514:0:0:0:0:
64,192,82514,1,8,0:0:0:0:
192,192,82514,1,0,0:0:0:0:
320,192,82969,1,2,0:0:0:0:
448,192,83423,1,8,0:0:0:0:
64,192,83423,1,0,0:0:0:0:
192,192,83651,1,0,0:0:0:0:
320,192,83878,1,2,0:0:0:0:
192,192,84105,1,0,0:0:0:0:
320,192,84332,1,8,0:0:0:0:
448,192,84332,1,0,0:0:0:0:
64,192,84787,128,2,85241:0:0:0:0:
192,192,85241,128,8,85696:0:0:0:0:
448,192,85241,1,0,0:0:0:0:
320,192,85696,128,2,86151:0:0:0:0:
64,192,86151,1,8,0:0:0:0:
192,192,86151,1,0,0:0:0:0:
320,192,86378,1,0,0:0:0:0:
64,192,86605,1,2,0:0:0:0:
448,192,86605,1,0,0:0:0:0:
192,192,86832,1,0,0:0:0:0:
448,192,87060,1,8,0:0:0:0:
320,192,87287,1,0,0:0:0:70:tom04.wav
192,192,87514,1,0,0:0:0:0:
