osu file format v14

[General]
AudioFilename: song.mp3
AudioLeadIn: 0
PreviewTime: 57958
Countdown: 0
SampleSet: Normal
StackLeniency: 0.7
Mode: 1
LetterboxInBreaks: 0
WidescreenStoryboard: 1

[Editor]
Bookmarks: 1151,15697,30242,44788,57515,59333,73879,87515,88424
DistanceSpacing: 1.6
BeatDivisor: 4
GridSize: 32
TimelineZoom: 1.84

[Metadata]
Title:Onegai Muscle (TV Size)
TitleUnicode:お願いマッスル (TV Size)
Artist:Hibiki Sakura (CV: Fairouz Ai) & Naruzo Machio (CV: Ishikawa Kaito)
ArtistUnicode:紗倉ひびき (CV: ファイルーズあい)&街雄鳴造 (CV: 石川界人)
Creator:Defectum
Version:Kantan
Source:ダンベル何キロ持てる?
Tags:dumbbell nan kilo moteru? How Many Kilograms are the Dumbbells You Lift? lift ? opening op anime japanese jpop j-pop j pop
BeatmapID:3827023
BeatmapSetID:1860980

[Difficulty]
HPDrainRate:9
CircleSize:4
OverallDifficulty:3
ApproachRate:9
SliderMultiplier:1.4
SliderTickRate:1

[Events]
//Background and Video events
0,0,"bg.jpg",0,60
//Break Periods
//Storyboard Layer 0 (Background)
//Storyboard Layer 1 (Fail)
//Storyboard Layer 2 (Pass)
//Storyboard Layer 3 (Foreground)
//Storyboard Layer 4 (Overlay)
//Storyboard Sound Samples

[TimingPoints]
-6132,454.545454545455,4,1,0,75,1,0
1055,-100,4,1,0,90,0,0
1140,-100,4,1,0,90,0,1
15231,-100,4,1,0,90,0,0
15686,-100,4,1,0,90,0,1
30231,-100,4,1,0,90,0,0
30316,-100,4,1,0,65,0,0
42958,-100,4,1,0,70,0,0
43413,-100,4,1,0,75,0,0
43868,-100,4,1,0,80,0,0
44777,-100,4,1,0,75,0,0
55686,-100,4,1,0,80,0,0
56140,-100,4,1,0,85,0,0
56595,-100,4,1,0,90,0,0
57049,-100,4,1,0,95,0,0
57504,-100,4,1,0,100,0,0
57588,-100,4,1,0,75,0,0
59235,-100,4,1,0,90,0,0
59322,-100,4,1,0,90,0,1
73413,-100,4,1,0,90,0,0
73868,-100,4,1,0,90,0,1
87504,-100,4,1,0,90,0,0

[HitObjects]
256,160,1140,5,4,0:0:0:0:
256,192,2049,1,8,0:0:0:0:
256,192,2731,1,0,0:0:0:0:
256,192,3413,1,0,0:0:0:0:
256,192,3868,1,8,0:0:0:0:
256,192,5231,1,0,0:0:0:0:
256,192,5686,1,8,0:0:0:0:
256,192,6368,1,0,0:0:0:0:
256,192,7049,1,0,0:0:0:0:
256,192,7504,1,8,0:0:0:0:
256,192,7958,1,8,0:0:0:0:
256,160,8413,1,4,0:0:0:0:
256,192,9322,1,8,0:0:0:0:
256,192,10004,1,0,0:0:0:0:
256,192,10686,1,0,0:0:0:0:
256,192,11140,1,8,0:0:0:0:
256,192,11595,1,8,0:0:0:0:
256,160,12049,1,4,0:0:0:0:
256,160,12958,1,12,0:0:0:0:
256,160,13868,1,4,0:0:0:0:
256,192,14777,1,8,0:0:0:0:
256,192,15231,1,0,0:0:0:0:
256,160,15686,1,12,0:0:0:0:
256,192,17504,1,0,0:0:0:0:
256,192,17958,1,8,0:0:0:0:
256,192,18413,1,8,0:0:0:0:
256,192,18868,1,0,0:0:0:0:
256,192,19322,1,8,0:0:0:0:
256,192,21140,1,0,0:0:0:0:
256,192,21595,1,0,0:0:0:0:
256,192,22049,1,8,0:0:0:0:
256,192,22504,1,8,0:0:0:0:
256,160,22958,1,4,0:0:0:0:
256,192,24777,1,0,0:0:0:0:
256,192,25231,1,8,0:0:0:0:
256,192,25686,1,0,0:0:0:0:
256,192,26140,1,8,0:0:0:0:
256,160,26595,1,4,0:0:0:0:
256,160,27504,1,4,0:0:0:0:
256,160,28186,1,12,0:0:0:0:
256,192,28868,1,0,0:0:0:0:
256,192,29322,1,8,0:0:0:0:
256,192,29777,1,8,0:0:0:0:
256,160,30231,1,4,0:0:0:0:
256,192,31595,1,0,0:0:0:0:
256,192,32049,1,0,0:0:0:0:
256,192,32958,1,0,0:0:0:0:
256,192,33413,1,8,0:0:0:0:
256,192,33868,1,0,0:0:0:0:
256,192,35231,1,0,0:0:0:0:
256,192,35686,1,8,0:0:0:0:
256,192,36595,1,0,0:0:0:0:
256,192,37049,1,8,0:0:0:0:
256,160,37504,1,4,0:0:0:0:
256,192,38868,1,8,0:0:0:0:
256,192,39322,1,0,0:0:0:0:
256,192,40231,1,8,0:0:0:0:
256,192,40686,1,0,0:0:0:0:
256,192,41140,1,8,0:0:0:0:
256,192,42049,1,8,0:0:0:0:
256,160,42958,1,4,0:0:0:0:
256,160,43413,1,4,0:0:0:0:
256,160,43868,1,4,0:0:0:0:
256,160,44777,1,12,0:0:0:0:
256,192,46595,1,8,0:0:0:0:
256,192,47504,1,0,0:0:0:0:
256,192,48413,1,8,0:0:0:0:
256,192,50231,1,0,0:0:0:0:
256,192,50686,1,8,0:0:0:0:
256,192,51140,1,0,0:0:0:0:
256,192,51595,1,8,0:0:0:0:
256,160,52049,1,4,0:0:0:0:
256,192,53868,1,0,0:0:0:0:
256,192,54777,1,8,0:0:0:0:
256,192,55686,1,0,0:0:0:0:
256,192,56140,1,8,0:0:0:0:
256,192,56595,1,0,0:0:0:0:
256,192,57049,1,8,0:0:0:0:
256,160,57504,1,4,0:0:0:0:
256,160,59322,1,4,0:0:0:0:
256,192,60231,1,8,0:0:0:0:
256,192,60913,1,0,0:0:0:0:
256,192,61595,1,0,0:0:0:0:
256,192,62049,1,8,0:0:0:0:
256,192,63413,1,0,0:0:0:0:
256,192,63868,1,8,0:0:0:0:
256,192,64549,1,0,0:0:0:0:
256,192,65231,1,0,0:0:0:0:
256,192,65686,1,8,0:0:0:0:
256,192,66140,1,8,0:0:0:0:
256,160,66595,1,4,0:0:0:0:
256,192,67504,1,8,0:0:0:0:
256,192,68186,1,0,0:0:0:0:
256,192,68868,1,0,0:0:0:0:
256,192,69322,1,8,0:0:0:0:
256,192,69777,1,8,0:0:0:0:
256,160,70231,1,4,0:0:0:0:
256,160,71140,1,12,0:0:0:0:
256,160,72049,1,4,0:0:0:0:
256,192,72958,1,8,0:0:0:0:
256,192,73413,1,0,0:0:0:0:
256,160,73868,1,12,0:0:0:0:
256,192,75686,1,0,0:0:0:0:
256,192,76140,1,0,0:0:0:0:
256,192,76595,1,8,0:0:0:0:
256,192,77049,1,8,0:0:0:0:
256,192,77504,1,0,0:0:0:0:
256,192,79322,1,8,0:0:0:0:
256,192,79777,1,0,0:0:0:0:
256,192,80231,1,8,0:0:0:0:
256,192,80686,1,8,0:0:0:0:
256,160,81140,1,4,0:0:0:0:
256,192,82958,1,0,0:0:0:0:
256,192,83413,1,8,0:0:0:0:
256,192,83868,1,0,0:0:0:0:
256,192,84322,1,8,0:0:0:0:
256,160,84777,1,4,0:0:0:0:
256,160,85686,1,4,0:0:0:0:
256,160,86368,1,12,0:0:0:0:
256,192,87049,1,8,0:0:0:0:
256,192,87504,1,0,0:0:0:0:
