osu file format v14

[General]
AudioFilename: audio.mp3
AudioLeadIn: 0
PreviewTime: 59332
Countdown: 0
SampleSet: Soft
StackLeniency: 0.6
Mode: 0
LetterboxInBreaks: 0
WidescreenStoryboard: 1

[Editor]
DistanceSpacing: 1.2
BeatDivisor: 4
GridSize: 16
TimelineZoom: 1.3

[Metadata]
Title:Onegai Muscle (TV Size)
TitleUnicode:お願いマッスル (TV Size)
Artist:Hibiki Sakura (CV: Fairouz Ai) & Naruzo Machio (CV: Ishikawa Kaito)
ArtistUnicode:紗倉ひびき (CV: ファイルーズあい) & 街雄鳴造 (CV: 石川界人)
Creator:Basensorex
Version:alevi's Insane
Source:ダンベル何キロ持てる?
Tags:dumbbell nan kilo moteru? How Many Kilograms are the Dumbbells You Lift? lift ? opening op anime japanese jpop j-pop j pop alternator alt female vocals vocalist alevi xidorn
BeatmapID:3400066
BeatmapSetID:1663114

[Difficulty]
HPDrainRate:5
CircleSize:3.8
OverallDifficulty:8
ApproachRate:8.8
SliderMultiplier:2.2
SliderTickRate:1

[Events]
//Background and Video events
0,0,"bg.jpg",0,0
//Break Periods
//Storyboard Layer 0 (Background)
//Storyboard Layer 1 (Fail)
//Storyboard Layer 2 (Pass)
//Storyboard Layer 3 (Foreground)
//Storyboard Layer 4 (Overlay)
//Storyboard Sound Samples

[TimingPoints]
220,454.545454545455,4,2,22,50,1,0
1151,454.545454545455,4,2,22,80,1,0
1151,-100,4,2,22,80,0,1
2741,-100,4,2,22,80,0,1
3082,-100,4,2,22,5,0,1
3196,-100,4,2,22,80,0,1
6378,-100,4,2,22,80,0,1
6719,-100,4,2,22,5,0,1
6832,-100,4,2,22,80,0,1
7855,-100,4,2,22,5,0,1
7969,-100,4,2,22,80,0,1
10014,-100,4,2,22,80,0,1
10355,-100,4,2,22,5,0,1
10469,-100,4,2,22,80,0,1
12060,-71.4285714285714,4,2,22,80,0,1
12741,-100,4,2,22,80,0,1
12969,-71.4285714285714,4,2,22,80,0,1
13651,-100,4,2,22,80,0,1
13878,-71.4285714285714,4,2,22,80,0,1
14219,-83.3333333333333,4,2,22,80,0,1
14560,-100,4,2,22,80,0,1
15469,-100,4,2,22,80,0,1
15696,-111.111111111111,4,2,22,65,0,0
20128,-111.111111111111,4,2,22,5,0,0
20241,-111.111111111111,4,2,22,65,0,0
21037,-111.111111111111,4,2,22,5,0,0
21150,-111.111111111111,4,2,22,65,0,0
27060,-100,4,2,22,65,0,0
27514,-90.9090909090909,4,2,22,65,0,0
30241,-125,4,2,22,50,0,0
41151,-111.111111111111,4,2,22,50,0,0
41378,-111.111111111111,4,2,22,50,0,0
41605,-111.111111111111,4,2,22,50,0,0
41832,-111.111111111111,4,2,22,50,0,0
42514,-111.111111111111,4,2,22,50,0,0
42741,-111.111111111111,4,2,22,50,0,0
42969,-111.111111111111,4,2,22,65,0,0
43082,-111.111111111111,4,2,22,5,0,0
43423,-111.111111111111,4,2,22,65,0,0
43537,-111.111111111111,4,2,22,5,0,0
43878,-111.111111111111,4,2,22,65,0,0
44787,-111.111111111111,4,2,22,50,0,0
55696,-111.111111111111,4,2,22,35,0,0
56151,-111.111111111111,4,2,22,50,0,0
56605,-100,4,2,22,65,0,0
57060,-100,4,2,22,80,0,0
58651,-100,4,2,22,50,0,0
59332,-100,4,2,22,80,0,1
60922,-100,4,2,22,80,0,1
61264,-100,4,2,22,5,0,1
61377,-100,4,2,22,80,0,1
64559,-100,4,2,22,80,0,1
64901,-100,4,2,22,5,0,1
65013,-100,4,2,22,80,0,1
66037,-100,4,2,22,5,0,1
66151,-100,4,2,22,80,0,1
68195,-100,4,2,22,80,0,1
68537,-100,4,2,22,5,0,1
68650,-100,4,2,22,80,0,1
70241,-71.4285714285714,4,2,22,80,0,1
70923,-100,4,2,22,80,0,1
71151,-71.4285714285714,4,2,22,80,0,1
71832,-100,4,2,22,80,0,1
72060,-71.4285714285714,4,2,22,80,0,1
72401,-83.3333333333333,4,2,22,80,0,1
72741,-100,4,2,22,80,0,1
73650,-100,4,2,22,80,0,1
73878,-111.111111111111,4,2,22,65,0,0
78310,-111.111111111111,4,2,22,5,0,0
78423,-111.111111111111,4,2,22,65,0,0
85241,-100,4,2,22,65,0,0
85696,-90.9090909090909,4,2,22,65,0,0
87514,-90.9090909090909,4,2,22,35,0,0

[Colours]
Combo1 : 255,202,40
Combo2 : 0,187,0
Combo3 : 255,64,64
Combo4 : 255,128,64

[HitObjects]
253,193,220,5,0,1:2:0:0:
253,193,447,2,0,P|256:172|262:151,2,36.6666666666667,0|8|8,1:2|0:2|0:2,0:0:0:0:
176,242,674,1,8,0:2:0:0:
154,235,788,1,8,0:2:0:0:
133,227,901,1,0,1:2:0:0:
314,364,1151,6,0,P|369:350|426:338,1,110,4|0,1:2|3:2,0:0:0:0:
493,201,1605,1,10,0:2:0:0:
427,231,1719,1,2,0:2:0:0:
379,174,1832,2,0,P|383:145|390:113,1,55,2|0,3:2|0:0,0:0:0:0:
255,29,2060,6,0,P|260:55|264:83,1,55,2|0,1:2|0:0,0:0:0:0:
290,219,2287,2,0,P|286:191|280:164,1,55,2|0,3:2|3:2,0:0:0:0:
161,106,2514,1,8,0:2:0:0:
145,288,2741,6,0,B|231:271|166:240|296:218,1,165,2|0,3:2|0:0,0:0:0:0:
356,260,3196,2,0,P|366:285|371:323,1,55,2|0,3:2|0:0,0:0:0:0:
467,213,3423,2,0,P|457:238|452:276,1,55,10|0,0:2|0:0,0:0:0:0:
370,115,3651,2,0,P|380:140|385:178,1,55,2|0,3:2|3:2,0:0:0:0:
451,79,3878,6,0,P|411:22|320:31,1,165,2|0,1:2|3:2,0:0:0:0:
273,116,4332,1,8,0:2:0:0:
246,151,4446,1,0,3:2:0:0:
214,160,4560,1,0,3:2:0:0:
193,152,4673,1,0,3:2:0:0:
184,144,4787,6,0,P|126:130|62:118,1,110,0|0,1:2|3:2,0:0:0:0:
16,254,5241,1,10,0:2:0:0:
84,225,5355,1,2,0:2:0:0:
141,272,5469,2,0,P|133:300|128:333,1,55,2|0,3:2|0:0,0:0:0:0:
271,251,5696,6,0,P|239:240|211:231,1,55,2|0,1:2|0:0,0:0:0:0:
343,277,5923,2,0,P|369:285|395:294,1,55,2|0,3:2|3:2,0:0:0:0:
280,341,6151,1,8,0:2:0:0:
336,182,6378,6,0,P|321:96|303:6,1,165,2|0,3:2|0:0,0:0:0:0:
231,9,6832,2,0,P|211:34|204:64,1,55,2|0,3:2|0:0,0:0:0:0:
251,180,7060,2,0,P|239:150|216:129,1,55,10|0,0:2|0:0,0:0:0:0:
92,111,7287,2,0,P|123:115|153:106,1,55,2|0,3:2|0:0,0:0:0:0:
303,63,7514,6,0,B|418:82|362:114|448:131,1,165,2|0,1:2|0:0,0:0:0:0:
473,1,7969,2,0,P|459:25|455:60,1,55,10|0,0:2|0:0,0:0:0:0:
509,195,8196,5,8,0:2:0:0:
448,131,8310,1,8,0:2:0:0:
372,210,8423,6,0,P|320:194|262:180,1,110,4|0,1:2|3:2,0:0:0:0:
144,344,8878,1,10,0:2:0:0:
97,288,8991,1,2,0:2:0:0:
124,221,9105,2,0,P|149:207|191:202,1,55,2|0,3:2|0:0,0:0:0:0:
25,234,9332,6,0,P|18:269|13:300,1,55,2|0,1:2|0:0,0:0:0:0:
41,157,9560,2,0,P|45:129|51:102,1,55,2|0,3:2|3:2,0:0:0:0:
124,221,9787,1,8,0:2:0:0:
246,46,10014,6,0,P|262:126|276:208,1,165,2|0,3:2|0:0,0:0:0:0:
345,244,10469,2,0,P|376:233|400:226,1,55,2|0,3:2|0:0,0:0:0:0:
364,358,10696,2,0,P|338:336|320:319,1,55,10|0,0:2|0:0,0:0:0:0:
453,284,10923,2,0,P|447:316|441:340,1,55,2|0,3:2|3:2,0:0:0:0:
243,328,11151,6,0,P|257:246|276:166,1,165,2|0,1:2|3:2,0:0:0:0:
354,119,11605,5,10,0:2:0:0:
182,185,11832,1,2,3:2:0:0:
453,284,12060,6,0,B|423:147|499:226|463:58,1,230.99999295044,2|2,1:2|0:2,0:0:0:0:
383,1,12514,1,10,0:2:0:0:
383,1,12628,1,2,0:2:0:0:
383,1,12741,2,0,P|350:7|318:17,1,55,2|0,3:2|0:0,0:0:0:0:
213,114,12969,6,0,B|89:90|176:48|4:22,1,230.99999295044,2|2,1:2|0:2,0:0:0:0:
52,169,13423,1,10,0:2:0:0:
52,169,13537,1,2,0:2:0:0:
52,169,13651,2,0,P|45:138|38:110,1,55,2|0,3:2|0:0,0:0:0:0:
164,191,13878,6,0,P|145:265|128:341,1,153.999995300293,2|0,1:2|3:2,0:0:0:0:
196,381,14219,2,0,B|278:366|232:345|318:333,1,131.99999597168,2|0,0:2|0:0,0:0:0:0:
362,271,14560,2,0,P|356:241|344:209,1,55,2|0,3:2|0:0,0:0:0:0:
466,157,14787,5,2,1:2:0:0:
437,320,15014,1,10,0:2:0:0:
314,135,15241,5,2,1:2:0:0:
254,95,15355,1,0,1:2:0:0:
188,125,15469,2,0,P|179:151|174:178,1,55,0|0,1:2|1:2,0:0:0:0:
221,281,15696,5,6,1:2:0:0:
221,281,15923,2,0,P|227:301|231:333,1,49.4999984893799,2|2,3:2|0:2,0:0:0:0:
172,383,16151,2,0,B|103:370|142:353|70:343,1,98.9999969787599,8|0,0:2|3:2,0:0:0:0:
22,298,16491,1,0,0:0:0:0:
13,287,16605,2,0,P|22:237|38:190,1,98.9999969787599,2|2,1:2|3:2,0:0:0:0:
99,142,16946,1,2,0:2:0:0:
104,130,17060,2,0,P|89:106|66:94,1,49.4999984893799,8|0,0:2|0:0,0:0:0:0:
97,23,17287,2,0,P|69:16|44:24,1,49.4999984893799,0|0,3:2|0:0,0:0:0:0:
174,76,17514,5,2,1:2:0:0:
174,76,17741,2,0,P|201:68|231:61,1,49.4999984893799,2|0,3:2|0:0,0:0:0:0:
275,179,17969,1,10,0:2:0:0:
281,190,18082,2,0,P|234:176|182:164,1,98.9999969787599,2|2,3:2|0:2,0:0:0:0:
128,220,18423,2,0,P|127:246|138:271,1,49.4999984893799,2|0,1:2|0:0,0:0:0:0:
72,311,18651,2,0,P|89:330|115:339,1,49.4999984893799,2|0,3:2|0:0,0:0:0:0:
232,304,18878,1,10,0:2:0:0:
247,310,18991,1,0,0:0:0:0:
256,321,19105,2,0,P|265:350|268:381,1,49.4999984893799,0|0,3:2|0:0,0:0:0:0:
351,283,19332,5,2,1:2:0:0:
351,283,19560,2,0,P|354:258|362:235,1,49.4999984893799,2|2,3:2|0:2,0:0:0:0:
483,322,19787,2,0,P|470:243|445:168,1,148.49999546814,10|0,0:2|0:0,0:0:0:0:
366,123,20241,5,2,1:2:0:0:
366,123,20469,2,0,P|336:129|308:139,1,49.4999984893799,2|0,3:2|0:0,0:0:0:0:
434,53,20696,2,0,P|359:29|283:15,1,148.49999546814,10|0,0:2|0:0,0:0:0:0:
192,81,21151,6,0,P|217:136|221:182,1,98.9999969787599,2|0,1:2|3:2,0:0:0:0:
273,234,21491,1,2,0:2:0:0:
283,240,21605,2,0,P|312:223|323:200,1,49.4999984893799,10|0,0:2|3:2,0:0:0:0:
392,233,21832,2,0,P|400:200|391:176,1,49.4999984893799,2|0,3:2|0:0,0:0:0:0:
327,121,22060,1,2,1:2:0:0:
316,110,22173,1,2,0:2:0:0:
313,93,22287,2,0,P|330:63|353:53,1,49.4999984893799,2|0,3:2|0:0,0:0:0:0:
475,112,22514,5,10,0:2:0:0:
475,112,22741,1,8,0:2:0:0:
415,164,22855,1,8,0:2:0:0:
469,252,22969,5,6,1:2:0:0:
469,252,23196,2,0,P|477:273|485:311,1,49.4999984893799,2|2,3:2|0:2,0:0:0:0:
428,355,23423,2,0,P|387:327|330:328,1,98.9999969787599,8|0,0:2|3:2,0:0:0:0:
274,367,23764,1,0,0:0:0:0:
265,375,23878,2,0,P|216:373|175:345,1,98.9999969787599,2|2,1:2|3:2,0:0:0:0:
168,269,24219,1,2,0:2:0:0:
171,257,24332,2,0,P|190:238|212:229,1,49.4999984893799,8|0,0:2|0:0,0:0:0:0:
304,256,24560,1,0,3:2:0:0:
314,242,24673,1,0,3:2:0:0:
316,227,24787,6,0,P|311:193|306:166,1,49.4999984893799,2|0,1:2|3:2,0:0:0:0:
403,112,25014,2,0,P|398:136|395:160,1,49.4999984893799,2|0,3:2|3:2,0:0:0:0:
310,92,25241,2,0,P|285:85|257:80,1,49.4999984893799,10|0,0:2|3:2,0:0:0:0:
190,116,25469,2,0,P|166:122|141:127,1,49.4999984893799,2|0,3:2|3:2,0:0:0:0:
69,102,25696,1,2,1:2:0:0:
57,108,25810,1,2,3:2:0:0:
45,120,25923,2,0,P|36:148|36:176,1,49.4999984893799,2|2,3:2|3:2,0:0:0:0:
133,251,26151,2,0,P|131:226|123:203,1,49.4999984893799,10|0,0:2|0:0,0:0:0:0:
54,252,26378,2,0,P|55:276|63:299,1,49.4999984893799,0|0,3:2|0:0,0:0:0:0:
179,357,26605,6,0,P|227:344|287:332,1,98.9999969787599,2|2,1:2|3:2,0:0:0:0:
349,361,26946,1,0,0:0:0:0:
407,253,27060,6,0,P|359:240|299:228,1,110,10|2,0:2|3:2,0:0:0:0:
227,259,27401,1,0,0:0:0:0:
166,147,27514,6,0,P|221:131|291:118,1,121.000003692627,2|2,1:2|3:2,0:0:0:0:
354,157,27855,1,0,3:2:0:0:
486,29,27969,6,0,P|452:39|435:63,1,60.5000018463135,10|2,0:2|0:2,0:0:0:0:
370,16,28196,2,0,P|353:47|357:76,1,60.5000018463135,2|0,3:2|0:0,0:0:0:0:
448,194,28423,5,2,1:2:0:0:
448,194,28651,2,0,P|462:230|465:260,1,60.5000018463135,2|2,3:2|0:2,0:0:0:0:
373,335,28878,5,2,1:2:0:0:
337,302,28991,1,0,1:2:0:0:
300,298,29105,1,2,1:2:0:0:
278,308,29219,1,0,1:2:0:0:
270,318,29332,6,0,P|250:340|207:343,1,60.5000018463135,2|0,1:2|0:0,0:0:0:0:
153,236,29560,2,0,P|182:242|202:264,1,60.5000018463135,10|8,0:2|0:2,0:0:0:0:
141,379,29787,2,0,P|131:350|150:311,3,60.5000018463135,0|0|0|0,1:2|1:2|1:2|1:2,0:0:0:0:
71,271,30241,5,6,1:2:0:0:
67,259,30355,2,0,P|74:206|82:167,1,88,2|2,0:2|0:2,0:0:0:0:
139,121,30696,1,10,0:2:0:0:
149,115,30810,2,0,P|185:148|249:133,1,88
282,104,31151,2,0,P|302:117|314:139,1,44,2|0,1:2|0:0,0:0:0:0:
387,113,31378,2,0,P|391:136|384:160,1,44,2|0,3:2|0:0,0:0:0:0:
316,243,31605,1,10,0:2:0:0:
316,243,31832,2,0,P|306:265|304:294,1,44,0|0,3:2|0:0,0:0:0:0:
383,383,32060,6,0,P|428:371|479:361,1,88,2|2,1:2|3:2,0:0:0:0:
499,294,32401,1,0,0:0:0:0:
503,283,32514,2,0,P|498:256|493:237,1,44,10|0,0:2|0:0,0:0:0:0:
446,180,32741,2,0,P|451:153|456:134,1,44,2|0,3:2|0:0,0:0:0:0:
483,65,32969,1,2,1:2:0:0:
366,14,33082,2,0,P|377:60|385:107,1,88,8|0,0:2|0:0,0:0:0:0:
331,157,33423,2,0,P|300:152|286:141,1,44,8|0,0:2|0:0,0:0:0:0:
237,88,33651,2,0,P|206:93|192:104,1,44,8|8,0:2|0:2,0:0:0:0:
162,205,33878,6,0,P|162:225|180:207,3,44,2|0|2|0,1:2|0:0|3:2|0:0,0:0:0:0:
237,167,34332,2,0,P|284:177|328:190,1,88,10|0,0:2|3:2,0:0:0:0:
365,252,34673,1,0,0:0:0:0:
374,258,34787,2,0,P|416:245|459:236,1,88,2|0,1:2|3:2,0:0:0:0:
507,177,35128,1,0,0:0:0:0:
502,164,35241,2,0,P|482:150|461:145,1,44,8|0,0:2|0:0,0:0:0:0:
458,69,35469,2,0,P|433:73|415:84,1,44,0|0,3:2|0:0,0:0:0:0:
326,162,35696,5,2,1:2:0:0:
326,162,35923,2,0,P|300:153|275:147,1,44,2|0,3:2|0:0,0:0:0:0:
233,92,36151,2,0,P|186:108|141:118,1,88,10|2,0:2|3:2,0:0:0:0:
100,173,36491,1,0,0:0:0:0:
95,184,36605,2,0,P|107:223|113:279,1,88,2|2,1:2|3:2,0:0:0:0:
40,300,36946,1,0,1:2:0:0:
33,311,37060,1,8,0:2:0:0:
130,351,37173,2,0,P|181:339|223:330,1,88,8|0,0:2|0:0,0:0:0:0:
308,268,37514,6,0,P|350:277|393:287,1,88,6|2,1:2|3:2,0:0:0:0:
460,253,37855,1,0,0:0:0:0:
467,246,37969,2,0,P|457:189|446:149,1,88,10|0,0:2|3:2,0:0:0:0:
401,102,38310,1,0,0:0:0:0:
390,95,38423,1,2,1:2:0:0:
376,96,38537,2,0,P|343:136|302:134,1,88
198,43,38878,1,10,0:2:0:0:
198,43,39105,2,0,P|202:14|208:-11,1,44,0|0,3:2|0:0,0:0:0:0:
118,75,39332,6,0,P|122:96|125:118,3,44,2|0|2|0,1:2|0:0|3:2|0:0,0:0:0:0:
190,168,39787,2,0,P|210:164|230:148,1,44,10|0,0:2|0:0,0:0:0:0:
294,188,40014,2,0,P|305:171|308:145,1,44,2|0,3:2|0:0,0:0:0:0:
374,70,40241,2,0,P|416:54|468:42,1,88,2|2,1:2|3:2,0:0:0:0:
512,181,40696,2,0,P|470:165|418:153,1,88,8|0,0:2|3:2,0:0:0:0:
376,209,41037,1,0,0:0:0:0:
372,220,41151,6,0,P|385:269|392:323,1,98.9999969787599,2|2,1:2|3:2,0:0:0:0:
218,384,41605,2,0,P|224:335|238:287,1,98.9999969787599,10|2,0:2|3:2,0:0:0:0:
170,173,42060,2,0,P|143:176|121:192,1,49.4999984893799,2|2,1:2|3:2,0:0:0:0:
69,134,42287,2,0,P|52:155|47:182,1,49.4999984893799,2|2,3:2|0:2,0:0:0:0:
4,242,42514,2,0,P|25:297|33:351,1,98.9999969787599,10|2,0:2|3:2,0:0:0:0:
176,380,42969,6,0,P|192:362|209:344,1,49.4999984893799,2|0,1:2|0:0,0:0:0:0:
363,322,43423,6,0,P|339:316|315:310,1,49.4999984893799,2|0,1:2|0:0,0:0:0:0:
217,197,43878,5,8,0:2:0:0:
217,197,44105,2,0,P|224:220|231:244,1,49.4999984893799,10|8,0:2|0:2,0:0:0:0:
172,296,44332,1,0,0:0:0:0:
144,267,44446,1,8,0:2:0:0:
114,262,44560,1,0,1:2:0:0:
96,270,44673,1,0,1:2:0:0:
92,279,44787,6,0,P|38:286|14:248,1,98.9999969787599,6|2,1:2|1:2,0:0:0:0:
35,141,45241,1,10,0:2:0:0:
41,132,45355,2,0,P|87:121|118:157,1,98.9999969787599,0|0,1:2|0:0,0:0:0:0:
196,205,45696,5,2,1:2:0:0:
319,158,45923,1,2,3:2:0:0:
314,330,46151,5,10,0:2:0:0:
276,231,46378,1,0,3:2:0:0:
414,340,46605,6,0,P|439:288|422:245,1,98.9999969787599,2|0,1:2|1:2,0:0:0:0:
328,164,47060,1,8,0:2:0:0:
319,158,47173,2,0,P|307:110|332:69,1,98.9999969787599,0|0,1:2|0:0,0:0:0:0:
406,98,47514,2,0,P|463:91|470:12,1,148.49999546814,2|2,1:2|0:2,0:0:0:0:
396,1,47969,1,8,0:2:0:0:
396,1,48196,2,0,P|362:11|334:21,1,49.4999984893799,2|0,3:2|0:0,0:0:0:0:
241,65,48423,6,0,P|192:48|143:35,1,98.9999969787599,2|2,1:2|1:2,0:0:0:0:
50,143,48877,1,10,0:2:0:0:
56,157,48991,2,0,P|102:141|150:127,1,98.9999969787599,0|0,1:2|0:0,0:0:0:0:
227,181,49332,5,2,1:2:0:0:
343,219,49560,1,2,3:2:0:0:
333,57,49787,5,10,0:2:0:0:
301,149,50014,1,0,3:2:0:0:
356,303,50241,6,0,P|396:292|425:244,1,98.9999969787599,2|0,1:2|1:2,0:0:0:0:
270,271,50696,2,0,P|259:311|286:360,1,98.9999969787599,10|0,0:2|3:2,0:0:0:0:
343,219,51151,2,0,P|313:189|257:188,1,98.9999969787599,2|0,1:2|3:2,0:0:0:0:
197,238,51491,1,0,0:0:0:0:
190,248,51605,2,0,P|158:237|138:222,1,49.4999984893799,10|0,0:2|1:2,0:0:0:0:
83,274,51832,2,0,P|68:243|64:218,1,49.4999984893799,0|0,1:2|0:0,0:0:0:0:
98,110,52060,6,0,P|150:118|206:129,1,98.9999969787599,6|2,1:2|1:2,0:0:0:0:
273,28,52514,1,10,0:2:0:0:
277,15,52628,2,0,P|225:23|169:34,1,98.9999969787599,0|0,1:2|0:0,0:0:0:0:
98,110,52969,5,2,1:2:0:0:
194,141,53196,1,2,3:2:0:0:
16,62,53423,5,10,0:2:0:0:
34,174,53651,1,0,3:2:0:0:
209,42,53878,6,0,P|260:56|273:107,1,98.9999969787599,2|0,1:2|1:2,0:0:0:0:
372,195,54332,1,8,0:2:0:0:
384,203,54446,2,0,P|435:189|448:138,1,98.9999969787599,0|0,1:2|0:0,0:0:0:0:
403,88,54787,2,0,B|281:67|334:146|207:122,1,197.99999395752,2|8,1:2|0:2,0:0:0:0:
152,168,55355,1,0,0:0:0:0:
140,177,55469,1,2,3:2:0:0:
135,201,55582,1,0,0:0:0:0:
144,229,55696,6,0,P|161:274|167:330,1,98.9999969787599,2|0,1:2|3:2,0:0:0:0:
323,127,56151,2,0,P|306:172|300:228,1,98.9999969787599,2|0,1:2|3:2,0:0:0:0:
172,77,56605,6,0,P|182:103|185:137,1,55,2|8,1:2|0:2,0:0:0:0:
281,9,56832,2,0,P|270:35|267:69,1,55,8|8,0:2|0:2,0:0:0:0:
52,112,57060,5,2,1:2:0:0:
34,77,57173,1,8,0:2:0:0:
40,38,57287,1,8,0:2:0:0:
68,12,57401,1,8,0:2:0:0:
106,9,57514,1,6,1:2:0:0:
106,9,58651,5,0,1:2:0:0:
135,141,58878,2,0,P|128:108|123:86,2,55,8|8|0,0:2|0:2|1:2,0:0:0:0:
290,0,59332,6,0,P|277:54|266:109,1,110,4|0,1:2|3:2,0:0:0:0:
373,203,59786,1,10,0:2:0:0:
439,173,59900,1,2,0:2:0:0:
502,209,60014,2,0,P|507:235|511:263,1,55,2|0,3:2|0:0,0:0:0:0:
422,342,60241,6,0,P|392:333|356:323,1,55,2|0,1:2|0:0,0:0:0:0:
241,286,60469,2,0,P|267:293|293:301,1,55,2|0,3:2|3:2,0:0:0:0:
167,261,60696,1,8,0:2:0:0:
30,374,60923,6,0,B|46:272|-7:318|20:205,1,165,2|0,3:2|0:0,0:0:0:0:
82,167,61378,2,0,P|106:169|136:184,1,55,2|0,3:2|0:0,0:0:0:0:
106,48,61605,2,0,P|92:67|64:86,1,55,10|0,0:2|0:0,0:0:0:0:
199,122,61832,2,0,P|188:100|186:66,1,55,2|0,3:2|3:2,0:0:0:0:
289,189,62060,6,0,P|358:187|380:95,1,165,2|0,1:2|3:2,0:0:0:0:
472,40,62514,1,8,0:2:0:0:
505,68,62628,1,0,3:2:0:0:
512,101,62741,1,0,3:2:0:0:
503,121,62855,1,0,3:2:0:0:
493,130,62969,6,0,P|435:116|371:104,1,110,0|0,1:2|3:2,0:0:0:0:
245,191,63423,1,10,0:2:0:0:
201,134,63537,1,2,0:2:0:0:
225,66,63651,2,0,P|250:52|285:47,1,55,2|0,3:2|0:0,0:0:0:0:
372,182,63878,6,0,P|367:209|363:241,1,55,2|0,1:2|0:0,0:0:0:0:
385,106,64105,2,0,P|388:78|393:51,1,55,2|0,3:2|3:2,0:0:0:0:
302,127,64332,1,8,0:2:0:0:
231,296,64560,6,0,P|216:210|198:120,1,165,2|0,3:2|0:0,0:0:0:0:
140,81,65014,2,0,P|143:51|153:22,1,55,2|0,3:2|0:0,0:0:0:0:
10,145,65241,2,0,P|7:115|-3:86,1,55,10|0,0:2|0:0,0:0:0:0:
89,221,65469,2,0,P|92:191|102:162,1,55,2|0,3:2|0:0,0:0:0:0:
256,91,65696,6,0,P|331:104|337:202,1,165,2|0,1:2|0:0,0:0:0:0:
280,222,66150,2,0,P|257:212|219:210,1,55,10|0,0:2|0:0,0:0:0:0:
373,368,66377,5,8,0:2:0:0:
306,311,66491,1,8,0:2:0:0:
211,365,66604,6,0,P|159:349|101:335,1,110,4|0,1:2|3:2,0:0:0:0:
22,197,67060,1,10,0:2:0:0:
87,227,67173,1,2,0:2:0:0:
143,181,67287,2,0,P|137:148|128:118,1,55,2|0,3:2|0:0,0:0:0:0:
265,57,67514,6,0,P|258:92|253:123,1,55,2|0,1:2|0:0,0:0:0:0:
231,239,67741,2,0,P|235:211|241:184,1,55,2|0,3:2|3:2,0:0:0:0:
172,56,67969,1,8,0:2:0:0:
325,159,68196,6,0,B|421:144|381:203|482:183,1,165,2|0,3:2|0:0,0:0:0:0:
489,108,68651,2,0,P|484:81|469:52,1,55,2|0,3:2|0:0,0:0:0:0:
369,4,68878,2,0,P|340:12|312:21,1,55,10|0,0:2|0:0,0:0:0:0:
224,71,69105,2,0,P|197:62|171:55,1,55,2|0,3:2|3:2,0:0:0:0:
67,128,69332,6,0,B|44:228|99:190|74:294,1,165,2|0,1:2|3:2,0:0:0:0:
0,357,69786,5,10,0:2:0:0:
175,277,70013,1,2,3:2:0:0:
352,376,70241,6,0,P|452:341|410:223,1,230.99999295044,2|2,1:2|0:2,0:0:0:0:
303,275,70695,1,10,0:2:0:0:
303,275,70809,1,2,0:2:0:0:
303,275,70923,2,0,P|336:281|368:291,1,55,2|0,3:2|0:0,0:0:0:0:
283,153,71151,6,0,B|119:178|198:226|76:247,1,230.99999295044,2|2,1:2|0:2,0:0:0:0:
69,105,71604,1,10,0:2:0:0:
69,105,71718,1,2,0:2:0:0:
69,105,71832,2,0,P|75:131|81:158,1,55,2|0,3:2|0:0,0:0:0:0:
171,323,72060,6,0,P|187:247|206:173,1,153.999995300293,2|0,1:2|3:2,0:0:0:0:
283,153,72401,2,0,P|327:202|405:182,1,131.99999597168,2|0,0:2|0:0,0:0:0:0:
429,131,72741,2,0,P|423:101|411:69,1,55,2|0,3:2|0:0,0:0:0:0:
315,71,72968,5,2,1:2:0:0:
512,0,73196,2,0,P|503:26|498:53,1,55,10|8,0:2|0:2,0:0:0:0:
429,131,73422,5,2,1:2:0:0:
440,160,73536,1,0,1:2:0:0:
433,175,73651,2,0,P|411:167|373:158,1,55,0|0,1:2|1:2,0:0:0:0:
266,214,73878,6,0,P|282:261|291:320,1,98.9999969787599,6|2,1:2|3:2,0:0:0:0:
243,369,74219,1,2,0:2:0:0:
234,376,74332,2,0,B|165:363|204:346|132:336,1,98.9999969787599,8|0,0:2|3:2,0:0:0:0:
39,232,74787,2,0,P|48:182|64:135,1,98.9999969787599,0|2,1:2|3:2,0:0:0:0:
125,94,75128,1,2,0:2:0:0:
136,102,75242,2,0,P|154:116|182:117,1,49.4999984893799,8|0,0:2|0:0,0:0:0:0:
197,189,75469,2,0,P|220:185|241:166,1,49.4999984893799,0|0,3:2|0:0,0:0:0:0:
309,76,75696,5,2,1:2:0:0:
309,76,75923,2,0,P|336:68|366:61,1,49.4999984893799,2|2,3:2|0:2,0:0:0:0:
428,96,76151,1,10,0:2:0:0:
436,103,76264,1,2,3:2:0:0:
444,114,76378,2,0,P|436:148|432:171,1,49.4999984893799,2|0,3:2|0:0,0:0:0:0:
374,213,76605,2,0,P|382:247|386:270,1,49.4999984893799,2|0,1:2|0:0,0:0:0:0:
462,282,76832,2,0,P|443:311|430:330,1,49.4999984893799,2|0,3:2|0:0,0:0:0:0:
366,365,77060,2,0,P|311:348|260:339,1,98.9999969787599,10|0,0:2|3:2,0:0:0:0:
128,253,77514,5,2,1:2:0:0:
128,253,77742,2,0,P|151:243|180:235,1,49.4999984893799,2|2,3:2|0:2,0:0:0:0:
107,334,77969,2,0,P|49:309|49:227,1,148.49999546814,8|0,0:2|0:0,0:0:0:0:
126,132,78423,6,0,P|171:142|224:157,1,98.9999969787599,2|2,1:2|3:2,0:0:0:0:
281,208,78764,1,2,0:2:0:0:
292,211,78878,2,0,P|321:193|330:175,1,49.4999984893799,8|2,0:2|0:2,0:0:0:0:
401,202,79105,2,0,P|408:168|402:149,1,49.4999984893799,2|2,3:2|0:2,0:0:0:0:
325,47,79332,6,0,P|291:82|243:81,1,98.9999969787599,2|2,1:2|3:2,0:0:0:0:
185,29,79673,1,0,0:0:0:0:
176,21,79787,2,0,P|147:38|136:61,1,49.4999984893799,10|0,0:2|3:2,0:0:0:0:
67,28,80014,2,0,P|59:61|68:85,1,49.4999984893799,2|2,3:2|0:2,0:0:0:0:
116,131,80242,1,2,1:2:0:0:
125,137,80355,2,0,P|143:184|145:242,1,98.9999969787599,2|2,0:2|0:2,0:0:0:0:
106,302,80696,5,10,0:2:0:0:
106,302,80923,1,8,0:2:0:0:
29,279,81037,1,8,0:2:0:0:
68,369,81151,6,0,B|132:353|173:344|172:344,1,98.9999969787599,6|2,1:2|3:2,0:0:0:0:
241,368,81491,1,2,0:2:0:0:
251,375,81605,2,0,P|301:336|290:284,1,98.9999969787599,8|0,0:2|3:2,0:0:0:0:
227,184,82060,2,0,P|178:194|131:206,1,98.9999969787599,2|2,1:2|3:2,0:0:0:0:
61,175,82401,1,2,0:2:0:0:
56,165,82514,2,0,P|55:138|65:116,1,49.4999984893799,10|0,0:2|0:0,0:0:0:0:
113,60,82742,1,0,3:2:0:0:
123,65,82855,1,0,3:2:0:0:
136,69,82969,6,0,P|166:59|193:53,1,49.4999984893799,2|2,1:2|3:2,0:0:0:0:
246,8,83196,2,0,P|276:18|303:24,1,49.4999984893799,2|2,3:2|3:2,0:0:0:0:
383,108,83423,2,0,P|373:139|369:166,1,49.4999984893799,10|2,0:2|3:2,0:0:0:0:
313,207,83651,2,0,P|323:238|327:265,1,49.4999984893799,2|2,3:2|3:2,0:0:0:0:
391,296,83878,1,2,1:2:0:0:
399,306,83992,1,2,3:2:0:0:
411,311,84105,2,0,P|438:302|464:296,1,49.4999984893799,0|2,3:2|3:2,0:0:0:0:
512,221,84332,2,0,P|485:212|459:206,1,49.4999984893799,10|0,0:2|0:0,0:0:0:0:
401,135,84560,2,0,P|428:126|454:120,1,49.4999984893799,0|0,3:2|0:0,0:0:0:0:
331,65,84787,6,0,P|319:114|316:173,1,98.9999969787599,2|2,1:2|3:2,0:0:0:0:
272,227,85128,1,0,0:0:0:0:
173,309,85241,6,0,P|169:254|156:201,1,110,10|2,0:2|3:2,0:0:0:0:
111,142,85582,1,0,0:0:0:0:
212,42,85696,6,0,P|267:51|330:64,1,121.000003692627,2|2,1:2|3:2,0:0:0:0:
379,123,86037,1,0,3:2:0:0:
477,3,86151,6,0,P|443:13|426:37,1,60.5000018463135,10|2,0:2|0:2,0:0:0:0:
492,138,86378,2,0,P|500:103|488:76,1,60.5000018463135,2|0,3:2|0:0,0:0:0:0:
354,45,86605,5,2,1:2:0:0:
354,45,86832,2,0,P|321:36|286:28,1,60.5000018463135,2|2,3:2|0:2,0:0:0:0:
222,55,87060,1,10,0:2:0:0:
193,93,87173,1,2,0:2:0:0:
189,129,87287,1,2,3:2:0:0:
199,155,87401,1,2,0:2:0:0:
209,163,87514,5,2,0:2:0:0:
