osu file format v14

[General]
AudioFilename: audio.mp3
AudioLeadIn: 0
PreviewTime: -1
Countdown: 0
SampleSet: Normal
StackLeniency: 0.7
Mode: 3
LetterboxInBreaks: 0
SpecialStyle: 0
WidescreenStoryboard: 0

[Editor]
DistanceSpacing: 0.8
BeatDivisor: 8
GridSize: 32
TimelineZoom: 3.699999

[Metadata]
Title:BREaK! BREaK! BREaK!
TitleUnicode:BREaK! BREaK! BREaK!
Artist:HiTECH NINJA vs Cranky
ArtistUnicode:HiTECH NINJA vs Cranky
Creator:NIKice
Version:KOP2020-2
Source:
Tags:maimai,Cranky vs HiTECH NINJA,Cranky,HiTECH NINJA,HiTECH NINJA vs Cranky
BeatmapID:3584206
BeatmapSetID:1751828

[Difficulty]
HPDrainRate:7
CircleSize:4
OverallDifficulty:7
ApproachRate:5
SliderMultiplier:1.4
SliderTickRate:1

[Events]
//Background and Video events
0,0,"522a9813f84b3d154114c5275800714bc97903dc.jpg",0,0
//Break Periods
//Storyboard Layer 0 (Background)
//Storyboard Layer 1 (Fail)
//Storyboard Layer 2 (Pass)
//Storyboard Layer 3 (Foreground)
//Storyboard Layer 4 (Overlay)
//Storyboard Sound Samples

[TimingPoints]
342,363.63856750647,4,1,0,5,1,0
132706,-99.009900990099,4,1,0,5,0,0
133433,-98.0392156862745,4,1,0,5,0,0
134160,-97.0873786407767,4,1,0,5,0,0
134888,-96.1538461538461,4,1,0,5,0,0
135615,-95.2380952380952,4,1,0,5,0,0
136342,-94.3396226415094,4,1,0,5,0,0
137070,-93.4579439252336,4,1,0,5,0,0
137797,-92.5925925925926,4,1,0,5,0,0
138524,-91.743119266055,4,1,0,5,0,0
139251,-90.9090909090909,4,1,0,5,0,0
139979,-90.0900900900901,4,1,0,5,0,0
140706,-89.2857142857143,4,1,0,5,0,0
141433,-88.4955752212389,4,1,0,5,0,0
142161,-87.719298245614,4,1,0,5,0,0
142888,-86.9565217391304,4,1,0,5,0,0

[HitObjects]
448,192,4342,128,0,9705:0:0:0:0:
64,192,4342,128,0,9705:0:0:0:0:
192,192,4342,1,0,0:0:0:0:
320,192,4342,128,0,8342:0:0:0:0:
192,192,8523,1,0,0:0:0:0:
320,192,8705,128,0,9069:0:0:0:0:
192,192,9069,1,0,0:0:0:0:
192,192,9251,128,0,9569:0:0:0:0:
320,192,9614,1,0,0:0:0:0:
64,192,9978,1,0,0:0:0:0:
448,192,9978,1,0,0:0:0:0:
192,192,10342,1,0,0:0:0:0:
320,192,10342,1,0,0:0:0:0:
448,192,10887,128,0,15342:0:0:0:0:
64,192,10887,128,0,14160:0:0:0:0:
192,192,10887,128,0,13978:0:0:0:0:
320,192,10887,1,0,0:0:0:0:
64,192,14523,128,0,15433:0:0:0:0:
320,192,14523,128,0,15069:0:0:0:0:
192,192,14523,128,0,15251:0:0:0:0:
320,192,15978,1,0,0:0:0:0:
64,192,15978,1,0,0:0:0:0:
192,192,16069,128,0,17069:0:0:0:0:
448,192,16160,1,0,0:0:0:0:
320,192,16342,1,0,0:0:0:0:
448,192,16523,128,0,16887:0:0:0:0:
64,192,16523,128,0,16660:0:0:0:0:
320,192,16705,1,0,0:0:0:0:
64,192,16887,128,0,17251:0:0:0:0:
448,192,17069,1,0,0:0:0:0:
320,192,17251,1,0,0:0:0:0:
448,192,17251,1,0,0:0:0:0:
320,192,17433,1,0,0:0:0:0:
448,192,17433,1,0,0:0:0:0:
192,192,17433,128,0,18342:0:0:0:0:
192,192,18887,1,0,0:0:0:0:
320,192,18887,1,0,0:0:0:0:
448,192,18978,128,0,19251:0:0:0:0:
64,192,18978,128,0,19978:0:0:0:0:
320,192,19069,1,0,0:0:0:0:
192,192,19251,1,0,0:0:0:0:
448,192,19433,1,0,0:0:0:0:
320,192,19433,128,0,19978:0:0:0:0:
192,192,19614,1,0,0:0:0:0:
448,192,19796,128,0,19887:0:0:0:0:
192,192,19978,1,0,0:0:0:0:
192,192,20160,1,0,0:0:0:0:
320,192,20160,1,0,0:0:0:0:
192,192,20342,1,0,0:0:0:0:
448,192,20342,1,0,0:0:0:0:
320,192,20342,128,0,21433:0:0:0:0:
320,192,21796,1,0,0:0:0:0:
448,192,21887,1,0,0:0:0:0:
192,192,21978,1,0,0:0:0:0:
64,192,22069,1,0,0:0:0:0:
320,192,22160,1,0,0:0:0:0:
448,192,22251,1,0,0:0:0:0:
192,192,22342,1,0,0:0:0:0:
320,192,22387,1,0,0:0:0:0:
64,192,22433,1,0,0:0:0:0:
320,192,22523,1,0,0:0:0:0:
192,192,22569,1,0,0:0:0:0:
448,192,22614,1,0,0:0:0:0:
192,192,22705,128,0,23069:0:0:0:0:
320,192,22705,1,0,0:0:0:0:
64,192,22705,128,0,22887:0:0:0:0:
448,192,22887,128,0,23069:0:0:0:0:
320,192,23069,1,0,0:0:0:0:
192,192,23251,1,0,0:0:0:0:
64,192,23342,1,0,0:0:0:0:
320,192,23433,1,0,0:0:0:0:
448,192,23523,1,0,0:0:0:0:
192,192,23614,1,0,0:0:0:0:
64,192,23705,1,0,0:0:0:0:
320,192,23751,1,0,0:0:0:0:
448,192,23796,1,0,0:0:0:0:
192,192,23842,1,0,0:0:0:0:
192,192,23978,1,0,0:0:0:0:
320,192,24023,1,0,0:0:0:0:
64,192,24069,1,0,0:0:0:0:
320,192,24160,1,0,0:0:0:0:
192,192,24205,1,0,0:0:0:0:
448,192,24251,1,0,0:0:0:0:
320,192,24342,128,0,24478:0:0:0:0:
192,192,24342,128,0,24523:0:0:0:0:
64,192,24342,1,0,0:0:0:0:
448,192,24433,1,0,0:0:0:0:
64,192,24523,1,0,0:0:0:0:
320,192,24614,128,0,24705:0:0:0:0:
448,192,24705,1,0,0:0:0:0:
64,192,24796,1,0,0:0:0:0:
192,192,24887,1,0,0:0:0:0:
320,192,24978,1,0,0:0:0:0:
64,192,25023,1,0,0:0:0:0:
192,192,25069,1,0,0:0:0:0:
320,192,25160,1,0,0:0:0:0:
192,192,25251,1,0,0:0:0:0:
320,192,25342,1,0,0:0:0:0:
448,192,25387,1,0,0:0:0:0:
192,192,25433,1,0,0:0:0:0:
64,192,25523,1,0,0:0:0:0:
192,192,25614,1,0,0:0:0:0:
320,192,25705,1,0,0:0:0:0:
448,192,25751,1,0,0:0:0:0:
192,192,25796,1,0,0:0:0:0:
64,192,25887,1,0,0:0:0:0:
320,192,25978,1,0,0:0:0:0:
448,192,26023,1,0,0:0:0:0:
192,192,26160,128,0,26433:0:0:0:0:
320,192,26160,1,0,0:0:0:0:
448,192,26342,1,0,0:0:0:0:
64,192,26433,1,0,0:0:0:0:
320,192,26523,1,0,0:0:0:0:
448,192,26523,128,0,26660:0:0:0:0:
192,192,26614,1,0,0:0:0:0:
64,192,26705,1,0,0:0:0:0:
448,192,26796,128,0,26887:0:0:0:0:
192,192,26796,128,0,26887:0:0:0:0:
320,192,26887,128,0,27069:0:0:0:0:
64,192,26978,1,0,0:0:0:0:
448,192,27069,1,0,0:0:0:0:
192,192,27069,1,0,0:0:0:0:
64,192,27160,128,0,27251:0:0:0:0:
320,192,27251,128,0,27433:0:0:0:0:
448,192,27251,1,0,0:0:0:0:
192,192,27251,128,0,27433:0:0:0:0:
320,192,27614,1,0,0:0:0:0:
64,192,27660,1,0,0:0:0:0:
192,192,27705,1,0,0:0:0:0:
448,192,27796,1,0,0:0:0:0:
192,192,27978,1,0,0:0:0:0:
448,192,28023,1,0,0:0:0:0:
320,192,28069,1,0,0:0:0:0:
64,192,28160,1,0,0:0:0:0:
64,192,28342,1,0,0:0:0:0:
192,192,28342,1,0,0:0:0:0:
192,192,28523,128,0,28887:0:0:0:0:
448,192,28523,128,0,28614:0:0:0:0:
64,192,28523,128,0,28660:0:0:0:0:
320,192,28614,1,0,0:0:0:0:
448,192,28705,1,0,0:0:0:0:
320,192,28796,1,0,0:0:0:0:
448,192,28887,1,0,0:0:0:0:
320,192,29069,1,0,0:0:0:0:
64,192,29114,1,0,0:0:0:0:
192,192,29160,1,0,0:0:0:0:
448,192,29251,1,0,0:0:0:0:
192,192,29433,1,0,0:0:0:0:
448,192,29478,1,0,0:0:0:0:
320,192,29523,1,0,0:0:0:0:
64,192,29614,1,0,0:0:0:0:
320,192,29796,1,0,0:0:0:0:
192,192,29796,1,0,0:0:0:0:
64,192,29978,128,0,30069:0:0:0:0:
320,192,29978,128,0,30342:0:0:0:0:
448,192,29978,128,0,30114:0:0:0:0:
192,192,30069,1,0,0:0:0:0:
64,192,30160,1,0,0:0:0:0:
192,192,30251,1,0,0:0:0:0:
64,192,30342,1,0,0:0:0:0:
64,192,30524,1,0,0:0:0:0:
448,192,30569,1,0,0:0:0:0:
320,192,30614,1,0,0:0:0:0:
448,192,30887,1,0,0:0:0:0:
64,192,30933,1,0,0:0:0:0:
192,192,30978,1,0,0:0:0:0:
320,192,31069,1,0,0:0:0:0:
192,192,31251,1,0,0:0:0:0:
64,192,31433,128,0,31524:0:0:0:0:
448,192,31433,1,0,0:0:0:0:
192,192,31524,128,0,31796:0:0:0:0:
320,192,31524,1,0,0:0:0:0:
448,192,31614,1,0,0:0:0:0:
320,192,31705,1,0,0:0:0:0:
64,192,31796,1,0,0:0:0:0:
448,192,31796,1,0,0:0:0:0:
192,192,31978,128,0,32160:0:0:0:0:
64,192,32160,1,0,0:0:0:0:
320,192,32160,128,0,32342:0:0:0:0:
192,192,32251,1,0,0:0:0:0:
64,192,32342,128,0,32524:0:0:0:0:
448,192,32342,1,0,0:0:0:0:
320,192,32433,128,0,32524:0:0:0:0:
192,192,32524,128,0,32705:0:0:0:0:
448,192,32524,1,0,0:0:0:0:
64,192,32614,1,0,0:0:0:0:
448,192,32705,128,0,32887:0:0:0:0:
320,192,32796,128,0,32887:0:0:0:0:
192,192,32887,128,0,32978:0:0:0:0:
64,192,32978,1,0,0:0:0:0:
320,192,32978,128,0,33069:0:0:0:0:
448,192,33069,128,0,33251:0:0:0:0:
192,192,33069,1,0,0:0:0:0:
320,192,33160,1,0,0:0:0:0:
64,192,33251,1,0,0:0:0:0:
192,192,33433,1,0,0:0:0:0:
64,192,33478,1,0,0:0:0:0:
448,192,33524,1,0,0:0:0:0:
320,192,33614,1,0,0:0:0:0:
320,192,33796,1,0,0:0:0:0:
448,192,33842,1,0,0:0:0:0:
64,192,33887,1,0,0:0:0:0:
192,192,33978,1,0,0:0:0:0:
320,192,34160,1,0,0:0:0:0:
448,192,34160,1,0,0:0:0:0:
192,192,34342,128,0,34705:0:0:0:0:
64,192,34342,1,0,0:0:0:0:
448,192,34342,128,0,34433:0:0:0:0:
320,192,34433,1,0,0:0:0:0:
64,192,34524,1,0,0:0:0:0:
320,192,34614,1,0,0:0:0:0:
448,192,34705,1,0,0:0:0:0:
64,192,34705,1,0,0:0:0:0:
320,192,34887,1,0,0:0:0:0:
64,192,34933,1,0,0:0:0:0:
192,192,34978,1,0,0:0:0:0:
448,192,35069,1,0,0:0:0:0:
192,192,35251,1,0,0:0:0:0:
448,192,35296,1,0,0:0:0:0:
320,192,35342,1,0,0:0:0:0:
64,192,35433,1,0,0:0:0:0:
192,192,35614,1,0,0:0:0:0:
64,192,35614,1,0,0:0:0:0:
320,192,35796,128,0,36160:0:0:0:0:
448,192,35796,1,0,0:0:0:0:
64,192,35796,128,0,35887:0:0:0:0:
192,192,35887,1,0,0:0:0:0:
448,192,35978,1,0,0:0:0:0:
192,192,36069,1,0,0:0:0:0:
64,192,36160,1,0,0:0:0:0:
448,192,36160,1,0,0:0:0:0:
192,192,36342,1,0,0:0:0:0:
64,192,36387,1,0,0:0:0:0:
448,192,36433,1,0,0:0:0:0:
64,192,36524,1,0,0:0:0:0:
320,192,36705,1,0,0:0:0:0:
448,192,36751,1,0,0:0:0:0:
64,192,36796,1,0,0:0:0:0:
448,192,36887,1,0,0:0:0:0:
192,192,37069,128,0,37433:0:0:0:0:
320,192,37069,128,0,37160:0:0:0:0:
448,192,37160,128,0,37296:0:0:0:0:
64,192,37251,1,0,0:0:0:0:
320,192,37342,1,0,0:0:0:0:
448,192,37433,1,0,0:0:0:0:
64,192,37433,1,0,0:0:0:0:
192,192,37524,1,0,0:0:0:0:
320,192,37614,1,0,0:0:0:0:
192,192,37796,128,0,37978:0:0:0:0:
448,192,37796,1,0,0:0:0:0:
192,192,38160,128,0,38342:0:0:0:0:
448,192,38342,1,0,0:0:0:0:
64,192,38342,1,0,0:0:0:0:
320,192,38342,1,0,0:0:0:0:
320,192,38705,128,0,38887:0:0:0:0:
448,192,38705,1,0,0:0:0:0:
192,192,38705,1,0,0:0:0:0:
64,192,38796,128,0,39069:0:0:0:0:
192,192,38887,128,0,39069:0:0:0:0:
448,192,38887,128,0,39069:0:0:0:0:
64,192,39251,128,0,39433:0:0:0:0:
448,192,39251,1,0,0:0:0:0:
320,192,39251,128,0,39705:0:0:0:0:
192,192,39433,1,0,0:0:0:0:
64,192,39614,1,0,0:0:0:0:
192,192,39705,1,0,0:0:0:0:
64,192,39796,128,0,39978:0:0:0:0:
448,192,39796,1,0,0:0:0:0:
192,192,39978,128,0,40160:0:0:0:0:
448,192,40160,128,0,40342:0:0:0:0:
320,192,40705,128,0,40887:0:0:0:0:
448,192,40705,1,0,0:0:0:0:
64,192,40705,128,0,40978:0:0:0:0:
448,192,41069,128,0,41251:0:0:0:0:
320,192,41069,1,0,0:0:0:0:
320,192,41251,128,0,41524:0:0:0:0:
192,192,41614,1,0,0:0:0:0:
64,192,41796,1,0,0:0:0:0:
320,192,41978,1,0,0:0:0:0:
64,192,42160,128,0,42251:0:0:0:0:
192,192,42160,128,0,42524:0:0:0:0:
448,192,42251,128,0,42524:0:0:0:0:
320,192,42342,1,0,0:0:0:0:
64,192,42524,128,0,42705:0:0:0:0:
320,192,42705,1,0,0:0:0:0:
320,192,42887,128,0,43433:0:0:0:0:
448,192,42887,1,0,0:0:0:0:
64,192,43069,128,0,43342:0:0:0:0:
192,192,43614,128,0,43796:0:0:0:0:
448,192,43614,128,0,43887:0:0:0:0:
320,192,43978,128,0,44160:0:0:0:0:
64,192,44160,128,0,44705:0:0:0:0:
192,192,44160,1,0,0:0:0:0:
320,192,44524,128,0,44705:0:0:0:0:
448,192,44705,128,0,44796:0:0:0:0:
192,192,44887,1,0,0:0:0:0:
64,192,45069,128,0,45160:0:0:0:0:
448,192,45069,128,0,45615:0:0:0:0:
320,192,45160,128,0,45251:0:0:0:0:
192,192,45251,1,0,0:0:0:0:
64,192,45342,1,0,0:0:0:0:
192,192,45433,1,0,0:0:0:0:
192,192,45615,128,0,45978:0:0:0:0:
320,192,45796,1,0,0:0:0:0:
64,192,45978,128,0,46205:0:0:0:0:
448,192,45978,1,0,0:0:0:0:
64,192,46524,1,0,0:0:0:0:
320,192,46524,128,0,46705:0:0:0:0:
192,192,46524,128,0,46796:0:0:0:0:
448,192,46887,128,0,47069:0:0:0:0:
320,192,47069,1,0,0:0:0:0:
192,192,47069,128,0,47296:0:0:0:0:
64,192,47433,128,0,47615:0:0:0:0:
192,192,47615,128,0,47796:0:0:0:0:
448,192,47796,1,0,0:0:0:0:
320,192,47796,1,0,0:0:0:0:
448,192,47978,128,0,48251:0:0:0:0:
64,192,47978,128,0,48478:0:0:0:0:
320,192,48069,1,0,0:0:0:0:
192,192,48160,1,0,0:0:0:0:
320,192,48251,1,0,0:0:0:0:
320,192,48524,128,0,48660:0:0:0:0:
448,192,48705,128,0,48887:0:0:0:0:
192,192,48887,128,0,49251:0:0:0:0:
64,192,48887,1,0,0:0:0:0:
192,192,49433,128,0,49615:0:0:0:0:
448,192,49433,128,0,49796:0:0:0:0:
64,192,49433,1,0,0:0:0:0:
320,192,49796,128,0,50069:0:0:0:0:
64,192,49796,128,0,49933:0:0:0:0:
192,192,50160,128,0,50342:0:0:0:0:
64,192,50160,128,0,50296:0:0:0:0:
64,192,50524,128,0,50615:0:0:0:0:
320,192,50524,128,0,50705:0:0:0:0:
448,192,50524,1,0,0:0:0:0:
192,192,50887,128,0,51433:0:0:0:0:
448,192,50887,128,0,51069:0:0:0:0:
320,192,50978,1,0,0:0:0:0:
64,192,51069,1,0,0:0:0:0:
448,192,51251,1,0,0:0:0:0:
320,192,51433,1,0,0:0:0:0:
64,192,51433,128,0,51615:0:0:0:0:
448,192,51615,128,0,51796:0:0:0:0:
320,192,51796,128,0,52160:0:0:0:0:
448,192,52342,128,0,52524:0:0:0:0:
320,192,52342,1,0,0:0:0:0:
64,192,52342,1,0,0:0:0:0:
192,192,52342,128,0,52615:0:0:0:0:
320,192,52705,1,0,0:0:0:0:
448,192,52796,128,0,53251:0:0:0:0:
320,192,52887,1,0,0:0:0:0:
192,192,52887,128,0,53115:0:0:0:0:
320,192,53251,1,0,0:0:0:0:
64,192,53251,128,0,53433:0:0:0:0:
192,192,53433,128,0,53615:0:0:0:0:
448,192,53615,1,0,0:0:0:0:
64,192,53796,128,0,53978:0:0:0:0:
320,192,53796,128,0,54524:0:0:0:0:
192,192,53887,1,0,0:0:0:0:
448,192,53978,1,0,0:0:0:0:
64,192,54160,1,0,0:0:0:0:
448,192,54342,1,0,0:0:0:0:
448,192,54524,1,0,0:0:0:0:
192,192,54524,128,0,54705:0:0:0:0:
64,192,54705,128,0,55024:0:0:0:0:
64,192,55251,128,0,55433:0:0:0:0:
320,192,55251,128,0,55615:0:0:0:0:
448,192,55251,128,0,55433:0:0:0:0:
192,192,55251,1,0,0:0:0:0:
448,192,55615,1,0,0:0:0:0:
64,192,55705,128,0,56160:0:0:0:0:
320,192,55796,128,0,56024:0:0:0:0:
192,192,55796,1,0,0:0:0:0:
448,192,56160,128,0,56342:0:0:0:0:
320,192,56342,128,0,56524:0:0:0:0:
192,192,56524,1,0,0:0:0:0:
192,192,56705,128,0,56887:0:0:0:0:
64,192,56705,128,0,57251:0:0:0:0:
448,192,56705,1,0,0:0:0:0:
320,192,56796,1,0,0:0:0:0:
448,192,56887,128,0,57069:0:0:0:0:
192,192,57069,1,0,0:0:0:0:
192,192,57251,128,0,57433:0:0:0:0:
448,192,57251,1,0,0:0:0:0:
320,192,57433,128,0,57615:0:0:0:0:
448,192,57615,128,0,57978:0:0:0:0:
448,192,58160,128,0,58433:0:0:0:0:
192,192,58160,128,0,58342:0:0:0:0:
64,192,58160,1,0,0:0:0:0:
320,192,58524,1,0,0:0:0:0:
64,192,58615,1,0,0:0:0:0:
192,192,58705,128,0,59069:0:0:0:0:
448,192,58705,1,0,0:0:0:0:
320,192,58705,128,0,58887:0:0:0:0:
64,192,59069,1,0,0:0:0:0:
448,192,59251,1,0,0:0:0:0:
192,192,59433,1,0,0:0:0:0:
64,192,59615,1,0,0:0:0:0:
448,192,59615,1,0,0:0:0:0:
320,192,59615,128,0,60069:0:0:0:0:
192,192,59705,1,0,0:0:0:0:
448,192,59796,128,0,59978:0:0:0:0:
192,192,59887,1,0,0:0:0:0:
64,192,59978,1,0,0:0:0:0:
192,192,60069,1,0,0:0:0:0:
64,192,60160,128,0,60342:0:0:0:0:
448,192,60160,1,0,0:0:0:0:
192,192,60251,1,0,0:0:0:0:
448,192,60342,128,0,60524:0:0:0:0:
320,192,60524,1,0,0:0:0:0:
64,192,60706,1,0,0:0:0:0:
448,192,60706,1,0,0:0:0:0:
320,192,60706,128,0,60978:0:0:0:0:
192,192,60796,128,0,60887:0:0:0:0:
448,192,60887,1,0,0:0:0:0:
64,192,60887,1,0,0:0:0:0:
192,192,60978,1,0,0:0:0:0:
448,192,61069,128,0,61160:0:0:0:0:
320,192,61160,1,0,0:0:0:0:
64,192,61160,128,0,61433:0:0:0:0:
192,192,61251,1,0,0:0:0:0:
448,192,61342,1,0,0:0:0:0:
320,192,61433,128,0,61615:0:0:0:0:
448,192,61796,128,0,62160:0:0:0:0:
64,192,61796,1,0,0:0:0:0:
192,192,61796,128,0,61978:0:0:0:0:
320,192,62160,1,0,0:0:0:0:
64,192,62160,128,0,62387:0:0:0:0:
192,192,62251,1,0,0:0:0:0:
320,192,62342,1,0,0:0:0:0:
320,192,62524,128,0,62842:0:0:0:0:
192,192,62524,128,0,63160:0:0:0:0:
64,192,62524,1,0,0:0:0:0:
448,192,62887,1,0,0:0:0:0:
320,192,63251,128,0,63524:0:0:0:0:
64,192,63251,1,0,0:0:0:0:
192,192,63524,1,0,0:0:0:0:
448,192,63615,128,0,63796:0:0:0:0:
320,192,63796,1,0,0:0:0:0:
192,192,63796,128,0,63978:0:0:0:0:
448,192,63978,1,0,0:0:0:0:
320,192,63978,128,0,64115:0:0:0:0:
64,192,63978,128,0,64160:0:0:0:0:
448,192,64342,128,0,64569:0:0:0:0:
192,192,64342,128,0,64478:0:0:0:0:
320,192,64524,128,0,64887:0:0:0:0:
64,192,64524,128,0,64751:0:0:0:0:
64,192,65069,1,0,0:0:0:0:
448,192,65069,128,0,65296:0:0:0:0:
192,192,65433,128,0,65615:0:0:0:0:
320,192,65433,128,0,65706:0:0:0:0:
448,192,65796,1,0,0:0:0:0:
192,192,65796,128,0,66160:0:0:0:0:
64,192,65796,128,0,65933:0:0:0:0:
448,192,66160,1,0,0:0:0:0:
320,192,66206,128,0,66342:0:0:0:0:
64,192,66251,1,0,0:0:0:0:
192,192,66342,128,0,66660:0:0:0:0:
64,192,66706,128,0,67069:0:0:0:0:
320,192,66887,1,0,0:0:0:0:
320,192,67069,128,0,67251:0:0:0:0:
192,192,67069,128,0,67387:0:0:0:0:
448,192,67069,128,0,67387:0:0:0:0:
320,192,67433,128,0,67660:0:0:0:0:
64,192,67433,128,0,67660:0:0:0:0:
320,192,67978,128,0,68206:0:0:0:0:
64,192,67978,1,0,0:0:0:0:
192,192,67978,128,0,68160:0:0:0:0:
448,192,67978,128,0,68115:0:0:0:0:
320,192,68342,128,0,68478:0:0:0:0:
64,192,68342,128,0,68615:0:0:0:0:
448,192,68706,128,0,68796:0:0:0:0:
320,192,68706,128,0,69069:0:0:0:0:
192,192,68706,128,0,68978:0:0:0:0:
448,192,69069,128,0,69433:0:0:0:0:
192,192,69433,128,0,69615:0:0:0:0:
320,192,69433,1,0,0:0:0:0:
64,192,69615,128,0,69796:0:0:0:0:
448,192,69706,1,0,0:0:0:0:
192,192,69796,128,0,70160:0:0:0:0:
320,192,69796,1,0,0:0:0:0:
448,192,69887,128,0,69978:0:0:0:0:
320,192,69978,1,0,0:0:0:0:
64,192,70069,128,0,70160:0:0:0:0:
320,192,70160,1,0,0:0:0:0:
320,192,70342,128,0,70478:0:0:0:0:
448,192,70524,128,0,70706:0:0:0:0:
320,192,70887,128,0,71251:0:0:0:0:
192,192,70887,128,0,71069:0:0:0:0:
64,192,70887,1,0,0:0:0:0:
64,192,71251,1,0,0:0:0:0:
192,192,71342,1,0,0:0:0:0:
448,192,71342,128,0,71478:0:0:0:0:
64,192,71433,128,0,71615:0:0:0:0:
320,192,71478,1,0,0:0:0:0:
448,192,71569,1,0,0:0:0:0:
192,192,71615,1,0,0:0:0:0:
448,192,71706,128,0,71978:0:0:0:0:
320,192,71706,1,0,0:0:0:0:
192,192,71796,1,0,0:0:0:0:
64,192,71887,1,0,0:0:0:0:
320,192,71978,1,0,0:0:0:0:
192,192,72024,1,0,0:0:0:0:
64,192,72069,1,0,0:0:0:0:
192,192,72115,1,0,0:0:0:0:
320,192,72160,1,0,0:0:0:0:
448,192,72206,1,0,0:0:0:0:
64,192,72296,1,0,0:0:0:0:
192,192,72342,128,0,72615:0:0:0:0:
448,192,72342,128,0,72706:0:0:0:0:
320,192,72706,128,0,73069:0:0:0:0:
192,192,72706,128,0,72933:0:0:0:0:
192,192,73069,128,0,73251:0:0:0:0:
320,192,73433,1,0,0:0:0:0:
64,192,73433,128,0,73524:0:0:0:0:
448,192,73524,1,0,0:0:0:0:
320,192,73569,1,0,0:0:0:0:
192,192,73569,1,0,0:0:0:0:
64,192,73615,1,0,0:0:0:0:
448,192,73615,128,0,73706:0:0:0:0:
192,192,73706,1,0,0:0:0:0:
320,192,73796,128,0,73978:0:0:0:0:
192,192,73978,128,0,74706:0:0:0:0:
320,192,74160,128,0,74887:0:0:0:0:
448,192,74524,128,0,74887:0:0:0:0:
192,192,74887,1,0,0:0:0:0:
64,192,74887,128,0,75615:0:0:0:0:
192,192,75251,128,0,75797:0:0:0:0:
448,192,75251,128,0,75797:0:0:0:0:
320,192,75433,128,0,75569:0:0:0:0:
320,192,75797,128,0,76160:0:0:0:0:
64,192,75978,128,0,76069:0:0:0:0:
448,192,76160,128,0,76433:0:0:0:0:
192,192,76160,128,0,76342:0:0:0:0:
64,192,76160,128,0,76706:0:0:0:0:
320,192,76706,1,0,0:0:0:0:
192,192,76706,1,0,0:0:0:0:
192,192,77069,128,0,77251:0:0:0:0:
320,192,77069,1,0,0:0:0:0:
448,192,77160,1,0,0:0:0:0:
64,192,77251,128,0,77342:0:0:0:0:
320,192,77342,128,0,77524:0:0:0:0:
448,192,77342,1,0,0:0:0:0:
192,192,77433,1,0,0:0:0:0:
64,192,77524,128,0,77615:0:0:0:0:
192,192,77615,1,0,0:0:0:0:
448,192,77615,128,0,77706:0:0:0:0:
320,192,77706,1,0,0:0:0:0:
192,192,77797,128,0,77887:0:0:0:0:
64,192,77887,1,0,0:0:0:0:
448,192,77887,128,0,77978:0:0:0:0:
320,192,77978,128,0,78069:0:0:0:0:
64,192,78069,1,0,0:0:0:0:
448,192,78160,1,0,0:0:0:0:
192,192,78160,1,0,0:0:0:0:
320,192,78251,1,0,0:0:0:0:
64,192,78251,128,0,78342:0:0:0:0:
448,192,78342,128,0,78433:0:0:0:0:
192,192,78342,128,0,78433:0:0:0:0:
64,192,78433,128,0,78887:0:0:0:0:
320,192,78433,128,0,78524:0:0:0:0:
448,192,78524,128,0,78887:0:0:0:0:
192,192,78887,1,0,0:0:0:0:
320,192,78887,128,0,79115:0:0:0:0:
192,192,79251,128,0,79524:0:0:0:0:
64,192,79251,128,0,79342:0:0:0:0:
448,192,79251,128,0,79433:0:0:0:0:
320,192,79433,128,0,79615:0:0:0:0:
448,192,79797,128,0,79978:0:0:0:0:
192,192,79797,128,0,80069:0:0:0:0:
64,192,79797,128,0,80206:0:0:0:0:
320,192,80160,128,0,80387:0:0:0:0:
448,192,80160,1,0,0:0:0:0:
192,192,80251,1,0,0:0:0:0:
64,192,80342,1,0,0:0:0:0:
192,192,80433,1,0,0:0:0:0:
448,192,80524,1,0,0:0:0:0:
64,192,80524,128,0,80615:0:0:0:0:
320,192,80615,1,0,0:0:0:0:
192,192,80615,1,0,0:0:0:0:
448,192,80706,128,0,81069:0:0:0:0:
320,192,81069,128,0,81433:0:0:0:0:
192,192,81433,128,0,81978:0:0:0:0:
320,192,81978,1,0,0:0:0:0:
448,192,81978,128,0,82524:0:0:0:0:
64,192,82160,128,0,82478:0:0:0:0:
192,192,82160,1,0,0:0:0:0:
320,192,82524,128,0,82797:0:0:0:0:
320,192,82887,128,0,83069:0:0:0:0:
448,192,82887,1,0,0:0:0:0:
192,192,82887,128,0,82978:0:0:0:0:
64,192,82978,1,0,0:0:0:0:
192,192,83069,1,0,0:0:0:0:
448,192,83160,1,0,0:0:0:0:
320,192,83206,128,0,83342:0:0:0:0:
192,192,83251,1,0,0:0:0:0:
448,192,83342,1,0,0:0:0:0:
64,192,83433,1,0,0:0:0:0:
192,192,83478,128,0,83615:0:0:0:0:
320,192,83524,1,0,0:0:0:0:
64,192,83615,1,0,0:0:0:0:
192,192,83706,1,0,0:0:0:0:
448,192,83797,1,0,0:0:0:0:
192,192,83842,1,0,0:0:0:0:
64,192,83887,1,0,0:0:0:0:
192,192,83978,1,0,0:0:0:0:
448,192,84024,1,0,0:0:0:0:
320,192,84069,1,0,0:0:0:0:
64,192,84069,128,0,84342:0:0:0:0:
448,192,84160,1,0,0:0:0:0:
192,192,84342,1,0,0:0:0:0:
320,192,84342,128,0,84706:0:0:0:0:
448,192,84342,128,0,84569:0:0:0:0:
192,192,84706,128,0,85069:0:0:0:0:
64,192,84706,128,0,84797:0:0:0:0:
320,192,85069,1,0,0:0:0:0:
192,192,85251,128,0,85524:0:0:0:0:
320,192,85251,128,0,85342:0:0:0:0:
448,192,85615,128,0,86524:0:0:0:0:
64,192,85615,128,0,85797:0:0:0:0:
320,192,85797,128,0,86160:0:0:0:0:
192,192,85797,1,0,0:0:0:0:
192,192,86160,1,0,0:0:0:0:
320,192,86524,128,0,86660:0:0:0:0:
192,192,86615,128,0,86706:0:0:0:0:
448,192,86660,1,0,0:0:0:0:
64,192,86706,1,0,0:0:0:0:
192,192,86797,1,0,0:0:0:0:
320,192,86978,128,0,87069:0:0:0:0:
448,192,86978,128,0,87115:0:0:0:0:
64,192,87024,1,0,0:0:0:0:
192,192,87069,1,0,0:0:0:0:
64,192,87160,1,0,0:0:0:0:
192,192,87251,128,0,87433:0:0:0:0:
320,192,87433,128,0,87524:0:0:0:0:
448,192,87478,1,0,0:0:0:0:
64,192,87524,1,0,0:0:0:0:
320,192,87615,1,0,0:0:0:0:
192,192,87706,1,0,0:0:0:0:
320,192,87797,128,0,87978:0:0:0:0:
448,192,87978,1,0,0:0:0:0:
192,192,88024,128,0,88160:0:0:0:0:
320,192,88069,1,0,0:0:0:0:
448,192,88160,1,0,0:0:0:0:
64,192,88160,128,0,88342:0:0:0:0:
320,192,88251,1,0,0:0:0:0:
192,192,88342,1,0,0:0:0:0:
320,192,88387,1,0,0:0:0:0:
448,192,88433,128,0,88524:0:0:0:0:
192,192,88524,1,0,0:0:0:0:
320,192,88615,1,0,0:0:0:0:
192,192,88706,128,0,88978:0:0:0:0:
64,192,88887,1,0,0:0:0:0:
448,192,88933,1,0,0:0:0:0:
320,192,88978,1,0,0:0:0:0:
64,192,89069,1,0,0:0:0:0:
192,192,89160,128,0,89342:0:0:0:0:
448,192,89160,1,0,0:0:0:0:
320,192,89251,1,0,0:0:0:0:
448,192,89297,1,0,0:0:0:0:
64,192,89342,1,0,0:0:0:0:
192,192,89433,1,0,0:0:0:0:
320,192,89524,1,0,0:0:0:0:
64,192,89615,1,0,0:0:0:0:
192,192,89660,1,0,0:0:0:0:
448,192,89706,1,0,0:0:0:0:
320,192,89797,1,0,0:0:0:0:
192,192,89842,1,0,0:0:0:0:
64,192,89887,1,0,0:0:0:0:
192,192,89978,128,0,90160:0:0:0:0:
448,192,89978,128,0,90251:0:0:0:0:
320,192,90160,128,0,90524:0:0:0:0:
192,192,90524,1,0,0:0:0:0:
64,192,90524,128,0,90706:0:0:0:0:
192,192,90706,128,0,91069:0:0:0:0:
320,192,90706,128,0,90888:0:0:0:0:
448,192,90706,1,0,0:0:0:0:
320,192,91069,128,0,91342:0:0:0:0:
448,192,91433,128,0,91797:0:0:0:0:
320,192,91797,1,0,0:0:0:0:
192,192,91797,1,0,0:0:0:0:
320,192,92342,1,0,0:0:0:0:
448,192,92342,128,0,92433:0:0:0:0:
192,192,92342,128,0,92842:0:0:0:0:
320,192,92888,128,0,93069:0:0:0:0:
64,192,92888,128,0,92978:0:0:0:0:
192,192,92978,1,0,0:0:0:0:
448,192,93069,128,0,93160:0:0:0:0:
320,192,93251,128,0,93342:0:0:0:0:
448,192,93342,1,0,0:0:0:0:
192,192,93433,128,0,93524:0:0:0:0:
320,192,93433,1,0,0:0:0:0:
64,192,93524,1,0,0:0:0:0:
320,192,93615,1,0,0:0:0:0:
448,192,93660,1,0,0:0:0:0:
192,192,93751,1,0,0:0:0:0:
320,192,93797,1,0,0:0:0:0:
64,192,93888,128,0,94069:0:0:0:0:
448,192,93888,1,0,0:0:0:0:
192,192,93978,1,0,0:0:0:0:
320,192,94069,1,0,0:0:0:0:
192,192,94115,1,0,0:0:0:0:
448,192,94160,128,0,94342:0:0:0:0:
192,192,94251,1,0,0:0:0:0:
64,192,94342,1,0,0:0:0:0:
320,192,94433,1,0,0:0:0:0:
192,192,94524,128,0,94706:0:0:0:0:
448,192,94524,1,0,0:0:0:0:
64,192,94615,1,0,0:0:0:0:
320,192,94706,1,0,0:0:0:0:
448,192,94797,128,0,94888:0:0:0:0:
192,192,94797,128,0,94978:0:0:0:0:
320,192,94888,1,0,0:0:0:0:
64,192,94978,1,0,0:0:0:0:
320,192,95069,128,0,95160:0:0:0:0:
448,192,95069,128,0,95251:0:0:0:0:
192,192,95160,1,0,0:0:0:0:
64,192,95251,1,0,0:0:0:0:
320,192,95297,1,0,0:0:0:0:
192,192,95342,1,0,0:0:0:0:
64,192,95433,1,0,0:0:0:0:
448,192,95433,1,0,0:0:0:0:
192,192,95524,1,0,0:0:0:0:
320,192,95569,1,0,0:0:0:0:
448,192,95615,128,0,95797:0:0:0:0:
64,192,95615,128,0,95797:0:0:0:0:
320,192,95978,128,0,96342:0:0:0:0:
192,192,95978,128,0,96524:0:0:0:0:
448,192,95978,1,0,0:0:0:0:
448,192,96342,128,0,96888:0:0:0:0:
64,192,96524,128,0,96888:0:0:0:0:
320,192,96524,128,0,96888:0:0:0:0:
192,192,96888,128,0,97160:0:0:0:0:
448,192,97433,1,0,0:0:0:0:
192,192,97433,128,0,97524:0:0:0:0:
64,192,97524,1,0,0:0:0:0:
320,192,97615,1,0,0:0:0:0:
64,192,97706,1,0,0:0:0:0:
448,192,97797,128,0,97888:0:0:0:0:
192,192,97888,1,0,0:0:0:0:
320,192,97978,1,0,0:0:0:0:
64,192,98069,1,0,0:0:0:0:
192,192,98160,1,0,0:0:0:0:
192,192,98251,1,0,0:0:0:0:
448,192,98342,128,0,98524:0:0:0:0:
320,192,98433,1,0,0:0:0:0:
64,192,98524,128,0,98706:0:0:0:0:
192,192,98615,1,0,0:0:0:0:
448,192,98706,1,0,0:0:0:0:
320,192,98797,1,0,0:0:0:0:
320,192,98888,1,0,0:0:0:0:
64,192,98978,1,0,0:0:0:0:
192,192,99069,1,0,0:0:0:0:
320,192,99160,1,0,0:0:0:0:
64,192,99251,1,0,0:0:0:0:
320,192,99342,1,0,0:0:0:0:
192,192,99433,1,0,0:0:0:0:
448,192,99524,128,0,99706:0:0:0:0:
64,192,99524,128,0,99615:0:0:0:0:
192,192,99615,128,0,99706:0:0:0:0:
320,192,99706,128,0,99978:0:0:0:0:
64,192,100342,1,0,0:0:0:0:
448,192,100342,1,0,0:0:0:0:
192,192,100433,1,0,0:0:0:0:
192,192,100524,1,0,0:0:0:0:
320,192,100615,1,0,0:0:0:0:
64,192,100706,1,0,0:0:0:0:
448,192,100706,1,0,0:0:0:0:
192,192,100797,1,0,0:0:0:0:
192,192,100888,1,0,0:0:0:0:
320,192,100978,1,0,0:0:0:0:
448,192,101069,1,0,0:0:0:0:
320,192,101160,1,0,0:0:0:0:
64,192,101160,1,0,0:0:0:0:
192,192,101251,1,0,0:0:0:0:
448,192,101342,1,0,0:0:0:0:
320,192,101433,1,0,0:0:0:0:
320,192,101524,1,0,0:0:0:0:
192,192,101615,128,0,101842:0:0:0:0:
448,192,101797,128,0,102524:0:0:0:0:
320,192,101797,128,0,102160:0:0:0:0:
192,192,102160,128,0,102342:0:0:0:0:
64,192,102342,1,0,0:0:0:0:
320,192,102524,128,0,102706:0:0:0:0:
64,192,102706,1,0,0:0:0:0:
192,192,102706,128,0,102888:0:0:0:0:
320,192,102888,1,0,0:0:0:0:
448,192,102888,1,0,0:0:0:0:
448,192,103251,1,0,0:0:0:0:
320,192,103251,1,0,0:0:0:0:
192,192,103342,1,0,0:0:0:0:
64,192,103342,1,0,0:0:0:0:
320,192,103433,1,0,0:0:0:0:
320,192,103524,1,0,0:0:0:0:
448,192,103615,1,0,0:0:0:0:
64,192,103615,1,0,0:0:0:0:
192,192,103706,1,0,0:0:0:0:
192,192,103797,1,0,0:0:0:0:
320,192,103888,1,0,0:0:0:0:
448,192,103888,1,0,0:0:0:0:
192,192,103978,1,0,0:0:0:0:
64,192,104069,1,0,0:0:0:0:
448,192,104069,1,0,0:0:0:0:
192,192,104160,1,0,0:0:0:0:
448,192,104160,1,0,0:0:0:0:
64,192,104251,1,0,0:0:0:0:
320,192,104251,1,0,0:0:0:0:
448,192,104342,1,0,0:0:0:0:
320,192,104388,1,0,0:0:0:0:
64,192,104433,1,0,0:0:0:0:
192,192,104524,1,0,0:0:0:0:
320,192,104615,1,0,0:0:0:0:
192,192,104660,1,0,0:0:0:0:
448,192,104706,1,0,0:0:0:0:
320,192,104751,1,0,0:0:0:0:
64,192,104797,1,0,0:0:0:0:
192,192,104888,1,0,0:0:0:0:
320,192,104933,1,0,0:0:0:0:
64,192,104978,1,0,0:0:0:0:
192,192,105024,1,0,0:0:0:0:
448,192,105069,1,0,0:0:0:0:
192,192,105160,1,0,0:0:0:0:
320,192,105251,1,0,0:0:0:0:
448,192,105251,128,0,105615:0:0:0:0:
64,192,105251,1,0,0:0:0:0:
192,192,105342,1,0,0:0:0:0:
320,192,105433,1,0,0:0:0:0:
64,192,105524,1,0,0:0:0:0:
320,192,105615,128,0,105979:0:0:0:0:
192,192,105615,128,0,105979:0:0:0:0:
320,192,106160,1,0,0:0:0:0:
192,192,106160,1,0,0:0:0:0:
64,192,106206,1,0,0:0:0:0:
448,192,106251,1,0,0:0:0:0:
64,192,106342,1,0,0:0:0:0:
320,192,106342,1,0,0:0:0:0:
192,192,106433,1,0,0:0:0:0:
64,192,106524,1,0,0:0:0:0:
448,192,106615,1,0,0:0:0:0:
192,192,106660,1,0,0:0:0:0:
320,192,106660,1,0,0:0:0:0:
64,192,106706,1,0,0:0:0:0:
192,192,106797,1,0,0:0:0:0:
448,192,106797,1,0,0:0:0:0:
320,192,106888,1,0,0:0:0:0:
64,192,106979,1,0,0:0:0:0:
192,192,107024,1,0,0:0:0:0:
448,192,107069,1,0,0:0:0:0:
320,192,107160,1,0,0:0:0:0:
192,192,107251,128,0,107433:0:0:0:0:
64,192,107433,1,0,0:0:0:0:
320,192,107433,128,0,107615:0:0:0:0:
192,192,107615,1,0,0:0:0:0:
448,192,107615,128,0,107797:0:0:0:0:
320,192,107797,128,0,108160:0:0:0:0:
192,192,107979,1,0,0:0:0:0:
192,192,108160,128,0,108524:0:0:0:0:
448,192,108160,1,0,0:0:0:0:
320,192,108524,128,0,108706:0:0:0:0:
192,192,108706,128,0,108888:0:0:0:0:
64,192,108888,128,0,109069:0:0:0:0:
448,192,109069,1,0,0:0:0:0:
192,192,109160,1,0,0:0:0:0:
64,192,109206,1,0,0:0:0:0:
320,192,109251,1,0,0:0:0:0:
64,192,109342,1,0,0:0:0:0:
320,192,109433,1,0,0:0:0:0:
448,192,109479,1,0,0:0:0:0:
192,192,109524,1,0,0:0:0:0:
448,192,109615,1,0,0:0:0:0:
192,192,109706,1,0,0:0:0:0:
320,192,109751,1,0,0:0:0:0:
64,192,109797,1,0,0:0:0:0:
192,192,109888,1,0,0:0:0:0:
320,192,109979,1,0,0:0:0:0:
192,192,110024,1,0,0:0:0:0:
448,192,110069,1,0,0:0:0:0:
64,192,110160,1,0,0:0:0:0:
320,192,110251,1,0,0:0:0:0:
192,192,110342,1,0,0:0:0:0:
448,192,110433,1,0,0:0:0:0:
192,192,110433,1,0,0:0:0:0:
320,192,110524,1,0,0:0:0:0:
64,192,110615,1,0,0:0:0:0:
448,192,110706,1,0,0:0:0:0:
192,192,110706,1,0,0:0:0:0:
320,192,110797,1,0,0:0:0:0:
320,192,110888,1,0,0:0:0:0:
64,192,110888,1,0,0:0:0:0:
192,192,110979,1,0,0:0:0:0:
320,192,111069,1,0,0:0:0:0:
64,192,111115,1,0,0:0:0:0:
192,192,111160,1,0,0:0:0:0:
320,192,111251,1,0,0:0:0:0:
448,192,111297,1,0,0:0:0:0:
192,192,111342,1,0,0:0:0:0:
64,192,111433,128,0,111797:0:0:0:0:
448,192,111979,1,0,0:0:0:0:
64,192,111979,1,0,0:0:0:0:
192,192,112069,1,0,0:0:0:0:
320,192,112069,1,0,0:0:0:0:
448,192,112160,1,0,0:0:0:0:
320,192,112251,1,0,0:0:0:0:
192,192,112342,1,0,0:0:0:0:
192,192,112433,1,0,0:0:0:0:
64,192,112524,1,0,0:0:0:0:
192,192,112615,1,0,0:0:0:0:
320,192,112706,1,0,0:0:0:0:
64,192,112706,1,0,0:0:0:0:
320,192,112797,1,0,0:0:0:0:
448,192,112888,1,0,0:0:0:0:
320,192,112979,1,0,0:0:0:0:
192,192,113069,1,0,0:0:0:0:
64,192,113160,1,0,0:0:0:0:
192,192,113251,1,0,0:0:0:0:
448,192,113251,1,0,0:0:0:0:
320,192,113433,128,0,113797:0:0:0:0:
448,192,113797,128,0,113979:0:0:0:0:
320,192,113979,128,0,114160:0:0:0:0:
192,192,114160,128,0,114342:0:0:0:0:
320,192,114342,128,0,114524:0:0:0:0:
192,192,114524,1,0,0:0:0:0:
192,192,114888,1,0,0:0:0:0:
448,192,114979,1,0,0:0:0:0:
320,192,115024,1,0,0:0:0:0:
192,192,115069,1,0,0:0:0:0:
64,192,115069,1,0,0:0:0:0:
320,192,115160,1,0,0:0:0:0:
64,192,115251,1,0,0:0:0:0:
192,192,115251,1,0,0:0:0:0:
448,192,115342,1,0,0:0:0:0:
320,192,115433,1,0,0:0:0:0:
64,192,115524,1,0,0:0:0:0:
192,192,115569,1,0,0:0:0:0:
320,192,115615,1,0,0:0:0:0:
448,192,115615,1,0,0:0:0:0:
64,192,115706,1,0,0:0:0:0:
192,192,115706,1,0,0:0:0:0:
448,192,115797,1,0,0:0:0:0:
320,192,115888,1,0,0:0:0:0:
64,192,115979,1,0,0:0:0:0:
192,192,115979,1,0,0:0:0:0:
320,192,116069,1,0,0:0:0:0:
448,192,116160,1,0,0:0:0:0:
320,192,116206,1,0,0:0:0:0:
192,192,116251,1,0,0:0:0:0:
64,192,116251,1,0,0:0:0:0:
320,192,116342,1,0,0:0:0:0:
192,192,116433,1,0,0:0:0:0:
320,192,116524,1,0,0:0:0:0:
448,192,116524,1,0,0:0:0:0:
64,192,116615,1,0,0:0:0:0:
320,192,116706,1,0,0:0:0:0:
192,192,116706,1,0,0:0:0:0:
64,192,116797,1,0,0:0:0:0:
448,192,116797,1,0,0:0:0:0:
192,192,116888,1,0,0:0:0:0:
320,192,116888,1,0,0:0:0:0:
64,192,116979,1,0,0:0:0:0:
448,192,116979,1,0,0:0:0:0:
192,192,117069,1,0,0:0:0:0:
448,192,117160,1,0,0:0:0:0:
320,192,117160,1,0,0:0:0:0:
64,192,117251,1,0,0:0:0:0:
192,192,117251,1,0,0:0:0:0:
320,192,117342,1,0,0:0:0:0:
192,192,117433,1,0,0:0:0:0:
448,192,117433,128,0,117615:0:0:0:0:
64,192,117433,128,0,117615:0:0:0:0:
64,192,117797,1,0,0:0:0:0:
320,192,117842,1,0,0:0:0:0:
448,192,117888,1,0,0:0:0:0:
320,192,117979,1,0,0:0:0:0:
192,192,118069,1,0,0:0:0:0:
320,192,118160,1,0,0:0:0:0:
64,192,118160,1,0,0:0:0:0:
448,192,118251,1,0,0:0:0:0:
192,192,118297,1,0,0:0:0:0:
64,192,118342,1,0,0:0:0:0:
192,192,118433,1,0,0:0:0:0:
320,192,118524,1,0,0:0:0:0:
448,192,118615,1,0,0:0:0:0:
64,192,118615,1,0,0:0:0:0:
192,192,118706,1,0,0:0:0:0:
320,192,118751,1,0,0:0:0:0:
64,192,118797,1,0,0:0:0:0:
448,192,118842,1,0,0:0:0:0:
192,192,118888,1,0,0:0:0:0:
320,192,118979,1,0,0:0:0:0:
192,192,119024,1,0,0:0:0:0:
64,192,119069,1,0,0:0:0:0:
448,192,119069,1,0,0:0:0:0:
192,192,119251,128,0,119615:0:0:0:0:
448,192,119251,128,0,119433:0:0:0:0:
320,192,119615,128,0,119797:0:0:0:0:
64,192,119797,128,0,120160:0:0:0:0:
192,192,119797,1,0,0:0:0:0:
448,192,120160,128,0,120342:0:0:0:0:
192,192,120342,1,0,0:0:0:0:
320,192,120342,1,0,0:0:0:0:
64,192,120433,1,0,0:0:0:0:
448,192,120524,1,0,0:0:0:0:
192,192,120524,1,0,0:0:0:0:
64,192,120615,1,0,0:0:0:0:
320,192,120615,1,0,0:0:0:0:
320,192,120706,1,0,0:0:0:0:
64,192,120751,1,0,0:0:0:0:
192,192,120797,1,0,0:0:0:0:
448,192,120888,1,0,0:0:0:0:
192,192,121070,1,0,0:0:0:0:
448,192,121115,1,0,0:0:0:0:
320,192,121160,1,0,0:0:0:0:
64,192,121251,1,0,0:0:0:0:
320,192,121433,128,0,121524:0:0:0:0:
64,192,121433,128,0,121706:0:0:0:0:
448,192,121433,1,0,0:0:0:0:
192,192,121524,1,0,0:0:0:0:
320,192,121615,1,0,0:0:0:0:
192,192,121706,128,0,121979:0:0:0:0:
448,192,121706,128,0,121797:0:0:0:0:
320,192,121797,1,0,0:0:0:0:
64,192,121888,1,0,0:0:0:0:
320,192,121979,1,0,0:0:0:0:
448,192,121979,1,0,0:0:0:0:
64,192,122070,1,0,0:0:0:0:
192,192,122160,1,0,0:0:0:0:
448,192,122206,1,0,0:0:0:0:
320,192,122251,1,0,0:0:0:0:
64,192,122342,1,0,0:0:0:0:
320,192,122524,1,0,0:0:0:0:
64,192,122570,1,0,0:0:0:0:
192,192,122615,1,0,0:0:0:0:
448,192,122706,1,0,0:0:0:0:
448,192,122888,1,0,0:0:0:0:
192,192,122888,128,0,122979:0:0:0:0:
64,192,122888,128,0,123070:0:0:0:0:
320,192,122979,1,0,0:0:0:0:
448,192,123070,1,0,0:0:0:0:
192,192,123070,1,0,0:0:0:0:
320,192,123160,128,0,123433:0:0:0:0:
64,192,123160,1,0,0:0:0:0:
192,192,123251,1,0,0:0:0:0:
448,192,123342,1,0,0:0:0:0:
192,192,123433,1,0,0:0:0:0:
64,192,123433,1,0,0:0:0:0:
320,192,123524,1,0,0:0:0:0:
192,192,123615,1,0,0:0:0:0:
64,192,123660,1,0,0:0:0:0:
448,192,123706,1,0,0:0:0:0:
320,192,123797,1,0,0:0:0:0:
320,192,123979,1,0,0:0:0:0:
448,192,124024,1,0,0:0:0:0:
64,192,124070,1,0,0:0:0:0:
192,192,124160,1,0,0:0:0:0:
64,192,124342,128,0,124615:0:0:0:0:
192,192,124342,1,0,0:0:0:0:
448,192,124342,128,0,124433:0:0:0:0:
320,192,124433,1,0,0:0:0:0:
192,192,124524,1,0,0:0:0:0:
320,192,124615,128,0,124706:0:0:0:0:
64,192,124706,1,0,0:0:0:0:
448,192,124706,128,0,124888:0:0:0:0:
192,192,124797,1,0,0:0:0:0:
320,192,124888,1,0,0:0:0:0:
64,192,124888,1,0,0:0:0:0:
448,192,125070,128,0,125433:0:0:0:0:
64,192,125070,128,0,125433:0:0:0:0:
192,192,125342,128,0,125706:0:0:0:0:
320,192,125342,128,0,125706:0:0:0:0:
64,192,125615,1,0,0:0:0:0:
448,192,125615,1,0,0:0:0:0:
448,192,125797,1,0,0:0:0:0:
192,192,125888,1,0,0:0:0:0:
320,192,125979,1,0,0:0:0:0:
64,192,126070,1,0,0:0:0:0:
448,192,126070,1,0,0:0:0:0:
192,192,126160,1,0,0:0:0:0:
448,192,126160,1,0,0:0:0:0:
64,192,126251,128,0,126479:0:0:0:0:
320,192,126251,1,0,0:0:0:0:
192,192,126342,1,0,0:0:0:0:
320,192,126524,1,0,0:0:0:0:
64,192,126570,1,0,0:0:0:0:
192,192,126615,1,0,0:0:0:0:
320,192,126706,1,0,0:0:0:0:
192,192,126888,1,0,0:0:0:0:
448,192,126933,1,0,0:0:0:0:
320,192,126979,1,0,0:0:0:0:
192,192,127070,1,0,0:0:0:0:
320,192,127251,128,0,127524:0:0:0:0:
192,192,127251,1,0,0:0:0:0:
448,192,127342,1,0,0:0:0:0:
192,192,127433,1,0,0:0:0:0:
448,192,127524,1,0,0:0:0:0:
64,192,127524,128,0,127888:0:0:0:0:
192,192,127615,1,0,0:0:0:0:
448,192,127706,1,0,0:0:0:0:
320,192,127706,1,0,0:0:0:0:
192,192,127797,1,0,0:0:0:0:
448,192,127888,1,0,0:0:0:0:
320,192,127888,1,0,0:0:0:0:
192,192,127979,1,0,0:0:0:0:
320,192,128024,1,0,0:0:0:0:
64,192,128070,1,0,0:0:0:0:
448,192,128160,1,0,0:0:0:0:
320,192,128342,1,0,0:0:0:0:
192,192,128388,1,0,0:0:0:0:
448,192,128433,1,0,0:0:0:0:
64,192,128524,1,0,0:0:0:0:
192,192,128706,128,0,128979:0:0:0:0:
320,192,128706,1,0,0:0:0:0:
64,192,128797,1,0,0:0:0:0:
320,192,128888,1,0,0:0:0:0:
64,192,128979,1,0,0:0:0:0:
448,192,128979,128,0,129342:0:0:0:0:
320,192,129070,1,0,0:0:0:0:
64,192,129160,1,0,0:0:0:0:
192,192,129160,1,0,0:0:0:0:
320,192,129251,1,0,0:0:0:0:
192,192,129342,1,0,0:0:0:0:
64,192,129342,1,0,0:0:0:0:
320,192,129433,1,0,0:0:0:0:
448,192,129479,1,0,0:0:0:0:
64,192,129524,1,0,0:0:0:0:
192,192,129615,1,0,0:0:0:0:
192,192,129797,1,0,0:0:0:0:
64,192,129842,1,0,0:0:0:0:
448,192,129888,1,0,0:0:0:0:
320,192,129979,1,0,0:0:0:0:
320,192,130160,128,0,130342:0:0:0:0:
448,192,130160,1,0,0:0:0:0:
64,192,130160,128,0,130433:0:0:0:0:
192,192,130251,1,0,0:0:0:0:
448,192,130342,128,0,130524:0:0:0:0:
320,192,130433,1,0,0:0:0:0:
192,192,130524,128,0,130888:0:0:0:0:
64,192,130524,1,0,0:0:0:0:
448,192,130615,128,0,130706:0:0:0:0:
320,192,130706,128,0,131070:0:0:0:0:
64,192,130797,1,0,0:0:0:0:
448,192,130888,1,0,0:0:0:0:
192,192,130979,1,0,0:0:0:0:
64,192,131070,1,0,0:0:0:0:
448,192,131070,1,0,0:0:0:0:
192,192,131160,1,0,0:0:0:0:
64,192,131251,1,0,0:0:0:0:
320,192,131297,1,0,0:0:0:0:
448,192,131342,1,0,0:0:0:0:
320,192,131433,1,0,0:0:0:0:
192,192,131524,1,0,0:0:0:0:
64,192,131570,128,0,131797:0:0:0:0:
448,192,131615,1,0,0:0:0:0:
320,192,131615,128,0,131888:0:0:0:0:
192,192,131797,128,0,132024:0:0:0:0:
448,192,132024,128,0,132115:0:0:0:0:
320,192,132070,1,0,0:0:0:0:
192,192,132160,1,0,0:0:0:0:
64,192,132251,1,0,0:0:0:0:
448,192,132251,1,0,0:0:0:0:
320,192,132251,128,0,132342:0:0:0:0:
192,192,132342,1,0,0:0:0:0:
320,192,132433,1,0,0:0:0:0:
192,192,132524,1,0,0:0:0:0:
448,192,132524,1,0,0:0:0:0:
64,192,132615,1,0,0:0:0:0:
192,192,132706,1,0,0:0:0:0:
320,192,132751,1,0,0:0:0:0:
448,192,132797,1,0,0:0:0:0:
320,192,132888,1,0,0:0:0:0:
192,192,132979,1,0,0:0:0:0:
320,192,133070,1,0,0:0:0:0:
192,192,133115,1,0,0:0:0:0:
64,192,133160,1,0,0:0:0:0:
192,192,133251,1,0,0:0:0:0:
320,192,133342,1,0,0:0:0:0:
192,192,133433,1,0,0:0:0:0:
64,192,133524,1,0,0:0:0:0:
448,192,133524,1,0,0:0:0:0:
320,192,133615,1,0,0:0:0:0:
192,192,133706,1,0,0:0:0:0:
64,192,133797,1,0,0:0:0:0:
320,192,133888,1,0,0:0:0:0:
192,192,133933,1,0,0:0:0:0:
448,192,133979,1,0,0:0:0:0:
64,192,134070,1,0,0:0:0:0:
320,192,134070,1,0,0:0:0:0:
192,192,134160,1,0,0:0:0:0:
448,192,134160,1,0,0:0:0:0:
320,192,134251,1,0,0:0:0:0:
192,192,134297,1,0,0:0:0:0:
64,192,134342,1,0,0:0:0:0:
192,192,134433,1,0,0:0:0:0:
320,192,134524,128,0,134615:0:0:0:0:
192,192,134615,128,0,134706:0:0:0:0:
448,192,134706,128,0,134797:0:0:0:0:
64,192,134706,128,0,134888:0:0:0:0:
320,192,134797,128,0,134888:0:0:0:0:
192,192,134888,128,0,134979:0:0:0:0:
320,192,135024,1,0,0:0:0:0:
448,192,135070,1,0,0:0:0:0:
64,192,135160,1,0,0:0:0:0:
192,192,135206,1,0,0:0:0:0:
320,192,135251,1,0,0:0:0:0:
192,192,135342,1,0,0:0:0:0:
320,192,135433,1,0,0:0:0:0:
448,192,135479,1,0,0:0:0:0:
192,192,135524,1,0,0:0:0:0:
64,192,135570,1,0,0:0:0:0:
320,192,135615,1,0,0:0:0:0:
192,192,135706,1,0,0:0:0:0:
448,192,135797,1,0,0:0:0:0:
320,192,135842,1,0,0:0:0:0:
192,192,135888,1,0,0:0:0:0:
64,192,135933,1,0,0:0:0:0:
320,192,135979,1,0,0:0:0:0:
192,192,136070,1,0,0:0:0:0:
448,192,136161,1,0,0:0:0:0:
320,192,136206,1,0,0:0:0:0:
192,192,136251,1,0,0:0:0:0:
64,192,136297,1,0,0:0:0:0:
320,192,136342,1,0,0:0:0:0:
192,192,136433,1,0,0:0:0:0:
320,192,136524,1,0,0:0:0:0:
64,192,136524,1,0,0:0:0:0:
448,192,136615,1,0,0:0:0:0:
320,192,136706,1,0,0:0:0:0:
192,192,136797,1,0,0:0:0:0:
64,192,136888,1,0,0:0:0:0:
448,192,136888,1,0,0:0:0:0:
192,192,136979,1,0,0:0:0:0:
448,192,136979,1,0,0:0:0:0:
320,192,137070,1,0,0:0:0:0:
192,192,137161,1,0,0:0:0:0:
64,192,137251,1,0,0:0:0:0:
448,192,137251,1,0,0:0:0:0:
320,192,137342,1,0,0:0:0:0:
64,192,137342,1,0,0:0:0:0:
192,192,137433,1,0,0:0:0:0:
320,192,137524,1,0,0:0:0:0:
448,192,137615,1,0,0:0:0:0:
192,192,137615,1,0,0:0:0:0:
64,192,137706,1,0,0:0:0:0:
320,192,137706,1,0,0:0:0:0:
320,192,137797,1,0,0:0:0:0:
192,192,137888,1,0,0:0:0:0:
320,192,137979,1,0,0:0:0:0:
64,192,137979,1,0,0:0:0:0:
192,192,138070,1,0,0:0:0:0:
448,192,138115,1,0,0:0:0:0:
192,192,138161,1,0,0:0:0:0:
320,192,138251,1,0,0:0:0:0:
448,192,138342,1,0,0:0:0:0:
64,192,138342,1,0,0:0:0:0:
192,192,138433,1,0,0:0:0:0:
64,192,138524,1,0,0:0:0:0:
320,192,138570,1,0,0:0:0:0:
192,192,138615,1,0,0:0:0:0:
448,192,138706,1,0,0:0:0:0:
192,192,138751,1,0,0:0:0:0:
320,192,138797,1,0,0:0:0:0:
64,192,138888,1,0,0:0:0:0:
320,192,138933,1,0,0:0:0:0:
192,192,138979,1,0,0:0:0:0:
448,192,139070,1,0,0:0:0:0:
192,192,139115,1,0,0:0:0:0:
320,192,139161,1,0,0:0:0:0:
192,192,139251,1,0,0:0:0:0:
64,192,139297,1,0,0:0:0:0:
448,192,139342,1,0,0:0:0:0:
320,192,139433,1,0,0:0:0:0:
448,192,139479,1,0,0:0:0:0:
64,192,139524,1,0,0:0:0:0:
192,192,139615,1,0,0:0:0:0:
320,192,139661,1,0,0:0:0:0:
448,192,139706,1,0,0:0:0:0:
320,192,139797,1,0,0:0:0:0:
192,192,139842,1,0,0:0:0:0:
64,192,139888,1,0,0:0:0:0:
448,192,139933,1,0,0:0:0:0:
320,192,139979,1,0,0:0:0:0:
64,192,140024,1,0,0:0:0:0:
192,192,140070,1,0,0:0:0:0:
320,192,140161,1,0,0:0:0:0:
448,192,140251,1,0,0:0:0:0:
64,192,140251,1,0,0:0:0:0:
192,192,140342,1,0,0:0:0:0:
448,192,140388,1,0,0:0:0:0:
320,192,140433,1,0,0:0:0:0:
64,192,140524,1,0,0:0:0:0:
320,192,140615,1,0,0:0:0:0:
448,192,140706,1,0,0:0:0:0:
320,192,140751,1,0,0:0:0:0:
192,192,140797,1,0,0:0:0:0:
64,192,140842,1,0,0:0:0:0:
320,192,140933,1,0,0:0:0:0:
192,192,140979,1,0,0:0:0:0:
320,192,141070,1,0,0:0:0:0:
192,192,141161,1,0,0:0:0:0:
64,192,141161,1,0,0:0:0:0:
320,192,141251,1,0,0:0:0:0:
448,192,141251,1,0,0:0:0:0:
64,192,141342,1,0,0:0:0:0:
192,192,141433,1,0,0:0:0:0:
448,192,141479,1,0,0:0:0:0:
320,192,141524,1,0,0:0:0:0:
448,192,141615,1,0,0:0:0:0:
192,192,141615,1,0,0:0:0:0:
64,192,141661,1,0,0:0:0:0:
320,192,141706,1,0,0:0:0:0:
192,192,141751,1,0,0:0:0:0:
320,192,141797,1,0,0:0:0:0:
448,192,141888,1,0,0:0:0:0:
192,192,141933,1,0,0:0:0:0:
64,192,142024,1,0,0:0:0:0:
192,192,142070,1,0,0:0:0:0:
320,192,142161,1,0,0:0:0:0:
448,192,142161,1,0,0:0:0:0:
64,192,142161,1,0,0:0:0:0:
192,192,142251,1,0,0:0:0:0:
320,192,142297,1,0,0:0:0:0:
192,192,142342,1,0,0:0:0:0:
64,192,142433,1,0,0:0:0:0:
320,192,142524,1,0,0:0:0:0:
192,192,142615,1,0,0:0:0:0:
320,192,142661,1,0,0:0:0:0:
448,192,142706,1,0,0:0:0:0:
64,192,142797,1,0,0:0:0:0:
320,192,142797,1,0,0:0:0:0:
192,192,142888,1,0,0:0:0:0:
64,192,142979,1,0,0:0:0:0:
448,192,143070,1,0,0:0:0:0:
192,192,143070,1,0,0:0:0:0:
320,192,143115,1,0,0:0:0:0:
64,192,143161,1,0,0:0:0:0:
448,192,143251,1,0,0:0:0:0:
192,192,143251,1,0,0:0:0:0:
320,192,143342,1,0,0:0:0:0:
192,192,143388,1,0,0:0:0:0:
64,192,143433,1,0,0:0:0:0:
448,192,143433,1,0,0:0:0:0:
320,192,143524,1,0,0:0:0:0:
192,192,143570,1,0,0:0:0:0:
448,192,143615,1,0,0:0:0:0:
320,192,143661,1,0,0:0:0:0:
64,192,143706,1,0,0:0:0:0:
192,192,143751,1,0,0:0:0:0:
320,192,143797,1,0,0:0:0:0:
448,192,143842,1,0,0:0:0:0:
192,192,143888,1,0,0:0:0:0:
64,192,143933,1,0,0:0:0:0:
320,192,143979,128,0,147251:0:0:0:0:
448,192,143979,128,0,147251:0:0:0:0:
