osu file format v14

[General]
AudioFilename: audio.mp3
AudioLeadIn: 0
PreviewTime: -1
Countdown: 0
SampleSet: Normal
StackLeniency: 0.7
Mode: 3
LetterboxInBreaks: 0
SpecialStyle: 0
WidescreenStoryboard: 1

[Editor]
Bookmarks: 23699,34862,46025,57187,68350,79513,90676,101839
DistanceSpacing: 1.2
BeatDivisor: 4
GridSize: 8
TimelineZoom: 1.7

[Metadata]
Title:Online
TitleUnicode:Online
Artist:HiTECH NINJA
ArtistUnicode:HiTECH NINJA
Creator:DustMoon
Version:Normal
Source:
Tags:
BeatmapID:1776983
BeatmapSetID:849853

[Difficulty]
HPDrainRate:7
CircleSize:5
OverallDifficulty:8
ApproachRate:5
SliderMultiplier:1.4
SliderTickRate:1

[Events]
//Background and Video events
0,0,"Cache_-112095a9e2d8fd07..jpg",0,0
//Break Periods
//Storyboard Layer 0 (Background)
//Storyboard Layer 1 (Fail)
//Storyboard Layer 2 (Pass)
//Storyboard Layer 3 (Foreground)
//Storyboard Sound Samples

[TimingPoints]
1374,348.837209302326,4,1,0,30,1,0

[HitObjects]
51,192,1374,5,0,0:0:0:0:
460,192,1374,1,0,0:0:0:0:
153,192,1897,1,0,0:0:0:0:
460,192,2769,1,0,0:0:0:0:
358,192,3292,1,0,0:0:0:0:
51,192,4164,1,0,0:0:0:0:
256,192,4687,1,0,0:0:0:0:
358,192,5560,1,0,0:0:0:0:
153,192,6083,1,0,0:0:0:0:
256,192,6606,128,0,6955:0:0:0:0:
51,192,6955,1,0,0:0:0:0:
460,192,6955,1,0,0:0:0:0:
153,192,7304,1,0,0:0:0:0:
256,192,7653,1,0,0:0:0:0:
153,192,8001,1,0,0:0:0:0:
51,192,8350,1,0,0:0:0:0:
460,192,8350,1,0,0:0:0:0:
358,192,8699,1,0,0:0:0:0:
256,192,9048,1,0,0:0:0:0:
358,192,9397,1,0,0:0:0:0:
153,192,9571,1,0,0:0:0:0:
460,192,9746,1,0,0:0:0:0:
51,192,9746,1,0,0:0:0:0:
153,192,10094,1,0,0:0:0:0:
256,192,10443,1,0,0:0:0:0:
153,192,10792,1,0,0:0:0:0:
51,192,11141,1,0,0:0:0:0:
460,192,11141,1,0,0:0:0:0:
358,192,11490,1,0,0:0:0:0:
256,192,11839,1,0,0:0:0:0:
153,192,12187,1,0,0:0:0:0:
51,192,12187,1,0,0:0:0:0:
358,192,12536,1,0,0:0:0:0:
460,192,12536,1,0,0:0:0:0:
153,192,12798,1,0,0:0:0:0:
256,192,12798,1,0,0:0:0:0:
358,192,13060,1,0,0:0:0:0:
460,192,13060,1,0,0:0:0:0:
153,192,13932,1,0,0:0:0:0:
51,192,13932,1,0,0:0:0:0:
256,192,14193,1,0,0:0:0:0:
358,192,14193,1,0,0:0:0:0:
153,192,14455,1,0,0:0:0:0:
51,192,14455,1,0,0:0:0:0:
256,192,15327,1,0,0:0:0:0:
51,192,15327,1,0,0:0:0:0:
153,192,15589,1,0,0:0:0:0:
358,192,15589,1,0,0:0:0:0:
256,192,15850,1,0,0:0:0:0:
460,192,15850,1,0,0:0:0:0:
256,192,16722,1,0,0:0:0:0:
460,192,16722,1,0,0:0:0:0:
153,192,16984,1,0,0:0:0:0:
358,192,16984,1,0,0:0:0:0:
256,192,17246,1,0,0:0:0:0:
51,192,17246,1,0,0:0:0:0:
153,192,18118,1,0,0:0:0:0:
358,192,18118,1,0,0:0:0:0:
51,192,18379,1,0,0:0:0:0:
460,192,18379,1,0,0:0:0:0:
256,192,18641,1,0,0:0:0:0:
358,192,18641,1,0,0:0:0:0:
153,192,19513,1,0,0:0:0:0:
358,192,19513,1,0,0:0:0:0:
51,192,19775,1,0,0:0:0:0:
460,192,19775,1,0,0:0:0:0:
153,192,20036,1,0,0:0:0:0:
256,192,20036,1,0,0:0:0:0:
358,192,20908,1,0,0:0:0:0:
460,192,20908,1,0,0:0:0:0:
153,192,21170,1,0,0:0:0:0:
51,192,21170,1,0,0:0:0:0:
358,192,21432,1,0,0:0:0:0:
460,192,21432,1,0,0:0:0:0:
153,192,22304,1,0,0:0:0:0:
51,192,22304,1,0,0:0:0:0:
358,192,22565,1,0,0:0:0:0:
460,192,22565,1,0,0:0:0:0:
256,192,22827,1,0,0:0:0:0:
153,192,22827,1,0,0:0:0:0:
358,192,23089,1,0,0:0:0:0:
460,192,23089,1,0,0:0:0:0:
153,192,23350,1,0,0:0:0:0:
51,192,23350,128,0,23699:0:0:0:0:
358,192,23699,1,0,0:0:0:0:
460,192,23699,1,0,0:0:0:0:
358,192,24048,1,0,0:0:0:0:
358,192,24397,1,0,0:0:0:0:
256,192,24397,1,0,0:0:0:0:
256,192,24746,1,0,0:0:0:0:
256,192,25094,1,0,0:0:0:0:
153,192,25094,1,0,0:0:0:0:
153,192,25443,1,0,0:0:0:0:
153,192,25792,1,0,0:0:0:0:
51,192,25792,1,0,0:0:0:0:
51,192,26141,1,0,0:0:0:0:
51,192,26490,1,0,0:0:0:0:
460,192,26490,1,0,0:0:0:0:
153,192,26839,1,0,0:0:0:0:
358,192,26839,1,0,0:0:0:0:
51,192,27187,1,0,0:0:0:0:
460,192,27187,1,0,0:0:0:0:
256,192,27536,1,0,0:0:0:0:
358,192,27536,1,0,0:0:0:0:
51,192,27885,1,0,0:0:0:0:
460,192,27885,1,0,0:0:0:0:
153,192,28234,1,0,0:0:0:0:
358,192,28234,1,0,0:0:0:0:
51,192,28583,1,0,0:0:0:0:
460,192,28583,1,0,0:0:0:0:
153,192,28932,1,0,0:0:0:0:
256,192,28932,1,0,0:0:0:0:
460,192,29280,1,0,0:0:0:0:
358,192,29455,1,0,0:0:0:0:
256,192,29629,1,0,0:0:0:0:
358,192,29804,1,0,0:0:0:0:
51,192,29978,1,0,0:0:0:0:
153,192,30153,1,0,0:0:0:0:
256,192,30327,1,0,0:0:0:0:
153,192,30501,1,0,0:0:0:0:
460,192,30676,1,0,0:0:0:0:
358,192,30850,1,0,0:0:0:0:
256,192,31025,1,0,0:0:0:0:
358,192,31199,1,0,0:0:0:0:
51,192,31374,1,0,0:0:0:0:
153,192,31548,1,0,0:0:0:0:
256,192,31722,1,0,0:0:0:0:
153,192,31897,1,0,0:0:0:0:
51,192,32071,128,0,32420:0:0:0:0:
153,192,32420,128,0,32769:0:0:0:0:
358,192,32769,128,0,33118:0:0:0:0:
460,192,33118,128,0,33467:0:0:0:0:
51,192,33467,1,0,0:0:0:0:
358,192,33815,1,0,0:0:0:0:
256,192,34164,1,0,0:0:0:0:
51,192,34339,1,0,0:0:0:0:
460,192,34426,1,0,0:0:0:0:
256,192,34513,128,0,34862:0:0:0:0:
153,192,34513,1,0,0:0:0:0:
460,192,34862,1,0,0:0:0:0:
358,192,35036,1,0,0:0:0:0:
256,192,35124,1,0,0:0:0:0:
153,192,35298,1,0,0:0:0:0:
358,192,35472,1,0,0:0:0:0:
460,192,35560,128,0,35908:0:0:0:0:
256,192,35908,128,0,36257:0:0:0:0:
51,192,36257,1,0,0:0:0:0:
153,192,36432,1,0,0:0:0:0:
358,192,36519,1,0,0:0:0:0:
256,192,36693,1,0,0:0:0:0:
153,192,36868,1,0,0:0:0:0:
51,192,36955,128,0,37304:0:0:0:0:
256,192,37304,128,0,37653:0:0:0:0:
460,192,37653,1,0,0:0:0:0:
153,192,37827,1,0,0:0:0:0:
358,192,37914,1,0,0:0:0:0:
256,192,38089,1,0,0:0:0:0:
51,192,38263,1,0,0:0:0:0:
358,192,38350,128,0,38699:0:0:0:0:
51,192,38699,128,0,39048:0:0:0:0:
460,192,39048,1,0,0:0:0:0:
256,192,39222,1,0,0:0:0:0:
358,192,39310,1,0,0:0:0:0:
153,192,39484,1,0,0:0:0:0:
256,192,39658,1,0,0:0:0:0:
51,192,39746,128,0,40007:0:0:0:0:
51,192,40094,128,0,40356:0:0:0:0:
460,192,40443,1,0,0:0:0:0:
358,192,40443,1,0,0:0:0:0:
153,192,40618,1,0,0:0:0:0:
358,192,40705,1,0,0:0:0:0:
256,192,40879,1,0,0:0:0:0:
51,192,41054,1,0,0:0:0:0:
153,192,41141,128,0,41490:0:0:0:0:
460,192,41490,128,0,41839:0:0:0:0:
358,192,41839,1,0,0:0:0:0:
51,192,42013,1,0,0:0:0:0:
256,192,42100,1,0,0:0:0:0:
358,192,42275,1,0,0:0:0:0:
460,192,42449,1,0,0:0:0:0:
256,192,42536,128,0,42885:0:0:0:0:
51,192,42885,128,0,43234:0:0:0:0:
358,192,43234,1,0,0:0:0:0:
256,192,43408,1,0,0:0:0:0:
460,192,43496,1,0,0:0:0:0:
153,192,43670,1,0,0:0:0:0:
256,192,43844,1,0,0:0:0:0:
460,192,43932,128,0,44280:0:0:0:0:
51,192,44280,128,0,44629:0:0:0:0:
460,192,44629,128,0,45676:0:0:0:0:
358,192,44629,1,0,0:0:0:0:
256,192,44978,1,0,0:0:0:0:
256,192,45153,1,0,0:0:0:0:
256,192,45414,1,0,0:0:0:0:
256,192,45589,1,0,0:0:0:0:
51,192,45676,128,0,46025:0:0:0:0:
358,192,45676,1,0,0:0:0:0:
460,192,46025,1,0,0:0:0:0:
153,192,46199,1,0,0:0:0:0:
358,192,46374,1,0,0:0:0:0:
256,192,46548,1,0,0:0:0:0:
460,192,46722,1,0,0:0:0:0:
153,192,46897,1,0,0:0:0:0:
460,192,47071,1,0,0:0:0:0:
256,192,47246,1,0,0:0:0:0:
358,192,47420,1,0,0:0:0:0:
153,192,47594,1,0,0:0:0:0:
460,192,47769,1,0,0:0:0:0:
358,192,47943,1,0,0:0:0:0:
256,192,48118,1,0,0:0:0:0:
153,192,48118,1,0,0:0:0:0:
358,192,48379,1,0,0:0:0:0:
460,192,48379,1,0,0:0:0:0:
153,192,48554,1,0,0:0:0:0:
51,192,48554,1,0,0:0:0:0:
256,192,48641,1,0,0:0:0:0:
358,192,48641,1,0,0:0:0:0:
51,192,48815,1,0,0:0:0:0:
358,192,48990,1,0,0:0:0:0:
153,192,49164,1,0,0:0:0:0:
256,192,49339,1,0,0:0:0:0:
358,192,49513,1,0,0:0:0:0:
51,192,49687,1,0,0:0:0:0:
256,192,49862,1,0,0:0:0:0:
153,192,50036,1,0,0:0:0:0:
358,192,50211,1,0,0:0:0:0:
51,192,50385,1,0,0:0:0:0:
256,192,50560,1,0,0:0:0:0:
153,192,50734,1,0,0:0:0:0:
460,192,50908,128,0,51170:0:0:0:0:
460,192,51257,128,0,51519:0:0:0:0:
460,192,51606,1,0,0:0:0:0:
51,192,51606,1,0,0:0:0:0:
358,192,51780,1,0,0:0:0:0:
51,192,51955,1,0,0:0:0:0:
256,192,52129,1,0,0:0:0:0:
51,192,52304,1,0,0:0:0:0:
358,192,52478,1,0,0:0:0:0:
51,192,52653,1,0,0:0:0:0:
256,192,52827,1,0,0:0:0:0:
51,192,53001,1,0,0:0:0:0:
358,192,53176,1,0,0:0:0:0:
51,192,53350,1,0,0:0:0:0:
256,192,53525,1,0,0:0:0:0:
51,192,53699,1,0,0:0:0:0:
358,192,53874,1,0,0:0:0:0:
51,192,54048,1,0,0:0:0:0:
256,192,54222,1,0,0:0:0:0:
460,192,54397,1,0,0:0:0:0:
153,192,54571,1,0,0:0:0:0:
460,192,54746,1,0,0:0:0:0:
256,192,54920,1,0,0:0:0:0:
460,192,55094,1,0,0:0:0:0:
153,192,55269,1,0,0:0:0:0:
460,192,55443,1,0,0:0:0:0:
256,192,55618,5,0,0:0:0:0:
51,192,55792,1,0,0:0:0:0:
51,192,55967,1,0,0:0:0:0:
460,192,56141,1,0,0:0:0:0:
460,192,56315,1,0,0:0:0:0:
256,192,56490,1,0,0:0:0:0:
51,192,56664,5,0,0:0:0:0:
358,192,56839,1,0,0:0:0:0:
153,192,57013,1,0,0:0:0:0:
460,192,57187,1,0,0:0:0:0:
51,192,57362,1,0,0:0:0:0:
256,192,57536,1,0,0:0:0:0:
153,192,57711,1,0,0:0:0:0:
358,192,58060,1,0,0:0:0:0:
51,192,58234,1,0,0:0:0:0:
460,192,58408,1,0,0:0:0:0:
153,192,58583,1,0,0:0:0:0:
358,192,58757,1,0,0:0:0:0:
51,192,58932,1,0,0:0:0:0:
256,192,59106,1,0,0:0:0:0:
460,192,59455,1,0,0:0:0:0:
153,192,59629,1,0,0:0:0:0:
358,192,59804,1,0,0:0:0:0:
51,192,59978,1,0,0:0:0:0:
460,192,60153,1,0,0:0:0:0:
153,192,60327,1,0,0:0:0:0:
51,192,60501,1,0,0:0:0:0:
358,192,60676,1,0,0:0:0:0:
153,192,60850,1,0,0:0:0:0:
460,192,61025,1,0,0:0:0:0:
256,192,61199,1,0,0:0:0:0:
358,192,61374,1,0,0:0:0:0:
51,192,61548,1,0,0:0:0:0:
256,192,61722,1,0,0:0:0:0:
153,192,61897,1,0,0:0:0:0:
460,192,62246,1,0,0:0:0:0:
51,192,62420,1,0,0:0:0:0:
358,192,62594,1,0,0:0:0:0:
153,192,62769,1,0,0:0:0:0:
256,192,62943,1,0,0:0:0:0:
460,192,63118,1,0,0:0:0:0:
153,192,63292,1,0,0:0:0:0:
256,192,63641,1,0,0:0:0:0:
51,192,63815,1,0,0:0:0:0:
358,192,63990,1,0,0:0:0:0:
153,192,64164,1,0,0:0:0:0:
460,192,64339,1,0,0:0:0:0:
51,192,64513,1,0,0:0:0:0:
256,192,64687,1,0,0:0:0:0:
358,192,65036,1,0,0:0:0:0:
51,192,65211,1,0,0:0:0:0:
256,192,65385,1,0,0:0:0:0:
153,192,65560,1,0,0:0:0:0:
358,192,65734,1,0,0:0:0:0:
460,192,65908,1,0,0:0:0:0:
51,192,66083,1,0,0:0:0:0:
358,192,66257,1,0,0:0:0:0:
153,192,66432,1,0,0:0:0:0:
256,192,66606,1,0,0:0:0:0:
460,192,66780,1,0,0:0:0:0:
51,192,66955,1,0,0:0:0:0:
358,192,67129,1,0,0:0:0:0:
153,192,67304,1,0,0:0:0:0:
256,192,67478,1,0,0:0:0:0:
460,192,67827,1,0,0:0:0:0:
153,192,68001,1,0,0:0:0:0:
256,192,68176,1,0,0:0:0:0:
358,192,68350,1,0,0:0:0:0:
51,192,68525,1,0,0:0:0:0:
153,192,68699,1,0,0:0:0:0:
256,192,68874,1,0,0:0:0:0:
358,192,71141,1,0,0:0:0:0:
153,192,71315,1,0,0:0:0:0:
256,192,71490,1,0,0:0:0:0:
460,192,71664,1,0,0:0:0:0:
51,192,73408,1,0,0:0:0:0:
358,192,73583,1,0,0:0:0:0:
153,192,73757,1,0,0:0:0:0:
256,192,73932,1,0,0:0:0:0:
460,192,74280,1,0,0:0:0:0:
460,192,74804,1,0,0:0:0:0:
256,192,74978,1,0,0:0:0:0:
460,192,75327,1,0,0:0:0:0:
153,192,75676,1,0,0:0:0:0:
153,192,76199,1,0,0:0:0:0:
460,192,76374,1,0,0:0:0:0:
51,192,76722,1,0,0:0:0:0:
256,192,77071,1,0,0:0:0:0:
256,192,77594,1,0,0:0:0:0:
51,192,77769,1,0,0:0:0:0:
51,192,78118,1,0,0:0:0:0:
358,192,78467,1,0,0:0:0:0:
358,192,78990,1,0,0:0:0:0:
51,192,79164,128,0,79513:0:0:0:0:
358,192,79513,1,0,0:0:0:0:
460,192,79513,1,0,0:0:0:0:
153,192,79862,1,0,0:0:0:0:
358,192,80211,1,0,0:0:0:0:
153,192,80560,1,0,0:0:0:0:
358,192,80908,1,0,0:0:0:0:
153,192,81257,1,0,0:0:0:0:
358,192,81606,1,0,0:0:0:0:
153,192,81955,1,0,0:0:0:0:
460,192,82304,1,0,0:0:0:0:
51,192,82653,1,0,0:0:0:0:
460,192,83001,1,0,0:0:0:0:
51,192,83350,1,0,0:0:0:0:
460,192,83699,1,0,0:0:0:0:
51,192,84048,1,0,0:0:0:0:
460,192,84397,1,0,0:0:0:0:
51,192,84746,1,0,0:0:0:0:
460,192,85094,1,0,0:0:0:0:
358,192,85269,1,0,0:0:0:0:
256,192,85443,1,0,0:0:0:0:
358,192,85618,1,0,0:0:0:0:
51,192,85792,1,0,0:0:0:0:
153,192,85967,1,0,0:0:0:0:
256,192,86141,1,0,0:0:0:0:
153,192,86315,1,0,0:0:0:0:
460,192,86490,1,0,0:0:0:0:
358,192,86664,1,0,0:0:0:0:
256,192,86839,1,0,0:0:0:0:
358,192,87013,1,0,0:0:0:0:
51,192,87187,1,0,0:0:0:0:
153,192,87362,1,0,0:0:0:0:
256,192,87536,1,0,0:0:0:0:
153,192,87711,1,0,0:0:0:0:
460,192,87885,128,0,88234:0:0:0:0:
358,192,88234,128,0,88583:0:0:0:0:
256,192,88583,128,0,88932:0:0:0:0:
153,192,88932,128,0,89280:0:0:0:0:
51,192,89280,128,0,90327:0:0:0:0:
358,192,90327,1,0,0:0:0:0:
460,192,90327,1,0,0:0:0:0:
51,192,90676,1,0,0:0:0:0:
358,192,91025,1,0,0:0:0:0:
153,192,91374,1,0,0:0:0:0:
256,192,91722,1,0,0:0:0:0:
460,192,92071,1,0,0:0:0:0:
153,192,92420,1,0,0:0:0:0:
358,192,92769,1,0,0:0:0:0:
256,192,93118,128,0,93467:0:0:0:0:
51,192,93467,1,0,0:0:0:0:
358,192,93815,1,0,0:0:0:0:
153,192,94164,1,0,0:0:0:0:
256,192,94513,1,0,0:0:0:0:
460,192,94862,1,0,0:0:0:0:
51,192,95211,1,0,0:0:0:0:
358,192,95560,1,0,0:0:0:0:
256,192,95908,1,0,0:0:0:0:
51,192,96257,1,0,0:0:0:0:
358,192,96606,1,0,0:0:0:0:
153,192,96955,1,0,0:0:0:0:
256,192,97304,1,0,0:0:0:0:
460,192,97653,1,0,0:0:0:0:
153,192,98001,1,0,0:0:0:0:
358,192,98350,1,0,0:0:0:0:
51,192,98699,128,0,99048:0:0:0:0:
256,192,99048,1,0,0:0:0:0:
460,192,99397,5,0,0:0:0:0:
153,192,99746,1,0,0:0:0:0:
358,192,100094,1,0,0:0:0:0:
51,192,100443,5,0,0:0:0:0:
460,192,100443,1,0,0:0:0:0:
153,192,100705,1,0,0:0:0:0:
358,192,100705,1,0,0:0:0:0:
51,192,100967,1,0,0:0:0:0:
460,192,100967,1,0,0:0:0:0:
256,192,101228,128,0,101490:0:0:0:0:
51,192,101490,1,0,0:0:0:0:
460,192,101490,1,0,0:0:0:0:
153,192,101839,1,0,0:0:0:0:
460,192,102187,1,0,0:0:0:0:
256,192,102536,1,0,0:0:0:0:
51,192,102885,1,0,0:0:0:0:
358,192,103234,1,0,0:0:0:0:
153,192,103583,1,0,0:0:0:0:
460,192,103932,1,0,0:0:0:0:
256,192,104280,1,0,0:0:0:0:
358,192,104629,1,0,0:0:0:0:
51,192,104978,1,0,0:0:0:0:
256,192,105327,1,0,0:0:0:0:
460,192,105676,1,0,0:0:0:0:
153,192,106025,1,0,0:0:0:0:
358,192,106374,5,0,0:0:0:0:
51,192,106722,1,0,0:0:0:0:
256,192,107071,1,0,0:0:0:0:
51,192,107420,128,0,108118:0:0:0:0:
460,192,108118,1,0,0:0:0:0:
460,192,108815,128,0,109513:0:0:0:0:
51,192,109513,1,0,0:0:0:0:
153,192,110211,128,0,110560:0:0:0:0:
358,192,110560,128,0,110908:0:0:0:0:
153,192,110908,128,0,111257:0:0:0:0:
358,192,111257,128,0,111606:0:0:0:0:
256,192,111606,128,0,112653:0:0:0:0:
51,192,112653,1,0,0:0:0:0:
460,192,113001,1,0,0:0:0:0:
358,192,113525,1,0,0:0:0:0:
51,192,114397,1,0,0:0:0:0:
256,192,114920,1,0,0:0:0:0:
358,192,115792,1,0,0:0:0:0:
153,192,116315,1,0,0:0:0:0:
256,192,117187,1,0,0:0:0:0:
460,192,117711,1,0,0:0:0:0:
256,192,118234,1,0,0:0:0:0:
256,192,121199,1,0,0:0:0:0:
