osu file format v14

[General]
AudioFilename: audio.mp3
AudioLeadIn: 0
PreviewTime: 96080
Countdown: 0
SampleSet: Soft
StackLeniency: 0.4
Mode: 0
LetterboxInBreaks: 0
EpilepsyWarning: 1
WidescreenStoryboard: 1

[Editor]
DistanceSpacing: 1.2
BeatDivisor: 8
GridSize: 8
TimelineZoom: 2.4

[Metadata]
Title:Modelista
TitleUnicode:Modelista
Artist:HiTECH NINJA
ArtistUnicode:HiTECH NINJA
Creator:-jordan-
Version:Present Lv.4
Source:Arcaea
Tags:groove coaster lapix full on electronic instrumental rhythm video game memory archive light lowiro taito corp 2019 yusi fusionnqn misery venerablenyanta jory
BeatmapID:2552522
BeatmapSetID:1148442

[Difficulty]
HPDrainRate:4
CircleSize:3.6
OverallDifficulty:5
ApproachRate:6.5
SliderMultiplier:1.3
SliderTickRate:1

[Events]
//Background and Video events
0,0,"bg.jpg",0,0
//Break Periods
2,52625,56541
2,64262,68905
//Storyboard Layer 0 (Background)
Sprite,Background,Centre,"sb\credits\bm.png",0,0 S,0,125172,,0.5 M,22,125172,125536,320,125,320,145 F,16,125172,125536,0,1 F,0,127354,127536,1,0
Sprite,Background,Centre,"sb\credits\sb.png",0,0 S,0,125536,,0.5 M,22,125536,125900,320,280,320,300 F,16,125536,125900,0,1 F,0,127354,127536,1,0
Sprite,Background,Centre,"sb\credits\ny.png",0,0 S,0,125718,,0.5 M,22,125718,126082,320,315,320,335 F,16,125718,126082,0,1 F,0,127354,127536,1,0
Sprite,Background,Centre,"sb\credits\jd.png",0,0 S,0,125354,,0.5 M,22,125354,125718,320,160,320,180 F,16,125354,125718,0,1 F,0,127354,127536,1,0
//Storyboard Layer 1 (Fail)
//Storyboard Layer 2 (Pass)
//Storyboard Layer 3 (Foreground)
Sprite,Foreground,Centre,"sb\pinkC.png",0,0 M,0,26243,,310,318 F,0,26243,26743,1 S,19,26243,27243,0.1,0.52 F,0,26943,27243,1,0
Sprite,Foreground,Centre,"sb\white.png",0,0 F,0,26243,,0.69 S,0,26243,,0.02688511 R,0,26243,,2 M,19,26243,26643,310,318,297,238 M,0,26643,27243,297,238,296,232 F,0,26943,27243,0.69,0
Sprite,Foreground,Centre,"sb\white.png",0,0 F,0,26243,,0.69 S,0,26243,,0.009768928 R,0,26243,,1 M,19,26243,26643,310,318,239,292 M,0,26643,27243,239,292,233,290 F,0,26943,27243,0.69,0
Sprite,Foreground,Centre,"sb\white.png",0,0 F,0,26243,,0.69 S,0,26243,,0.01638098 R,0,26243,,2 M,19,26243,26643,310,318,407,251 M,0,26643,27243,407,251,415,246 F,0,26943,27243,0.69,0
Sprite,Foreground,Centre,"sb\white.png",0,0 F,0,26243,,0.69 S,0,26243,,0.01217338 R,0,26243,,1 M,19,26243,26643,310,318,295,420 M,0,26643,27243,295,420,294,429 F,0,26943,27243,0.69,0
Sprite,Foreground,Centre,"sb\white.png",0,0 F,0,26243,,0.69 S,0,26243,,0.01714633 R,0,26243,,2 M,19,26243,26643,310,318,259,263 M,0,26643,27243,259,263,254,258 F,0,26943,27243,0.69,0
Sprite,Foreground,Centre,"sb\white.png",0,0 F,0,26243,,0.69 S,0,26243,,0.02814636 R,0,26243,,2 M,19,26243,26643,310,318,408,335 M,0,26643,27243,408,335,417,336 F,0,26943,27243,0.69,0
Sprite,Foreground,Centre,"sb\white.png",0,0 F,0,26243,,0.69 S,0,26243,,0.01280857 R,0,26243,,2 M,19,26243,26643,310,318,264,228 M,0,26643,27243,264,228,260,220 F,0,26943,27243,0.69,0
Sprite,Foreground,Centre,"sb\white.png",0,0 F,0,26243,,0.69 S,0,26243,,0.03177326 R,0,26243,,0 M,19,26243,26643,310,318,380,216 M,0,26643,27243,380,216,387,207 F,0,26943,27243,0.69,0
Sprite,Foreground,Centre,"sb\white.png",0,0 F,0,26243,,0.69 S,0,26243,,0.01873596 R,0,26243,,2 M,19,26243,26643,310,318,279,231 M,0,26643,27243,279,231,277,223 F,0,26943,27243,0.69,0
Sprite,Foreground,Centre,"sb\white.png",0,0 F,0,26243,,0.69 S,0,26243,,0.01931083 R,0,26243,,0 M,19,26243,26643,310,318,268,220 M,0,26643,27243,268,220,264,212 F,0,26943,27243,0.69,0
Sprite,Foreground,Centre,"sb\white.png",0,0 F,0,26243,,0.69 S,0,26243,,0.01669316 R,0,26243,,0 M,19,26243,26643,310,318,356,427 M,0,26643,27243,356,427,360,436 F,0,26943,27243,0.69,0
Sprite,Foreground,Centre,"sb\white.png",0,0 F,0,26243,,0.69 S,0,26243,,0.02199553 R,0,26243,,2 M,19,26243,26643,310,318,417,308 M,0,26643,27243,417,308,426,307 F,0,26943,27243,0.69,0
Sprite,Foreground,Centre,"sb\white.png",0,0 F,0,26243,,0.69 S,0,26243,,0.01466813 R,0,26243,,1 M,19,26243,26643,310,318,381,330 M,0,26643,27243,381,330,387,331 F,0,26943,27243,0.69,0
Sprite,Foreground,Centre,"sb\white.png",0,0 F,0,26243,,0.69 S,0,26243,,0.01814362 R,0,26243,,2 M,19,26243,26643,310,318,396,292 M,0,26643,27243,396,292,404,290 F,0,26943,27243,0.69,0
Sprite,Foreground,Centre,"sb\white.png",0,0 F,0,26243,,0.69 S,0,26243,,0.01165664 R,0,26243,,2 M,19,26243,26643,310,318,393,393 M,0,26643,27243,393,393,400,399 F,0,26943,27243,0.69,0
Sprite,Foreground,Centre,"sb\white.png",0,0 F,0,26243,,0.69 S,0,26243,,0.01344049 R,0,26243,,1 M,19,26243,26643,310,318,327,256 M,0,26643,27243,327,256,329,250 F,0,26943,27243,0.69,0
Sprite,Foreground,Centre,"sb\white.png",0,0 F,0,26243,,0.69 S,0,26243,,0.01019681 R,0,26243,,1 M,19,26243,26643,310,318,375,401 M,0,26643,27243,375,401,380,408 F,0,26943,27243,0.69,0
Sprite,Foreground,Centre,"sb\white.png",0,0 F,0,26243,,0.69 S,0,26243,,0.02135525 R,0,26243,,1 M,19,26243,26643,310,318,291,232 M,0,26643,27243,291,232,290,225 F,0,26943,27243,0.69,0
Sprite,Foreground,Centre,"sb\white.png",0,0 F,0,26243,,0.69 S,0,26243,,0.02858936 R,0,26243,,2 M,19,26243,26643,310,318,344,412 M,0,26643,27243,344,412,347,420 F,0,26943,27243,0.69,0
Sprite,Foreground,Centre,"sb\white.png",0,0 F,0,26243,,0.69 S,0,26243,,0.02803014 R,0,26243,,2 M,19,26243,26643,310,318,296,190 M,0,26643,27243,296,190,295,179 F,0,26943,27243,0.69,0
Sprite,Foreground,Centre,"sb\white.png",0,0 F,0,26243,,0.69 S,0,26243,,0.01011539 R,0,26243,,2 M,19,26243,26643,310,318,235,245 M,0,26643,27243,235,245,228,239 F,0,26943,27243,0.69,0
Sprite,Foreground,Centre,"sb\white.png",0,0 F,0,26243,,0.69 S,0,26243,,0.006424237 R,0,26243,,2 M,19,26243,26643,310,318,377,265 M,0,26643,27243,377,265,383,260 F,0,26943,27243,0.69,0
Sprite,Foreground,Centre,"sb\white.png",0,0 F,0,26243,,0.69 S,0,26243,,0.02203523 R,0,26243,,2 M,19,26243,26643,310,318,351,392 M,0,26643,27243,351,392,355,399 F,0,26943,27243,0.69,0
Sprite,Foreground,Centre,"sb\white.png",0,0 F,0,26243,,0.69 S,0,26243,,0.03199923 R,0,26243,,1 M,19,26243,26643,310,318,327,400 M,0,26643,27243,327,400,329,407 F,0,26943,27243,0.69,0
Sprite,Foreground,Centre,"sb\white.png",0,0 F,0,26243,,0.69 S,0,26243,,0.02415233 R,0,26243,,2 M,19,26243,26643,310,318,237,218 M,0,26643,27243,237,218,231,209 F,0,26943,27243,0.69,0
Sprite,Foreground,Centre,"sb\white.png",0,0 F,0,26243,,0.69 S,0,26243,,0.02441463 R,0,26243,,2 M,19,26243,26643,310,318,365,358 M,0,26643,27243,365,358,370,362 F,0,26943,27243,0.69,0
Sprite,Foreground,Centre,"sb\white.png",0,0 F,0,26243,,0.69 S,0,26243,,0.02934494 R,0,26243,,0 M,19,26243,26643,310,318,393,401 M,0,26643,27243,393,401,400,408 F,0,26943,27243,0.69,0
Sprite,Foreground,Centre,"sb\white.png",0,0 F,0,26243,,0.69 S,0,26243,,0.01914227 R,0,26243,,0 M,19,26243,26643,310,318,243,328 M,0,26643,27243,243,328,237,329 F,0,26943,27243,0.69,0
Sprite,Foreground,Centre,"sb\white.png",0,0 F,0,26243,,0.69 S,0,26243,,0.01711514 R,0,26243,,2 M,19,26243,26643,310,318,247,205 M,0,26643,27243,247,205,241,195 F,0,26943,27243,0.69,0
Sprite,Foreground,Centre,"sb\white.png",0,0 F,0,26243,,0.69 S,0,26243,,0.02622165 R,0,26243,,2 M,19,26243,26643,310,318,352,205 M,0,26643,27243,352,205,356,195 F,0,26943,27243,0.69,0
Sprite,Foreground,Centre,"sb\white.png",0,0 F,0,26243,,0.69 S,0,26243,,0.01225991 R,0,26243,,1 M,19,26243,26643,310,318,432,265 M,0,26643,27243,432,265,443,260 F,0,26943,27243,0.69,0
Sprite,Foreground,Centre,"sb\white.png",0,0 F,0,26243,,0.69 S,0,26243,,0.01331249 R,0,26243,,0 M,19,26243,26643,310,318,238,203 M,0,26643,27243,238,203,231,193 F,0,26943,27243,0.69,0
Sprite,Foreground,Centre,"sb\white.png",0,0 F,0,26243,,0.69 S,0,26243,,0.0102305 R,0,26243,,0 M,19,26243,26643,310,318,359,211 M,0,26643,27243,359,211,363,202 F,0,26943,27243,0.69,0
Sprite,Foreground,Centre,"sb\white.png",0,0 F,0,26243,,0.69 S,0,26243,,0.02148944 R,0,26243,,2 M,19,26243,26643,310,318,416,365 M,0,26643,27243,416,365,426,369 F,0,26943,27243,0.69,0
Sprite,Foreground,Centre,"sb\white.png",0,0 F,0,26243,,0.69 S,0,26243,,0.02997385 R,0,26243,,0 M,19,26243,26643,310,318,255,261 M,0,26643,27243,255,261,250,256 F,0,26943,27243,0.69,0
Sprite,Foreground,Centre,"sb\white.png",0,0 F,0,26243,,0.69 S,0,26243,,0.005862605 R,0,26243,,2 M,19,26243,26643,310,318,393,277 M,0,26643,27243,393,277,400,273 F,0,26943,27243,0.69,0
Sprite,Foreground,Centre,"sb\white.png",0,0 F,0,26243,,0.69 S,0,26243,,0.006631385 R,0,26243,,0 M,19,26243,26643,310,318,280,256 M,0,26643,27243,280,256,277,251 F,0,26943,27243,0.69,0
Sprite,Foreground,Centre,"sb\white.png",0,0 F,0,26243,,0.69 S,0,26243,,0.02107637 R,0,26243,,2 M,19,26243,26643,310,318,390,380 M,0,26643,27243,390,380,397,386 F,0,26943,27243,0.69,0
Sprite,Foreground,Centre,"sb\white.png",0,0 F,0,26243,,0.69 S,0,26243,,0.008145575 R,0,26243,,2 M,19,26243,26643,310,318,175,327 M,0,26643,27243,175,327,163,328 F,0,26943,27243,0.69,0
Sprite,Foreground,Centre,"sb\white.png",0,0 F,0,26243,,0.69 S,0,26243,,0.01031129 R,0,26243,,1 M,19,26243,26643,310,318,188,261 M,0,26643,27243,188,261,177,256 F,0,26943,27243,0.69,0
Sprite,Foreground,Centre,"sb\white.png",0,0 F,0,26243,,0.69 S,0,26243,,0.01410629 R,0,26243,,2 M,19,26243,26643,310,318,410,319 M,0,26643,27243,410,319,418,319 F,0,26943,27243,0.69,0
Sprite,Foreground,Centre,"sb\white.png",0,0 F,0,26243,,0.69 S,0,26243,,0.01188612 R,0,26243,,2 M,19,26243,26643,310,318,389,350 M,0,26643,27243,389,350,396,352 F,0,26943,27243,0.69,0
Sprite,Foreground,Centre,"sb\white.png",0,0 F,0,26243,,0.69 S,0,26243,,0.03168675 R,0,26243,,1 M,19,26243,26643,310,318,422,287 M,0,26643,27243,422,287,432,284 F,0,26943,27243,0.69,0
Sprite,Foreground,Centre,"sb\white.png",0,0 F,0,26243,,0.69 S,0,26243,,0.01184911 R,0,26243,,1 M,19,26243,26643,310,318,214,304 M,0,26643,27243,214,304,205,303 F,0,26943,27243,0.69,0
Sprite,Foreground,Centre,"sb\white.png",0,0 F,0,26243,,0.69 S,0,26243,,0.005596235 R,0,26243,,0 M,19,26243,26643,310,318,178,292 M,0,26643,27243,178,292,166,290 F,0,26943,27243,0.69,0
Sprite,Foreground,Centre,"sb\white.png",0,0 F,0,26243,,0.69 S,0,26243,,0.02769963 R,0,26243,,1 M,19,26243,26643,310,318,186,322 M,0,26643,27243,186,322,176,322 F,0,26943,27243,0.69,0
Sprite,Foreground,Centre,"sb\white.png",0,0 F,0,26243,,0.69 S,0,26243,,0.02478521 R,0,26243,,1 M,19,26243,26643,310,318,386,375 M,0,26643,27243,386,375,393,380 F,0,26943,27243,0.69,0
Sprite,Foreground,Centre,"sb\white.png",0,0 F,0,26243,,0.69 S,0,26243,,0.007659554 R,0,26243,,2 M,19,26243,26643,310,318,419,269 M,0,26643,27243,419,269,428,264 F,0,26943,27243,0.69,0
Sprite,Foreground,Centre,"sb\white.png",0,0 F,0,26243,,0.69 S,0,26243,,0.0272559 R,0,26243,,2 M,19,26243,26643,310,318,227,246 M,0,26643,27243,227,246,220,240 F,0,26943,27243,0.69,0
Sprite,Foreground,Centre,"sb\white.png",0,0 F,0,26243,,0.69 S,0,26243,,0.008837493 R,0,26243,,0 M,19,26243,26643,310,318,218,275 M,0,26643,27243,218,275,210,271 F,0,26943,27243,0.69,0
Sprite,Foreground,Centre,"sb\white.png",0,0 F,0,26243,,0.69 S,0,26243,,0.01102095 R,0,26243,,2 M,19,26243,26643,310,318,251,271 M,0,26643,27243,251,271,246,267 F,0,26943,27243,0.69,0
Sprite,Foreground,Centre,"sb\white.png",0,0 F,0,26243,,0.69 S,0,26243,,0.005776226 R,0,26243,,0 M,19,26243,26643,310,318,223,279 M,0,26643,27243,223,279,215,276 F,0,26943,27243,0.69,0
Sprite,Foreground,Centre,"sb\white.png",0,0 F,0,26243,,0.69 S,0,26243,,0.01990641 R,0,26243,,1 M,19,26243,26643,310,318,356,246 M,0,26643,27243,356,246,360,239 F,0,26943,27243,0.69,0
Sprite,Foreground,Centre,"sb\white.png",0,0 F,0,26243,,0.69 S,0,26243,,0.03116356 R,0,26243,,0 M,19,26243,26643,310,318,185,307 M,0,26643,27243,185,307,174,306 F,0,26943,27243,0.69,0
Sprite,Foreground,Centre,"sb\white.png",0,0 F,0,26243,,0.69 S,0,26243,,0.008361429 R,0,26243,,2 M,19,26243,26643,310,318,196,310 M,0,26643,27243,196,310,186,309 F,0,26943,27243,0.69,0
Sprite,Foreground,Centre,"sb\white.png",0,0 F,0,26243,,0.69 S,0,26243,,0.02011102 R,0,26243,,1 M,19,26243,26643,310,318,239,231 M,0,26643,27243,239,231,233,224 F,0,26943,27243,0.69,0
Sprite,Foreground,Centre,"sb\white.png",0,0 F,0,26243,,0.69 S,0,26243,,0.0318473 R,0,26243,,0 M,19,26243,26643,310,318,275,253 M,0,26643,27243,275,253,272,247 F,0,26943,27243,0.69,0
Sprite,Foreground,Centre,"sb\white.png",0,0 F,0,26243,,0.69 S,0,26243,,0.01703969 R,0,26243,,1 M,19,26243,26643,310,318,396,354 M,0,26643,27243,396,354,403,357 F,0,26943,27243,0.69,0
Sprite,Foreground,Centre,"sb\white.png",0,0 F,0,26243,,0.69 S,0,26243,,0.006007309 R,0,26243,,0 M,19,26243,26643,310,318,331,410 M,0,26643,27243,331,410,333,418 F,0,26943,27243,0.69,0
Sprite,Foreground,Centre,"sb\white.png",0,0 F,0,26243,,0.69 S,0,26243,,0.0165132 R,0,26243,,1 M,19,26243,26643,310,318,348,371 M,0,26643,27243,348,371,352,376 F,0,26943,27243,0.69,0
Sprite,Foreground,Centre,"sb\white.png",0,0 F,0,26243,,0.69 S,0,26243,,0.01488746 R,0,26243,,2 M,19,26243,26643,310,318,386,327 M,0,26643,27243,386,327,393,328 F,0,26943,27243,0.69,0
Sprite,Foreground,Centre,"sb\white.png",0,0 F,0,26243,,0.69 S,0,26243,,0.02958162 R,0,26243,,0 M,19,26243,26643,310,318,334,392 M,0,26643,27243,334,392,336,398 F,0,26943,27243,0.69,0
Sprite,Foreground,Centre,"sb\white.png",0,0 F,0,26243,,0.69 S,0,26243,,0.03096091 R,0,26243,,2 M,19,26243,26643,310,318,208,312 M,0,26643,27243,208,312,199,312 F,0,26943,27243,0.69,0
Sprite,Foreground,Centre,"sb\white.png",0,0 F,0,26243,,0.69 S,0,26243,,0.02229852 R,0,26243,,0 M,19,26243,26643,310,318,402,327 M,0,26643,27243,402,327,410,328 F,0,26943,27243,0.69,0
Sprite,Foreground,Centre,"sb\white.png",0,0 F,0,26243,,0.69 S,0,26243,,0.02045819 R,0,26243,,2 M,19,26243,26643,310,318,409,296 M,0,26643,27243,409,296,418,294 F,0,26943,27243,0.69,0
Sprite,Foreground,Centre,"sb\white.png",0,0 F,0,26243,,0.69 S,0,26243,,0.01577191 R,0,26243,,2 M,19,26243,26643,310,318,281,377 M,0,26643,27243,281,377,278,382 F,0,26943,27243,0.69,0
Sprite,Foreground,Centre,"sb\white.png",0,0 F,0,26243,,0.69 S,0,26243,,0.03124084 R,0,26243,,0 M,19,26243,26643,310,318,391,244 M,0,26643,27243,391,244,398,238 F,0,26943,27243,0.69,0
Sprite,Foreground,Centre,"sb\white.png",0,0 F,0,26243,,0.69 S,0,26243,,0.02912309 R,0,26243,,0 M,19,26243,26643,310,318,374,386 M,0,26643,27243,374,386,379,392 F,0,26943,27243,0.69,0
Sprite,Foreground,Centre,"sb\white.png",0,0 F,0,26243,,0.69 S,0,26243,,0.0192504 R,0,26243,,2 M,19,26243,26643,310,318,383,249 M,0,26643,27243,383,249,389,243 F,0,26943,27243,0.69,0
Sprite,Foreground,Centre,"sb\white.png",0,0 F,0,26243,,0.69 S,0,26243,,0.01386674 R,0,26243,,2 M,19,26243,26643,310,318,243,312 M,0,26643,27243,243,312,237,311 F,0,26943,27243,0.69,0
Sprite,Foreground,Centre,"sb\white.png",0,0 F,0,26243,,0.69 S,0,26243,,0.02336837 R,0,26243,,0 M,19,26243,26643,310,318,409,339 M,0,26643,27243,409,339,418,341 F,0,26943,27243,0.69,0
Sprite,Foreground,Centre,"sb\white.png",0,0 F,0,26243,,0.69 S,0,26243,,0.01790247 R,0,26243,,1 M,19,26243,26643,310,318,338,397 M,0,26643,27243,338,397,341,404 F,0,26943,27243,0.69,0
Sprite,Foreground,Centre,"sb\white.png",0,0 F,0,26243,,0.69 S,0,26243,,0.01269017 R,0,26243,,0 M,19,26243,26643,310,318,301,440 M,0,26643,27243,301,440,300,451 F,0,26943,27243,0.69,0
Sprite,Foreground,Centre,"sb\white.png",0,0 F,0,26243,,0.69 S,0,26243,,0.007725679 R,0,26243,,1 M,19,26243,26643,310,318,335,196 M,0,26643,27243,335,196,337,185 F,0,26943,27243,0.69,0
Sprite,Foreground,Centre,"sb\white.png",0,0 F,0,26243,,0.69 S,0,26243,,0.02235734 R,0,26243,,1 M,19,26243,26643,310,318,196,274 M,0,26643,27243,196,274,186,270 F,0,26943,27243,0.69,0
Sprite,Foreground,Centre,"sb\white.png",0,0 F,0,26243,,0.69 S,0,26243,,0.006724006 R,0,26243,,2 M,19,26243,26643,310,318,391,329 M,0,26643,27243,391,329,398,330 F,0,26943,27243,0.69,0
Sprite,Foreground,Centre,"sb\glow.png",466,56 C,0,28325,,17,196,255 F,0,28325,28425,0,0.6 F,0,29107,29207,0.6,0
Sprite,Foreground,Centre,"sb\glow.png",457.0789,56.54068 C,0,28350,,17,196,255 F,0,28350,28450,0,0.6 F,0,29107,29207,0.6,0
Sprite,Foreground,Centre,"sb\glow.png",448.1577,57.08135 C,0,28375,,17,196,255 F,0,28375,28475,0,0.6 F,0,29107,29207,0.6,0
Sprite,Foreground,Centre,"sb\glow.png",439.2366,57.62202 C,0,28400,,17,196,255 F,0,28400,28500,0,0.6 F,0,29107,29207,0.6,0
Sprite,Foreground,Centre,"sb\glow.png",431.256,60.04733 C,0,28425,,17,196,255 F,0,28425,28525,0,0.6 F,0,29107,29207,0.6,0
Sprite,Foreground,Centre,"sb\glow.png",425.4603,66.85094 C,0,28450,,17,196,255 F,0,28450,28550,0,0.6 F,0,29107,29207,0.6,0
Sprite,Foreground,Centre,"sb\glow.png",419.6646,73.65455 C,0,28475,,17,196,255 F,0,28475,28575,0,0.6 F,0,29107,29207,0.6,0
Sprite,Foreground,Centre,"sb\glow.png",413.869,80.45816 C,0,28500,,17,196,255 F,0,28500,28600,0,0.6 F,0,29107,29207,0.6,0
Sprite,Foreground,Centre,"sb\glow.png",360,142 C,0,28689,,17,196,255 F,0,28689,28789,0,0.6 F,0,29471,29571,0.6,0
Sprite,Foreground,Centre,"sb\glow.png",351.0789,142.5407 C,0,28714,,17,196,255 F,0,28714,28814,0,0.6 F,0,29471,29571,0.6,0
Sprite,Foreground,Centre,"sb\glow.png",342.1577,143.0814 C,0,28739,,17,196,255 F,0,28739,28839,0,0.6 F,0,29471,29571,0.6,0
Sprite,Foreground,Centre,"sb\glow.png",333.2366,143.622 C,0,28764,,17,196,255 F,0,28764,28864,0,0.6 F,0,29471,29571,0.6,0
Sprite,Foreground,Centre,"sb\glow.png",324.915,142.3011 C,0,28789,,17,196,255 F,0,28789,28889,0,0.6 F,0,29471,29571,0.6,0
Sprite,Foreground,Centre,"sb\glow.png",317.9864,136.6556 C,0,28814,,17,196,255 F,0,28814,28914,0,0.6 F,0,29471,29571,0.6,0
Sprite,Foreground,Centre,"sb\glow.png",311.0577,131.01 C,0,28839,,17,196,255 F,0,28839,28939,0,0.6 F,0,29471,29571,0.6,0
Sprite,Foreground,Centre,"sb\glow.png",304.1291,125.3644 C,0,28864,,17,196,255 F,0,28864,28964,0,0.6 F,0,29471,29571,0.6,0
Sprite,Foreground,Centre,"sb\blueC.png",0,0 M,0,29152,,265,56 F,0,29152,29652,1 S,19,29152,30152,0.1,0.52 F,0,29852,30152,1,0
Sprite,Foreground,Centre,"sb\white.png",0,0 F,0,29152,,0.69 S,0,29152,,0.02897989 R,0,29152,,1 M,19,29152,29552,265,56,244,-19 M,0,29552,30152,244,-19,242,-26 F,0,29852,30152,0.69,0
Sprite,Foreground,Centre,"sb\white.png",0,0 F,0,29152,,0.69 S,0,29152,,0.01141533 R,0,29152,,1 M,19,29152,29552,265,56,263,135 M,0,29552,30152,263,135,263,141 F,0,29852,30152,0.69,0
Sprite,Foreground,Centre,"sb\white.png",0,0 F,0,29152,,0.69 S,0,29152,,0.02885237 R,0,29152,,1 M,19,29152,29552,265,56,296,141 M,0,29552,30152,296,141,298,149 F,0,29852,30152,0.69,0
Sprite,Foreground,Centre,"sb\white.png",0,0 F,0,29152,,0.69 S,0,29152,,0.01295194 R,0,29152,,1 M,19,29152,29552,265,56,185,-34 M,0,29552,30152,185,-34,178,-42 F,0,29852,30152,0.69,0
Sprite,Foreground,Centre,"sb\white.png",0,0 F,0,29152,,0.69 S,0,29152,,0.03187178 R,0,29152,,1 M,19,29152,29552,265,56,267,122 M,0,29552,30152,267,122,267,127 F,0,29852,30152,0.69,0
Sprite,Foreground,Centre,"sb\white.png",0,0 F,0,29152,,0.69 S,0,29152,,0.03153595 R,0,29152,,2 M,19,29152,29552,265,56,349,56 M,0,29552,30152,349,56,357,56 F,0,29852,30152,0.69,0
Sprite,Foreground,Centre,"sb\white.png",0,0 F,0,29152,,0.69 S,0,29152,,0.02562319 R,0,29152,,0 M,19,29152,29552,265,56,312,126 M,0,29552,30152,312,126,317,133 F,0,29852,30152,0.69,0
Sprite,Foreground,Centre,"sb\white.png",0,0 F,0,29152,,0.69 S,0,29152,,0.005750071 R,0,29152,,0 M,19,29152,29552,265,56,307,161 M,0,29552,30152,307,161,311,170 F,0,29852,30152,0.69,0
Sprite,Foreground,Centre,"sb\white.png",0,0 F,0,29152,,0.69 S,0,29152,,0.006853868 R,0,29152,,2 M,19,29152,29552,265,56,252,-45 M,0,29552,30152,252,-45,251,-54 F,0,29852,30152,0.69,0
Sprite,Foreground,Centre,"sb\white.png",0,0 F,0,29152,,0.69 S,0,29152,,0.02004329 R,0,29152,,0 M,19,29152,29552,265,56,184,-43 M,0,29552,30152,184,-43,177,-51 F,0,29852,30152,0.69,0
Sprite,Foreground,Centre,"sb\white.png",0,0 F,0,29152,,0.69 S,0,29152,,0.02806826 R,0,29152,,1 M,19,29152,29552,265,56,301,-4 M,0,29552,30152,301,-4,304,-10 F,0,29852,30152,0.69,0
Sprite,Foreground,Centre,"sb\white.png",0,0 F,0,29152,,0.69 S,0,29152,,0.02648871 R,0,29152,,1 M,19,29152,29552,265,56,367,-13 M,0,29552,30152,367,-13,375,-19 F,0,29852,30152,0.69,0
Sprite,Foreground,Centre,"sb\white.png",0,0 F,0,29152,,0.69 S,0,29152,,0.02578779 R,0,29152,,1 M,19,29152,29552,265,56,222,124 M,0,29552,30152,222,124,218,130 F,0,29852,30152,0.69,0
Sprite,Foreground,Centre,"sb\white.png",0,0 F,0,29152,,0.69 S,0,29152,,0.03197217 R,0,29152,,1 M,19,29152,29552,265,56,186,-44 M,0,29552,30152,186,-44,179,-53 F,0,29852,30152,0.69,0
Sprite,Foreground,Centre,"sb\white.png",0,0 F,0,29152,,0.69 S,0,29152,,0.02146754 R,0,29152,,2 M,19,29152,29552,265,56,352,110 M,0,29552,30152,352,110,359,115 F,0,29852,30152,0.69,0
Sprite,Foreground,Centre,"sb\white.png",0,0 F,0,29152,,0.69 S,0,29152,,0.01910723 R,0,29152,,0 M,19,29152,29552,265,56,353,-36 M,0,29552,30152,353,-36,361,-44 F,0,29852,30152,0.69,0
Sprite,Foreground,Centre,"sb\white.png",0,0 F,0,29152,,0.69 S,0,29152,,0.01960903 R,0,29152,,2 M,19,29152,29552,265,56,389,56 M,0,29552,30152,389,56,400,56 F,0,29852,30152,0.69,0
Sprite,Foreground,Centre,"sb\white.png",0,0 F,0,29152,,0.69 S,0,29152,,0.0282527 R,0,29152,,0 M,19,29152,29552,265,56,188,130 M,0,29552,30152,188,130,181,136 F,0,29852,30152,0.69,0
Sprite,Foreground,Centre,"sb\white.png",0,0 F,0,29152,,0.69 S,0,29152,,0.01855888 R,0,29152,,2 M,19,29152,29552,265,56,292,-65 M,0,29552,30152,292,-65,295,-75 F,0,29852,30152,0.69,0
Sprite,Foreground,Centre,"sb\white.png",0,0 F,0,29152,,0.69 S,0,29152,,0.0186303 R,0,29152,,0 M,19,29152,29552,265,56,146,26 M,0,29552,30152,146,26,135,24 F,0,29852,30152,0.69,0
Sprite,Foreground,Centre,"sb\white.png",0,0 F,0,29152,,0.69 S,0,29152,,0.01949055 R,0,29152,,0 M,19,29152,29552,265,56,173,-45 M,0,29552,30152,173,-45,165,-53 F,0,29852,30152,0.69,0
Sprite,Foreground,Centre,"sb\white.png",0,0 F,0,29152,,0.69 S,0,29152,,0.02641765 R,0,29152,,1 M,19,29152,29552,265,56,266,140 M,0,29552,30152,266,140,266,147 F,0,29852,30152,0.69,0
Sprite,Foreground,Centre,"sb\white.png",0,0 F,0,29152,,0.69 S,0,29152,,0.01344712 R,0,29152,,0 M,19,29152,29552,265,56,363,1 M,0,29552,30152,363,1,371,-3 F,0,29852,30152,0.69,0
Sprite,Foreground,Centre,"sb\white.png",0,0 F,0,29152,,0.69 S,0,29152,,0.02251757 R,0,29152,,0 M,19,29152,29552,265,56,317,128 M,0,29552,30152,317,128,322,134 F,0,29852,30152,0.69,0
Sprite,Foreground,Centre,"sb\white.png",0,0 F,0,29152,,0.69 S,0,29152,,0.01827916 R,0,29152,,2 M,19,29152,29552,265,56,199,42 M,0,29552,30152,199,42,193,40 F,0,29852,30152,0.69,0
Sprite,Foreground,Centre,"sb\white.png",0,0 F,0,29152,,0.69 S,0,29152,,0.006833809 R,0,29152,,1 M,19,29152,29552,265,56,151,70 M,0,29552,30152,151,70,141,71 F,0,29852,30152,0.69,0
Sprite,Foreground,Centre,"sb\white.png",0,0 F,0,29152,,0.69 S,0,29152,,0.02806972 R,0,29152,,1 M,19,29152,29552,265,56,342,125 M,0,29552,30152,342,125,349,131 F,0,29852,30152,0.69,0
Sprite,Foreground,Centre,"sb\white.png",0,0 F,0,29152,,0.69 S,0,29152,,0.02193885 R,0,29152,,0 M,19,29152,29552,265,56,241,-14 M,0,29552,30152,241,-14,239,-20 F,0,29852,30152,0.69,0
Sprite,Foreground,Centre,"sb\white.png",0,0 F,0,29152,,0.69 S,0,29152,,0.01682279 R,0,29152,,2 M,19,29152,29552,265,56,159,9 M,0,29552,30152,159,9,149,4 F,0,29852,30152,0.69,0
Sprite,Foreground,Centre,"sb\white.png",0,0 F,0,29152,,0.69 S,0,29152,,0.007373993 R,0,29152,,0 M,19,29152,29552,265,56,362,150 M,0,29552,30152,362,150,371,158 F,0,29852,30152,0.69,0
Sprite,Foreground,Centre,"sb\white.png",0,0 F,0,29152,,0.69 S,0,29152,,0.02637985 R,0,29152,,0 M,19,29152,29552,265,56,217,5 M,0,29552,30152,217,5,213,1 F,0,29852,30152,0.69,0
Sprite,Foreground,Centre,"sb\white.png",0,0 F,0,29152,,0.69 S,0,29152,,0.004363668 R,0,29152,,1 M,19,29152,29552,265,56,255,166 M,0,29552,30152,255,166,254,176 F,0,29852,30152,0.69,0
Sprite,Foreground,Centre,"sb\white.png",0,0 F,0,29152,,0.69 S,0,29152,,0.02751312 R,0,29152,,2 M,19,29152,29552,265,56,241,143 M,0,29552,30152,241,143,239,151 F,0,29852,30152,0.69,0
Sprite,Foreground,Centre,"sb\white.png",0,0 F,0,29152,,0.69 S,0,29152,,0.03064377 R,0,29152,,0 M,19,29152,29552,265,56,202,45 M,0,29552,30152,202,45,197,44 F,0,29852,30152,0.69,0
Sprite,Foreground,Centre,"sb\white.png",0,0 F,0,29152,,0.69 S,0,29152,,0.0278486 R,0,29152,,2 M,19,29152,29552,265,56,381,13 M,0,29552,30152,381,13,391,9 F,0,29852,30152,0.69,0
Sprite,Foreground,Centre,"sb\white.png",0,0 F,0,29152,,0.69 S,0,29152,,0.02764151 R,0,29152,,1 M,19,29152,29552,265,56,143,82 M,0,29552,30152,143,82,132,84 F,0,29852,30152,0.69,0
Sprite,Foreground,Centre,"sb\white.png",0,0 F,0,29152,,0.69 S,0,29152,,0.01252016 R,0,29152,,1 M,19,29152,29552,265,56,173,26 M,0,29552,30152,173,26,165,23 F,0,29852,30152,0.69,0
Sprite,Foreground,Centre,"sb\white.png",0,0 F,0,29152,,0.69 S,0,29152,,0.01581015 R,0,29152,,1 M,19,29152,29552,265,56,195,114 M,0,29552,30152,195,114,189,119 F,0,29852,30152,0.69,0
Sprite,Foreground,Centre,"sb\white.png",0,0 F,0,29152,,0.69 S,0,29152,,0.03009593 R,0,29152,,2 M,19,29152,29552,265,56,210,16 M,0,29552,30152,210,16,205,13 F,0,29852,30152,0.69,0
Sprite,Foreground,Centre,"sb\white.png",0,0 F,0,29152,,0.69 S,0,29152,,0.02305425 R,0,29152,,1 M,19,29152,29552,265,56,243,126 M,0,29552,30152,243,126,241,132 F,0,29852,30152,0.69,0
Sprite,Foreground,Centre,"sb\white.png",0,0 F,0,29152,,0.69 S,0,29152,,0.02637924 R,0,29152,,0 M,19,29152,29552,265,56,190,71 M,0,29552,30152,190,71,183,73 F,0,29852,30152,0.69,0
Sprite,Foreground,Centre,"sb\white.png",0,0 F,0,29152,,0.69 S,0,29152,,0.01855031 R,0,29152,,2 M,19,29152,29552,265,56,335,9 M,0,29552,30152,335,9,342,5 F,0,29852,30152,0.69,0
Sprite,Foreground,Centre,"sb\white.png",0,0 F,0,29152,,0.69 S,0,29152,,0.01158553 R,0,29152,,1 M,19,29152,29552,265,56,359,23 M,0,29552,30152,359,23,367,20 F,0,29852,30152,0.69,0
Sprite,Foreground,Centre,"sb\white.png",0,0 F,0,29152,,0.69 S,0,29152,,0.009264598 R,0,29152,,0 M,19,29152,29552,265,56,221,142 M,0,29552,30152,221,142,217,149 F,0,29852,30152,0.69,0
Sprite,Foreground,Centre,"sb\white.png",0,0 F,0,29152,,0.69 S,0,29152,,0.02048897 R,0,29152,,2 M,19,29152,29552,265,56,203,2 M,0,29552,30152,203,2,197,-2 F,0,29852,30152,0.69,0
Sprite,Foreground,Centre,"sb\white.png",0,0 F,0,29152,,0.69 S,0,29152,,0.02519043 R,0,29152,,2 M,19,29152,29552,265,56,217,115 M,0,29552,30152,217,115,212,120 F,0,29852,30152,0.69,0
Sprite,Foreground,Centre,"sb\white.png",0,0 F,0,29152,,0.69 S,0,29152,,0.006871135 R,0,29152,,1 M,19,29152,29552,265,56,316,102 M,0,29552,30152,316,102,321,106 F,0,29852,30152,0.69,0
Sprite,Foreground,Centre,"sb\white.png",0,0 F,0,29152,,0.69 S,0,29152,,0.01997581 R,0,29152,,2 M,19,29152,29552,265,56,179,-42 M,0,29552,30152,179,-42,171,-50 F,0,29852,30152,0.69,0
Sprite,Foreground,Centre,"sb\white.png",0,0 F,0,29152,,0.69 S,0,29152,,0.01070973 R,0,29152,,1 M,19,29152,29552,265,56,354,-47 M,0,29552,30152,354,-47,361,-55 F,0,29852,30152,0.69,0
Sprite,Foreground,Centre,"sb\white.png",0,0 F,0,29152,,0.69 S,0,29152,,0.02257676 R,0,29152,,0 M,19,29152,29552,265,56,155,-14 M,0,29552,30152,155,-14,145,-21 F,0,29852,30152,0.69,0
Sprite,Foreground,Centre,"sb\white.png",0,0 F,0,29152,,0.69 S,0,29152,,0.0318662 R,0,29152,,0 M,19,29152,29552,265,56,168,37 M,0,29552,30152,168,37,159,35 F,0,29852,30152,0.69,0
Sprite,Foreground,Centre,"sb\white.png",0,0 F,0,29152,,0.69 S,0,29152,,0.005786427 R,0,29152,,0 M,19,29152,29552,265,56,167,69 M,0,29552,30152,167,69,159,71 F,0,29852,30152,0.69,0
Sprite,Foreground,Centre,"sb\white.png",0,0 F,0,29152,,0.69 S,0,29152,,0.005017607 R,0,29152,,0 M,19,29152,29552,265,56,358,45 M,0,29552,30152,358,45,366,45 F,0,29852,30152,0.69,0
Sprite,Foreground,Centre,"sb\white.png",0,0 F,0,29152,,0.69 S,0,29152,,0.01848256 R,0,29152,,1 M,19,29152,29552,265,56,376,79 M,0,29552,30152,376,79,386,81 F,0,29852,30152,0.69,0
Sprite,Foreground,Centre,"sb\white.png",0,0 F,0,29152,,0.69 S,0,29152,,0.01028036 R,0,29152,,0 M,19,29152,29552,265,56,337,-33 M,0,29552,30152,337,-33,343,-41 F,0,29852,30152,0.69,0
Sprite,Foreground,Centre,"sb\white.png",0,0 F,0,29152,,0.69 S,0,29152,,0.02571466 R,0,29152,,2 M,19,29152,29552,265,56,335,160 M,0,29552,30152,335,160,341,169 F,0,29852,30152,0.69,0
Sprite,Foreground,Centre,"sb\white.png",0,0 F,0,29152,,0.69 S,0,29152,,0.0107283 R,0,29152,,0 M,19,29152,29552,265,56,266,-36 M,0,29552,30152,266,-36,266,-44 F,0,29852,30152,0.69,0
Sprite,Foreground,Centre,"sb\white.png",0,0 F,0,29152,,0.69 S,0,29152,,0.009032021 R,0,29152,,1 M,19,29152,29552,265,56,323,112 M,0,29552,30152,323,112,329,117 F,0,29852,30152,0.69,0
Sprite,Foreground,Centre,"sb\white.png",0,0 F,0,29152,,0.69 S,0,29152,,0.0272261 R,0,29152,,0 M,19,29152,29552,265,56,248,-61 M,0,29552,30152,248,-61,246,-71 F,0,29852,30152,0.69,0
Sprite,Foreground,Centre,"sb\white.png",0,0 F,0,29152,,0.69 S,0,29152,,0.005248467 R,0,29152,,0 M,19,29152,29552,265,56,209,96 M,0,29552,30152,209,96,205,99 F,0,29852,30152,0.69,0
Sprite,Foreground,Centre,"sb\white.png",0,0 F,0,29152,,0.69 S,0,29152,,0.01399375 R,0,29152,,1 M,19,29152,29552,265,56,132,70 M,0,29552,30152,132,70,120,71 F,0,29852,30152,0.69,0
Sprite,Foreground,Centre,"sb\white.png",0,0 F,0,29152,,0.69 S,0,29152,,0.02623951 R,0,29152,,0 M,19,29152,29552,265,56,200,94 M,0,29552,30152,200,94,194,98 F,0,29852,30152,0.69,0
Sprite,Foreground,Centre,"sb\white.png",0,0 F,0,29152,,0.69 S,0,29152,,0.00777759 R,0,29152,,1 M,19,29152,29552,265,56,346,114 M,0,29552,30152,346,114,353,120 F,0,29852,30152,0.69,0
Sprite,Foreground,Centre,"sb\white.png",0,0 F,0,29152,,0.69 S,0,29152,,0.01449954 R,0,29152,,2 M,19,29152,29552,265,56,268,-50 M,0,29552,30152,268,-50,268,-59 F,0,29852,30152,0.69,0
Sprite,Foreground,Centre,"sb\white.png",0,0 F,0,29152,,0.69 S,0,29152,,0.006389068 R,0,29152,,1 M,19,29152,29552,265,56,169,83 M,0,29552,30152,169,83,161,85 F,0,29852,30152,0.69,0
Sprite,Foreground,Centre,"sb\white.png",0,0 F,0,29152,,0.69 S,0,29152,,0.02578397 R,0,29152,,1 M,19,29152,29552,265,56,339,74 M,0,29552,30152,339,74,345,76 F,0,29852,30152,0.69,0
Sprite,Foreground,Centre,"sb\white.png",0,0 F,0,29152,,0.69 S,0,29152,,0.02380038 R,0,29152,,1 M,19,29152,29552,265,56,229,-47 M,0,29552,30152,229,-47,226,-56 F,0,29852,30152,0.69,0
Sprite,Foreground,Centre,"sb\white.png",0,0 F,0,29152,,0.69 S,0,29152,,0.02746229 R,0,29152,,1 M,19,29152,29552,265,56,157,25 M,0,29552,30152,157,25,147,22 F,0,29852,30152,0.69,0
Sprite,Foreground,Centre,"sb\white.png",0,0 F,0,29152,,0.69 S,0,29152,,0.01546844 R,0,29152,,2 M,19,29152,29552,265,56,339,5 M,0,29552,30152,339,5,346,0 F,0,29852,30152,0.69,0
Sprite,Foreground,Centre,"sb\white.png",0,0 F,0,29152,,0.69 S,0,29152,,0.02504146 R,0,29152,,0 M,19,29152,29552,265,56,205,23 M,0,29552,30152,205,23,200,20 F,0,29852,30152,0.69,0
Sprite,Foreground,Centre,"sb\white.png",0,0 F,0,29152,,0.69 S,0,29152,,0.0203677 R,0,29152,,2 M,19,29152,29552,265,56,325,23 M,0,29552,30152,325,23,331,20 F,0,29852,30152,0.69,0
Sprite,Foreground,Centre,"sb\white.png",0,0 F,0,29152,,0.69 S,0,29152,,0.01938571 R,0,29152,,0 M,19,29152,29552,265,56,330,77 M,0,29552,30152,330,77,336,79 F,0,29852,30152,0.69,0
Sprite,Foreground,Centre,"sb\white.png",0,0 F,0,29152,,0.69 S,0,29152,,0.0164103 R,0,29152,,1 M,19,29152,29552,265,56,353,35 M,0,29552,30152,353,35,361,33 F,0,29852,30152,0.69,0
Sprite,Foreground,Centre,"sb\white.png",0,0 F,0,29152,,0.69 S,0,29152,,0.005542558 R,0,29152,,1 M,19,29152,29552,265,56,348,11 M,0,29552,30152,348,11,355,7 F,0,29852,30152,0.69,0
Sprite,Foreground,Centre,"sb\white.png",0,0 F,0,29152,,0.69 S,0,29152,,0.03197321 R,0,29152,,2 M,19,29152,29552,265,56,218,183 M,0,29552,30152,218,183,214,194 F,0,29852,30152,0.69,0
Sprite,Foreground,Centre,"sb\white.png",0,0 F,0,29152,,0.69 S,0,29152,,0.02266951 R,0,29152,,0 M,19,29152,29552,265,56,172,84 M,0,29552,30152,172,84,164,86 F,0,29852,30152,0.69,0
Sprite,Foreground,Centre,"sb\glow.png",140,414 C,0,31234,,255,36,130 F,0,31234,31334,0,0.6 F,0,32016,32116,0.6,0
Sprite,Foreground,Centre,"sb\glow.png",148.8956,413.211 C,0,31259,,255,36,130 F,0,31259,31359,0,0.6 F,0,32016,32116,0.6,0
Sprite,Foreground,Centre,"sb\glow.png",157.6218,411.3163 C,0,31284,,255,36,130 F,0,31284,31384,0,0.6 F,0,32016,32116,0.6,0
Sprite,Foreground,Centre,"sb\glow.png",166.0418,408.3458 C,0,31309,,255,36,130 F,0,31309,31409,0,0.6 F,0,32016,32116,0.6,0
Sprite,Foreground,Centre,"sb\glow.png",174.0236,404.3465 C,0,31334,,255,36,130 F,0,31334,31434,0,0.6 F,0,32016,32116,0.6,0
Sprite,Foreground,Centre,"sb\glow.png",181.4419,399.3812 C,0,31359,,255,36,130 F,0,31359,31459,0,0.6 F,0,32016,32116,0.6,0
Sprite,Foreground,Centre,"sb\glow.png",188.1806,393.5281 C,0,31384,,255,36,130 F,0,31384,31484,0,0.6 F,0,32016,32116,0.6,0
Sprite,Foreground,Centre,"sb\glow.png",194.1576,386.8936 C,0,31409,,255,36,130 F,0,31409,31509,0,0.6 F,0,32016,32116,0.6,0
Sprite,Foreground,Centre,"sb\glow.png",266,420 C,0,31598,,255,36,130 F,0,31598,31698,0,0.6 F,0,32380,32480,0.6,0
Sprite,Foreground,Centre,"sb\glow.png",269.2507,411.6994 C,0,31623,,255,36,130 F,0,31623,31723,0,0.6 F,0,32380,32480,0.6,0
Sprite,Foreground,Centre,"sb\glow.png",271.9728,403.2653 C,0,31648,,255,36,130 F,0,31648,31748,0,0.6 F,0,32380,32480,0.6,0
Sprite,Foreground,Centre,"sb\glow.png",273.6338,394.5598 C,0,31673,,255,36,130 F,0,31673,31773,0,0.6 F,0,32380,32480,0.6,0
Sprite,Foreground,Centre,"sb\glow.png",274.2082,385.7159 C,0,31698,,255,36,130 F,0,31698,31798,0,0.6 F,0,32380,32480,0.6,0
Sprite,Foreground,Centre,"sb\glow.png",273.6874,376.8687 C,0,31723,,255,36,130 F,0,31723,31823,0,0.6 F,0,32380,32480,0.6,0
Sprite,Foreground,Centre,"sb\glow.png",272.0792,368.1533 C,0,31748,,255,36,130 F,0,31748,31848,0,0.6 F,0,32380,32480,0.6,0
Sprite,Foreground,Centre,"sb\glow.png",269.4083,359.7028 C,0,31773,,255,36,130 F,0,31773,31873,0,0.6 F,0,32380,32480,0.6,0
Sprite,Foreground,Centre,"sb\pinkC.png",0,0 M,0,32062,,223,294 F,0,32062,32562,1 S,19,32062,33062,0.1,0.52 F,0,32762,33062,1,0
Sprite,Foreground,Centre,"sb\white.png",0,0 F,0,32062,,0.69 S,0,32062,,0.02328828 R,0,32062,,0 M,19,32062,32462,223,294,309,289 M,0,32462,33062,309,289,316,288 F,0,32762,33062,0.69,0
Sprite,Foreground,Centre,"sb\white.png",0,0 F,0,32062,,0.69 S,0,32062,,0.02362102 R,0,32062,,1 M,19,32062,32462,223,294,296,224 M,0,32462,33062,296,224,303,218 F,0,32762,33062,0.69,0
Sprite,Foreground,Centre,"sb\white.png",0,0 F,0,32062,,0.69 S,0,32062,,0.0303195 R,0,32062,,1 M,19,32062,32462,223,294,271,179 M,0,32462,33062,271,179,275,169 F,0,32762,33062,0.69,0
Sprite,Foreground,Centre,"sb\white.png",0,0 F,0,32062,,0.69 S,0,32062,,0.01828551 R,0,32062,,1 M,19,32062,32462,223,294,270,400 M,0,32462,33062,270,400,274,409 F,0,32762,33062,0.69,0
Sprite,Foreground,Centre,"sb\white.png",0,0 F,0,32062,,0.69 S,0,32062,,0.01858607 R,0,32062,,1 M,19,32062,32462,223,294,153,363 M,0,32462,33062,153,363,147,369 F,0,32762,33062,0.69,0
Sprite,Foreground,Centre,"sb\white.png",0,0 F,0,32062,,0.69 S,0,32062,,0.02730031 R,0,32062,,2 M,19,32062,32462,223,294,197,397 M,0,32462,33062,197,397,195,406 F,0,32762,33062,0.69,0
Sprite,Foreground,Centre,"sb\white.png",0,0 F,0,32062,,0.69 S,0,32062,,0.01533423 R,0,32062,,1 M,19,32062,32462,223,294,207,188 M,0,32462,33062,207,188,206,179 F,0,32762,33062,0.69,0
Sprite,Foreground,Centre,"sb\white.png",0,0 F,0,32062,,0.69 S,0,32062,,0.006078069 R,0,32062,,1 M,19,32062,32462,223,294,117,350 M,0,32462,33062,117,350,108,355 F,0,32762,33062,0.69,0
Sprite,Foreground,Centre,"sb\white.png",0,0 F,0,32062,,0.69 S,0,32062,,0.02574111 R,0,32062,,1 M,19,32062,32462,223,294,319,235 M,0,32462,33062,319,235,328,230 F,0,32762,33062,0.69,0
Sprite,Foreground,Centre,"sb\white.png",0,0 F,0,32062,,0.69 S,0,32062,,0.01062987 R,0,32062,,2 M,19,32062,32462,223,294,257,223 M,0,32462,33062,257,223,260,217 F,0,32762,33062,0.69,0
Sprite,Foreground,Centre,"sb\white.png",0,0 F,0,32062,,0.69 S,0,32062,,0.01662955 R,0,32062,,2 M,19,32062,32462,223,294,141,264 M,0,32462,33062,141,264,134,262 F,0,32762,33062,0.69,0
Sprite,Foreground,Centre,"sb\white.png",0,0 F,0,32062,,0.69 S,0,32062,,0.0204812 R,0,32062,,0 M,19,32062,32462,223,294,203,193 M,0,32462,33062,203,193,201,185 F,0,32762,33062,0.69,0
Sprite,Foreground,Centre,"sb\white.png",0,0 F,0,32062,,0.69 S,0,32062,,0.00515312 R,0,32062,,2 M,19,32062,32462,223,294,261,375 M,0,32462,33062,261,375,264,382 F,0,32762,33062,0.69,0
Sprite,Foreground,Centre,"sb\white.png",0,0 F,0,32062,,0.69 S,0,32062,,0.0106122 R,0,32062,,1 M,19,32062,32462,223,294,169,217 M,0,32462,33062,169,217,164,211 F,0,32762,33062,0.69,0
Sprite,Foreground,Centre,"sb\white.png",0,0 F,0,32062,,0.69 S,0,32062,,0.02588693 R,0,32062,,2 M,19,32062,32462,223,294,141,196 M,0,32462,33062,141,196,134,188 F,0,32762,33062,0.69,0
Sprite,Foreground,Centre,"sb\white.png",0,0 F,0,32062,,0.69 S,0,32062,,0.01929294 R,0,32062,,1 M,19,32062,32462,223,294,345,329 M,0,32462,33062,345,329,356,332 F,0,32762,33062,0.69,0
Sprite,Foreground,Centre,"sb\white.png",0,0 F,0,32062,,0.69 S,0,32062,,0.004476437 R,0,32062,,0 M,19,32062,32462,223,294,218,416 M,0,32462,33062,218,416,218,426 F,0,32762,33062,0.69,0
Sprite,Foreground,Centre,"sb\white.png",0,0 F,0,32062,,0.69 S,0,32062,,0.02432901 R,0,32062,,0 M,19,32062,32462,223,294,313,337 M,0,32462,33062,313,337,320,341 F,0,32762,33062,0.69,0
Sprite,Foreground,Centre,"sb\white.png",0,0 F,0,32062,,0.69 S,0,32062,,0.01989478 R,0,32062,,1 M,19,32062,32462,223,294,106,249 M,0,32462,33062,106,249,95,245 F,0,32762,33062,0.69,0
Sprite,Foreground,Centre,"sb\white.png",0,0 F,0,32062,,0.69 S,0,32062,,0.03105339 R,0,32062,,2 M,19,32062,32462,223,294,207,220 M,0,32462,33062,207,220,205,213 F,0,32762,33062,0.69,0
Sprite,Foreground,Centre,"sb\white.png",0,0 F,0,32062,,0.69 S,0,32062,,0.03178752 R,0,32062,,2 M,19,32062,32462,223,294,172,181 M,0,32462,33062,172,181,168,171 F,0,32762,33062,0.69,0
Sprite,Foreground,Centre,"sb\white.png",0,0 F,0,32062,,0.69 S,0,32062,,0.02154058 R,0,32062,,0 M,19,32062,32462,223,294,168,183 M,0,32462,33062,168,183,163,173 F,0,32762,33062,0.69,0
Sprite,Foreground,Centre,"sb\white.png",0,0 F,0,32062,,0.69 S,0,32062,,0.022373 R,0,32062,,2 M,19,32062,32462,223,294,146,199 M,0,32462,33062,146,199,139,191 F,0,32762,33062,0.69,0
Sprite,Foreground,Centre,"sb\white.png",0,0 F,0,32062,,0.69 S,0,32062,,0.007024006 R,0,32062,,2 M,19,32062,32462,223,294,168,411 M,0,32462,33062,168,411,163,421 F,0,32762,33062,0.69,0
Sprite,Foreground,Centre,"sb\white.png",0,0 F,0,32062,,0.69 S,0,32062,,0.006082623 R,0,32062,,0 M,19,32062,32462,223,294,291,247 M,0,32462,33062,291,247,297,243 F,0,32762,33062,0.69,0
Sprite,Foreground,Centre,"sb\white.png",0,0 F,0,32062,,0.69 S,0,32062,,0.02594243 R,0,32062,,0 M,19,32062,32462,223,294,328,239 M,0,32462,33062,328,239,337,235 F,0,32762,33062,0.69,0
Sprite,Foreground,Centre,"sb\white.png",0,0 F,0,32062,,0.69 S,0,32062,,0.02838482 R,0,32062,,0 M,19,32062,32462,223,294,171,331 M,0,32462,33062,171,331,167,334 F,0,32762,33062,0.69,0
Sprite,Foreground,Centre,"sb\white.png",0,0 F,0,32062,,0.69 S,0,32062,,0.01985705 R,0,32062,,0 M,19,32062,32462,223,294,304,367 M,0,32462,33062,304,367,311,373 F,0,32762,33062,0.69,0
Sprite,Foreground,Centre,"sb\white.png",0,0 F,0,32062,,0.69 S,0,32062,,0.0175228 R,0,32062,,2 M,19,32062,32462,223,294,189,233 M,0,32462,33062,189,233,186,228 F,0,32762,33062,0.69,0
Sprite,Foreground,Centre,"sb\white.png",0,0 F,0,32062,,0.69 S,0,32062,,0.008551624 R,0,32062,,0 M,19,32062,32462,223,294,97,309 M,0,32462,33062,97,309,86,311 F,0,32762,33062,0.69,0
Sprite,Foreground,Centre,"sb\white.png",0,0 F,0,32062,,0.69 S,0,32062,,0.01704975 R,0,32062,,0 M,19,32062,32462,223,294,139,322 M,0,32462,33062,139,322,132,325 F,0,32762,33062,0.69,0
Sprite,Foreground,Centre,"sb\white.png",0,0 F,0,32062,,0.69 S,0,32062,,0.03113079 R,0,32062,,0 M,19,32062,32462,223,294,318,268 M,0,32462,33062,318,268,326,265 F,0,32762,33062,0.69,0
Sprite,Foreground,Centre,"sb\white.png",0,0 F,0,32062,,0.69 S,0,32062,,0.03091496 R,0,32062,,0 M,19,32062,32462,223,294,332,219 M,0,32462,33062,332,219,342,213 F,0,32762,33062,0.69,0
Sprite,Foreground,Centre,"sb\white.png",0,0 F,0,32062,,0.69 S,0,32062,,0.01529764 R,0,32062,,2 M,19,32062,32462,223,294,309,204 M,0,32462,33062,309,204,316,196 F,0,32762,33062,0.69,0
Sprite,Foreground,Centre,"sb\white.png",0,0 F,0,32062,,0.69 S,0,32062,,0.03021801 R,0,32062,,2 M,19,32062,32462,223,294,116,216 M,0,32462,33062,116,216,107,210 F,0,32762,33062,0.69,0
Sprite,Foreground,Centre,"sb\white.png",0,0 F,0,32062,,0.69 S,0,32062,,0.008711754 R,0,32062,,1 M,19,32062,32462,223,294,137,379 M,0,32462,33062,137,379,130,386 F,0,32762,33062,0.69,0
Sprite,Foreground,Centre,"sb\white.png",0,0 F,0,32062,,0.69 S,0,32062,,0.02170246 R,0,32062,,2 M,19,32062,32462,223,294,318,356 M,0,32462,33062,318,356,327,361 F,0,32762,33062,0.69,0
Sprite,Foreground,Centre,"sb\white.png",0,0 F,0,32062,,0.69 S,0,32062,,0.01281957 R,0,32062,,0 M,19,32062,32462,223,294,171,404 M,0,32462,33062,171,404,166,414 F,0,32762,33062,0.69,0
Sprite,Foreground,Centre,"sb\white.png",0,0 F,0,32062,,0.69 S,0,32062,,0.01988892 R,0,32062,,1 M,19,32062,32462,223,294,194,221 M,0,32462,33062,194,221,192,214 F,0,32762,33062,0.69,0
Sprite,Foreground,Centre,"sb\white.png",0,0 F,0,32062,,0.69 S,0,32062,,0.004226203 R,0,32062,,0 M,19,32062,32462,223,294,94,307 M,0,32462,33062,94,307,82,308 F,0,32762,33062,0.69,0
Sprite,Foreground,Centre,"sb\white.png",0,0 F,0,32062,,0.69 S,0,32062,,0.008508487 R,0,32062,,1 M,19,32062,32462,223,294,177,373 M,0,32462,33062,177,373,173,380 F,0,32762,33062,0.69,0
Sprite,Foreground,Centre,"sb\white.png",0,0 F,0,32062,,0.69 S,0,32062,,0.02843998 R,0,32062,,1 M,19,32062,32462,223,294,279,258 M,0,32462,33062,279,258,284,255 F,0,32762,33062,0.69,0
Sprite,Foreground,Centre,"sb\white.png",0,0 F,0,32062,,0.69 S,0,32062,,0.03051839 R,0,32062,,0 M,19,32062,32462,223,294,196,182 M,0,32462,33062,196,182,194,172 F,0,32762,33062,0.69,0
Sprite,Foreground,Centre,"sb\white.png",0,0 F,0,32062,,0.69 S,0,32062,,0.004560564 R,0,32062,,2 M,19,32062,32462,223,294,313,245 M,0,32462,33062,313,245,320,241 F,0,32762,33062,0.69,0
Sprite,Foreground,Centre,"sb\white.png",0,0 F,0,32062,,0.69 S,0,32062,,0.01878005 R,0,32062,,1 M,19,32062,32462,223,294,289,370 M,0,32462,33062,289,370,295,376 F,0,32762,33062,0.69,0
Sprite,Foreground,Centre,"sb\white.png",0,0 F,0,32062,,0.69 S,0,32062,,0.01844973 R,0,32062,,1 M,19,32062,32462,223,294,164,387 M,0,32462,33062,164,387,159,395 F,0,32762,33062,0.69,0
Sprite,Foreground,Centre,"sb\white.png",0,0 F,0,32062,,0.69 S,0,32062,,0.01229047 R,0,32062,,0 M,19,32062,32462,223,294,194,368 M,0,32462,33062,194,368,191,375 F,0,32762,33062,0.69,0
Sprite,Foreground,Centre,"sb\white.png",0,0 F,0,32062,,0.69 S,0,32062,,0.01485041 R,0,32062,,1 M,19,32062,32462,223,294,295,329 M,0,32462,33062,295,329,302,332 F,0,32762,33062,0.69,0
Sprite,Foreground,Centre,"sb\white.png",0,0 F,0,32062,,0.69 S,0,32062,,0.007523892 R,0,32062,,0 M,19,32062,32462,223,294,229,362 M,0,32462,33062,229,362,229,368 F,0,32762,33062,0.69,0
Sprite,Foreground,Centre,"sb\white.png",0,0 F,0,32062,,0.69 S,0,32062,,0.01143504 R,0,32062,,1 M,19,32062,32462,223,294,347,276 M,0,32462,33062,347,276,358,274 F,0,32762,33062,0.69,0
Sprite,Foreground,Centre,"sb\white.png",0,0 F,0,32062,,0.69 S,0,32062,,0.01584038 R,0,32062,,2 M,19,32062,32462,223,294,277,170 M,0,32462,33062,277,170,282,159 F,0,32762,33062,0.69,0
Sprite,Foreground,Centre,"sb\white.png",0,0 F,0,32062,,0.69 S,0,32062,,0.01911343 R,0,32062,,0 M,19,32062,32462,223,294,349,302 M,0,32462,33062,349,302,360,303 F,0,32762,33062,0.69,0
Sprite,Foreground,Centre,"sb\white.png",0,0 F,0,32062,,0.69 S,0,32062,,0.02333318 R,0,32062,,0 M,19,32062,32462,223,294,123,372 M,0,32462,33062,123,372,114,379 F,0,32762,33062,0.69,0
Sprite,Foreground,Centre,"sb\white.png",0,0 F,0,32062,,0.69 S,0,32062,,0.02247825 R,0,32062,,0 M,19,32062,32462,223,294,212,398 M,0,32462,33062,212,398,211,407 F,0,32762,33062,0.69,0
Sprite,Foreground,Centre,"sb\white.png",0,0 F,0,32062,,0.69 S,0,32062,,0.008715892 R,0,32062,,1 M,19,32062,32462,223,294,96,257 M,0,32462,33062,96,257,85,254 F,0,32762,33062,0.69,0
Sprite,Foreground,Centre,"sb\white.png",0,0 F,0,32062,,0.69 S,0,32062,,0.009174283 R,0,32062,,2 M,19,32062,32462,223,294,305,273 M,0,32462,33062,305,273,312,271 F,0,32762,33062,0.69,0
Sprite,Foreground,Centre,"sb\white.png",0,0 F,0,32062,,0.69 S,0,32062,,0.01390351 R,0,32062,,0 M,19,32062,32462,223,294,134,202 M,0,32462,33062,134,202,126,194 F,0,32762,33062,0.69,0
Sprite,Foreground,Centre,"sb\white.png",0,0 F,0,32062,,0.69 S,0,32062,,0.008835197 R,0,32062,,2 M,19,32062,32462,223,294,256,174 M,0,32462,33062,256,174,259,164 F,0,32762,33062,0.69,0
Sprite,Foreground,Centre,"sb\white.png",0,0 F,0,32062,,0.69 S,0,32062,,0.01130124 R,0,32062,,2 M,19,32062,32462,223,294,262,219 M,0,32462,33062,262,219,265,212 F,0,32762,33062,0.69,0
Sprite,Foreground,Centre,"sb\white.png",0,0 F,0,32062,,0.69 S,0,32062,,0.02288436 R,0,32062,,2 M,19,32062,32462,223,294,346,262 M,0,32462,33062,346,262,357,259 F,0,32762,33062,0.69,0
Sprite,Foreground,Centre,"sb\white.png",0,0 F,0,32062,,0.69 S,0,32062,,0.02461631 R,0,32062,,2 M,19,32062,32462,223,294,145,299 M,0,32462,33062,145,299,139,299 F,0,32762,33062,0.69,0
Sprite,Foreground,Centre,"sb\white.png",0,0 F,0,32062,,0.69 S,0,32062,,0.007003152 R,0,32062,,1 M,19,32062,32462,223,294,203,229 M,0,32462,33062,203,229,201,224 F,0,32762,33062,0.69,0
Sprite,Foreground,Centre,"sb\white.png",0,0 F,0,32062,,0.69 S,0,32062,,0.007516235 R,0,32062,,2 M,19,32062,32462,223,294,274,236 M,0,32462,33062,274,236,279,231 F,0,32762,33062,0.69,0
Sprite,Foreground,Centre,"sb\white.png",0,0 F,0,32062,,0.69 S,0,32062,,0.03042966 R,0,32062,,2 M,19,32062,32462,223,294,237,376 M,0,32462,33062,237,376,238,383 F,0,32762,33062,0.69,0
Sprite,Foreground,Centre,"sb\white.png",0,0 F,0,32062,,0.69 S,0,32062,,0.005222825 R,0,32062,,1 M,19,32062,32462,223,294,118,249 M,0,32462,33062,118,249,109,246 F,0,32762,33062,0.69,0
Sprite,Foreground,Centre,"sb\white.png",0,0 F,0,32062,,0.69 S,0,32062,,0.01875961 R,0,32062,,0 M,19,32062,32462,223,294,307,348 M,0,32462,33062,307,348,314,353 F,0,32762,33062,0.69,0
Sprite,Foreground,Centre,"sb\white.png",0,0 F,0,32062,,0.69 S,0,32062,,0.01170921 R,0,32062,,2 M,19,32062,32462,223,294,281,259 M,0,32462,33062,281,259,286,256 F,0,32762,33062,0.69,0
Sprite,Foreground,Centre,"sb\white.png",0,0 F,0,32062,,0.69 S,0,32062,,0.01384975 R,0,32062,,2 M,19,32062,32462,223,294,180,342 M,0,32462,33062,180,342,177,346 F,0,32762,33062,0.69,0
Sprite,Foreground,Centre,"sb\white.png",0,0 F,0,32062,,0.69 S,0,32062,,0.004602766 R,0,32062,,0 M,19,32062,32462,223,294,147,398 M,0,32462,33062,147,398,140,407 F,0,32762,33062,0.69,0
Sprite,Foreground,Centre,"sb\white.png",0,0 F,0,32062,,0.69 S,0,32062,,0.009121809 R,0,32062,,0 M,19,32062,32462,223,294,230,394 M,0,32462,33062,230,394,230,402 F,0,32762,33062,0.69,0
Sprite,Foreground,Centre,"sb\white.png",0,0 F,0,32062,,0.69 S,0,32062,,0.01612636 R,0,32062,,0 M,19,32062,32462,223,294,92,321 M,0,32462,33062,92,321,81,324 F,0,32762,33062,0.69,0
Sprite,Foreground,Centre,"sb\white.png",0,0 F,0,32062,,0.69 S,0,32062,,0.0257341 R,0,32062,,2 M,19,32062,32462,223,294,174,408 M,0,32462,33062,174,408,170,418 F,0,32762,33062,0.69,0
Sprite,Foreground,Centre,"sb\white.png",0,0 F,0,32062,,0.69 S,0,32062,,0.0275846 R,0,32062,,0 M,19,32062,32462,223,294,139,273 M,0,32462,33062,139,273,131,271 F,0,32762,33062,0.69,0
Sprite,Foreground,Centre,"sb\white.png",0,0 F,0,32062,,0.69 S,0,32062,,0.00658616 R,0,32062,,0 M,19,32062,32462,223,294,351,305 M,0,32462,33062,351,305,362,306 F,0,32762,33062,0.69,0
Sprite,Foreground,Centre,"sb\white.png",0,0 F,0,32062,,0.69 S,0,32062,,0.01528338 R,0,32062,,1 M,19,32062,32462,223,294,245,219 M,0,32462,33062,245,219,247,212 F,0,32762,33062,0.69,0
Sprite,Foreground,Centre,"sb\white.png",0,0 F,0,32062,,0.69 S,0,32062,,0.01043042 R,0,32062,,0 M,19,32062,32462,223,294,235,373 M,0,32462,33062,235,373,236,380 F,0,32762,33062,0.69,0
Sprite,Foreground,Centre,"sb\glow.png",570,112 C,0,34143,,17,196,255 F,0,34143,34243,0,0.6 F,0,34925,35025,0.6,0
Sprite,Foreground,Centre,"sb\glow.png",569.1658,120.8985 C,0,34168,,17,196,255 F,0,34168,34268,0,0.6 F,0,34925,35025,0.6,0
Sprite,Foreground,Centre,"sb\glow.png",568.3315,129.797 C,0,34193,,17,196,255 F,0,34193,34293,0,0.6 F,0,34925,35025,0.6,0
Sprite,Foreground,Centre,"sb\glow.png",567.4973,138.6954 C,0,34218,,17,196,255 F,0,34218,34318,0,0.6 F,0,34925,35025,0.6,0
Sprite,Foreground,Centre,"sb\glow.png",564.2522,146.3408 C,0,34243,,17,196,255 F,0,34243,34343,0,0.6 F,0,34925,35025,0.6,0
Sprite,Foreground,Centre,"sb\glow.png",557.4485,152.1364 C,0,34268,,17,196,255 F,0,34268,34368,0,0.6 F,0,34925,35025,0.6,0
Sprite,Foreground,Centre,"sb\glow.png",550.6449,157.9321 C,0,34293,,17,196,255 F,0,34293,34393,0,0.6 F,0,34925,35025,0.6,0
Sprite,Foreground,Centre,"sb\glow.png",543.8413,163.7278 C,0,34318,,17,196,255 F,0,34318,34418,0,0.6 F,0,34925,35025,0.6,0
Sprite,Foreground,Centre,"sb\glow.png",484,218 C,0,34507,,17,196,255 F,0,34507,34607,0,0.6 F,0,35289,35389,0.6,0
Sprite,Foreground,Centre,"sb\glow.png",483.1658,226.8985 C,0,34532,,17,196,255 F,0,34532,34632,0,0.6 F,0,35289,35389,0.6,0
Sprite,Foreground,Centre,"sb\glow.png",482.3315,235.797 C,0,34557,,17,196,255 F,0,34557,34657,0,0.6 F,0,35289,35389,0.6,0
Sprite,Foreground,Centre,"sb\glow.png",481.4973,244.6954 C,0,34582,,17,196,255 F,0,34582,34682,0,0.6 F,0,35289,35389,0.6,0
Sprite,Foreground,Centre,"sb\glow.png",483.2802,252.7984 C,0,34607,,17,196,255 F,0,34607,34707,0,0.6 F,0,35289,35389,0.6,0
Sprite,Foreground,Centre,"sb\glow.png",488.9257,259.727 C,0,34632,,17,196,255 F,0,34632,34732,0,0.6 F,0,35289,35389,0.6,0
Sprite,Foreground,Centre,"sb\glow.png",494.5713,266.6557 C,0,34657,,17,196,255 F,0,34657,34757,0,0.6 F,0,35289,35389,0.6,0
Sprite,Foreground,Centre,"sb\glow.png",500.2169,273.5844 C,0,34682,,17,196,255 F,0,34682,34782,0,0.6 F,0,35289,35389,0.6,0
Sprite,Foreground,Centre,"sb\blueC.png",0,0 M,0,34971,,560,327 F,0,34971,35471,1 S,19,34971,35971,0.1,0.52 F,0,35671,35971,1,0
Sprite,Foreground,Centre,"sb\white.png",0,0 F,0,34971,,0.69 S,0,34971,,0.02458908 R,0,34971,,2 M,19,34971,35371,560,327,620,357 M,0,35371,35971,620,357,625,360 F,0,35671,35971,0.69,0
Sprite,Foreground,Centre,"sb\white.png",0,0 F,0,34971,,0.69 S,0,34971,,0.005264938 R,0,34971,,1 M,19,34971,35371,560,327,459,292 M,0,35371,35971,459,292,451,289 F,0,35671,35971,0.69,0
Sprite,Foreground,Centre,"sb\white.png",0,0 F,0,34971,,0.69 S,0,34971,,0.007553412 R,0,34971,,1 M,19,34971,35371,560,327,601,211 M,0,35371,35971,601,211,605,201 F,0,35671,35971,0.69,0
Sprite,Foreground,Centre,"sb\white.png",0,0 F,0,34971,,0.69 S,0,34971,,0.01390726 R,0,34971,,0 M,19,34971,35371,560,327,571,233 M,0,35371,35971,571,233,572,225 F,0,35671,35971,0.69,0
Sprite,Foreground,Centre,"sb\white.png",0,0 F,0,34971,,0.69 S,0,34971,,0.02158569 R,0,34971,,2 M,19,34971,35371,560,327,521,384 M,0,35371,35971,521,384,518,389 F,0,35671,35971,0.69,0
Sprite,Foreground,Centre,"sb\white.png",0,0 F,0,34971,,0.69 S,0,34971,,0.02516695 R,0,34971,,1 M,19,34971,35371,560,327,532,223 M,0,35371,35971,532,223,529,215 F,0,35671,35971,0.69,0
Sprite,Foreground,Centre,"sb\white.png",0,0 F,0,34971,,0.69 S,0,34971,,0.01099907 R,0,34971,,0 M,19,34971,35371,560,327,598,226 M,0,35371,35971,598,226,601,217 F,0,35671,35971,0.69,0
Sprite,Foreground,Centre,"sb\white.png",0,0 F,0,34971,,0.69 S,0,34971,,0.01950765 R,0,34971,,2 M,19,34971,35371,560,327,528,201 M,0,35371,35971,528,201,525,190 F,0,35671,35971,0.69,0
Sprite,Foreground,Centre,"sb\white.png",0,0 F,0,34971,,0.69 S,0,34971,,0.02928556 R,0,34971,,0 M,19,34971,35371,560,327,629,429 M,0,35371,35971,629,429,635,438 F,0,35671,35971,0.69,0
Sprite,Foreground,Centre,"sb\white.png",0,0 F,0,34971,,0.69 S,0,34971,,0.01981777 R,0,34971,,2 M,19,34971,35371,560,327,655,237 M,0,35371,35971,655,237,664,229 F,0,35671,35971,0.69,0
Sprite,Foreground,Centre,"sb\white.png",0,0 F,0,34971,,0.69 S,0,34971,,0.007480048 R,0,34971,,2 M,19,34971,35371,560,327,472,327 M,0,35371,35971,472,327,465,327 F,0,35671,35971,0.69,0
Sprite,Foreground,Centre,"sb\white.png",0,0 F,0,34971,,0.69 S,0,34971,,0.008629521 R,0,34971,,1 M,19,34971,35371,560,327,638,399 M,0,35371,35971,638,399,644,406 F,0,35671,35971,0.69,0
Sprite,Foreground,Centre,"sb\white.png",0,0 F,0,34971,,0.69 S,0,34971,,0.02960751 R,0,34971,,1 M,19,34971,35371,560,327,430,290 M,0,35371,35971,430,290,419,287 F,0,35671,35971,0.69,0
Sprite,Foreground,Centre,"sb\white.png",0,0 F,0,34971,,0.69 S,0,34971,,0.01829547 R,0,34971,,1 M,19,34971,35371,560,327,459,236 M,0,35371,35971,459,236,450,228 F,0,35671,35971,0.69,0
Sprite,Foreground,Centre,"sb\white.png",0,0 F,0,34971,,0.69 S,0,34971,,0.02555821 R,0,34971,,1 M,19,34971,35371,560,327,459,302 M,0,35371,35971,459,302,451,300 F,0,35671,35971,0.69,0
Sprite,Foreground,Centre,"sb\white.png",0,0 F,0,34971,,0.69 S,0,34971,,0.02270671 R,0,34971,,1 M,19,34971,35371,560,327,623,316 M,0,35371,35971,623,316,629,315 F,0,35671,35971,0.69,0
Sprite,Foreground,Centre,"sb\white.png",0,0 F,0,34971,,0.69 S,0,34971,,0.006518453 R,0,34971,,1 M,19,34971,35371,560,327,618,377 M,0,35371,35971,618,377,623,382 F,0,35671,35971,0.69,0
Sprite,Foreground,Centre,"sb\white.png",0,0 F,0,34971,,0.69 S,0,34971,,0.0156549 R,0,34971,,2 M,19,34971,35371,560,327,621,280 M,0,35371,35971,621,280,626,276 F,0,35671,35971,0.69,0
Sprite,Foreground,Centre,"sb\white.png",0,0 F,0,34971,,0.69 S,0,34971,,0.01417321 R,0,34971,,0 M,19,34971,35371,560,327,615,259 M,0,35371,35971,615,259,620,254 F,0,35671,35971,0.69,0
Sprite,Foreground,Centre,"sb\white.png",0,0 F,0,34971,,0.69 S,0,34971,,0.01510179 R,0,34971,,0 M,19,34971,35371,560,327,685,365 M,0,35371,35971,685,365,696,368 F,0,35671,35971,0.69,0
Sprite,Foreground,Centre,"sb\white.png",0,0 F,0,34971,,0.69 S,0,34971,,0.02987492 R,0,34971,,1 M,19,34971,35371,560,327,588,447 M,0,35371,35971,588,447,590,458 F,0,35671,35971,0.69,0
Sprite,Foreground,Centre,"sb\white.png",0,0 F,0,34971,,0.69 S,0,34971,,0.01149413 R,0,34971,,0 M,19,34971,35371,560,327,477,363 M,0,35371,35971,477,363,470,366 F,0,35671,35971,0.69,0
Sprite,Foreground,Centre,"sb\white.png",0,0 F,0,34971,,0.69 S,0,34971,,0.01032219 R,0,34971,,1 M,19,34971,35371,560,327,530,436 M,0,35371,35971,530,436,528,445 F,0,35671,35971,0.69,0
Sprite,Foreground,Centre,"sb\white.png",0,0 F,0,34971,,0.69 S,0,34971,,0.008583887 R,0,34971,,2 M,19,34971,35371,560,327,494,329 M,0,35371,35971,494,329,489,329 F,0,35671,35971,0.69,0
Sprite,Foreground,Centre,"sb\white.png",0,0 F,0,34971,,0.69 S,0,34971,,0.00939406 R,0,34971,,2 M,19,34971,35371,560,327,630,394 M,0,35371,35971,630,394,636,400 F,0,35671,35971,0.69,0
Sprite,Foreground,Centre,"sb\white.png",0,0 F,0,34971,,0.69 S,0,34971,,0.008854927 R,0,34971,,2 M,19,34971,35371,560,327,475,250 M,0,35371,35971,475,250,467,244 F,0,35671,35971,0.69,0
Sprite,Foreground,Centre,"sb\white.png",0,0 F,0,34971,,0.69 S,0,34971,,0.009109422 R,0,34971,,0 M,19,34971,35371,560,327,602,444 M,0,35371,35971,602,444,606,454 F,0,35671,35971,0.69,0
Sprite,Foreground,Centre,"sb\white.png",0,0 F,0,34971,,0.69 S,0,34971,,0.02542794 R,0,34971,,1 M,19,34971,35371,560,327,540,237 M,0,35371,35971,540,237,538,229 F,0,35671,35971,0.69,0
Sprite,Foreground,Centre,"sb\white.png",0,0 F,0,34971,,0.69 S,0,34971,,0.02088713 R,0,34971,,2 M,19,34971,35371,560,327,533,410 M,0,35371,35971,533,410,530,417 F,0,35671,35971,0.69,0
Sprite,Foreground,Centre,"sb\white.png",0,0 F,0,34971,,0.69 S,0,34971,,0.01126916 R,0,34971,,2 M,19,34971,35371,560,327,586,261 M,0,35371,35971,586,261,588,255 F,0,35671,35971,0.69,0
Sprite,Foreground,Centre,"sb\white.png",0,0 F,0,34971,,0.69 S,0,34971,,0.01790393 R,0,34971,,1 M,19,34971,35371,560,327,549,450 M,0,35371,35971,549,450,548,461 F,0,35671,35971,0.69,0
Sprite,Foreground,Centre,"sb\white.png",0,0 F,0,34971,,0.69 S,0,34971,,0.01522157 R,0,34971,,1 M,19,34971,35371,560,327,564,441 M,0,35371,35971,564,441,564,450 F,0,35671,35971,0.69,0
Sprite,Foreground,Centre,"sb\white.png",0,0 F,0,34971,,0.69 S,0,34971,,0.006895176 R,0,34971,,1 M,19,34971,35371,560,327,620,363 M,0,35371,35971,620,363,626,366 F,0,35671,35971,0.69,0
Sprite,Foreground,Centre,"sb\white.png",0,0 F,0,34971,,0.69 S,0,34971,,0.02308431 R,0,34971,,1 M,19,34971,35371,560,327,555,417 M,0,35371,35971,555,417,554,425 F,0,35671,35971,0.69,0
Sprite,Foreground,Centre,"sb\white.png",0,0 F,0,34971,,0.69 S,0,34971,,0.02140193 R,0,34971,,2 M,19,34971,35371,560,327,662,327 M,0,35371,35971,662,327,671,327 F,0,35671,35971,0.69,0
Sprite,Foreground,Centre,"sb\white.png",0,0 F,0,34971,,0.69 S,0,34971,,0.02572868 R,0,34971,,0 M,19,34971,35371,560,327,588,247 M,0,35371,35971,588,247,591,240 F,0,35671,35971,0.69,0
Sprite,Foreground,Centre,"sb\white.png",0,0 F,0,34971,,0.69 S,0,34971,,0.01081562 R,0,34971,,0 M,19,34971,35371,560,327,564,395 M,0,35371,35971,564,395,565,401 F,0,35671,35971,0.69,0
Sprite,Foreground,Centre,"sb\white.png",0,0 F,0,34971,,0.69 S,0,34971,,0.02786896 R,0,34971,,0 M,19,34971,35371,560,327,458,403 M,0,35371,35971,458,403,449,410 F,0,35671,35971,0.69,0
Sprite,Foreground,Centre,"sb\white.png",0,0 F,0,34971,,0.69 S,0,34971,,0.01792952 R,0,34971,,0 M,19,34971,35371,560,327,667,254 M,0,35371,35971,667,254,676,247 F,0,35671,35971,0.69,0
Sprite,Foreground,Centre,"sb\white.png",0,0 F,0,34971,,0.69 S,0,34971,,0.007750253 R,0,34971,,1 M,19,34971,35371,560,327,626,366 M,0,35371,35971,626,366,632,370 F,0,35671,35971,0.69,0
Sprite,Foreground,Centre,"sb\white.png",0,0 F,0,34971,,0.69 S,0,34971,,0.01748706 R,0,34971,,2 M,19,34971,35371,560,327,471,316 M,0,35371,35971,471,316,463,315 F,0,35671,35971,0.69,0
Sprite,Foreground,Centre,"sb\white.png",0,0 F,0,34971,,0.69 S,0,34971,,0.01041038 R,0,34971,,2 M,19,34971,35371,560,327,510,250 M,0,35371,35971,510,250,505,244 F,0,35671,35971,0.69,0
Sprite,Foreground,Centre,"sb\white.png",0,0 F,0,34971,,0.69 S,0,34971,,0.02855983 R,0,34971,,2 M,19,34971,35371,560,327,500,448 M,0,35371,35971,500,448,495,459 F,0,35671,35971,0.69,0
Sprite,Foreground,Centre,"sb\white.png",0,0 F,0,34971,,0.69 S,0,34971,,0.01886298 R,0,34971,,0 M,19,34971,35371,560,327,628,424 M,0,35371,35971,628,424,634,433 F,0,35671,35971,0.69,0
Sprite,Foreground,Centre,"sb\white.png",0,0 F,0,34971,,0.69 S,0,34971,,0.03024754 R,0,34971,,1 M,19,34971,35371,560,327,546,395 M,0,35371,35971,546,395,545,401 F,0,35671,35971,0.69,0
Sprite,Foreground,Centre,"sb\white.png",0,0 F,0,34971,,0.69 S,0,34971,,0.02407829 R,0,34971,,0 M,19,34971,35371,560,327,580,250 M,0,35371,35971,580,250,582,243 F,0,35671,35971,0.69,0
Sprite,Foreground,Centre,"sb\white.png",0,0 F,0,34971,,0.69 S,0,34971,,0.01789295 R,0,34971,,2 M,19,34971,35371,560,327,464,298 M,0,35371,35971,464,298,456,295 F,0,35671,35971,0.69,0
Sprite,Foreground,Centre,"sb\white.png",0,0 F,0,34971,,0.69 S,0,34971,,0.02001324 R,0,34971,,0 M,19,34971,35371,560,327,478,335 M,0,35371,35971,478,335,471,336 F,0,35671,35971,0.69,0
Sprite,Foreground,Centre,"sb\white.png",0,0 F,0,34971,,0.69 S,0,34971,,0.02831933 R,0,34971,,1 M,19,34971,35371,560,327,475,256 M,0,35371,35971,475,256,468,250 F,0,35671,35971,0.69,0
Sprite,Foreground,Centre,"sb\white.png",0,0 F,0,34971,,0.69 S,0,34971,,0.01348152 R,0,34971,,2 M,19,34971,35371,560,327,519,446 M,0,35371,35971,519,446,515,456 F,0,35671,35971,0.69,0
Sprite,Foreground,Centre,"sb\white.png",0,0 F,0,34971,,0.69 S,0,34971,,0.004008721 R,0,34971,,2 M,19,34971,35371,560,327,493,360 M,0,35371,35971,493,360,487,363 F,0,35671,35971,0.69,0
Sprite,Foreground,Centre,"sb\white.png",0,0 F,0,34971,,0.69 S,0,34971,,0.02464805 R,0,34971,,0 M,19,34971,35371,560,327,629,210 M,0,35371,35971,629,210,635,200 F,0,35671,35971,0.69,0
Sprite,Foreground,Centre,"sb\white.png",0,0 F,0,34971,,0.69 S,0,34971,,0.01354444 R,0,34971,,1 M,19,34971,35371,560,327,456,343 M,0,35371,35971,456,343,447,345 F,0,35671,35971,0.69,0
Sprite,Foreground,Centre,"sb\white.png",0,0 F,0,34971,,0.69 S,0,34971,,0.01750326 R,0,34971,,2 M,19,34971,35371,560,327,555,406 M,0,35371,35971,555,406,555,412 F,0,35671,35971,0.69,0
Sprite,Foreground,Centre,"sb\white.png",0,0 F,0,34971,,0.69 S,0,34971,,0.0064447 R,0,34971,,2 M,19,34971,35371,560,327,465,371 M,0,35371,35971,465,371,457,374 F,0,35671,35971,0.69,0
Sprite,Foreground,Centre,"sb\white.png",0,0 F,0,34971,,0.69 S,0,34971,,0.007246599 R,0,34971,,2 M,19,34971,35371,560,327,630,392 M,0,35371,35971,630,392,636,398 F,0,35671,35971,0.69,0
Sprite,Foreground,Centre,"sb\white.png",0,0 F,0,34971,,0.69 S,0,34971,,0.007206192 R,0,34971,,2 M,19,34971,35371,560,327,533,219 M,0,35371,35971,533,219,530,210 F,0,35671,35971,0.69,0
Sprite,Foreground,Centre,"sb\white.png",0,0 F,0,34971,,0.69 S,0,34971,,0.01907158 R,0,34971,,1 M,19,34971,35371,560,327,634,333 M,0,35371,35971,634,333,640,334 F,0,35671,35971,0.69,0
Sprite,Foreground,Centre,"sb\white.png",0,0 F,0,34971,,0.69 S,0,34971,,0.005037777 R,0,34971,,2 M,19,34971,35371,560,327,599,260 M,0,35371,35971,599,260,603,254 F,0,35671,35971,0.69,0
Sprite,Foreground,Centre,"sb\white.png",0,0 F,0,34971,,0.69 S,0,34971,,0.005361824 R,0,34971,,1 M,19,34971,35371,560,327,640,298 M,0,35371,35971,640,298,647,296 F,0,35671,35971,0.69,0
Sprite,Foreground,Centre,"sb\white.png",0,0 F,0,34971,,0.69 S,0,34971,,0.004540385 R,0,34971,,1 M,19,34971,35371,560,327,638,338 M,0,35371,35971,638,338,645,338 F,0,35671,35971,0.69,0
Sprite,Foreground,Centre,"sb\white.png",0,0 F,0,34971,,0.69 S,0,34971,,0.02430947 R,0,34971,,1 M,19,34971,35371,560,327,647,250 M,0,35371,35971,647,250,655,243 F,0,35671,35971,0.69,0
Sprite,Foreground,Centre,"sb\white.png",0,0 F,0,34971,,0.69 S,0,34971,,0.01642831 R,0,34971,,0 M,19,34971,35371,560,327,656,396 M,0,35371,35971,656,396,664,402 F,0,35671,35971,0.69,0
Sprite,Foreground,Centre,"sb\white.png",0,0 F,0,34971,,0.69 S,0,34971,,0.01286285 R,0,34971,,1 M,19,34971,35371,560,327,518,454 M,0,35371,35971,518,454,515,465 F,0,35671,35971,0.69,0
Sprite,Foreground,Centre,"sb\white.png",0,0 F,0,34971,,0.69 S,0,34971,,0.01211015 R,0,34971,,0 M,19,34971,35371,560,327,559,205 M,0,35371,35971,559,205,559,195 F,0,35671,35971,0.69,0
Sprite,Foreground,Centre,"sb\white.png",0,0 F,0,34971,,0.69 S,0,34971,,0.00547594 R,0,34971,,1 M,19,34971,35371,560,327,635,289 M,0,35371,35971,635,289,642,286 F,0,35671,35971,0.69,0
Sprite,Foreground,Centre,"sb\white.png",0,0 F,0,34971,,0.69 S,0,34971,,0.0177795 R,0,34971,,2 M,19,34971,35371,560,327,533,405 M,0,35371,35971,533,405,530,412 F,0,35671,35971,0.69,0
Sprite,Foreground,Centre,"sb\white.png",0,0 F,0,34971,,0.69 S,0,34971,,0.02054609 R,0,34971,,0 M,19,34971,35371,560,327,546,235 M,0,35371,35971,546,235,545,228 F,0,35671,35971,0.69,0
Sprite,Foreground,Centre,"sb\white.png",0,0 F,0,34971,,0.69 S,0,34971,,0.01555261 R,0,34971,,1 M,19,34971,35371,560,327,616,381 M,0,35371,35971,616,381,621,386 F,0,35671,35971,0.69,0
Sprite,Foreground,Centre,"sb\white.png",0,0 F,0,34971,,0.69 S,0,34971,,0.004008499 R,0,34971,,2 M,19,34971,35371,560,327,495,444 M,0,35371,35971,495,444,489,454 F,0,35671,35971,0.69,0
Sprite,Foreground,Centre,"sb\white.png",0,0 F,0,34971,,0.69 S,0,34971,,0.018732 R,0,34971,,0 M,19,34971,35371,560,327,531,440 M,0,35371,35971,531,440,529,450 F,0,35671,35971,0.69,0
Sprite,Foreground,Centre,"sb\white.png",0,0 F,0,34971,,0.69 S,0,34971,,0.0106096 R,0,34971,,1 M,19,34971,35371,560,327,653,345 M,0,35371,35971,653,345,662,346 F,0,35671,35971,0.69,0
Sprite,Foreground,Centre,"sb\white.png",0,0 F,0,34971,,0.69 S,0,34971,,0.01920792 R,0,34971,,1 M,19,34971,35371,560,327,510,387 M,0,35371,35971,510,387,506,393 F,0,35671,35971,0.69,0
Sprite,Foreground,Centre,"sb\white.png",0,0 F,0,34971,,0.69 S,0,34971,,0.004543701 R,0,34971,,2 M,19,34971,35371,560,327,603,420 M,0,35371,35971,603,420,607,428 F,0,35671,35971,0.69,0
Sprite,Foreground,Centre,"sb\white.png",0,0 F,0,34971,,0.69 S,0,34971,,0.01553939 R,0,34971,,2 M,19,34971,35371,560,327,530,200 M,0,35371,35971,530,200,527,189 F,0,35671,35971,0.69,0
Sprite,Foreground,Centre,"sb\white.png",0,0 F,0,34971,,0.69 S,0,34971,,0.0113865 R,0,34971,,0 M,19,34971,35371,560,327,453,401 M,0,35371,35971,453,401,444,408 F,0,35671,35971,0.69,0
Sprite,Foreground,Centre,"sb\glow.png",65,342 C,0,37052,,255,36,130 F,0,37052,37152,0,1 F,0,37652,37752,1,0
Sprite,Foreground,Centre,"sb\glow.png",101,196 C,0,37416,,255,36,130 F,0,37416,37516,0,1 F,0,38016,38116,1,0
Sprite,Foreground,Centre,"sb\glow.png",101,196 C,0,37507,,255,36,130 F,0,37507,37607,0,1 F,0,38107,38207,1,0
Sprite,Foreground,Centre,"sb\glow.png",101,196 C,0,37598,,255,36,130 F,0,37598,37698,0,1 F,0,38198,38298,1,0
Sprite,Foreground,Centre,"sb\pinkC.png",0,0 M,0,37880,,71,115 F,0,37880,38380,1 S,19,37880,38880,0.1,0.52 F,0,38580,38880,1,0
Sprite,Foreground,Centre,"sb\white.png",0,0 F,0,37880,,0.69 S,0,37880,,0.02945898 R,0,37880,,2 M,19,37880,38280,71,115,21,67 M,0,38280,38880,21,67,16,63 F,0,38580,38880,0.69,0
Sprite,Foreground,Centre,"sb\white.png",0,0 F,0,37880,,0.69 S,0,37880,,0.02209857 R,0,37880,,1 M,19,37880,38280,71,115,-4,153 M,0,38280,38880,-4,153,-10,156 F,0,38580,38880,0.69,0
Sprite,Foreground,Centre,"sb\white.png",0,0 F,0,37880,,0.69 S,0,37880,,0.01223146 R,0,37880,,1 M,19,37880,38280,71,115,20,76 M,0,38280,38880,20,76,16,72 F,0,38580,38880,0.69,0
Sprite,Foreground,Centre,"sb\white.png",0,0 F,0,37880,,0.69 S,0,37880,,0.02543961 R,0,37880,,0 M,19,37880,38280,71,115,30,210 M,0,38280,38880,30,210,26,219 F,0,38580,38880,0.69,0
Sprite,Foreground,Centre,"sb\white.png",0,0 F,0,37880,,0.69 S,0,37880,,0.0255272 R,0,37880,,1 M,19,37880,38280,71,115,165,157 M,0,38280,38880,165,157,174,160 F,0,38580,38880,0.69,0
Sprite,Foreground,Centre,"sb\white.png",0,0 F,0,37880,,0.69 S,0,37880,,0.004304431 R,0,37880,,2 M,19,37880,38280,71,115,3,116 M,0,38280,38880,3,116,-1,116 F,0,38580,38880,0.69,0
Sprite,Foreground,Centre,"sb\white.png",0,0 F,0,37880,,0.69 S,0,37880,,0.02413397 R,0,37880,,0 M,19,37880,38280,71,115,137,153 M,0,38280,38880,137,153,142,156 F,0,38580,38880,0.69,0
Sprite,Foreground,Centre,"sb\white.png",0,0 F,0,37880,,0.69 S,0,37880,,0.01989903 R,0,37880,,1 M,19,37880,38280,71,115,4,93 M,0,38280,38880,4,93,-1,91 F,0,38580,38880,0.69,0
Sprite,Foreground,Centre,"sb\white.png",0,0 F,0,37880,,0.69 S,0,37880,,0.007402543 R,0,37880,,1 M,19,37880,38280,71,115,153,194 M,0,38280,38880,153,194,160,201 F,0,38580,38880,0.69,0
Sprite,Foreground,Centre,"sb\white.png",0,0 F,0,37880,,0.69 S,0,37880,,0.004391606 R,0,37880,,0 M,19,37880,38280,71,115,134,148 M,0,38280,38880,134,148,139,151 F,0,38580,38880,0.69,0
Sprite,Foreground,Centre,"sb\white.png",0,0 F,0,37880,,0.69 S,0,37880,,0.02412344 R,0,37880,,0 M,19,37880,38280,71,115,7,147 M,0,38280,38880,7,147,1,150 F,0,38580,38880,0.69,0
Sprite,Foreground,Centre,"sb\white.png",0,0 F,0,37880,,0.69 S,0,37880,,0.02382003 R,0,37880,,0 M,19,37880,38280,71,115,90,193 M,0,38280,38880,90,193,92,200 F,0,38580,38880,0.69,0
Sprite,Foreground,Centre,"sb\white.png",0,0 F,0,37880,,0.69 S,0,37880,,0.02821815 R,0,37880,,2 M,19,37880,38280,71,115,56,52 M,0,38280,38880,56,52,55,46 F,0,38580,38880,0.69,0
Sprite,Foreground,Centre,"sb\white.png",0,0 F,0,37880,,0.69 S,0,37880,,0.01588219 R,0,37880,,2 M,19,37880,38280,71,115,60,13 M,0,38280,38880,60,13,59,4 F,0,38580,38880,0.69,0
Sprite,Foreground,Centre,"sb\white.png",0,0 F,0,37880,,0.69 S,0,37880,,0.005287574 R,0,37880,,2 M,19,37880,38280,71,115,159,133 M,0,38280,38880,159,133,166,135 F,0,38580,38880,0.69,0
Sprite,Foreground,Centre,"sb\white.png",0,0 F,0,37880,,0.69 S,0,37880,,0.00718125 R,0,37880,,0 M,19,37880,38280,71,115,186,150 M,0,38280,38880,186,150,196,153 F,0,38580,38880,0.69,0
Sprite,Foreground,Centre,"sb\white.png",0,0 F,0,37880,,0.69 S,0,37880,,0.01003272 R,0,37880,,1 M,19,37880,38280,71,115,84,208 M,0,38280,38880,84,208,85,216 F,0,38580,38880,0.69,0
Sprite,Foreground,Centre,"sb\white.png",0,0 F,0,37880,,0.69 S,0,37880,,0.01296615 R,0,37880,,1 M,19,37880,38280,71,115,170,118 M,0,38280,38880,170,118,178,118 F,0,38580,38880,0.69,0
Sprite,Foreground,Centre,"sb\white.png",0,0 F,0,37880,,0.69 S,0,37880,,0.006040772 R,0,37880,,1 M,19,37880,38280,71,115,99,192 M,0,38280,38880,99,192,101,199 F,0,38580,38880,0.69,0
Sprite,Foreground,Centre,"sb\white.png",0,0 F,0,37880,,0.69 S,0,37880,,0.01247197 R,0,37880,,1 M,19,37880,38280,71,115,-23,131 M,0,38280,38880,-23,131,-31,133 F,0,38580,38880,0.69,0
Sprite,Foreground,Centre,"sb\white.png",0,0 F,0,37880,,0.69 S,0,37880,,0.01876386 R,0,37880,,0 M,19,37880,38280,71,115,143,156 M,0,38280,38880,143,156,149,160 F,0,38580,38880,0.69,0
Sprite,Foreground,Centre,"sb\white.png",0,0 F,0,37880,,0.69 S,0,37880,,0.02887099 R,0,37880,,0 M,19,37880,38280,71,115,72,196 M,0,38280,38880,72,196,72,203 F,0,38580,38880,0.69,0
Sprite,Foreground,Centre,"sb\white.png",0,0 F,0,37880,,0.69 S,0,37880,,0.02794141 R,0,37880,,0 M,19,37880,38280,71,115,109,179 M,0,38280,38880,109,179,113,185 F,0,38580,38880,0.69,0
Sprite,Foreground,Centre,"sb\white.png",0,0 F,0,37880,,0.69 S,0,37880,,0.02594078 R,0,37880,,0 M,19,37880,38280,71,115,15,190 M,0,38280,38880,15,190,11,197 F,0,38580,38880,0.69,0
Sprite,Foreground,Centre,"sb\white.png",0,0 F,0,37880,,0.69 S,0,37880,,0.01375094 R,0,37880,,0 M,19,37880,38280,71,115,165,53 M,0,38280,38880,165,53,173,47 F,0,38580,38880,0.69,0
Sprite,Foreground,Centre,"sb\white.png",0,0 F,0,37880,,0.69 S,0,37880,,0.01845825 R,0,37880,,1 M,19,37880,38280,71,115,125,160 M,0,38280,38880,125,160,130,164 F,0,38580,38880,0.69,0
Sprite,Foreground,Centre,"sb\white.png",0,0 F,0,37880,,0.69 S,0,37880,,0.006054942 R,0,37880,,0 M,19,37880,38280,71,115,60,28 M,0,38280,38880,60,28,59,20 F,0,38580,38880,0.69,0
Sprite,Foreground,Centre,"sb\white.png",0,0 F,0,37880,,0.69 S,0,37880,,0.02785598 R,0,37880,,2 M,19,37880,38280,71,115,88,202 M,0,38280,38880,88,202,89,210 F,0,38580,38880,0.69,0
Sprite,Foreground,Centre,"sb\white.png",0,0 F,0,37880,,0.69 S,0,37880,,0.01571948 R,0,37880,,1 M,19,37880,38280,71,115,82,44 M,0,38280,38880,82,44,83,37 F,0,38580,38880,0.69,0
Sprite,Foreground,Centre,"sb\white.png",0,0 F,0,37880,,0.69 S,0,37880,,0.004514829 R,0,37880,,1 M,19,37880,38280,71,115,11,70 M,0,38280,38880,11,70,6,66 F,0,38580,38880,0.69,0
Sprite,Foreground,Centre,"sb\white.png",0,0 F,0,37880,,0.69 S,0,37880,,0.01075461 R,0,37880,,1 M,19,37880,38280,71,115,68,-12 M,0,38280,38880,68,-12,68,-23 F,0,38580,38880,0.69,0
Sprite,Foreground,Centre,"sb\white.png",0,0 F,0,37880,,0.69 S,0,37880,,0.02225378 R,0,37880,,2 M,19,37880,38280,71,115,-6,218 M,0,38280,38880,-6,218,-13,227 F,0,38580,38880,0.69,0
Sprite,Foreground,Centre,"sb\white.png",0,0 F,0,37880,,0.69 S,0,37880,,0.02598097 R,0,37880,,0 M,19,37880,38280,71,115,24,40 M,0,38280,38880,24,40,19,33 F,0,38580,38880,0.69,0
Sprite,Foreground,Centre,"sb\white.png",0,0 F,0,37880,,0.69 S,0,37880,,0.02878762 R,0,37880,,0 M,19,37880,38280,71,115,57,23 M,0,38280,38880,57,23,56,15 F,0,38580,38880,0.69,0
Sprite,Foreground,Centre,"sb\white.png",0,0 F,0,37880,,0.69 S,0,37880,,0.02852818 R,0,37880,,1 M,19,37880,38280,71,115,105,201 M,0,38280,38880,105,201,108,208 F,0,38580,38880,0.69,0
Sprite,Foreground,Centre,"sb\white.png",0,0 F,0,37880,,0.69 S,0,37880,,0.006715098 R,0,37880,,2 M,19,37880,38280,71,115,69,184 M,0,38280,38880,69,184,69,190 F,0,38580,38880,0.69,0
Sprite,Foreground,Centre,"sb\white.png",0,0 F,0,37880,,0.69 S,0,37880,,0.006338482 R,0,37880,,1 M,19,37880,38280,71,115,71,207 M,0,38280,38880,71,207,71,215 F,0,38580,38880,0.69,0
Sprite,Foreground,Centre,"sb\white.png",0,0 F,0,37880,,0.69 S,0,37880,,0.02479412 R,0,37880,,0 M,19,37880,38280,71,115,119,9 M,0,38280,38880,119,9,123,0 F,0,38580,38880,0.69,0
Sprite,Foreground,Centre,"sb\white.png",0,0 F,0,37880,,0.69 S,0,37880,,0.02812721 R,0,37880,,2 M,19,37880,38280,71,115,-11,106 M,0,38280,38880,-11,106,-18,105 F,0,38580,38880,0.69,0
Sprite,Foreground,Centre,"sb\white.png",0,0 F,0,37880,,0.69 S,0,37880,,0.01721587 R,0,37880,,1 M,19,37880,38280,71,115,-31,127 M,0,38280,38880,-31,127,-40,128 F,0,38580,38880,0.69,0
Sprite,Foreground,Centre,"sb\white.png",0,0 F,0,37880,,0.69 S,0,37880,,0.01967716 R,0,37880,,2 M,19,37880,38280,71,115,-9,8 M,0,38280,38880,-9,8,-16,0 F,0,38580,38880,0.69,0
Sprite,Foreground,Centre,"sb\white.png",0,0 F,0,37880,,0.69 S,0,37880,,0.02088071 R,0,37880,,1 M,19,37880,38280,71,115,-31,167 M,0,38280,38880,-31,167,-40,171 F,0,38580,38880,0.69,0
Sprite,Foreground,Centre,"sb\white.png",0,0 F,0,37880,,0.69 S,0,37880,,0.01956 R,0,37880,,2 M,19,37880,38280,71,115,-25,59 M,0,38280,38880,-25,59,-33,54 F,0,38580,38880,0.69,0
Sprite,Foreground,Centre,"sb\white.png",0,0 F,0,37880,,0.69 S,0,37880,,0.01658412 R,0,37880,,2 M,19,37880,38280,71,115,-34,194 M,0,38280,38880,-34,194,-43,201 F,0,38580,38880,0.69,0
Sprite,Foreground,Centre,"sb\white.png",0,0 F,0,37880,,0.69 S,0,37880,,0.004047561 R,0,37880,,0 M,19,37880,38280,71,115,11,183 M,0,38280,38880,11,183,6,189 F,0,38580,38880,0.69,0
Sprite,Foreground,Centre,"sb\white.png",0,0 F,0,37880,,0.69 S,0,37880,,0.004909988 R,0,37880,,2 M,19,37880,38280,71,115,68,-16 M,0,38280,38880,68,-16,68,-27 F,0,38580,38880,0.69,0
Sprite,Foreground,Centre,"sb\white.png",0,0 F,0,37880,,0.69 S,0,37880,,0.01862305 R,0,37880,,0 M,19,37880,38280,71,115,-11,206 M,0,38280,38880,-11,206,-18,214 F,0,38580,38880,0.69,0
Sprite,Foreground,Centre,"sb\white.png",0,0 F,0,37880,,0.69 S,0,37880,,0.01391282 R,0,37880,,2 M,19,37880,38280,71,115,-50,176 M,0,38280,38880,-50,176,-60,182 F,0,38580,38880,0.69,0
Sprite,Foreground,Centre,"sb\white.png",0,0 F,0,37880,,0.69 S,0,37880,,0.0300411 R,0,37880,,1 M,19,37880,38280,71,115,144,153 M,0,38280,38880,144,153,150,157 F,0,38580,38880,0.69,0
Sprite,Foreground,Centre,"sb\white.png",0,0 F,0,37880,,0.69 S,0,37880,,0.02746267 R,0,37880,,2 M,19,37880,38280,71,115,21,204 M,0,38280,38880,21,204,17,212 F,0,38580,38880,0.69,0
Sprite,Foreground,Centre,"sb\white.png",0,0 F,0,37880,,0.69 S,0,37880,,0.009057319 R,0,37880,,0 M,19,37880,38280,71,115,90,214 M,0,38280,38880,90,214,92,222 F,0,38580,38880,0.69,0
Sprite,Foreground,Centre,"sb\white.png",0,0 F,0,37880,,0.69 S,0,37880,,0.00629326 R,0,37880,,0 M,19,37880,38280,71,115,27,13 M,0,38280,38880,27,13,23,4 F,0,38580,38880,0.69,0
Sprite,Foreground,Centre,"sb\white.png",0,0 F,0,37880,,0.69 S,0,37880,,0.02538139 R,0,37880,,0 M,19,37880,38280,71,115,-8,159 M,0,38280,38880,-8,159,-15,163 F,0,38580,38880,0.69,0
Sprite,Foreground,Centre,"sb\white.png",0,0 F,0,37880,,0.69 S,0,37880,,0.02280858 R,0,37880,,1 M,19,37880,38280,71,115,156,43 M,0,38280,38880,156,43,163,36 F,0,38580,38880,0.69,0
Sprite,Foreground,Centre,"sb\white.png",0,0 F,0,37880,,0.69 S,0,37880,,0.02786731 R,0,37880,,1 M,19,37880,38280,71,115,53,224 M,0,38280,38880,53,224,52,233 F,0,38580,38880,0.69,0
Sprite,Foreground,Centre,"sb\white.png",0,0 F,0,37880,,0.69 S,0,37880,,0.0167536 R,0,37880,,2 M,19,37880,38280,71,115,102,52 M,0,38280,38880,102,52,105,47 F,0,38580,38880,0.69,0
Sprite,Foreground,Centre,"sb\white.png",0,0 F,0,37880,,0.69 S,0,37880,,0.02549329 R,0,37880,,2 M,19,37880,38280,71,115,145,133 M,0,38280,38880,145,133,152,135 F,0,38580,38880,0.69,0
Sprite,Foreground,Centre,"sb\white.png",0,0 F,0,37880,,0.69 S,0,37880,,0.007214009 R,0,37880,,2 M,19,37880,38280,71,115,36,16 M,0,38280,38880,36,16,33,8 F,0,38580,38880,0.69,0
Sprite,Foreground,Centre,"sb\white.png",0,0 F,0,37880,,0.69 S,0,37880,,0.0102168 R,0,37880,,0 M,19,37880,38280,71,115,143,210 M,0,38280,38880,143,210,149,218 F,0,38580,38880,0.69,0
Sprite,Foreground,Centre,"sb\white.png",0,0 F,0,37880,,0.69 S,0,37880,,0.01373119 R,0,37880,,2 M,19,37880,38280,71,115,129,72 M,0,38280,38880,129,72,134,68 F,0,38580,38880,0.69,0
Sprite,Foreground,Centre,"sb\white.png",0,0 F,0,37880,,0.69 S,0,37880,,0.01101095 R,0,37880,,2 M,19,37880,38280,71,115,134,131 M,0,38280,38880,134,131,139,133 F,0,38580,38880,0.69,0
Sprite,Foreground,Centre,"sb\white.png",0,0 F,0,37880,,0.69 S,0,37880,,0.008923014 R,0,37880,,0 M,19,37880,38280,71,115,169,48 M,0,38280,38880,169,48,177,42 F,0,38580,38880,0.69,0
Sprite,Foreground,Centre,"sb\white.png",0,0 F,0,37880,,0.69 S,0,37880,,0.02292982 R,0,37880,,2 M,19,37880,38280,71,115,-40,179 M,0,38280,38880,-40,179,-50,185 F,0,38580,38880,0.69,0
Sprite,Foreground,Centre,"sb\white.png",0,0 F,0,37880,,0.69 S,0,37880,,0.01316818 R,0,37880,,0 M,19,37880,38280,71,115,138,33 M,0,38280,38880,138,33,144,26 F,0,38580,38880,0.69,0
Sprite,Foreground,Centre,"sb\white.png",0,0 F,0,37880,,0.69 S,0,37880,,0.01736119 R,0,37880,,2 M,19,37880,38280,71,115,45,31 M,0,38280,38880,45,31,43,24 F,0,38580,38880,0.69,0
Sprite,Foreground,Centre,"sb\white.png",0,0 F,0,37880,,0.69 S,0,37880,,0.008224036 R,0,37880,,1 M,19,37880,38280,71,115,86,27 M,0,38280,38880,86,27,87,19 F,0,38580,38880,0.69,0
Sprite,Foreground,Centre,"sb\white.png",0,0 F,0,37880,,0.69 S,0,37880,,0.01109149 R,0,37880,,1 M,19,37880,38280,71,115,30,240 M,0,38280,38880,30,240,26,251 F,0,38580,38880,0.69,0
Sprite,Foreground,Centre,"sb\white.png",0,0 F,0,37880,,0.69 S,0,37880,,0.01217944 R,0,37880,,0 M,19,37880,38280,71,115,74,13 M,0,38280,38880,74,13,74,5 F,0,38580,38880,0.69,0
Sprite,Foreground,Centre,"sb\white.png",0,0 F,0,37880,,0.69 S,0,37880,,0.01863034 R,0,37880,,0 M,19,37880,38280,71,115,201,79 M,0,38280,38880,201,79,212,76 F,0,38580,38880,0.69,0
Sprite,Foreground,Centre,"sb\white.png",0,0 F,0,37880,,0.69 S,0,37880,,0.01911792 R,0,37880,,2 M,19,37880,38280,71,115,-10,212 M,0,38280,38880,-10,212,-17,220 F,0,38580,38880,0.69,0
Sprite,Foreground,Centre,"sb\white.png",0,0 F,0,37880,,0.69 S,0,37880,,0.01856304 R,0,37880,,1 M,19,37880,38280,71,115,121,162 M,0,38280,38880,121,162,125,166 F,0,38580,38880,0.69,0
Sprite,Foreground,Centre,"sb\white.png",0,0 F,0,37880,,0.69 S,0,37880,,0.02768009 R,0,37880,,1 M,19,37880,38280,71,115,-16,51 M,0,38280,38880,-16,51,-23,46 F,0,38580,38880,0.69,0
Sprite,Foreground,Centre,"sb\white.png",0,0 F,0,37880,,0.69 S,0,37880,,0.01434746 R,0,37880,,2 M,19,37880,38280,71,115,102,50 M,0,38280,38880,102,50,105,44 F,0,38580,38880,0.69,0
Sprite,Foreground,Centre,"sb\white.png",0,0 F,0,37880,,0.69 S,0,37880,,0.01539307 R,0,37880,,2 M,19,37880,38280,71,115,25,167 M,0,38280,38880,25,167,21,171 F,0,38580,38880,0.69,0
Sprite,Foreground,Centre,"sb\white.png",0,0 F,0,37880,,0.69 S,0,37880,,0.008992856 R,0,37880,,1 M,19,37880,38280,71,115,125,-1 M,0,38280,38880,125,-1,129,-12 F,0,38580,38880,0.69,0
Sprite,Foreground,Centre,"sb\white.png",0,0 F,0,37880,,0.69 S,0,37880,,0.03189978 R,0,37880,,1 M,19,37880,38280,71,115,-16,81 M,0,38280,38880,-16,81,-24,78 F,0,38580,38880,0.69,0
Sprite,Foreground,Centre,"sb\blueC.png",0,0 M,0,40789,,537,440 F,0,40789,41289,1 S,19,40789,41789,0.1,0.52 F,0,41489,41789,1,0
Sprite,Foreground,Centre,"sb\white.png",0,0 F,0,40789,,0.69 S,0,40789,,0.01429786 R,0,40789,,0 M,19,40789,41189,537,440,591,477 M,0,41189,41789,591,477,595,481 F,0,41489,41789,0.69,0
Sprite,Foreground,Centre,"sb\white.png",0,0 F,0,40789,,0.69 S,0,40789,,0.02082825 R,0,40789,,0 M,19,40789,41189,537,440,498,316 M,0,41189,41789,498,316,495,305 F,0,41489,41789,0.69,0
Sprite,Foreground,Centre,"sb\white.png",0,0 F,0,40789,,0.69 S,0,40789,,0.01201174 R,0,40789,,2 M,19,40789,41189,537,440,573,545 M,0,41189,41789,573,545,576,554 F,0,41489,41789,0.69,0
Sprite,Foreground,Centre,"sb\white.png",0,0 F,0,40789,,0.69 S,0,40789,,0.03046124 R,0,40789,,1 M,19,40789,41189,537,440,463,343 M,0,41189,41789,463,343,457,334 F,0,41489,41789,0.69,0
Sprite,Foreground,Centre,"sb\white.png",0,0 F,0,40789,,0.69 S,0,40789,,0.005539875 R,0,40789,,0 M,19,40789,41189,537,440,563,526 M,0,41189,41789,563,526,565,533 F,0,41489,41789,0.69,0
Sprite,Foreground,Centre,"sb\white.png",0,0 F,0,40789,,0.69 S,0,40789,,0.02481073 R,0,40789,,2 M,19,40789,41189,537,440,637,478 M,0,41189,41789,637,478,646,481 F,0,41489,41789,0.69,0
Sprite,Foreground,Centre,"sb\white.png",0,0 F,0,40789,,0.69 S,0,40789,,0.006872455 R,0,40789,,1 M,19,40789,41189,537,440,599,356 M,0,41189,41789,599,356,604,349 F,0,41489,41789,0.69,0
Sprite,Foreground,Centre,"sb\white.png",0,0 F,0,40789,,0.69 S,0,40789,,0.03079152 R,0,40789,,2 M,19,40789,41189,537,440,460,477 M,0,41189,41789,460,477,453,480 F,0,41489,41789,0.69,0
Sprite,Foreground,Centre,"sb\white.png",0,0 F,0,40789,,0.69 S,0,40789,,0.03019442 R,0,40789,,2 M,19,40789,41189,537,440,596,322 M,0,41189,41789,596,322,601,312 F,0,41489,41789,0.69,0
Sprite,Foreground,Centre,"sb\white.png",0,0 F,0,40789,,0.69 S,0,40789,,0.03022168 R,0,40789,,0 M,19,40789,41189,537,440,514,377 M,0,41189,41789,514,377,512,372 F,0,41489,41789,0.69,0
Sprite,Foreground,Centre,"sb\white.png",0,0 F,0,40789,,0.69 S,0,40789,,0.01522073 R,0,40789,,1 M,19,40789,41189,537,440,456,357 M,0,41189,41789,456,357,449,350 F,0,41489,41789,0.69,0
Sprite,Foreground,Centre,"sb\white.png",0,0 F,0,40789,,0.69 S,0,40789,,0.01139395 R,0,40789,,0 M,19,40789,41189,537,440,452,481 M,0,41189,41789,452,481,445,484 F,0,41489,41789,0.69,0
Sprite,Foreground,Centre,"sb\white.png",0,0 F,0,40789,,0.69 S,0,40789,,0.0156273 R,0,40789,,2 M,19,40789,41189,537,440,562,329 M,0,41189,41789,562,329,564,320 F,0,41489,41789,0.69,0
Sprite,Foreground,Centre,"sb\white.png",0,0 F,0,40789,,0.69 S,0,40789,,0.01525576 R,0,40789,,1 M,19,40789,41189,537,440,505,506 M,0,41189,41789,505,506,503,512 F,0,41489,41789,0.69,0
Sprite,Foreground,Centre,"sb\white.png",0,0 F,0,40789,,0.69 S,0,40789,,0.008929806 R,0,40789,,1 M,19,40789,41189,537,440,468,457 M,0,41189,41789,468,457,462,458 F,0,41489,41789,0.69,0
Sprite,Foreground,Centre,"sb\white.png",0,0 F,0,40789,,0.69 S,0,40789,,0.008544077 R,0,40789,,1 M,19,40789,41189,537,440,623,452 M,0,41189,41789,623,452,631,453 F,0,41489,41789,0.69,0
Sprite,Foreground,Centre,"sb\white.png",0,0 F,0,40789,,0.69 S,0,40789,,0.02531442 R,0,40789,,1 M,19,40789,41189,537,440,467,355 M,0,41189,41789,467,355,461,347 F,0,41489,41789,0.69,0
Sprite,Foreground,Centre,"sb\white.png",0,0 F,0,40789,,0.69 S,0,40789,,0.02381023 R,0,40789,,2 M,19,40789,41189,537,440,449,346 M,0,41189,41789,449,346,441,338 F,0,41489,41789,0.69,0
Sprite,Foreground,Centre,"sb\white.png",0,0 F,0,40789,,0.69 S,0,40789,,0.0227615 R,0,40789,,1 M,19,40789,41189,537,440,615,442 M,0,41189,41789,615,442,621,442 F,0,41489,41789,0.69,0
Sprite,Foreground,Centre,"sb\white.png",0,0 F,0,40789,,0.69 S,0,40789,,0.0286176 R,0,40789,,1 M,19,40789,41189,537,440,519,509 M,0,41189,41789,519,509,518,515 F,0,41489,41789,0.69,0
Sprite,Foreground,Centre,"sb\white.png",0,0 F,0,40789,,0.69 S,0,40789,,0.01808838 R,0,40789,,1 M,19,40789,41189,537,440,538,540 M,0,41189,41789,538,540,538,548 F,0,41489,41789,0.69,0
Sprite,Foreground,Centre,"sb\white.png",0,0 F,0,40789,,0.69 S,0,40789,,0.00448368 R,0,40789,,1 M,19,40789,41189,537,440,583,370 M,0,41189,41789,583,370,587,364 F,0,41489,41789,0.69,0
Sprite,Foreground,Centre,"sb\white.png",0,0 F,0,40789,,0.69 S,0,40789,,0.02569299 R,0,40789,,2 M,19,40789,41189,537,440,604,506 M,0,41189,41789,604,506,609,512 F,0,41489,41789,0.69,0
Sprite,Foreground,Centre,"sb\white.png",0,0 F,0,40789,,0.69 S,0,40789,,0.01159414 R,0,40789,,0 M,19,40789,41189,537,440,652,412 M,0,41189,41789,652,412,662,410 F,0,41489,41789,0.69,0
Sprite,Foreground,Centre,"sb\white.png",0,0 F,0,40789,,0.69 S,0,40789,,0.01886789 R,0,40789,,2 M,19,40789,41189,537,440,607,378 M,0,41189,41789,607,378,613,372 F,0,41489,41789,0.69,0
Sprite,Foreground,Centre,"sb\white.png",0,0 F,0,40789,,0.69 S,0,40789,,0.03105073 R,0,40789,,2 M,19,40789,41189,537,440,657,495 M,0,41189,41789,657,495,667,500 F,0,41489,41789,0.69,0
Sprite,Foreground,Centre,"sb\white.png",0,0 F,0,40789,,0.69 S,0,40789,,0.0264496 R,0,40789,,2 M,19,40789,41189,537,440,466,530 M,0,41189,41789,466,530,460,538 F,0,41489,41789,0.69,0
Sprite,Foreground,Centre,"sb\white.png",0,0 F,0,40789,,0.69 S,0,40789,,0.00545185 R,0,40789,,0 M,19,40789,41189,537,440,410,444 M,0,41189,41789,410,444,399,445 F,0,41489,41789,0.69,0
Sprite,Foreground,Centre,"sb\white.png",0,0 F,0,40789,,0.69 S,0,40789,,0.0319243 R,0,40789,,2 M,19,40789,41189,537,440,496,356 M,0,41189,41789,496,356,492,349 F,0,41489,41789,0.69,0
Sprite,Foreground,Centre,"sb\white.png",0,0 F,0,40789,,0.69 S,0,40789,,0.01581879 R,0,40789,,1 M,19,40789,41189,537,440,487,386 M,0,41189,41789,487,386,483,382 F,0,41489,41789,0.69,0
Sprite,Foreground,Centre,"sb\white.png",0,0 F,0,40789,,0.69 S,0,40789,,0.01796751 R,0,40789,,1 M,19,40789,41189,537,440,544,334 M,0,41189,41789,544,334,544,325 F,0,41489,41789,0.69,0
Sprite,Foreground,Centre,"sb\white.png",0,0 F,0,40789,,0.69 S,0,40789,,0.006069228 R,0,40789,,2 M,19,40789,41189,537,440,535,527 M,0,41189,41789,535,527,535,534 F,0,41489,41789,0.69,0
Sprite,Foreground,Centre,"sb\white.png",0,0 F,0,40789,,0.69 S,0,40789,,0.02132119 R,0,40789,,0 M,19,40789,41189,537,440,564,543 M,0,41189,41789,564,543,567,552 F,0,41489,41789,0.69,0
Sprite,Foreground,Centre,"sb\white.png",0,0 F,0,40789,,0.69 S,0,40789,,0.02908952 R,0,40789,,1 M,19,40789,41189,537,440,592,386 M,0,41189,41789,592,386,597,381 F,0,41489,41789,0.69,0
Sprite,Foreground,Centre,"sb\white.png",0,0 F,0,40789,,0.69 S,0,40789,,0.02302004 R,0,40789,,1 M,19,40789,41189,537,440,436,401 M,0,41189,41789,436,401,427,398 F,0,41489,41789,0.69,0
Sprite,Foreground,Centre,"sb\white.png",0,0 F,0,40789,,0.69 S,0,40789,,0.02484963 R,0,40789,,0 M,19,40789,41189,537,440,631,513 M,0,41189,41789,631,513,639,520 F,0,41489,41789,0.69,0
Sprite,Foreground,Centre,"sb\white.png",0,0 F,0,40789,,0.69 S,0,40789,,0.03015896 R,0,40789,,2 M,19,40789,41189,537,440,583,561 M,0,41189,41789,583,561,587,571 F,0,41489,41789,0.69,0
Sprite,Foreground,Centre,"sb\white.png",0,0 F,0,40789,,0.69 S,0,40789,,0.03012583 R,0,40789,,0 M,19,40789,41189,537,440,481,383 M,0,41189,41789,481,383,477,378 F,0,41489,41789,0.69,0
Sprite,Foreground,Centre,"sb\white.png",0,0 F,0,40789,,0.69 S,0,40789,,0.02509605 R,0,40789,,1 M,19,40789,41189,537,440,599,389 M,0,41189,41789,599,389,604,385 F,0,41489,41789,0.69,0
Sprite,Foreground,Centre,"sb\white.png",0,0 F,0,40789,,0.69 S,0,40789,,0.008640472 R,0,40789,,0 M,19,40789,41189,537,440,588,537 M,0,41189,41789,588,537,593,545 F,0,41489,41789,0.69,0
Sprite,Foreground,Centre,"sb\white.png",0,0 F,0,40789,,0.69 S,0,40789,,0.01785885 R,0,40789,,1 M,19,40789,41189,537,440,590,366 M,0,41189,41789,590,366,594,359 F,0,41489,41789,0.69,0
Sprite,Foreground,Centre,"sb\white.png",0,0 F,0,40789,,0.69 S,0,40789,,0.00967811 R,0,40789,,2 M,19,40789,41189,537,440,571,534 M,0,41189,41789,571,534,574,542 F,0,41489,41789,0.69,0
Sprite,Foreground,Centre,"sb\white.png",0,0 F,0,40789,,0.69 S,0,40789,,0.02176938 R,0,40789,,1 M,19,40789,41189,537,440,559,355 M,0,41189,41789,559,355,561,348 F,0,41489,41789,0.69,0
Sprite,Foreground,Centre,"sb\white.png",0,0 F,0,40789,,0.69 S,0,40789,,0.02813447 R,0,40789,,1 M,19,40789,41189,537,440,575,319 M,0,41189,41789,575,319,579,308 F,0,41489,41789,0.69,0
Sprite,Foreground,Centre,"sb\white.png",0,0 F,0,40789,,0.69 S,0,40789,,0.01734465 R,0,40789,,2 M,19,40789,41189,537,440,479,386 M,0,41189,41789,479,386,474,382 F,0,41489,41789,0.69,0
Sprite,Foreground,Centre,"sb\white.png",0,0 F,0,40789,,0.69 S,0,40789,,0.03013795 R,0,40789,,1 M,19,40789,41189,537,440,463,506 M,0,41189,41789,463,506,456,512 F,0,41489,41789,0.69,0
Sprite,Foreground,Centre,"sb\white.png",0,0 F,0,40789,,0.69 S,0,40789,,0.02000577 R,0,40789,,0 M,19,40789,41189,537,440,485,324 M,0,41189,41789,485,324,480,314 F,0,41489,41789,0.69,0
Sprite,Foreground,Centre,"sb\white.png",0,0 F,0,40789,,0.69 S,0,40789,,0.01629262 R,0,40789,,1 M,19,40789,41189,537,440,433,429 M,0,41189,41789,433,429,424,428 F,0,41489,41789,0.69,0
Sprite,Foreground,Centre,"sb\white.png",0,0 F,0,40789,,0.69 S,0,40789,,0.007669112 R,0,40789,,1 M,19,40789,41189,537,440,637,355 M,0,41189,41789,637,355,646,347 F,0,41489,41789,0.69,0
Sprite,Foreground,Centre,"sb\white.png",0,0 F,0,40789,,0.69 S,0,40789,,0.01411748 R,0,40789,,0 M,19,40789,41189,537,440,422,470 M,0,41189,41789,422,470,412,473 F,0,41489,41789,0.69,0
Sprite,Foreground,Centre,"sb\white.png",0,0 F,0,40789,,0.69 S,0,40789,,0.004995492 R,0,40789,,1 M,19,40789,41189,537,440,437,474 M,0,41189,41789,437,474,429,477 F,0,41489,41789,0.69,0
Sprite,Foreground,Centre,"sb\white.png",0,0 F,0,40789,,0.69 S,0,40789,,0.004815692 R,0,40789,,1 M,19,40789,41189,537,440,585,496 M,0,41189,41789,585,496,590,501 F,0,41489,41789,0.69,0
Sprite,Foreground,Centre,"sb\white.png",0,0 F,0,40789,,0.69 S,0,40789,,0.01419381 R,0,40789,,1 M,19,40789,41189,537,440,620,457 M,0,41189,41789,620,457,627,459 F,0,41489,41789,0.69,0
Sprite,Foreground,Centre,"sb\white.png",0,0 F,0,40789,,0.69 S,0,40789,,0.01282496 R,0,40789,,0 M,19,40789,41189,537,440,521,368 M,0,41189,41789,521,368,520,361 F,0,41489,41789,0.69,0
Sprite,Foreground,Centre,"sb\white.png",0,0 F,0,40789,,0.69 S,0,40789,,0.0149613 R,0,40789,,0 M,19,40789,41189,537,440,520,361 M,0,41189,41789,520,361,518,354 F,0,41489,41789,0.69,0
Sprite,Foreground,Centre,"sb\white.png",0,0 F,0,40789,,0.69 S,0,40789,,0.004229025 R,0,40789,,1 M,19,40789,41189,537,440,479,514 M,0,41189,41789,479,514,474,520 F,0,41489,41789,0.69,0
Sprite,Foreground,Centre,"sb\white.png",0,0 F,0,40789,,0.69 S,0,40789,,0.01818424 R,0,40789,,2 M,19,40789,41189,537,440,602,558 M,0,41189,41789,602,558,608,568 F,0,41489,41789,0.69,0
Sprite,Foreground,Centre,"sb\white.png",0,0 F,0,40789,,0.69 S,0,40789,,0.01769581 R,0,40789,,1 M,19,40789,41189,537,440,646,498 M,0,41189,41789,646,498,656,503 F,0,41489,41789,0.69,0
Sprite,Foreground,Centre,"sb\white.png",0,0 F,0,40789,,0.69 S,0,40789,,0.01336187 R,0,40789,,0 M,19,40789,41189,537,440,546,351 M,0,41189,41789,546,351,546,343 F,0,41489,41789,0.69,0
Sprite,Foreground,Centre,"sb\white.png",0,0 F,0,40789,,0.69 S,0,40789,,0.01259178 R,0,40789,,0 M,19,40789,41189,537,440,591,377 M,0,41189,41789,591,377,595,371 F,0,41489,41789,0.69,0
Sprite,Foreground,Centre,"sb\white.png",0,0 F,0,40789,,0.69 S,0,40789,,0.01333203 R,0,40789,,0 M,19,40789,41189,537,440,555,505 M,0,41189,41789,555,505,557,511 F,0,41489,41789,0.69,0
Sprite,Foreground,Centre,"sb\white.png",0,0 F,0,40789,,0.69 S,0,40789,,0.01391847 R,0,40789,,2 M,19,40789,41189,537,440,596,508 M,0,41189,41789,596,508,601,513 F,0,41489,41789,0.69,0
Sprite,Foreground,Centre,"sb\white.png",0,0 F,0,40789,,0.69 S,0,40789,,0.01752884 R,0,40789,,1 M,19,40789,41189,537,440,624,371 M,0,41189,41789,624,371,632,365 F,0,41489,41789,0.69,0
Sprite,Foreground,Centre,"sb\white.png",0,0 F,0,40789,,0.69 S,0,40789,,0.01382238 R,0,40789,,1 M,19,40789,41189,537,440,427,438 M,0,41189,41789,427,438,418,438 F,0,41489,41789,0.69,0
Sprite,Foreground,Centre,"sb\white.png",0,0 F,0,40789,,0.69 S,0,40789,,0.03109335 R,0,40789,,0 M,19,40789,41189,537,440,586,400 M,0,41189,41789,586,400,591,397 F,0,41489,41789,0.69,0
Sprite,Foreground,Centre,"sb\white.png",0,0 F,0,40789,,0.69 S,0,40789,,0.02632446 R,0,40789,,0 M,19,40789,41189,537,440,612,532 M,0,41189,41789,612,532,618,540 F,0,41489,41789,0.69,0
Sprite,Foreground,Centre,"sb\white.png",0,0 F,0,40789,,0.69 S,0,40789,,0.01894045 R,0,40789,,0 M,19,40789,41189,537,440,473,478 M,0,41189,41789,473,478,467,481 F,0,41489,41789,0.69,0
Sprite,Foreground,Centre,"sb\white.png",0,0 F,0,40789,,0.69 S,0,40789,,0.01203379 R,0,40789,,2 M,19,40789,41189,537,440,610,499 M,0,41189,41789,610,499,617,504 F,0,41489,41789,0.69,0
Sprite,Foreground,Centre,"sb\white.png",0,0 F,0,40789,,0.69 S,0,40789,,0.01432613 R,0,40789,,1 M,19,40789,41189,537,440,422,440 M,0,41189,41789,422,440,412,440 F,0,41489,41789,0.69,0
Sprite,Foreground,Centre,"sb\white.png",0,0 F,0,40789,,0.69 S,0,40789,,0.01440205 R,0,40789,,2 M,19,40789,41189,537,440,616,341 M,0,41189,41789,616,341,623,332 F,0,41489,41789,0.69,0
Sprite,Foreground,Centre,"sb\white.png",0,0 F,0,40789,,0.69 S,0,40789,,0.0087625 R,0,40789,,0 M,19,40789,41189,537,440,471,536 M,0,41189,41789,471,536,466,545 F,0,41489,41789,0.69,0
Sprite,Foreground,Centre,"sb\white.png",0,0 F,0,40789,,0.69 S,0,40789,,0.01830869 R,0,40789,,2 M,19,40789,41189,537,440,461,492 M,0,41189,41789,461,492,455,497 F,0,41489,41789,0.69,0
Sprite,Foreground,Centre,"sb\white.png",0,0 F,0,40789,,0.69 S,0,40789,,0.0203182 R,0,40789,,0 M,19,40789,41189,537,440,581,364 M,0,41189,41789,581,364,585,358 F,0,41489,41789,0.69,0
Sprite,Foreground,Centre,"sb\white.png",0,0 F,0,40789,,0.69 S,0,40789,,0.01693241 R,0,40789,,1 M,19,40789,41189,537,440,539,512 M,0,41189,41789,539,512,539,518 F,0,41489,41789,0.69,0
Sprite,Foreground,Centre,"sb\white.png",0,0 F,0,40789,,0.69 S,0,40789,,0.0226785 R,0,40789,,0 M,19,40789,41189,537,440,653,446 M,0,41189,41789,653,446,663,446 F,0,41489,41789,0.69,0
Sprite,Foreground,Centre,"sb\white.png",0,0 F,0,40789,,0.69 S,0,40789,,0.009114833 R,0,40789,,1 M,19,40789,41189,537,440,537,522 M,0,41189,41789,537,522,537,529 F,0,41489,41789,0.69,0
Sprite,Foreground,Centre,"sb\glow.png",167,89 C,0,42871,,255,36,130 F,0,42871,42971,0,0.6 F,0,44198,44298,0.6,0
Sprite,Foreground,Centre,"sb\glow.png",158.082,89.59016 C,0,42896,,255,36,130 F,0,42896,42996,0,0.6 F,0,44198,44298,0.6,0
Sprite,Foreground,Centre,"sb\glow.png",149.164,90.18032 C,0,42921,,255,36,130 F,0,42921,43021,0,0.6 F,0,44198,44298,0.6,0
Sprite,Foreground,Centre,"sb\glow.png",140.246,90.77048 C,0,42946,,255,36,130 F,0,42946,43046,0,0.6 F,0,44198,44298,0.6,0
Sprite,Foreground,Centre,"sb\glow.png",131.328,91.36064 C,0,42971,,255,36,130 F,0,42971,43071,0,0.6 F,0,44198,44298,0.6,0
Sprite,Foreground,Centre,"sb\glow.png",122.41,91.95081 C,0,42996,,255,36,130 F,0,42996,43096,0,0.6 F,0,44198,44298,0.6,0
Sprite,Foreground,Centre,"sb\glow.png",113.492,92.54097 C,0,43021,,255,36,130 F,0,43021,43121,0,0.6 F,0,44198,44298,0.6,0
Sprite,Foreground,Centre,"sb\glow.png",104.574,93.13113 C,0,43046,,255,36,130 F,0,43046,43146,0,0.6 F,0,44198,44298,0.6,0
Sprite,Foreground,Centre,"sb\glow.png",95.65605,93.72129 C,0,43071,,255,36,130 F,0,43071,43171,0,0.6 F,0,44198,44298,0.6,0
Sprite,Foreground,Centre,"sb\glow.png",86.73805,94.31145 C,0,43096,,255,36,130 F,0,43096,43196,0,0.6 F,0,44198,44298,0.6,0
Sprite,Foreground,Centre,"sb\glow.png",77.82006,94.90161 C,0,43121,,255,36,130 F,0,43121,43221,0,0.6 F,0,44198,44298,0.6,0
Sprite,Foreground,Centre,"sb\glow.png",68.90206,95.49178 C,0,43146,,255,36,130 F,0,43146,43246,0,0.6 F,0,44198,44298,0.6,0
Sprite,Foreground,Centre,"sb\glow.png",59.98408,96.08194 C,0,43171,,255,36,130 F,0,43171,43271,0,0.6 F,0,44198,44298,0.6,0
Sprite,Foreground,Centre,"sb\glow.png",51.06608,96.6721 C,0,43196,,255,36,130 F,0,43196,43296,0,0.6 F,0,44198,44298,0.6,0
Sprite,Foreground,Centre,"sb\glow.png",42.14809,97.26226 C,0,43221,,255,36,130 F,0,43221,43321,0,0.6 F,0,44198,44298,0.6,0
Sprite,Foreground,Centre,"sb\glow.png",41.33736,97.31591 C,0,43246,,255,36,130 F,0,43246,43346,0,0.6 F,0,44198,44298,0.6,0
Sprite,Foreground,Centre,"sb\glow.png",50.25536,96.72575 C,0,43271,,255,36,130 F,0,43271,43371,0,0.6 F,0,44198,44298,0.6,0
Sprite,Foreground,Centre,"sb\glow.png",59.17335,96.13559 C,0,43296,,255,36,130 F,0,43296,43396,0,0.6 F,0,44198,44298,0.6,0
Sprite,Foreground,Centre,"sb\glow.png",68.09135,95.54543 C,0,43321,,255,36,130 F,0,43321,43421,0,0.6 F,0,44198,44298,0.6,0
Sprite,Foreground,Centre,"sb\glow.png",77.00933,94.95526 C,0,43346,,255,36,130 F,0,43346,43446,0,0.6 F,0,44198,44298,0.6,0
Sprite,Foreground,Centre,"sb\glow.png",85.92733,94.3651 C,0,43371,,255,36,130 F,0,43371,43471,0,0.6 F,0,44198,44298,0.6,0
Sprite,Foreground,Centre,"sb\glow.png",94.84532,93.77494 C,0,43396,,255,36,130 F,0,43396,43496,0,0.6 F,0,44198,44298,0.6,0
Sprite,Foreground,Centre,"sb\glow.png",103.7633,93.18478 C,0,43421,,255,36,130 F,0,43421,43521,0,0.6 F,0,44198,44298,0.6,0
Sprite,Foreground,Centre,"sb\glow.png",112.6813,92.59462 C,0,43446,,255,36,130 F,0,43446,43546,0,0.6 F,0,44198,44298,0.6,0
Sprite,Foreground,Centre,"sb\glow.png",121.5993,92.00446 C,0,43471,,255,36,130 F,0,43471,43571,0,0.6 F,0,44198,44298,0.6,0
Sprite,Foreground,Centre,"sb\glow.png",130.5173,91.41429 C,0,43496,,255,36,130 F,0,43496,43596,0,0.6 F,0,44198,44298,0.6,0
Sprite,Foreground,Centre,"sb\glow.png",139.4353,90.82413 C,0,43521,,255,36,130 F,0,43521,43621,0,0.6 F,0,44198,44298,0.6,0
Sprite,Foreground,Centre,"sb\glow.png",148.3533,90.23398 C,0,43546,,255,36,130 F,0,43546,43646,0,0.6 F,0,44198,44298,0.6,0
Sprite,Foreground,Centre,"sb\glow.png",157.2713,89.64381 C,0,43571,,255,36,130 F,0,43571,43671,0,0.6 F,0,44198,44298,0.6,0
Sprite,Foreground,Centre,"sb\glow.png",166.1893,89.05365 C,0,43596,,255,36,130 F,0,43596,43696,0,0.6 F,0,44198,44298,0.6,0
Sprite,Foreground,Centre,"sb\glow.png",487,337 C,0,45780,,17,196,255 F,0,45780,45880,0,0.6 F,0,47107,47207,0.6,0
Sprite,Foreground,Centre,"sb\glow.png",478.0635,337.004 C,0,45805,,17,196,255 F,0,45805,45905,0,0.6 F,0,47107,47207,0.6,0
Sprite,Foreground,Centre,"sb\glow.png",469.145,337.5532 C,0,45830,,17,196,255 F,0,45830,45930,0,0.6 F,0,47107,47207,0.6,0
Sprite,Foreground,Centre,"sb\glow.png",460.3028,338.8252 C,0,45855,,17,196,255 F,0,45855,45955,0,0.6 F,0,47107,47207,0.6,0
Sprite,Foreground,Centre,"sb\glow.png",451.6699,341.1085 C,0,45880,,17,196,255 F,0,45880,45980,0,0.6 F,0,47107,47207,0.6,0
Sprite,Foreground,Centre,"sb\glow.png",443.5142,344.7312 C,0,45905,,17,196,255 F,0,45905,46005,0,0.6 F,0,47107,47207,0.6,0
Sprite,Foreground,Centre,"sb\glow.png",436.1983,349.8385 C,0,45930,,17,196,255 F,0,45930,46030,0,0.6 F,0,47107,47207,0.6,0
Sprite,Foreground,Centre,"sb\glow.png",429.8056,356.076 C,0,45955,,17,196,255 F,0,45955,46055,0,0.6 F,0,47107,47207,0.6,0
Sprite,Foreground,Centre,"sb\glow.png",423.7531,362.6518 C,0,45980,,17,196,255 F,0,45980,46080,0,0.6 F,0,47107,47207,0.6,0
Sprite,Foreground,Centre,"sb\glow.png",417.1603,368.6729 C,0,46005,,17,196,255 F,0,46005,46105,0,0.6 F,0,47107,47207,0.6,0
Sprite,Foreground,Centre,"sb\glow.png",409.5952,373.4011 C,0,46030,,17,196,255 F,0,46030,46130,0,0.6 F,0,47107,47207,0.6,0
Sprite,Foreground,Centre,"sb\glow.png",401.2661,376.6077 C,0,46055,,17,196,255 F,0,46055,46155,0,0.6 F,0,47107,47207,0.6,0
Sprite,Foreground,Centre,"sb\glow.png",392.5467,378.5398 C,0,46080,,17,196,255 F,0,46080,46180,0,0.6 F,0,47107,47207,0.6,0
Sprite,Foreground,Centre,"sb\glow.png",383.6667,379.5211 C,0,46105,,17,196,255 F,0,46105,46205,0,0.6 F,0,47107,47207,0.6,0
Sprite,Foreground,Centre,"sb\glow.png",374.7366,379.832 C,0,46130,,17,196,255 F,0,46130,46230,0,0.6 F,0,47107,47207,0.6,0
Sprite,Foreground,Centre,"sb\glow.png",373.9241,379.8289 C,0,46155,,17,196,255 F,0,46155,46255,0,0.6 F,0,47107,47207,0.6,0
Sprite,Foreground,Centre,"sb\glow.png",382.8563,379.5783 C,0,46180,,17,196,255 F,0,46180,46280,0,0.6 F,0,47107,47207,0.6,0
Sprite,Foreground,Centre,"sb\glow.png",391.743,378.6584 C,0,46205,,17,196,255 F,0,46205,46305,0,0.6 F,0,47107,47207,0.6,0
Sprite,Foreground,Centre,"sb\glow.png",400.4855,376.8329 C,0,46230,,17,196,255 F,0,46230,46330,0,0.6 F,0,47107,47207,0.6,0
Sprite,Foreground,Centre,"sb\glow.png",408.8639,373.7549 C,0,46255,,17,196,255 F,0,46255,46355,0,0.6 F,0,47107,47207,0.6,0
Sprite,Foreground,Centre,"sb\glow.png",416.5132,369.1639 C,0,46280,,17,196,255 F,0,46280,46380,0,0.6 F,0,47107,47207,0.6,0
Sprite,Foreground,Centre,"sb\glow.png",423.1895,363.237 C,0,46305,,17,196,255 F,0,46305,46405,0,0.6 F,0,47107,47207,0.6,0
Sprite,Foreground,Centre,"sb\glow.png",429.2548,356.6733 C,0,46330,,17,196,255 F,0,46330,46430,0,0.6 F,0,47107,47207,0.6,0
Sprite,Foreground,Centre,"sb\glow.png",435.5829,350.3689 C,0,46355,,17,196,255 F,0,46355,46455,0,0.6 F,0,47107,47207,0.6,0
Sprite,Foreground,Centre,"sb\glow.png",442.8092,345.1349 C,0,46380,,17,196,255 F,0,46380,46480,0,0.6 F,0,47107,47207,0.6,0
Sprite,Foreground,Centre,"sb\glow.png",450.9025,341.3752 C,0,46405,,17,196,255 F,0,46405,46505,0,0.6 F,0,47107,47207,0.6,0
Sprite,Foreground,Centre,"sb\glow.png",459.5056,338.9819 C,0,46430,,17,196,255 F,0,46430,46530,0,0.6 F,0,47107,47207,0.6,0
Sprite,Foreground,Centre,"sb\glow.png",468.3364,337.6319 C,0,46455,,17,196,255 F,0,46455,46555,0,0.6 F,0,47107,47207,0.6,0
Sprite,Foreground,Centre,"sb\glow.png",477.2516,337.0349 C,0,46480,,17,196,255 F,0,46480,46580,0,0.6 F,0,47107,47207,0.6,0
Sprite,Foreground,Centre,"sb\glow.png",486.1876,336.988 C,0,46505,,17,196,255 F,0,46505,46605,0,0.6 F,0,47107,47207,0.6,0
Sprite,Foreground,Centre,"sb\glow.png",79,207 C,0,48689,,255,36,130 F,0,48689,48789,0,0.6 F,0,50017,50117,0.6,0
Sprite,Foreground,Centre,"sb\glow.png",78.27283,215.9079 C,0,48714,,255,36,130 F,0,48714,48814,0,0.6 F,0,50017,50117,0.6,0
Sprite,Foreground,Centre,"sb\glow.png",77.54565,224.8157 C,0,48739,,255,36,130 F,0,48739,48839,0,0.6 F,0,50017,50117,0.6,0
Sprite,Foreground,Centre,"sb\glow.png",76.81848,233.7236 C,0,48764,,255,36,130 F,0,48764,48864,0,0.6 F,0,50017,50117,0.6,0
Sprite,Foreground,Centre,"sb\glow.png",76.09131,242.6315 C,0,48789,,255,36,130 F,0,48789,48889,0,0.6 F,0,50017,50117,0.6,0
Sprite,Foreground,Centre,"sb\glow.png",75.36414,251.5393 C,0,48814,,255,36,130 F,0,48814,48914,0,0.6 F,0,50017,50117,0.6,0
Sprite,Foreground,Centre,"sb\glow.png",74.63696,260.4472 C,0,48839,,255,36,130 F,0,48839,48939,0,0.6 F,0,50017,50117,0.6,0
Sprite,Foreground,Centre,"sb\glow.png",73.90979,269.3551 C,0,48864,,255,36,130 F,0,48864,48964,0,0.6 F,0,50017,50117,0.6,0
Sprite,Foreground,Centre,"sb\glow.png",73.18262,278.2629 C,0,48889,,255,36,130 F,0,48889,48989,0,0.6 F,0,50017,50117,0.6,0
Sprite,Foreground,Centre,"sb\glow.png",72.45544,287.1708 C,0,48914,,255,36,130 F,0,48914,49014,0,0.6 F,0,50017,50117,0.6,0
Sprite,Foreground,Centre,"sb\glow.png",71.72827,296.0787 C,0,48939,,255,36,130 F,0,48939,49039,0,0.6 F,0,50017,50117,0.6,0
Sprite,Foreground,Centre,"sb\glow.png",71.0011,304.9866 C,0,48964,,255,36,130 F,0,48964,49064,0,0.6 F,0,50017,50117,0.6,0
Sprite,Foreground,Centre,"sb\glow.png",70.27393,313.8944 C,0,48989,,255,36,130 F,0,48989,49089,0,0.6 F,0,50017,50117,0.6,0
Sprite,Foreground,Centre,"sb\glow.png",69.54675,322.8023 C,0,49014,,255,36,130 F,0,49014,49114,0,0.6 F,0,50017,50117,0.6,0
Sprite,Foreground,Centre,"sb\glow.png",68.81958,331.7102 C,0,49039,,255,36,130 F,0,49039,49139,0,0.6 F,0,50017,50117,0.6,0
Sprite,Foreground,Centre,"sb\glow.png",68.72703,332.8439 C,0,49064,,255,36,130 F,0,49064,49164,0,0.6 F,0,50017,50117,0.6,0
Sprite,Foreground,Centre,"sb\glow.png",69.4542,323.936 C,0,49089,,255,36,130 F,0,49089,49189,0,0.6 F,0,50017,50117,0.6,0
Sprite,Foreground,Centre,"sb\glow.png",70.18137,315.0281 C,0,49114,,255,36,130 F,0,49114,49214,0,0.6 F,0,50017,50117,0.6,0
Sprite,Foreground,Centre,"sb\glow.png",70.90855,306.1203 C,0,49139,,255,36,130 F,0,49139,49239,0,0.6 F,0,50017,50117,0.6,0
Sprite,Foreground,Centre,"sb\glow.png",71.63572,297.2124 C,0,49164,,255,36,130 F,0,49164,49264,0,0.6 F,0,50017,50117,0.6,0
Sprite,Foreground,Centre,"sb\glow.png",72.36289,288.3046 C,0,49189,,255,36,130 F,0,49189,49289,0,0.6 F,0,50017,50117,0.6,0
Sprite,Foreground,Centre,"sb\glow.png",73.09007,279.3967 C,0,49214,,255,36,130 F,0,49214,49314,0,0.6 F,0,50017,50117,0.6,0
Sprite,Foreground,Centre,"sb\glow.png",73.81724,270.4888 C,0,49239,,255,36,130 F,0,49239,49339,0,0.6 F,0,50017,50117,0.6,0
Sprite,Foreground,Centre,"sb\glow.png",74.54441,261.5809 C,0,49264,,255,36,130 F,0,49264,49364,0,0.6 F,0,50017,50117,0.6,0
Sprite,Foreground,Centre,"sb\glow.png",75.27158,252.6731 C,0,49289,,255,36,130 F,0,49289,49389,0,0.6 F,0,50017,50117,0.6,0
Sprite,Foreground,Centre,"sb\glow.png",75.99876,243.7652 C,0,49314,,255,36,130 F,0,49314,49414,0,0.6 F,0,50017,50117,0.6,0
Sprite,Foreground,Centre,"sb\glow.png",76.72593,234.8573 C,0,49339,,255,36,130 F,0,49339,49439,0,0.6 F,0,50017,50117,0.6,0
Sprite,Foreground,Centre,"sb\glow.png",77.4531,225.9495 C,0,49364,,255,36,130 F,0,49364,49464,0,0.6 F,0,50017,50117,0.6,0
Sprite,Foreground,Centre,"sb\glow.png",78.18027,217.0416 C,0,49389,,255,36,130 F,0,49389,49489,0,0.6 F,0,50017,50117,0.6,0
Sprite,Foreground,Centre,"sb\glow.png",78.90745,208.1337 C,0,49414,,255,36,130 F,0,49414,49514,0,0.6 F,0,50017,50117,0.6,0
Sprite,Foreground,Centre,"sb\glow.png",0,0 C,0,96425,,17,196,255 M,0,96425,96470,275,99,259.8301,93.27645 F,2,96425,96807,1,0 S,2,96425,96807,1.3,0.26 P,0,96425,96807,A M,0,96470,96515,259.8301,93.27645,244.0993,89.45459 M,0,96515,96561,244.0993,89.45459,259.5819,93.19986 M,0,96561,96607,259.5819,93.19986,275,99
Sprite,Foreground,Centre,"sb\glow.png",0,0 C,0,96789,,17,196,255 M,0,96789,96834,353,87,350.7851,70.9517 F,2,96789,97171,1,0 S,2,96789,97171,1.3,0.26 P,0,96789,97171,A M,0,96834,96879,350.7851,70.9517,346.2979,55.4215 M,0,96879,96925,346.2979,55.4215,350.7314,70.69768 M,0,96925,96971,350.7314,70.69768,353,87
Sprite,Foreground,Centre,"sb\glow.png",426,113 C,0,97152,,17,196,255 F,2,97152,97352,1,0 S,2,97152,97352,1.3,0.26 P,0,97152,97352,A
Sprite,Foreground,Centre,"sb\glow.png",0,0 C,0,97516,,255,36,130 M,0,97516,97561,572,59,570.5657,75.18658 F,2,97516,97898,1,0 S,2,97516,97898,1.3,0.26 P,0,97516,97898,A M,0,97561,97606,570.5657,75.18658,569.1315,91.37317 M,0,97606,97652,569.1315,91.37317,567.6973,107.5597 M,0,97652,97698,567.6973,107.5597,566.24,124.0053
Sprite,Foreground,Centre,"sb\glow.png",563,162 C,0,97789,,255,36,130 F,2,97789,97989,1,0 S,2,97789,97989,1.3,0.26 P,0,97789,97989,A
Sprite,Foreground,Centre,"sb\glow.png",0,0 C,0,97880,,255,36,130 M,0,97880,97925,563,162,561.1606,178.1456 F,2,97880,98261,1,0 S,2,97880,98261,1.3,0.26 P,0,97880,98261,A M,0,97925,97970,561.1606,178.1456,559.3213,194.2911 M,0,97970,98016,559.3213,194.2911,557.4819,210.4367 M,0,98016,98061,557.4819,210.4367,555.6425,226.5822
Sprite,Foreground,Centre,"sb\glow.png",514,292 C,0,98243,,255,36,130 F,2,98243,98443,1,0 S,2,98243,98443,1.3,0.26 P,0,98243,98443,A
Sprite,Foreground,Centre,"sb\glow.png",558,358 C,0,98425,,255,36,130 F,2,98425,98625,1,0 S,2,98425,98625,1.3,0.26 P,0,98425,98625,A
Sprite,Foreground,Centre,"sb\glow.png",506,416 C,0,98607,,255,36,130 F,2,98607,98807,1,0 S,2,98607,98807,1.3,0.26 P,0,98607,98807,A
Sprite,Foreground,Centre,"sb\glow.png",0,0 C,0,98971,,17,196,255 M,0,98971,99016,351,439,334.8494,437.2055 F,2,98971,99353,1,0 S,2,98971,99353,1.3,0.26 P,0,98971,99353,A M,0,99016,99061,334.8494,437.2055,318.6988,435.411 M,0,99061,99107,318.6988,435.411,306.1411,426.1411 M,0,99107,99153,306.1411,426.1411,294.4667,414.4667
Sprite,Foreground,Centre,"sb\glow.png",0,0 C,0,99334,,17,196,255 M,0,99334,99379,248,353,248.9542,336.778 F,2,99334,99716,1,0 S,2,99334,99716,1.3,0.26 P,0,99334,99716,A M,0,99379,99424,248.9542,336.778,249.9085,320.5561 M,0,99424,99470,249.9085,320.5561,248.9695,336.5185 M,0,99470,99516,248.9695,336.5185,248,353
Sprite,Foreground,Centre,"sb\glow.png",0,0 C,0,99698,,17,196,255 M,0,99698,99743,169,348,166.9205,364.1164 F,2,99698,100080,1,0 S,2,99698,100080,1.3,0.26 P,0,99698,100080,A M,0,99743,99788,166.9205,364.1164,165,379 M,0,99788,99834,165,379,166.8872,364.3743 M,0,99834,99880,166.8872,364.3743,169,348
Sprite,Foreground,Centre,"sb\glow.png",90,340 C,0,100062,,17,196,255 F,2,100062,100262,1,0 S,2,100062,100262,1.3,0.26 P,0,100062,100262,A
Sprite,Foreground,Centre,"sb\glow.png",0,0 C,0,100425,,255,36,130 M,0,100425,100470,65,186,80.81548,182.7592 F,2,100425,100807,1,0 S,2,100425,100807,1.3,0.26 P,0,100425,100807,A M,0,100470,100515,80.81548,182.7592,96.88725,182.8225 M,0,100515,100561,96.88725,182.8225,112.4916,186.7309 M,0,100561,100607,112.4916,186.7309,126.9268,194.4341
Sprite,Foreground,Centre,"sb\glow.png",155,221 C,0,100698,,255,36,130 F,2,100698,100898,1,0 S,2,100698,100898,1.3,0.26 P,0,100698,100898,A
Sprite,Foreground,Centre,"sb\glow.png",0,0 C,0,100789,,255,36,130 M,0,100789,100834,155,221,169.5235,228.209 F,2,100789,101171,1,0 S,2,100789,101171,1.3,0.26 P,0,100789,101171,A M,0,100834,100879,169.5235,228.209,185.2822,232.0155 M,0,100879,100925,185.2822,232.0155,201.4905,232.2307 M,0,100925,100971,201.4905,232.2307,217,229
Sprite,Foreground,Centre,"sb\glow.png",278,182 C,0,101152,,255,36,130 F,2,101152,101352,1,0 S,2,101152,101352,1.3,0.26 P,0,101152,101352,A
Sprite,Foreground,Centre,"sb\glow.png",301,107 C,0,101334,,255,36,130 F,2,101334,101534,1,0 S,2,101334,101534,1.3,0.26 P,0,101334,101534,A
Sprite,Foreground,Centre,"sb\glow.png",0,0 C,0,101516,,255,36,130 M,0,101516,101561,364,62,379.0897,56.5148 F,2,101516,101898,1,0 S,2,101516,101898,1.3,0.26 P,0,101516,101898,A M,0,101561,101606,379.0897,56.5148,394,54 M,0,101606,101652,394,54,379.3446,56.47181 M,0,101652,101698,379.3446,56.47181,364,62
Sprite,Foreground,Centre,"sb\glow.png",402,129 C,0,101880,,17,196,255 F,2,101880,102080,1,0 S,2,101880,102080,1.3,0.26 P,0,101880,102080,A
Sprite,Foreground,Centre,"sb\glow.png",560,123 C,0,102243,,17,196,255 F,2,102243,102443,1,0 S,2,102243,102443,1.3,0.26 P,0,102243,102443,A
Sprite,Foreground,Centre,"sb\glow.png",560,123 C,0,102334,,17,196,255 F,2,102334,102534,1,0 S,2,102334,102534,1.3,0.26 P,0,102334,102534,A
Sprite,Foreground,Centre,"sb\glow.png",560,123 C,0,102425,,17,196,255 F,2,102425,102625,1,0 S,2,102425,102625,1.3,0.26 P,0,102425,102625,A
Sprite,Foreground,Centre,"sb\glow.png",0,0 C,0,102607,,17,196,255 M,0,102607,102652,533,196,516.8721,197.9884 F,2,102607,102988,1,0 S,2,102607,102988,1.3,0.26 P,0,102607,102988,A M,0,102652,102697,516.8721,197.9884,500.7442,199.9767 M,0,102697,102743,500.7442,199.9767,484.6163,201.9651 M,0,102743,102788,484.6163,201.9651,468.4884,203.9535
Sprite,Foreground,Centre,"sb\glow.png",390,214 C,0,102971,,17,196,255 F,2,102971,103171,1,0 S,2,102971,103171,1.3,0.26 P,0,102971,103171,A
Sprite,Foreground,Centre,"sb\glow.png",0,0 C,0,103334,,255,36,130 M,0,103334,103379,364,62,347.8134,63.43425 F,2,103334,103716,1,0 S,2,103334,103716,1.3,0.26 P,0,103334,103716,A M,0,103379,103424,347.8134,63.43425,331.6268,64.86851 M,0,103424,103470,331.6268,64.86851,315.4402,66.30276 M,0,103470,103516,315.4402,66.30276,298.9947,67.75996
Sprite,Foreground,Centre,"sb\glow.png",0,0 C,0,103698,,255,36,130 M,0,103698,103743,221,77,221.7982,93.23038 F,2,103698,104080,1,0 S,2,103698,104080,1.3,0.26 P,0,103698,104080,A M,0,103743,103788,221.7982,93.23038,222.5964,109.4608 M,0,103788,103834,222.5964,109.4608,221.811,93.49007 M,0,103834,103880,221.811,93.49007,221,77
Sprite,Foreground,Centre,"sb\glow.png",0,0 C,0,104062,,255,36,130 M,0,104062,104107,143,87,141.1474,70.85595 F,2,104062,104444,1,0 S,2,104062,104444,1.3,0.26 P,0,104062,104444,A M,0,104107,104152,141.1474,70.85595,139.2948,54.7119 M,0,104152,104198,139.2948,54.7119,141.1178,70.59764 M,0,104198,104244,141.1178,70.59764,143,87
Sprite,Foreground,Centre,"sb\glow.png",69,94 C,0,104425,,255,36,130 F,2,104425,104625,1,0 S,2,104425,104625,1.3,0.26 P,0,104425,104625,A
Sprite,Foreground,Centre,"sb\glow.png",0,0 C,0,104789,,17,196,255 M,0,104789,104834,150,231,133.988,233.266 F,2,104789,105171,1,0 S,2,104789,105171,1.3,0.26 P,0,104789,105171,A M,0,104834,104879,133.988,233.266,118.677,238.3023 M,0,104879,104925,118.677,238.3023,104.7243,246.3934 M,0,104925,104971,104.7243,246.3934,92.5693,257.4041
Sprite,Foreground,Centre,"sb\glow.png",70,290 C,0,105062,,17,196,255 F,2,105062,105262,1,0 S,2,105062,105262,1.3,0.26 P,0,105062,105262,A
Sprite,Foreground,Centre,"sb\glow.png",70,290 C,0,105152,,17,196,255 F,2,105152,105352,1,0 S,2,105152,105352,1.3,0.26 P,0,105152,105352,A
Sprite,Foreground,Centre,"sb\glow.png",67,368 C,0,105334,,17,196,255 F,2,105334,105534,1,0 S,2,105334,105534,1.3,0.26 P,0,105334,105534,A
Sprite,Foreground,Centre,"sb\glow.png",0,0 C,0,105516,,17,196,255 M,0,105516,105561,122,422,137.5659,426.4101 F,2,105516,105898,1,0 S,2,105516,105898,1.3,0.26 P,0,105516,105898,A M,0,105561,105606,137.5659,426.4101,153.6068,428.0913 M,0,105606,105652,153.6068,428.0913,169.6685,426.5449 M,0,105652,105698,169.6685,426.5449,185.3441,421.7144
Sprite,Foreground,Centre,"sb\glow.png",249,378 C,0,105880,,17,196,255 F,2,105880,106080,1,0 S,2,105880,106080,1.3,0.26 P,0,105880,106080,A
Sprite,Foreground,Centre,"sb\glow.png",0,0 C,0,106243,,255,36,130 M,0,106243,106288,408,377,408.6245,360.762 F,2,106243,106624,1,0 S,2,106243,106624,1.3,0.26 P,0,106243,106624,A M,0,106288,106333,408.6245,360.762,409.2491,344.524 M,0,106333,106379,409.2491,344.524,409.8736,328.286 M,0,106379,106424,409.8736,328.286,410.4981,312.048
Sprite,Foreground,Centre,"sb\glow.png",0,0 C,0,106607,,255,36,130 M,0,106607,106652,333,283,332.1346,299.2269 F,2,106607,106988,1,0 S,2,106607,106988,1.3,0.26 P,0,106607,106988,A M,0,106652,106697,332.1346,299.2269,331.2691,315.4539 M,0,106697,106743,331.2691,315.4539,330.4037,331.6808 M,0,106743,106788,330.4037,331.6808,329.5382,347.9077
Sprite,Foreground,Centre,"sb\glow.png",336,430 C,0,106971,,255,36,130 F,2,106971,107171,1,0 S,2,106971,107171,1.3,0.26 P,0,106971,107171,A
Sprite,Foreground,Centre,"sb\glow.png",0,0 C,0,107152,,255,36,130 M,0,107152,107197,336,430,352.241,429.7926 F,2,107152,107716,1,0 S,2,107152,107716,1.3,0.26 P,0,107152,107716,A M,0,107197,107242,352.241,429.7926,368.2696,427.2834 M,0,107242,107288,368.2696,427.2834,383.0315,420.6909 M,0,107288,107333,383.0315,420.6909,394.7415,409.5005 M,0,107333,107379,394.7415,409.5005,405.9323,397.7557 M,0,107379,107424,405.9323,397.7557,420.1336,390.0469 M,0,107424,107470,420.1336,390.0469,436.0067,386.7248 M,0,107470,107516,436.0067,386.7248,452.3943,386.0135
Sprite,Foreground,Centre,"sb\glow.png",0,0 C,0,107698,,17,196,255 M,0,107698,107743,553,437,539.2878,428.3088 F,2,107698,108262,1,0 S,2,107698,108262,1.3,0.26 P,0,107698,108262,A M,0,107743,107788,539.2878,428.3088,527.0201,417.6765 M,0,107788,107834,527.0201,417.6765,516.4692,405.3393 M,0,107834,107879,516.4692,405.3393,507.8694,391.5714 M,0,107879,107925,507.8694,391.5714,501.4115,376.6788 M,0,107925,107970,501.4115,376.6788,497.2388,360.9922 M,0,107970,108016,497.2388,360.9922,495.444,344.8602 M,0,108016,108062,495.444,344.8602,496,329
Sprite,Foreground,Centre,"sb\glow.png",512,252 C,0,108243,,17,196,255 F,2,108243,108443,1,0 S,2,108243,108443,1.3,0.26 P,0,108243,108443,A
Sprite,Foreground,Centre,"sb\glow.png",0,0 C,0,108425,,17,196,255 M,0,108425,108470,538,178,539.322,161.8195 F,2,108425,108989,1,0 S,2,108425,108989,1.3,0.26 P,0,108425,108989,A M,0,108470,108515,539.322,161.8195,538.2446,145.6219 M,0,108515,108561,538.2446,145.6219,534.792,129.7609 M,0,108561,108606,534.792,129.7609,529.0396,114.583 M,0,108606,108652,529.0396,114.583,521.1133,100.4194 M,0,108652,108697,521.1133,100.4194,511.1866,87.5796 M,0,108697,108743,511.1866,87.5796,499.4766,76.34373 M,0,108743,108789,499.4766,76.34373,486.0948,66.88264
Sprite,Foreground,Centre,"sb\glow.png",0,0 C,0,109152,,255,36,130 M,0,109152,109197,330,61,314.4942,65.62448 F,2,109152,109534,1,0 S,2,109152,109534,1.3,0.26 P,0,109152,109534,A M,0,109197,109242,314.4942,65.62448,300.1154,72.93389 M,0,109242,109288,300.1154,72.93389,287.5475,83.04547 M,0,109288,109334,287.5475,83.04547,277.1889,95.74568
Sprite,Foreground,Centre,"sb\glow.png",0,0 C,0,109516,,255,36,130 M,0,109516,109561,256,171,256.5326,187.1712 F,2,109516,109898,1,0 S,2,109516,109898,1.3,0.26 P,0,109516,109898,A M,0,109561,109606,256.5326,187.1712,259.7104,202.9884 M,0,109606,109652,259.7104,202.9884,265.8898,217.9044 M,0,109652,109698,265.8898,217.9044,275.0251,231.5476
Sprite,Foreground,Centre,"sb\glow.png",330,298 C,0,109880,,255,36,130 F,2,109880,110080,1,0 S,2,109880,110080,1.3,0.26 P,0,109880,110080,A
Sprite,Foreground,Centre,"sb\glow.png",330,298 C,0,109971,,255,36,130 F,2,109971,110171,1,0 S,2,109971,110171,1.3,0.26 P,0,109971,110171,A
Sprite,Foreground,Centre,"sb\glow.png",330,298 C,0,110062,,255,36,130 F,2,110062,110262,1,0 S,2,110062,110262,1.3,0.26 P,0,110062,110262,A
Sprite,Foreground,Centre,"sb\glow.png",407,305 C,0,110243,,255,36,130 F,2,110243,110443,1,0 S,2,110243,110443,1.3,0.26 P,0,110243,110443,A
Sprite,Foreground,Centre,"sb\glow.png",0,0 C,0,110607,,17,196,255 M,0,110607,110652,317,439,300.8142,437.5567 F,2,110607,111171,1,0 S,2,110607,111171,1.3,0.26 P,0,110607,111171,A M,0,110652,110697,300.8142,437.5567,284.6284,436.1134 M,0,110697,110743,284.6284,436.1134,268.4427,434.67 M,0,110743,110788,268.4427,434.67,252.2569,433.2267 M,0,110788,110834,252.2569,433.2267,236.0711,431.7834 M,0,110834,110879,236.0711,431.7834,219.8853,430.3401 M,0,110879,110925,219.8853,430.3401,203.6996,428.8968 M,0,110925,110971,203.6996,428.8968,187.3519,427.439
Sprite,Foreground,Centre,"sb\glow.png",111,416 C,0,111152,,17,196,255 F,2,111152,111352,1,0 S,2,111152,111352,1.3,0.26 P,0,111152,111352,A
Sprite,Foreground,Centre,"sb\glow.png",0,0 C,0,111334,,17,196,255 M,0,111334,111379,101,338,99.66748,321.8047 F,2,111334,111898,1,0 S,2,111334,111898,1.3,0.26 P,0,111334,111898,A M,0,111379,111424,99.66748,321.8047,98.33495,305.6094 M,0,111424,111470,98.33495,305.6094,97.00243,289.4142 M,0,111470,111515,97.00243,289.4142,95.66991,273.2189 M,0,111515,111561,95.66991,273.2189,94.33739,257.0236 M,0,111561,111606,94.33739,257.0236,93.00487,240.8284 M,0,111606,111652,93.00487,240.8284,91.67234,224.6331 M,0,111652,111698,91.67234,224.6331,90.32649,208.2758
Sprite,Foreground,Centre,"sb\glow.png",0,0 C,0,112062,,255,36,130 M,0,112062,112107,70,61,86.19228,59.63164 F,2,112062,112444,1,0 S,2,112062,112444,1.3,0.26 P,0,112062,112444,A M,0,112107,112152,86.19228,59.63164,102.3846,58.26328 M,0,112152,112198,102.3846,58.26328,118.5769,56.89491 M,0,112198,112244,118.5769,56.89491,135.0282,55.50466
Sprite,Foreground,Centre,"sb\glow.png",0,0 C,0,112425,,255,36,130 M,0,112425,112470,189,143,205.1911,141.6178 F,2,112425,112807,1,0 S,2,112425,112807,1.3,0.26 P,0,112425,112807,A M,0,112470,112515,205.1911,141.6178,221.3822,140.2357 M,0,112515,112561,221.3822,140.2357,237.5733,138.8535 M,0,112561,112607,237.5733,138.8535,254.0235,137.4492
Sprite,Foreground,Centre,"sb\glow.png",0,0 C,0,112789,,17,196,255 M,0,112789,112834,395,129,392.2433,144.9037 F,2,112789,113170,1,0 S,2,112789,113170,1.3,0.26 P,0,112789,113170,A M,0,112834,112879,392.2433,144.9037,392.8228,160.9605 M,0,112879,112925,392.8228,160.9605,397.2676,176.4186 M,0,112925,112970,397.2676,176.4186,405.3276,190.3674
Sprite,Foreground,Centre,"sb\glow.png",435,217 C,0,113062,,17,196,255 F,2,113062,113262,1,0 S,2,113062,113262,1.3,0.26 P,0,113062,113262,A
Sprite,Foreground,Centre,"sb\glow.png",435,217 C,0,113152,,17,196,255 F,2,113152,113352,1,0 S,2,113152,113352,1.3,0.26 P,0,113152,113352,A
Sprite,Foreground,Centre,"sb\glow.png",511,235 C,0,113334,,17,196,255 F,2,113334,113534,1,0 S,2,113334,113534,1.3,0.26 P,0,113334,113534,A
Sprite,Foreground,Centre,"sb\glow.png",571,177 C,0,113516,,255,36,130 F,2,113516,113716,1,0 S,2,113516,113716,1.3,0.26 P,0,113516,113716,A
Sprite,Foreground,Centre,"sb\glow.png",0,0 C,0,114243,,255,36,130 M,0,114243,114288,571,177,554.8887,175.201 F,2,114243,114807,1,0 S,2,114243,114807,1.3,0.26 P,0,114243,114807,A M,0,114288,114333,554.8887,175.201,538.7108,175.6184 M,0,114333,114379,538.7108,175.6184,522.7961,178.5546 M,0,114379,114424,522.7961,178.5546,507.5343,183.9377 M,0,114424,114470,507.5343,183.9377,493.2992,191.6358 M,0,114470,114515,493.2992,191.6358,480.4394,201.4605 M,0,114515,114561,480.4394,201.4605,469.2697,213.1712 M,0,114561,114607,469.2697,213.1712,459.9826,226.6216
Sprite,Foreground,Centre,"sb\glow.png",449,305 C,0,114789,,255,36,130 F,2,114789,114989,1,0 S,2,114789,114989,1.3,0.26 P,0,114789,114989,A
Sprite,Foreground,Centre,"sb\glow.png",0,0 C,0,114971,,17,196,255 M,0,114971,115016,438,382,430.1757,396.1761 F,2,114971,115353,1,0 S,2,114971,115353,1.3,0.26 P,0,114971,115353,A M,0,115016,115061,430.1757,396.1761,420.1302,408.8211 M,0,115061,115107,420.1302,408.8211,407.8643,419.3264 M,0,115107,115153,407.8643,419.3264,393.5876,427.4135
Sprite,Foreground,Centre,"sb\glow.png",0,0 C,0,115334,,17,196,255 M,0,115334,115379,317,438,300.9752,435.4781 F,2,115334,115716,1,0 S,2,115334,115716,1.3,0.26 P,0,115334,115716,A M,0,115379,115424,300.9752,435.4781,285.7754,429.813 M,0,115424,115470,285.7754,429.813,272.0105,421.2323 M,0,115470,115516,272.0105,421.2323,260.0831,409.8686
Sprite,Foreground,Centre,"sb\glow.png",217,344 C,0,115698,,17,196,255 F,2,115698,115898,1,0 S,2,115698,115898,1.3,0.26 P,0,115698,115898,A
Sprite,Foreground,Centre,"sb\glow.png",217,344 C,0,115789,,17,196,255 F,2,115789,115989,1,0 S,2,115789,115989,1.3,0.26 P,0,115789,115989,A
Sprite,Foreground,Centre,"sb\glow.png",217,344 C,0,115880,,17,196,255 F,2,115880,116080,1,0 S,2,115880,116080,1.3,0.26 P,0,115880,116080,A
Sprite,Foreground,Centre,"sb\glow.png",179,412 C,0,116062,,17,196,255 F,2,116062,116262,1,0 S,2,116062,116262,1.3,0.26 P,0,116062,116262,A
Sprite,Foreground,Centre,"sb\glow.png",0,0 C,0,116425,,255,36,130 M,0,116425,116470,108,270,106.5567,253.8142 F,2,116425,116989,1,0 S,2,116425,116989,1.3,0.26 P,0,116425,116989,A M,0,116470,116515,106.5567,253.8142,105.1134,237.6284 M,0,116515,116561,105.1134,237.6284,103.67,221.4427 M,0,116561,116606,103.67,221.4427,102.2267,205.2569 M,0,116606,116652,102.2267,205.2569,100.7834,189.0711 M,0,116652,116697,100.7834,189.0711,99.3401,172.8853 M,0,116697,116743,99.3401,172.8853,97.89677,156.6996 M,0,116743,116789,97.89677,156.6996,96.43903,140.3519
Sprite,Foreground,Centre,"sb\glow.png",89,65 C,0,116971,,255,36,130 F,2,116971,117171,1,0 S,2,116971,117171,1.3,0.26 P,0,116971,117171,A
Sprite,Foreground,Centre,"sb\glow.png",0,0 C,0,117152,,255,36,130 M,0,117152,117197,165,78,181.1953,79.33252 F,2,117152,117716,1,0 S,2,117152,117716,1.3,0.26 P,0,117152,117716,A M,0,117197,117242,181.1953,79.33252,197.3905,80.66505 M,0,117242,117288,197.3905,80.66505,213.5858,81.99757 M,0,117288,117333,213.5858,81.99757,229.7811,83.33009 M,0,117333,117379,229.7811,83.33009,245.9764,84.66261 M,0,117379,117424,245.9764,84.66261,262.1716,85.99513 M,0,117424,117470,262.1716,85.99513,278.3669,87.32766 M,0,117470,117516,278.3669,87.32766,294.7242,88.67351
Sprite,Foreground,Centre,"sb\glow.png",0,0 C,0,117880,,17,196,255 M,0,117880,117925,448,111,449.3683,127.1923 F,2,117880,118262,1,0 S,2,117880,118262,1.3,0.26 P,0,117880,118262,A M,0,117925,117970,449.3683,127.1923,450.7367,143.3846 M,0,117970,118016,450.7367,143.3846,452.1051,159.5769 M,0,118016,118062,452.1051,159.5769,453.4953,176.0282
Sprite,Foreground,Centre,"sb\glow.png",0,0 C,0,118243,,17,196,255 M,0,118243,118288,464,253,465.3822,269.1911 F,2,118243,118625,1,0 S,2,118243,118625,1.3,0.26 P,0,118243,118625,A M,0,118288,118333,465.3822,269.1911,466.7643,285.3822 M,0,118333,118379,466.7643,285.3822,468.1465,301.5733 M,0,118379,118425,468.1465,301.5733,469.5508,318.0235
Sprite,Foreground,Centre,"sb\glow.png",477,395 C,0,118607,,255,36,130 F,2,118607,118807,1,0 S,2,118607,118807,1.3,0.26 P,0,118607,118807,A
Sprite,Foreground,Centre,"sb\glow.png",348,325 C,0,118971,,255,36,130 F,2,118971,119171,1,0 S,2,118971,119171,1.3,0.26 P,0,118971,119171,A
Sprite,Foreground,Centre,"sb\glow.png",348,325 C,0,119062,,255,36,130 F,2,119062,119262,1,0 S,2,119062,119262,1.3,0.26 P,0,119062,119262,A
Sprite,Foreground,Centre,"sb\glow.png",348,325 C,0,119152,,255,36,130 F,2,119152,119352,1,0 S,2,119152,119352,1.3,0.26 P,0,119152,119352,A
Sprite,Foreground,Centre,"sb\glow.png",260,325 C,0,119334,,17,196,255 F,2,119334,119534,1,0 S,2,119334,119534,1.3,0.26 P,0,119334,119534,A
//Storyboard Layer 4 (Overlay)
//Storyboard Sound Samples

[TimingPoints]
62,363.636363636364,4,2,1,60,1,0
24789,-100,4,2,1,30,0,0
25152,-100,4,2,1,50,0,0
25516,-100,4,2,1,70,0,0
25880,-100,4,2,1,80,0,0
39334,-100,4,2,1,30,0,0
39698,-100,4,2,1,40,0,0
40062,-100,4,2,1,50,0,0
40425,-100,4,2,1,60,0,0
41152,-100,4,2,1,80,0,0
50971,-100,4,2,1,30,0,0
51334,-100,4,2,1,40,0,0
51698,-100,4,2,1,50,0,0
52062,-100,4,2,1,60,0,0
52425,-100,4,2,1,40,0,0
57516,-100,4,2,1,20,0,0
57880,-100,4,2,1,30,0,0
58243,-100,4,2,1,40,0,0
69880,-100,4,2,1,60,0,0
93152,-100,4,2,1,80,0,0
94607,-100,4,2,1,30,0,0
94970,-100,4,2,1,50,0,0
95334,-100,4,2,1,70,0,0
95698,-100,4,2,1,80,0,0
96062,-100,4,2,1,100,0,1
107334,-100,4,2,1,100,0,0
107698,-100,4,2,1,100,0,1
118971,-100,4,2,1,80,0,1
119334,-100,4,2,1,60,0,0
120789,-100,4,2,1,30,0,0
121152,-100,4,2,1,40,0,0
121516,-100,4,2,1,50,0,0
121880,-100,4,2,1,60,0,0

[Colours]
Combo1 : 17,196,255
Combo2 : 255,36,130

[HitObjects]
337,113,62,5,6,2:0:0:0:
337,113,1516,1,2,2:0:0:0:
499,244,2243,2,0,B|486:396,2,130.1625,2|0|0,3:2|3:2|3:2,2:0:0:0:
499,244,4062,2,0,L|422:251,2,65,2|0|0,2:0|2:0|2:0,2:0:0:0:
271,378,5152,6,0,B|285:225,2,130.1625,2|0|0,3:2|3:2|3:2,2:0:0:0:
271,378,7334,1,2,2:0:0:0:
112,244,8062,2,0,B|-38:257,2,130.1625,2|0|0,3:2|3:2|3:2,2:0:0:0:
112,244,9880,2,0,L|118:167,2,65,2|0|0,2:0|2:0|2:0,2:0:0:0:
12,0,10971,2,0,B|-1:152,1,130.1625,2|0,3:2|3:2,2:0:0:0:
112,244,11698,5,2,3:2:0:0:
239,78,12425,1,2,3:2:0:0:
32,90,13152,2,0,P|97:106|151:165,1,130.1625,2|0,3:2|2:0,2:0:0:0:
237,192,13880,2,0,P|299:172|343:125,1,130.1625,2|0,3:2|2:0,2:0:0:0:
378,28,14607,5,2,3:2:0:0:
509,189,15334,1,2,3:2:0:0:
378,28,16062,2,0,B|354:91|354:91|376:149,1,130.1625,2|0,3:2|2:0,2:0:0:0:
420,243,16789,2,0,B|441:301|441:301|417:364,1,130.1625,2|0,3:2|2:0,2:0:0:0:
315,341,17516,6,0,P|297:364|262:386,2,65.0812500000007,2|0|0,3:2|2:0|3:2,2:0:0:0:
185,334,18243,2,0,P|155:330|119:310,2,65.0812500000007,2|0|0,3:2|2:0|3:2,2:0:0:0:
188,229,18971,6,0,L|181:156,1,65.2600000000007,2|0,3:2|2:0,2:0:0:0:
177,112,19334,1,2,3:2:0:0:
64,177,19698,2,0,L|57:104,1,65.2600000000007,2|0,3:2|2:0,2:0:0:0:
53,62,20062,1,2,3:2:0:0:
256,192,20425,12,2,23334,3:2:0:0:
117,350,24789,6,0,P|66:354|32:336,2,65.0812500000007,2|0|0,2:0|2:0|2:0,2:0:0:0:
36,216,25516,2,0,P|87:212|121:230,1,65.2600000000007,2|0,2:0|2:0,2:0:0:0:
169,252,25880,2,0,P|171:288|182:307,2,32.63,8|0|0,2:0|3:0|3:2,2:0:0:0:
246,262,26243,6,0,L|323:255,1,65.2600000000007,6|0,3:2|2:0,2:0:0:0:
392,251,26607,1,10,2:0:0:0:
392,251,26789,1,2,2:0:0:0:
451,301,26971,2,0,L|456:364,2,65.0812500000007,2|0|8,3:2|2:0|2:0,2:0:0:0:
496,237,27516,6,0,L|483:89,1,130.1625,2|0,2:0|2:0,2:0:0:0:
478,33,28062,1,10,2:0:0:0:
478,33,28243,1,2,2:0:0:0:
402,0,28425,6,0,B|369:2|369:2|346:29,1,65.2600000000007,2|0,3:2|2:0,2:0:0:0:
296,86,28789,2,0,B|263:88|263:88|236:66,1,65.2600000000007,10|0,2:0|2:0,2:0:0:0:
201,0,29152,6,0,P|187:46|159:69,1,65.2600000000007,6|0,3:2|2:0,2:0:0:0:
110,96,29516,1,10,2:0:0:0:
110,96,29698,1,2,2:0:0:0:
37,64,29880,2,0,P|3:28|-2:-6,2,65.0812500000007,2|0|8,3:2|2:0|2:0,2:0:0:0:
46,144,30425,6,0,P|73:205|58:274,1,130.1625,2|0,2:0|2:0,2:0:0:0:
8,322,30971,1,10,2:0:0:0:
8,322,31152,1,2,2:0:0:0:
76,358,31334,6,0,P|118:343|135:324,1,65.2600000000007,2|0,3:2|2:0,2:0:0:0:
202,364,31698,2,0,P|210:319|202:295,1,65.2600000000007,10|0,2:0|2:0,2:0:0:0:
159,238,32062,5,6,3:2:0:0:
154,89,32425,1,10,2:0:0:0:
154,89,32516,1,8,2:0:0:0:
154,89,32607,1,0,3:2:0:0:
232,86,32789,2,0,L|240:162,2,65,2|0|8,3:2|2:0|2:0,2:0:0:0:
223,8,33334,6,0,L|359:19,1,130.1625,2|0,2:0|2:0,2:0:0:0:
434,29,33880,1,10,2:0:0:0:
434,29,34062,1,2,2:0:0:0:
506,56,34243,6,0,B|503:88|503:88|476:111,1,65.2600000000007,2|0,3:2|2:0,2:0:0:0:
420,162,34607,2,0,B|417:194|417:194|439:221,1,65.2600000000007,10|0,2:0|2:0,2:0:0:0:
496,271,34971,5,6,3:2:0:0:
341,291,35334,1,10,2:0:0:0:
293,351,35516,2,0,P|312:364|346:367,2,32.63,2|0|0,2:0|2:0|3:2,2:0:0:0:
263,279,35880,1,2,2:0:0:0:
263,279,36062,1,10,2:0:0:0:
215,339,36243,6,0,P|154:312|71:337,1,130.1625,2|0,2:0|2:0,2:0:0:0:
28,364,36789,1,10,2:0:0:0:
28,364,36971,1,2,2:0:0:0:
1,286,37152,5,2,3:2:0:0:
37,140,37516,1,10,2:0:0:0:
37,140,37607,1,8,2:0:0:0:
37,140,37698,1,8,2:0:0:0:
7,59,37880,6,0,B|136:47|136:47|205:158|205:158|341:146,1,390.13,6|0,3:2|2:0,2:0:0:0:
451,44,39334,6,0,L|448:10,2,32.63,10|8|8,2:0|2:0|2:0,2:0:0:0:
402,105,39698,2,0,L|369:108,2,32.63,10|8|8,2:0|2:0|2:0,2:0:0:0:
461,155,40062,2,0,L|464:188,2,32.63,10|8|8,2:0|2:0|2:0,2:0:0:0:
407,243,40425,1,2,3:2:0:0:
473,384,40789,6,0,P|427:342|344:344,1,130.1625,6|0,3:2|2:0,2:0:0:0:
213,384,41516,6,0,L|205:306,1,65.2600000000007,10|0,2:0|2:0,2:0:0:0:
203,280,41789,1,0,0:0:0:0:
203,280,41880,2,0,L|125:272,1,65.2600000000007,2|0,2:0|2:0,2:0:0:0:
61,263,42243,6,0,L|53:185,1,65.2600000000007,2|0,3:2|2:0,2:0:0:0:
49,162,42516,1,0,0:0:0:0:
49,162,42607,1,0,0:0:0:0:
108,111,42789,1,0,0:0:0:0:
103,33,42971,6,0,L|-33:42,2,130,10|8|0,2:0|2:0|3:2,2:0:0:0:
181,29,43880,1,2,2:0:0:0:
179,173,44243,5,2,2:0:0:0:
255,155,44425,2,0,P|288:128|305:89,1,65.2600000000007,10|0,2:0|2:0,2:0:0:0:
324,34,44789,2,0,P|339:12|365:1,2,32.63,2|0|0,2:0|2:0|2:0,2:0:0:0:
397,77,45152,6,0,P|395:117|407:151,1,65.2600000000007,2|0,3:2|2:0,2:0:0:0:
443,206,45516,2,0,P|466:212|483:235,2,32.63,2|0|0,2:0|2:0|2:0,2:0:0:0:
423,281,45880,6,0,B|341:279|386:331|292:323,2,130,10|8|0,2:0|2:0|3:2,2:0:0:0:
421,358,46789,1,2,2:0:0:0:
310,242,47152,5,2,2:0:0:0:
231,245,47334,2,0,L|223:323,1,65.2600000000007,10|0,2:0|2:0,2:0:0:0:
221,352,47607,1,0,0:0:0:0:
221,352,47698,2,0,L|143:360,1,65.2600000000007,2|0,2:0|2:0,2:0:0:0:
77,369,48062,6,0,L|84:290,1,65.2600000000007,2|0,3:2|2:0,2:0:0:0:
88,265,48334,1,0,0:0:0:0:
88,265,48425,1,2,0:0:0:0:
92,187,48607,1,0,0:0:0:0:
15,151,48789,6,0,L|3:298,2,130.1625,10|8|0,2:0|2:0|3:2,2:0:0:0:
158,226,49880,1,2,2:0:0:0:
295,299,50243,2,0,L|305:169,1,130.1625,2|0,3:2|2:0,2:0:0:0:
388,41,50971,6,0,L|391:76,2,32.63,10|8|8,2:0|2:0|2:0,2:0:0:0:
309,32,51334,2,0,L|312:0,2,32.63,10|8|8,2:0|2:0|2:0,2:0:0:0:
237,63,51698,2,0,L|240:95,2,32.63,10|8|8,2:0|2:0|2:0,2:0:0:0:
158,54,52062,1,10,2:0:0:0:
23,132,52425,5,6,3:2:0:0:
477,314,57516,6,0,P|496:310|521:314,2,32.63,10|8|8,2:0|2:0|2:0,2:0:0:0:
415,362,57880,2,0,P|396:366|371:362,2,32.63,10|8|8,2:0|2:0|2:0,2:0:0:0:
404,284,58243,6,0,P|381:224|400:154,1,130.1625,2|0,3:2|3:0,2:0:0:0:
444,101,58789,1,2,2:0:0:0:
444,101,58971,2,0,P|453:46|443:20,1,65.2600000000007,2|0,3:2|2:0,2:0:0:0:
376,60,59334,2,0,P|334:25|306:21,1,65.2600000000007,2|0,3:2|2:0,2:0:0:0:
308,99,59698,6,0,P|251:128|180:116,1,130.1625,2|0,3:2|3:0,2:0:0:0:
124,72,60243,1,2,2:0:0:0:
67,17,60425,6,0,P|43:12|24:18,2,32.63,2|0|0,3:2|2:0|2:0,2:0:0:0:
47,93,60789,2,0,P|23:114|11:145,1,65.2600000000007,2|0,3:2|2:0,2:0:0:0:
21,221,61152,6,0,L|34:364,1,130.1625,2|0,3:2|3:0,2:0:0:0:
110,379,61698,1,2,2:0:0:0:
110,379,61880,2,0,L|187:385,1,65.2600000000007,2|0,3:2|3:0,2:0:0:0:
207,312,62243,2,0,L|284:318,1,65.2600000000007,2|0,3:2|3:0,2:0:0:0:
352,323,62607,6,0,L|357:378,2,32.63,2|0|0,3:2|3:0|3:0,2:0:0:0:
417,277,62971,2,0,L|460:312,2,32.63,2|0|0,3:2|3:0|3:0,2:0:0:0:
430,199,63334,2,0,L|485:194,2,32.63,2|0|0,3:2|3:0|3:0,2:0:0:0:
384,135,63698,1,2,3:2:0:0:
467,3,64062,5,6,3:2:0:0:
512,33,69880,6,0,L|450:27,1,65.2600000000007,10|0,3:2|2:0,2:0:0:0:
409,94,70243,2,0,L|333:87,1,65.2600000000007,10|0,3:2|2:0,2:0:0:0:
301,22,70607,2,0,L|161:10,1,130.1625,10|0,3:2|2:0,2:0:0:0:
27,70,71334,6,0,P|71:83|93:103,1,65.2600000000007,10|0,3:2|2:0,2:0:0:0:
114,167,71698,2,0,P|96:209|74:229,1,65.2600000000007,10|0,3:2|2:0,2:0:0:0:
23,273,72062,2,0,P|75:266|153:297,1,130.1625,8|0,3:2|2:0,2:0:0:0:
273,382,72789,6,0,B|307:380|307:380|333:349,1,65.2600000000007,10|0,3:2|2:0,2:0:0:0:
368,290,73152,2,0,B|401:286|401:286|432:312,1,65.2600000000007,10|0,3:2|2:0,2:0:0:0:
464,373,73516,2,0,B|458:307|458:307|506:249,1,130.1625,10|0,3:2|2:0,2:0:0:0:
495,102,74243,6,0,P|482:146|462:168,1,65.2600000000007,10|0,3:2|2:0,2:0:0:0:
398,189,74607,2,0,P|355:171|335:149,1,65.2600000000007,10|0,3:2|2:0,2:0:0:0:
339,79,74971,2,0,B|264:78|305:131|207:123,1,130.325,10|0,3:2|2:0,2:0:0:0:
145,116,75516,1,2,2:0:0:0:
90,54,75698,6,0,P|66:93|63:122,1,65.2600000000007,10|0,3:2|2:0,2:0:0:0:
14,172,76062,2,0,P|35:212|60:229,1,65.2600000000007,10|0,3:2|2:0,2:0:0:0:
78,296,76425,2,0,P|123:297|150:285,1,65.2600000000007,10|0,3:2|2:0,2:0:0:0:
200,239,76789,1,10,2:0:0:0:
303,355,77152,6,0,L|310:270,1,65.2600000000007,10|0,3:2|2:0,2:0:0:0:
387,284,77516,2,0,L|394:199,1,65.2600000000007,10|0,3:2|2:0,2:0:0:0:
471,213,77880,2,0,L|478:128,1,65.2600000000007,10|0,3:2|2:0,2:0:0:0:
482,70,78243,1,10,3:2:0:0:
341,2,78607,6,0,P|295:7|270:24,1,65.2600000000007,10|0,3:2|2:0,2:0:0:0:
285,96,78971,2,0,P|257:59|230:46,1,65.2600000000007,10|0,3:2|2:0,2:0:0:0:
175,93,79334,2,0,P|192:50|190:20,1,65.2600000000007,10|0,3:2|2:0,2:0:0:0:
115,40,79698,1,10,3:2:0:0:
12,157,80062,6,0,B|45:153|45:153|76:179,1,65.2600000000007,10|0,3:2|2:0,2:0:0:0:
112,238,80425,2,0,B|110:271|110:271|79:297,1,65.2600000000007,10|0,3:2|2:0,2:0:0:0:
17,325,80789,1,10,2:0:0:0:
17,325,80971,1,2,3:2:0:0:
65,383,81152,1,10,2:0:0:0:
213,335,81516,6,0,L|208:390,2,32.63,2|0|0,3:2|3:0|3:0,2:0:0:0:
265,277,81880,1,2,3:2:0:0:
265,277,82062,1,2,3:2:0:0:
332,316,82243,2,0,L|327:371,2,32.63,2|0|0,3:2|3:0|3:0,2:0:0:0:
384,258,82607,2,0,L|391:169,1,65.1625000000003,2|0,3:2|3:0,2:0:0:0:
449,142,82971,6,0,L|504:138,2,32.61375,2|0|0,3:2|3:0|3:0,2:0:0:0:
400,80,83334,2,0,P|351:53|312:51,1,65.1625000000003,2|0,3:2|3:0,3:0:0:0:
268,64,83698,1,2,3:2:0:0:
268,64,83880,1,2,3:2:0:0:
199,101,84062,1,10,2:0:0:0:
90,20,84425,6,0,P|79:7|65:-1,2,32.63,2|0|0,3:2|3:0|3:0,2:0:0:0:
30,72,84789,2,0,P|14:76|-1:83,2,32.63,2|0|0,3:2|3:0|3:0,2:0:0:0:
45,149,85152,6,0,P|39:164|39:180,2,32.63,2|0|0,3:2|3:0|3:0,2:0:0:0:
119,175,85516,2,0,P|130:186|144:195,2,32.63,2|0|0,3:2|3:0|3:0,2:0:0:0:
218,232,85880,6,0,P|209:245|198:258,2,32.63,2|0|0,3:2|3:0|3:0,2:0:0:0:
210,338,86243,2,0,P|193:337|177:333,2,32.63,2|0|0,3:2|3:0|3:0,2:0:0:0:
281,307,86607,5,2,3:2:0:0:
359,299,86789,2,0,P|390:304|427:334,1,65.1625000000003,2|8,3:2|2:0,2:0:0:0:
480,384,87152,1,2,3:2:0:0:
480,384,87243,1,0,3:0:0:0:
480,384,87334,1,8,3:2:0:0:
256,192,87516,12,2,89880,2:0:0:0:
256,192,90243,12,2,93152,3:2:0:0:
28,145,94607,6,0,L|15:287,1,130.1625,10|8,2:0|2:0,2:0:0:0:
172,293,95334,2,0,L|178:222,1,65.2600000000007,10|8,2:0|2:0,2:0:0:0:
99,220,95698,2,0,L|97:254,2,32.63,10|0|0,2:0|3:0|3:2,2:0:0:0:
116,140,96062,6,0,P|159:125|185:91,1,65.2600000000007,2|0,3:2|2:0,2:0:0:0:
211,43,96425,2,0,P|171:32|152:32,2,32.63,10|0|0,2:0|2:0|2:0,2:0:0:0:
289,31,96789,2,0,P|279:-9|269:-25,2,32.63,2|0|0,3:2|2:0|2:0,2:0:0:0:
362,57,97152,1,10,2:0:0:0:
508,3,97516,6,0,L|501:82,1,65.2600000000007,2|0,3:2|2:0,2:0:0:0:
499,106,97789,1,0,0:0:0:0:
499,106,97880,2,8,L|490:185,1,65,8|0,0:0|0:0,0:0:0:0:
450,236,98243,1,2,3:2:0:0:
494,302,98425,1,2,2:0:0:0:
442,360,98607,1,10,2:0:0:0:
287,383,98971,6,0,B|251:379|251:379|211:339,1,65.2600000000007,2|0,3:2|2:0,2:0:0:0:
184,297,99334,2,0,L|186:263,2,32.63,10|0|0,2:0|2:0|2:0,2:0:0:0:
105,292,99698,2,0,L|101:323,2,32.63,2|0|0,3:2|2:0|2:0,2:0:0:0:
26,284,100062,1,10,2:0:0:0:
1,130,100425,6,0,P|45:129|79:154,1,65.2600000000007,2|0,3:2|2:0,2:0:0:0:
91,165,100698,1,0,0:0:0:0:
91,165,100789,2,0,P|121:176|153:173,1,65.2600000000007,10|0,3:2|2:0,2:0:0:0:
214,126,101152,1,2,3:2:0:0:
237,51,101334,1,2,2:0:0:0:
300,6,101516,2,0,P|314:0|330:-2,2,32.63,10|0|0,2:0|2:0|2:0,2:0:0:0:
338,73,101880,5,2,3:2:0:0:
496,67,102243,1,10,2:0:0:0:
496,67,102334,1,8,2:0:0:0:
496,67,102425,1,0,3:0:0:0:
469,140,102607,2,0,L|396:149,1,65,2|0,3:2|0:0,0:0:0:0:
326,158,102971,1,10,2:0:0:0:
300,6,103334,6,0,L|221:13,1,65.2600000000007,2|0,3:2|2:0,2:0:0:0:
157,21,103698,2,0,L|160:82,2,32.63,10|0|0,2:0|2:0|2:0,2:0:0:0:
79,31,104062,2,0,L|72:-30,2,32.63,2|0|0,3:2|2:0|2:0,2:0:0:0:
5,38,104425,1,10,2:0:0:0:
86,175,104789,6,0,P|45:187|16:220,1,65.2600000000007,2|0,3:2|2:0,2:0:0:0:
6,234,105062,1,0,0:0:0:0:
6,234,105152,1,8,0:0:0:0:
3,312,105334,1,0,0:0:0:0:
58,366,105516,2,0,P|99:372|140:355,1,65.2600000000007,2|0,3:2|2:0,2:0:0:0:
185,322,105880,1,10,2:0:0:0:
344,321,106243,6,0,L|347:243,1,65,2|0,3:2|2:0,2:0:0:0:
269,227,106607,2,0,L|265:302,1,65,2|0,3:2|2:0,2:0:0:0:
272,374,106971,1,2,3:2:0:0:
272,374,107152,2,0,B|357:377|306:322|407:331,1,130.1625,2|0,3:2|2:0,2:0:0:0:
489,381,107698,6,0,P|439:325|432:273,1,130.1625,6|0,3:2|3:0,2:0:0:0:
448,196,108243,1,2,2:0:0:0:
474,122,108425,2,0,P|451:36|401:1,1,130.1625,2|0,3:2|3:0,2:0:0:0:
266,5,109152,6,0,P|224:26|205:55,1,65.2600000000007,2|0,3:2|2:0,2:0:0:0:
192,115,109516,2,0,P|200:159|221:186,1,65.2600000000007,2|0,3:2|2:0,2:0:0:0:
266,242,109880,1,2,3:2:0:0:
266,242,109971,1,2,0:0:0:0:
266,242,110062,1,2,0:0:0:0:
343,249,110243,1,2,3:2:0:0:
253,383,110607,6,0,L|96:369,1,130.1625,2|0,3:2|3:0,2:0:0:0:
47,360,111152,1,2,2:0:0:0:
37,282,111334,2,0,L|24:124,1,130.1625,2|0,3:2|3:0,2:0:0:0:
6,5,112062,6,0,L|77:-1,1,65.2600000000007,2|0,3:2|2:0,2:0:0:0:
125,87,112425,2,0,L|207:80,1,65.2600000000007,2|0,3:2|2:0,2:0:0:0:
331,73,112789,6,0,P|328:103|351:145,1,65,2|0,3:2|2:0,2:0:0:0:
371,161,113062,1,0,0:0:0:0:
371,161,113152,1,2,3:2:0:0:
447,179,113334,1,2,0:0:0:0:
507,121,113516,5,2,3:2:0:0:
507,121,114243,2,0,P|420:142|386:193,1,130.1625,2|0,3:2|3:0,2:0:0:0:
385,249,114789,1,2,2:0:0:0:
374,326,114971,6,0,P|345:363|314:377,1,65.2600000000007,2|0,3:2|2:0,2:0:0:0:
253,382,115334,2,0,P|209:366|187:341,1,65.2600000000007,2|0,3:2|2:0,2:0:0:0:
153,288,115698,1,2,3:2:0:0:
153,288,115789,1,0,0:0:0:0:
153,288,115880,1,0,0:0:0:0:
115,356,116062,1,2,3:2:0:0:
44,214,116425,6,0,L|30:57,1,130.1625,2|0,3:2|3:0,2:0:0:0:
25,9,116971,1,2,2:0:0:0:
101,22,117152,2,0,L|259:35,1,130.1625,2|0,3:2|3:0,2:0:0:0:
384,55,117880,6,0,L|390:126,1,65.2600000000007,2|0,3:2|2:0,2:0:0:0:
400,197,118243,2,0,L|407:279,1,65.2600000000007,2|0,3:2|2:0,2:0:0:0:
413,339,118607,5,2,3:2:0:0:
284,269,118971,1,10,2:0:0:0:
284,269,119062,1,8,2:0:0:0:
284,269,119152,1,8,2:0:0:0:
196,269,119334,5,6,3:2:0:0:
196,269,120789,6,0,L|193:301,2,32.63,10|8|8,2:0|2:0|2:0,2:0:0:0:
119,256,121152,2,0,L|86:253,2,32.63,10|8|8,2:0|2:0|2:0,2:0:0:0:
134,179,121516,2,0,L|137:147,2,32.63,10|8|8,2:0|2:0|2:0,2:0:0:0:
147,67,121880,1,10,2:0:0:0:
294,11,122243,5,2,3:2:0:0:
294,11,122425,2,0,P|364:-5|421:11,2,130,2|0|0,3:2|3:0|3:0,2:0:0:0:
195,131,123516,2,0,P|145:78|131:21,2,130,2|0|0,3:2|3:0|3:0,2:0:0:0:
269,153,124425,6,0,B|277:233,1,65.0975000000004,2|0,3:2|2:0,2:0:0:0:
346,251,124789,2,0,B|353:327,1,65.0975000000004,2|0,3:2|2:0,2:0:0:0:
408,369,125152,1,6,3:2:0:0:
