osu file format v14

[General]
AudioFilename: audio.mp3
AudioLeadIn: 0
PreviewTime: 96080
Countdown: 0
SampleSet: Soft
StackLeniency: 0.4
Mode: 0
LetterboxInBreaks: 0
EpilepsyWarning: 1
WidescreenStoryboard: 1

[Editor]
DistanceSpacing: 1
BeatDivisor: 8
GridSize: 8
TimelineZoom: 2.700006

[Metadata]
Title:Modelista
TitleUnicode:Modelista
Artist:HiTECH NINJA
ArtistUnicode:HiTECH NINJA
Creator:-jordan-
Version:Past Lv.2
Source:Arcaea
Tags:groove coaster lapix full on electronic instrumental rhythm video game memory archive light lowiro taito corp 2019 yusi fusionnqn misery venerablenyanta jory
BeatmapID:2479301
BeatmapSetID:1148442

[Difficulty]
HPDrainRate:4
CircleSize:3.4
OverallDifficulty:4
ApproachRate:5
SliderMultiplier:1
SliderTickRate:1

[Events]
//Background and Video events
0,0,"bg.jpg",0,0
//Break Periods
2,52625,57043
2,64262,68680
//Storyboard Layer 0 (Background)
Sprite,Background,Centre,"sb\credits\bm.png",0,0 S,0,125172,,0.5 M,22,125172,125536,320,125,320,145 F,16,125172,125536,0,1 F,0,127354,127536,1,0
Sprite,Background,Centre,"sb\credits\sb.png",0,0 S,0,125536,,0.5 M,22,125536,125900,320,280,320,300 F,16,125536,125900,0,1 F,0,127354,127536,1,0
Sprite,Background,Centre,"sb\credits\ny.png",0,0 S,0,125718,,0.5 M,22,125718,126082,320,315,320,335 F,16,125718,126082,0,1 F,0,127354,127536,1,0
Sprite,Background,Centre,"sb\credits\jd.png",0,0 S,0,125354,,0.5 M,22,125354,125718,320,160,320,180 F,16,125354,125718,0,1 F,0,127354,127536,1,0
//Storyboard Layer 1 (Fail)
//Storyboard Layer 2 (Pass)
//Storyboard Layer 3 (Foreground)
Sprite,Foreground,Centre,"sb\pinkC.png",0,0 M,0,26243,,142,381 F,0,26243,26743,1 S,19,26243,27243,0.1,0.52 F,0,26943,27243,1,0
Sprite,Foreground,Centre,"sb\white.png",0,0 F,0,26243,,0.69 S,0,26243,,0.02688511 R,0,26243,,2 M,19,26243,26643,142,381,124,273 M,0,26643,27243,124,273,123,264 F,0,26943,27243,0.69,0
Sprite,Foreground,Centre,"sb\white.png",0,0 F,0,26243,,0.69 S,0,26243,,0.009768928 R,0,26243,,1 M,19,26243,26643,142,381,46,346 M,0,26643,27243,46,346,38,343 F,0,26943,27243,0.69,0
Sprite,Foreground,Centre,"sb\white.png",0,0 F,0,26243,,0.69 S,0,26243,,0.01638098 R,0,26243,,2 M,19,26243,26643,142,381,224,325 M,0,26643,27243,224,325,231,320 F,0,26943,27243,0.69,0
Sprite,Foreground,Centre,"sb\white.png",0,0 F,0,26243,,0.69 S,0,26243,,0.01217338 R,0,26243,,1 M,19,26243,26643,142,381,127,483 M,0,26643,27243,127,483,126,491 F,0,26943,27243,0.69,0
Sprite,Foreground,Centre,"sb\white.png",0,0 F,0,26243,,0.69 S,0,26243,,0.01714633 R,0,26243,,2 M,19,26243,26643,142,381,82,317 M,0,26643,27243,82,317,77,312 F,0,26943,27243,0.69,0
Sprite,Foreground,Centre,"sb\white.png",0,0 F,0,26243,,0.69 S,0,26243,,0.02814636 R,0,26243,,2 M,19,26243,26643,142,381,209,392 M,0,26643,27243,209,392,214,393 F,0,26943,27243,0.69,0
Sprite,Foreground,Centre,"sb\white.png",0,0 F,0,26243,,0.69 S,0,26243,,0.01280857 R,0,26243,,2 M,19,26243,26643,142,381,102,304 M,0,26643,27243,102,304,99,297 F,0,26943,27243,0.69,0
Sprite,Foreground,Centre,"sb\white.png",0,0 F,0,26243,,0.69 S,0,26243,,0.03177326 R,0,26243,,0 M,19,26243,26643,142,381,199,298 M,0,26643,27243,199,298,204,291 F,0,26943,27243,0.69,0
Sprite,Foreground,Centre,"sb\white.png",0,0 F,0,26243,,0.69 S,0,26243,,0.01873596 R,0,26243,,2 M,19,26243,26643,142,381,98,256 M,0,26643,27243,98,256,95,245 F,0,26943,27243,0.69,0
Sprite,Foreground,Centre,"sb\white.png",0,0 F,0,26243,,0.69 S,0,26243,,0.01931083 R,0,26243,,0 M,19,26243,26643,142,381,105,294 M,0,26643,27243,105,294,101,287 F,0,26943,27243,0.69,0
Sprite,Foreground,Centre,"sb\white.png",0,0 F,0,26243,,0.69 S,0,26243,,0.01669316 R,0,26243,,0 M,19,26243,26643,142,381,183,478 M,0,26643,27243,183,478,186,486 F,0,26943,27243,0.69,0
Sprite,Foreground,Centre,"sb\white.png",0,0 F,0,26243,,0.69 S,0,26243,,0.02199553 R,0,26243,,2 M,19,26243,26643,142,381,265,369 M,0,26643,27243,265,369,276,368 F,0,26943,27243,0.69,0
Sprite,Foreground,Centre,"sb\white.png",0,0 F,0,26243,,0.69 S,0,26243,,0.01466813 R,0,26243,,1 M,19,26243,26643,142,381,238,397 M,0,26643,27243,238,397,246,399 F,0,26943,27243,0.69,0
Sprite,Foreground,Centre,"sb\white.png",0,0 F,0,26243,,0.69 S,0,26243,,0.01814362 R,0,26243,,2 M,19,26243,26643,142,381,229,355 M,0,26643,27243,229,355,237,353 F,0,26943,27243,0.69,0
Sprite,Foreground,Centre,"sb\white.png",0,0 F,0,26243,,0.69 S,0,26243,,0.01165664 R,0,26243,,2 M,19,26243,26643,142,381,198,432 M,0,26643,27243,198,432,203,436 F,0,26943,27243,0.69,0
Sprite,Foreground,Centre,"sb\white.png",0,0 F,0,26243,,0.69 S,0,26243,,0.01344049 R,0,26243,,1 M,19,26243,26643,142,381,171,278 M,0,26643,27243,171,278,173,269 F,0,26943,27243,0.69,0
Sprite,Foreground,Centre,"sb\white.png",0,0 F,0,26243,,0.69 S,0,26243,,0.01019681 R,0,26243,,1 M,19,26243,26643,142,381,184,435 M,0,26643,27243,184,435,188,440 F,0,26943,27243,0.69,0
Sprite,Foreground,Centre,"sb\white.png",0,0 F,0,26243,,0.69 S,0,26243,,0.02135525 R,0,26243,,1 M,19,26243,26643,142,381,118,271 M,0,26643,27243,118,271,116,261 F,0,26943,27243,0.69,0
Sprite,Foreground,Centre,"sb\white.png",0,0 F,0,26243,,0.69 S,0,26243,,0.02858936 R,0,26243,,2 M,19,26243,26643,142,381,178,481 M,0,26643,27243,178,481,181,489 F,0,26943,27243,0.69,0
Sprite,Foreground,Centre,"sb\white.png",0,0 F,0,26243,,0.69 S,0,26243,,0.02803014 R,0,26243,,2 M,19,26243,26643,142,381,127,245 M,0,26643,27243,127,245,126,233 F,0,26943,27243,0.69,0
Sprite,Foreground,Centre,"sb\white.png",0,0 F,0,26243,,0.69 S,0,26243,,0.01011539 R,0,26243,,2 M,19,26243,26643,142,381,60,302 M,0,26643,27243,60,302,53,295 F,0,26943,27243,0.69,0
Sprite,Foreground,Centre,"sb\white.png",0,0 F,0,26243,,0.69 S,0,26243,,0.006424237 R,0,26243,,2 M,19,26243,26643,142,381,194,339 M,0,26643,27243,194,339,199,335 F,0,26943,27243,0.69,0
Sprite,Foreground,Centre,"sb\white.png",0,0 F,0,26243,,0.69 S,0,26243,,0.02203523 R,0,26243,,2 M,19,26243,26643,142,381,186,460 M,0,26643,27243,186,460,190,467 F,0,26943,27243,0.69,0
Sprite,Foreground,Centre,"sb\white.png",0,0 F,0,26243,,0.69 S,0,26243,,0.03199923 R,0,26243,,1 M,19,26243,26643,142,381,164,484 M,0,26643,27243,164,484,165,493 F,0,26943,27243,0.69,0
Sprite,Foreground,Centre,"sb\white.png",0,0 F,0,26243,,0.69 S,0,26243,,0.02415233 R,0,26243,,2 M,19,26243,26643,142,381,65,276 M,0,26643,27243,65,276,58,267 F,0,26943,27243,0.69,0
Sprite,Foreground,Centre,"sb\white.png",0,0 F,0,26243,,0.69 S,0,26243,,0.02441463 R,0,26243,,2 M,19,26243,26643,142,381,226,442 M,0,26643,27243,226,442,234,447 F,0,26943,27243,0.69,0
Sprite,Foreground,Centre,"sb\white.png",0,0 F,0,26243,,0.69 S,0,26243,,0.02934494 R,0,26243,,0 M,19,26243,26643,142,381,214,453 M,0,26643,27243,214,453,220,459 F,0,26943,27243,0.69,0
Sprite,Foreground,Centre,"sb\white.png",0,0 F,0,26243,,0.69 S,0,26243,,0.01914227 R,0,26243,,0 M,19,26243,26643,142,381,68,392 M,0,26643,27243,68,392,62,393 F,0,26943,27243,0.69,0
Sprite,Foreground,Centre,"sb\white.png",0,0 F,0,26243,,0.69 S,0,26243,,0.01711514 R,0,26243,,2 M,19,26243,26643,142,381,76,262 M,0,26643,27243,76,262,70,252 F,0,26943,27243,0.69,0
Sprite,Foreground,Centre,"sb\white.png",0,0 F,0,26243,,0.69 S,0,26243,,0.02622165 R,0,26243,,2 M,19,26243,26643,142,381,165,318 M,0,26643,27243,165,318,167,312 F,0,26943,27243,0.69,0
Sprite,Foreground,Centre,"sb\white.png",0,0 F,0,26243,,0.69 S,0,26243,,0.01225991 R,0,26243,,1 M,19,26243,26643,142,381,232,342 M,0,26643,27243,232,342,240,338 F,0,26943,27243,0.69,0
Sprite,Foreground,Centre,"sb\white.png",0,0 F,0,26243,,0.69 S,0,26243,,0.01331249 R,0,26243,,0 M,19,26243,26643,142,381,77,278 M,0,26643,27243,77,278,72,270 F,0,26943,27243,0.69,0
Sprite,Foreground,Centre,"sb\white.png",0,0 F,0,26243,,0.69 S,0,26243,,0.0102305 R,0,26243,,0 M,19,26243,26643,142,381,184,288 M,0,26643,27243,184,288,188,280 F,0,26943,27243,0.69,0
Sprite,Foreground,Centre,"sb\white.png",0,0 F,0,26243,,0.69 S,0,26243,,0.02148944 R,0,26243,,2 M,19,26243,26643,142,381,238,424 M,0,26643,27243,238,424,247,427 F,0,26943,27243,0.69,0
Sprite,Foreground,Centre,"sb\white.png",0,0 F,0,26243,,0.69 S,0,26243,,0.02997385 R,0,26243,,0 M,19,26243,26643,142,381,74,311 M,0,26643,27243,74,311,68,305 F,0,26943,27243,0.69,0
Sprite,Foreground,Centre,"sb\white.png",0,0 F,0,26243,,0.69 S,0,26243,,0.005862605 R,0,26243,,2 M,19,26243,26643,142,381,203,350 M,0,26643,27243,203,350,208,348 F,0,26943,27243,0.69,0
Sprite,Foreground,Centre,"sb\white.png",0,0 F,0,26243,,0.69 S,0,26243,,0.006631385 R,0,26243,,0 M,19,26243,26643,142,381,98,292 M,0,26643,27243,98,292,94,284 F,0,26943,27243,0.69,0
Sprite,Foreground,Centre,"sb\white.png",0,0 F,0,26243,,0.69 S,0,26243,,0.02107637 R,0,26243,,2 M,19,26243,26643,142,381,206,431 M,0,26643,27243,206,431,212,435 F,0,26943,27243,0.69,0
Sprite,Foreground,Centre,"sb\white.png",0,0 F,0,26243,,0.69 S,0,26243,,0.008145575 R,0,26243,,2 M,19,26243,26643,142,381,23,389 M,0,26643,27243,23,389,13,390 F,0,26943,27243,0.69,0
Sprite,Foreground,Centre,"sb\white.png",0,0 F,0,26243,,0.69 S,0,26243,,0.01031129 R,0,26243,,1 M,19,26243,26643,142,381,64,344 M,0,26643,27243,64,344,57,341 F,0,26943,27243,0.69,0
Sprite,Foreground,Centre,"sb\white.png",0,0 F,0,26243,,0.69 S,0,26243,,0.01410629 R,0,26243,,2 M,19,26243,26643,142,381,260,383 M,0,26643,27243,260,383,270,383 F,0,26943,27243,0.69,0
Sprite,Foreground,Centre,"sb\white.png",0,0 F,0,26243,,0.69 S,0,26243,,0.01188612 R,0,26243,,2 M,19,26243,26643,142,381,217,411 M,0,26643,27243,217,411,224,414 F,0,26943,27243,0.69,0
Sprite,Foreground,Centre,"sb\white.png",0,0 F,0,26243,,0.69 S,0,26243,,0.03168675 R,0,26243,,1 M,19,26243,26643,142,381,244,353 M,0,26643,27243,244,353,252,350 F,0,26943,27243,0.69,0
Sprite,Foreground,Centre,"sb\white.png",0,0 F,0,26243,,0.69 S,0,26243,,0.01184911 R,0,26243,,1 M,19,26243,26643,142,381,50,368 M,0,26643,27243,50,368,42,367 F,0,26943,27243,0.69,0
Sprite,Foreground,Centre,"sb\white.png",0,0 F,0,26243,,0.69 S,0,26243,,0.005596235 R,0,26243,,0 M,19,26243,26643,142,381,49,363 M,0,26643,27243,49,363,41,361 F,0,26943,27243,0.69,0
Sprite,Foreground,Centre,"sb\white.png",0,0 F,0,26243,,0.69 S,0,26243,,0.02769963 R,0,26243,,1 M,19,26243,26643,142,381,27,385 M,0,26643,27243,27,385,18,385 F,0,26943,27243,0.69,0
Sprite,Foreground,Centre,"sb\white.png",0,0 F,0,26243,,0.69 S,0,26243,,0.02478521 R,0,26243,,1 M,19,26243,26643,142,381,221,440 M,0,26643,27243,221,440,228,445 F,0,26943,27243,0.69,0
Sprite,Foreground,Centre,"sb\white.png",0,0 F,0,26243,,0.69 S,0,26243,,0.007659554 R,0,26243,,2 M,19,26243,26643,142,381,242,335 M,0,26643,27243,242,335,251,331 F,0,26943,27243,0.69,0
Sprite,Foreground,Centre,"sb\white.png",0,0 F,0,26243,,0.69 S,0,26243,,0.0272559 R,0,26243,,2 M,19,26243,26643,142,381,71,320 M,0,26643,27243,71,320,65,314 F,0,26943,27243,0.69,0
Sprite,Foreground,Centre,"sb\white.png",0,0 F,0,26243,,0.69 S,0,26243,,0.008837493 R,0,26243,,0 M,19,26243,26643,142,381,76,350 M,0,26643,27243,76,350,70,347 F,0,26943,27243,0.69,0
Sprite,Foreground,Centre,"sb\white.png",0,0 F,0,26243,,0.69 S,0,26243,,0.01102095 R,0,26243,,2 M,19,26243,26643,142,381,61,316 M,0,26643,27243,61,316,54,310 F,0,26943,27243,0.69,0
Sprite,Foreground,Centre,"sb\white.png",0,0 F,0,26243,,0.69 S,0,26243,,0.005776226 R,0,26243,,0 M,19,26243,26643,142,381,41,336 M,0,26643,27243,41,336,33,332 F,0,26943,27243,0.69,0
Sprite,Foreground,Centre,"sb\white.png",0,0 F,0,26243,,0.69 S,0,26243,,0.01990641 R,0,26243,,1 M,19,26243,26643,142,381,182,317 M,0,26643,27243,182,317,186,312 F,0,26943,27243,0.69,0
Sprite,Foreground,Centre,"sb\white.png",0,0 F,0,26243,,0.69 S,0,26243,,0.03116356 R,0,26243,,0 M,19,26243,26643,142,381,30,371 M,0,26643,27243,30,371,20,370 F,0,26943,27243,0.69,0
Sprite,Foreground,Centre,"sb\white.png",0,0 F,0,26243,,0.69 S,0,26243,,0.008361429 R,0,26243,,2 M,19,26243,26643,142,381,6,371 M,0,26643,27243,6,371,-5,370 F,0,26943,27243,0.69,0
Sprite,Foreground,Centre,"sb\white.png",0,0 F,0,26243,,0.69 S,0,26243,,0.02011102 R,0,26243,,1 M,19,26243,26643,142,381,88,315 M,0,26643,27243,88,315,83,309 F,0,26943,27243,0.69,0
Sprite,Foreground,Centre,"sb\white.png",0,0 F,0,26243,,0.69 S,0,26243,,0.0318473 R,0,26243,,0 M,19,26243,26643,142,381,106,313 M,0,26643,27243,106,313,102,307 F,0,26943,27243,0.69,0
Sprite,Foreground,Centre,"sb\white.png",0,0 F,0,26243,,0.69 S,0,26243,,0.01703969 R,0,26243,,1 M,19,26243,26643,142,381,204,407 M,0,26643,27243,204,407,210,409 F,0,26943,27243,0.69,0
Sprite,Foreground,Centre,"sb\white.png",0,0 F,0,26243,,0.69 S,0,26243,,0.006007309 R,0,26243,,0 M,19,26243,26643,142,381,157,450 M,0,26643,27243,157,450,159,456 F,0,26943,27243,0.69,0
Sprite,Foreground,Centre,"sb\white.png",0,0 F,0,26243,,0.69 S,0,26243,,0.0165132 R,0,26243,,1 M,19,26243,26643,142,381,197,457 M,0,26643,27243,197,457,202,464 F,0,26943,27243,0.69,0
Sprite,Foreground,Centre,"sb\white.png",0,0 F,0,26243,,0.69 S,0,26243,,0.01488746 R,0,26243,,2 M,19,26243,26643,142,381,222,390 M,0,26643,27243,222,390,229,391 F,0,26943,27243,0.69,0
Sprite,Foreground,Centre,"sb\white.png",0,0 F,0,26243,,0.69 S,0,26243,,0.02958162 R,0,26243,,0 M,19,26243,26643,142,381,179,495 M,0,26643,27243,179,495,182,505 F,0,26943,27243,0.69,0
Sprite,Foreground,Centre,"sb\white.png",0,0 F,0,26243,,0.69 S,0,26243,,0.03096091 R,0,26243,,2 M,19,26243,26643,142,381,20,374 M,0,26643,27243,20,374,10,374 F,0,26943,27243,0.69,0
Sprite,Foreground,Centre,"sb\white.png",0,0 F,0,26243,,0.69 S,0,26243,,0.02229852 R,0,26243,,0 M,19,26243,26643,142,381,249,392 M,0,26643,27243,249,392,258,393 F,0,26943,27243,0.69,0
Sprite,Foreground,Centre,"sb\white.png",0,0 F,0,26243,,0.69 S,0,26243,,0.02045819 R,0,26243,,2 M,19,26243,26643,142,381,243,359 M,0,26643,27243,243,359,252,357 F,0,26943,27243,0.69,0
Sprite,Foreground,Centre,"sb\white.png",0,0 F,0,26243,,0.69 S,0,26243,,0.01577191 R,0,26243,,2 M,19,26243,26643,142,381,96,475 M,0,26643,27243,96,475,92,483 F,0,26943,27243,0.69,0
Sprite,Foreground,Centre,"sb\white.png",0,0 F,0,26243,,0.69 S,0,26243,,0.03124084 R,0,26243,,0 M,19,26243,26643,142,381,235,296 M,0,26643,27243,235,296,243,289 F,0,26943,27243,0.69,0
Sprite,Foreground,Centre,"sb\white.png",0,0 F,0,26243,,0.69 S,0,26243,,0.02912309 R,0,26243,,0 M,19,26243,26643,142,381,185,427 M,0,26643,27243,185,427,189,431 F,0,26943,27243,0.69,0
Sprite,Foreground,Centre,"sb\white.png",0,0 F,0,26243,,0.69 S,0,26243,,0.0192504 R,0,26243,,2 M,19,26243,26643,142,381,240,288 M,0,26643,27243,240,288,249,280 F,0,26943,27243,0.69,0
Sprite,Foreground,Centre,"sb\white.png",0,0 F,0,26243,,0.69 S,0,26243,,0.01386674 R,0,26243,,2 M,19,26243,26643,142,381,76,375 M,0,26643,27243,76,375,70,374 F,0,26943,27243,0.69,0
Sprite,Foreground,Centre,"sb\white.png",0,0 F,0,26243,,0.69 S,0,26243,,0.02336837 R,0,26243,,0 M,19,26243,26643,142,381,262,406 M,0,26643,27243,262,406,273,408 F,0,26943,27243,0.69,0
Sprite,Foreground,Centre,"sb\white.png",0,0 F,0,26243,,0.69 S,0,26243,,0.01790247 R,0,26243,,1 M,19,26243,26643,142,381,168,452 M,0,26643,27243,168,452,170,458 F,0,26943,27243,0.69,0
Sprite,Foreground,Centre,"sb\white.png",0,0 F,0,26243,,0.69 S,0,26243,,0.01269017 R,0,26243,,0 M,19,26243,26643,142,381,133,510 M,0,26643,27243,133,510,132,521 F,0,26943,27243,0.69,0
Sprite,Foreground,Centre,"sb\white.png",0,0 F,0,26243,,0.69 S,0,26243,,0.007725679 R,0,26243,,1 M,19,26243,26643,142,381,169,252 M,0,26643,27243,169,252,171,241 F,0,26943,27243,0.69,0
Sprite,Foreground,Centre,"sb\white.png",0,0 F,0,26243,,0.69 S,0,26243,,0.02235734 R,0,26243,,1 M,19,26243,26643,142,381,69,353 M,0,26643,27243,69,353,63,351 F,0,26943,27243,0.69,0
Sprite,Foreground,Centre,"sb\white.png",0,0 F,0,26243,,0.69 S,0,26243,,0.006724006 R,0,26243,,2 M,19,26243,26643,142,381,215,391 M,0,26643,27243,215,391,222,392 F,0,26943,27243,0.69,0
Sprite,Foreground,Centre,"sb\glow.png",217,166 C,0,28325,,255,36,130 F,0,28325,28425,0,1 F,0,28925,29025,1,0
Sprite,Foreground,Centre,"sb\glow.png",226,265 C,0,28689,,255,36,130 F,0,28689,28789,0,1 F,0,29289,29389,1,0
Sprite,Foreground,Centre,"sb\blueC.png",0,0 M,0,29152,,237,364 F,0,29152,29652,1 S,19,29152,30152,0.1,0.52 F,0,29852,30152,1,0
Sprite,Foreground,Centre,"sb\white.png",0,0 F,0,29152,,0.69 S,0,29152,,0.02897989 R,0,29152,,1 M,19,29152,29552,237,364,214,279 M,0,29552,30152,214,279,212,272 F,0,29852,30152,0.69,0
Sprite,Foreground,Centre,"sb\white.png",0,0 F,0,29152,,0.69 S,0,29152,,0.01141533 R,0,29152,,1 M,19,29152,29552,237,364,235,459 M,0,29552,30152,235,459,235,467 F,0,29852,30152,0.69,0
Sprite,Foreground,Centre,"sb\white.png",0,0 F,0,29152,,0.69 S,0,29152,,0.02885237 R,0,29152,,1 M,19,29152,29552,237,364,271,459 M,0,29552,30152,271,459,274,467 F,0,29852,30152,0.69,0
Sprite,Foreground,Centre,"sb\white.png",0,0 F,0,29152,,0.69 S,0,29152,,0.01295194 R,0,29152,,1 M,19,29152,29552,237,364,177,296 M,0,29552,30152,177,296,172,290 F,0,29852,30152,0.69,0
Sprite,Foreground,Centre,"sb\white.png",0,0 F,0,29152,,0.69 S,0,29152,,0.03187178 R,0,29152,,1 M,19,29152,29552,237,364,240,451 M,0,29552,30152,240,451,240,458 F,0,29852,30152,0.69,0
Sprite,Foreground,Centre,"sb\white.png",0,0 F,0,29152,,0.69 S,0,29152,,0.03153595 R,0,29152,,2 M,19,29152,29552,237,364,367,364 M,0,29552,30152,367,364,379,364 F,0,29852,30152,0.69,0
Sprite,Foreground,Centre,"sb\white.png",0,0 F,0,29152,,0.69 S,0,29152,,0.02562319 R,0,29152,,0 M,19,29152,29552,237,364,277,424 M,0,29552,30152,277,424,281,429 F,0,29852,30152,0.69,0
Sprite,Foreground,Centre,"sb\white.png",0,0 F,0,29152,,0.69 S,0,29152,,0.005750071 R,0,29152,,0 M,19,29152,29552,237,364,287,488 M,0,29552,30152,287,488,291,499 F,0,29852,30152,0.69,0
Sprite,Foreground,Centre,"sb\white.png",0,0 F,0,29152,,0.69 S,0,29152,,0.006853868 R,0,29152,,2 M,19,29152,29552,237,364,221,241 M,0,29552,30152,221,241,220,231 F,0,29852,30152,0.69,0
Sprite,Foreground,Centre,"sb\white.png",0,0 F,0,29152,,0.69 S,0,29152,,0.02004329 R,0,29152,,0 M,19,29152,29552,237,364,174,287 M,0,29552,30152,174,287,169,280 F,0,29852,30152,0.69,0
Sprite,Foreground,Centre,"sb\white.png",0,0 F,0,29152,,0.69 S,0,29152,,0.02806826 R,0,29152,,1 M,19,29152,29552,237,364,289,275 M,0,29552,30152,289,275,294,267 F,0,29852,30152,0.69,0
Sprite,Foreground,Centre,"sb\white.png",0,0 F,0,29152,,0.69 S,0,29152,,0.02648871 R,0,29152,,1 M,19,29152,29552,237,364,333,298 M,0,29552,30152,333,298,342,292 F,0,29852,30152,0.69,0
Sprite,Foreground,Centre,"sb\white.png",0,0 F,0,29152,,0.69 S,0,29152,,0.02578779 R,0,29152,,1 M,19,29152,29552,237,364,192,435 M,0,29552,30152,192,435,188,441 F,0,29852,30152,0.69,0
Sprite,Foreground,Centre,"sb\white.png",0,0 F,0,29152,,0.69 S,0,29152,,0.03197217 R,0,29152,,1 M,19,29152,29552,237,364,175,285 M,0,29552,30152,175,285,170,279 F,0,29852,30152,0.69,0
Sprite,Foreground,Centre,"sb\white.png",0,0 F,0,29152,,0.69 S,0,29152,,0.02146754 R,0,29152,,2 M,19,29152,29552,237,364,336,425 M,0,29552,30152,336,425,344,431 F,0,29852,30152,0.69,0
Sprite,Foreground,Centre,"sb\white.png",0,0 F,0,29152,,0.69 S,0,29152,,0.01910723 R,0,29152,,0 M,19,29152,29552,237,364,285,313 M,0,29552,30152,285,313,289,309 F,0,29852,30152,0.69,0
Sprite,Foreground,Centre,"sb\white.png",0,0 F,0,29152,,0.69 S,0,29152,,0.01960903 R,0,29152,,2 M,19,29152,29552,237,364,357,364 M,0,29552,30152,357,364,368,364 F,0,29852,30152,0.69,0
Sprite,Foreground,Centre,"sb\white.png",0,0 F,0,29152,,0.69 S,0,29152,,0.0282527 R,0,29152,,0 M,19,29152,29552,237,364,178,420 M,0,29552,30152,178,420,173,425 F,0,29852,30152,0.69,0
Sprite,Foreground,Centre,"sb\white.png",0,0 F,0,29152,,0.69 S,0,29152,,0.01855888 R,0,29152,,2 M,19,29152,29552,237,364,251,302 M,0,29552,30152,251,302,252,296 F,0,29852,30152,0.69,0
Sprite,Foreground,Centre,"sb\white.png",0,0 F,0,29152,,0.69 S,0,29152,,0.0186303 R,0,29152,,0 M,19,29152,29552,237,364,133,338 M,0,29552,30152,133,338,124,336 F,0,29852,30152,0.69,0
Sprite,Foreground,Centre,"sb\white.png",0,0 F,0,29152,,0.69 S,0,29152,,0.01949055 R,0,29152,,0 M,19,29152,29552,237,364,147,265 M,0,29552,30152,147,265,139,256 F,0,29852,30152,0.69,0
Sprite,Foreground,Centre,"sb\white.png",0,0 F,0,29152,,0.69 S,0,29152,,0.02641765 R,0,29152,,1 M,19,29152,29552,237,364,238,438 M,0,29552,30152,238,438,238,444 F,0,29852,30152,0.69,0
Sprite,Foreground,Centre,"sb\white.png",0,0 F,0,29152,,0.69 S,0,29152,,0.01344712 R,0,29152,,0 M,19,29152,29552,237,364,315,320 M,0,29552,30152,315,320,322,316 F,0,29852,30152,0.69,0
Sprite,Foreground,Centre,"sb\white.png",0,0 F,0,29152,,0.69 S,0,29152,,0.02251757 R,0,29152,,0 M,19,29152,29552,237,364,277,419 M,0,29552,30152,277,419,281,424 F,0,29852,30152,0.69,0
Sprite,Foreground,Centre,"sb\white.png",0,0 F,0,29152,,0.69 S,0,29152,,0.01827916 R,0,29152,,2 M,19,29152,29552,237,364,166,349 M,0,29552,30152,166,349,160,347 F,0,29852,30152,0.69,0
Sprite,Foreground,Centre,"sb\white.png",0,0 F,0,29152,,0.69 S,0,29152,,0.006833809 R,0,29152,,1 M,19,29152,29552,237,364,111,379 M,0,29552,30152,111,379,101,380 F,0,29852,30152,0.69,0
Sprite,Foreground,Centre,"sb\white.png",0,0 F,0,29152,,0.69 S,0,29152,,0.02806972 R,0,29152,,1 M,19,29152,29552,237,364,310,430 M,0,29552,30152,310,430,317,436 F,0,29852,30152,0.69,0
Sprite,Foreground,Centre,"sb\white.png",0,0 F,0,29152,,0.69 S,0,29152,,0.02193885 R,0,29152,,0 M,19,29152,29552,237,364,205,266 M,0,29552,30152,205,266,202,258 F,0,29852,30152,0.69,0
Sprite,Foreground,Centre,"sb\white.png",0,0 F,0,29152,,0.69 S,0,29152,,0.01682279 R,0,29152,,2 M,19,29152,29552,237,364,176,337 M,0,29552,30152,176,337,171,334 F,0,29852,30152,0.69,0
Sprite,Foreground,Centre,"sb\white.png",0,0 F,0,29152,,0.69 S,0,29152,,0.007373993 R,0,29152,,0 M,19,29152,29552,237,364,325,448 M,0,29552,30152,325,448,332,456 F,0,29852,30152,0.69,0
Sprite,Foreground,Centre,"sb\white.png",0,0 F,0,29152,,0.69 S,0,29152,,0.02637985 R,0,29152,,0 M,19,29152,29552,237,364,175,298 M,0,29552,30152,175,298,170,292 F,0,29852,30152,0.69,0
Sprite,Foreground,Centre,"sb\white.png",0,0 F,0,29152,,0.69 S,0,29152,,0.004363668 R,0,29152,,1 M,19,29152,29552,237,364,225,496 M,0,29552,30152,225,496,224,508 F,0,29852,30152,0.69,0
Sprite,Foreground,Centre,"sb\white.png",0,0 F,0,29152,,0.69 S,0,29152,,0.02751312 R,0,29152,,2 M,19,29152,29552,237,364,218,435 M,0,29552,30152,218,435,216,441 F,0,29852,30152,0.69,0
Sprite,Foreground,Centre,"sb\white.png",0,0 F,0,29152,,0.69 S,0,29152,,0.03064377 R,0,29152,,0 M,19,29152,29552,237,364,165,351 M,0,29552,30152,165,351,159,350 F,0,29852,30152,0.69,0
Sprite,Foreground,Centre,"sb\white.png",0,0 F,0,29152,,0.69 S,0,29152,,0.0278486 R,0,29152,,2 M,19,29152,29552,237,364,334,328 M,0,29552,30152,334,328,343,325 F,0,29852,30152,0.69,0
Sprite,Foreground,Centre,"sb\white.png",0,0 F,0,29152,,0.69 S,0,29152,,0.02764151 R,0,29152,,1 M,19,29152,29552,237,364,129,386 M,0,29552,30152,129,386,120,388 F,0,29852,30152,0.69,0
Sprite,Foreground,Centre,"sb\white.png",0,0 F,0,29152,,0.69 S,0,29152,,0.01252016 R,0,29152,,1 M,19,29152,29552,237,364,141,333 M,0,29552,30152,141,333,133,330 F,0,29852,30152,0.69,0
Sprite,Foreground,Centre,"sb\white.png",0,0 F,0,29152,,0.69 S,0,29152,,0.01581015 R,0,29152,,1 M,19,29152,29552,237,364,169,420 M,0,29552,30152,169,420,163,425 F,0,29852,30152,0.69,0
Sprite,Foreground,Centre,"sb\white.png",0,0 F,0,29152,,0.69 S,0,29152,,0.03009593 R,0,29152,,2 M,19,29152,29552,237,364,163,311 M,0,29552,30152,163,311,157,306 F,0,29852,30152,0.69,0
Sprite,Foreground,Centre,"sb\white.png",0,0 F,0,29152,,0.69 S,0,29152,,0.02305425 R,0,29152,,1 M,19,29152,29552,237,364,198,489 M,0,29552,30152,198,489,195,500 F,0,29852,30152,0.69,0
Sprite,Foreground,Centre,"sb\white.png",0,0 F,0,29152,,0.69 S,0,29152,,0.02637924 R,0,29152,,0 M,19,29152,29552,237,364,129,387 M,0,29552,30152,129,387,119,389 F,0,29852,30152,0.69,0
Sprite,Foreground,Centre,"sb\white.png",0,0 F,0,29152,,0.69 S,0,29152,,0.01855031 R,0,29152,,2 M,19,29152,29552,237,364,297,324 M,0,29552,30152,297,324,303,320 F,0,29852,30152,0.69,0
Sprite,Foreground,Centre,"sb\white.png",0,0 F,0,29152,,0.69 S,0,29152,,0.01158553 R,0,29152,,1 M,19,29152,29552,237,364,362,320 M,0,29552,30152,362,320,373,316 F,0,29852,30152,0.69,0
Sprite,Foreground,Centre,"sb\white.png",0,0 F,0,29152,,0.69 S,0,29152,,0.009264598 R,0,29152,,0 M,19,29152,29552,237,364,204,427 M,0,29552,30152,204,427,201,433 F,0,29852,30152,0.69,0
Sprite,Foreground,Centre,"sb\white.png",0,0 F,0,29152,,0.69 S,0,29152,,0.02048897 R,0,29152,,2 M,19,29152,29552,237,364,170,306 M,0,29552,30152,170,306,164,301 F,0,29852,30152,0.69,0
Sprite,Foreground,Centre,"sb\white.png",0,0 F,0,29152,,0.69 S,0,29152,,0.02519043 R,0,29152,,2 M,19,29152,29552,237,364,167,449 M,0,29552,30152,167,449,161,457 F,0,29852,30152,0.69,0
Sprite,Foreground,Centre,"sb\white.png",0,0 F,0,29152,,0.69 S,0,29152,,0.006871135 R,0,29152,,1 M,19,29152,29552,237,364,321,440 M,0,29552,30152,321,440,329,446 F,0,29852,30152,0.69,0
Sprite,Foreground,Centre,"sb\white.png",0,0 F,0,29152,,0.69 S,0,29152,,0.01997581 R,0,29152,,2 M,19,29152,29552,237,364,165,281 M,0,29552,30152,165,281,158,274 F,0,29852,30152,0.69,0
Sprite,Foreground,Centre,"sb\white.png",0,0 F,0,29152,,0.69 S,0,29152,,0.01070973 R,0,29152,,1 M,19,29152,29552,237,364,305,284 M,0,29552,30152,305,284,311,277 F,0,29852,30152,0.69,0
Sprite,Foreground,Centre,"sb\white.png",0,0 F,0,29152,,0.69 S,0,29152,,0.02257676 R,0,29152,,0 M,19,29152,29552,237,364,174,323 M,0,29552,30152,174,323,168,320 F,0,29852,30152,0.69,0
Sprite,Foreground,Centre,"sb\white.png",0,0 F,0,29152,,0.69 S,0,29152,,0.0318662 R,0,29152,,0 M,19,29152,29552,237,364,160,349 M,0,29552,30152,160,349,153,347 F,0,29852,30152,0.69,0
Sprite,Foreground,Centre,"sb\white.png",0,0 F,0,29152,,0.69 S,0,29152,,0.005786427 R,0,29152,,0 M,19,29152,29552,237,364,155,375 M,0,29552,30152,155,375,147,376 F,0,29852,30152,0.69,0
Sprite,Foreground,Centre,"sb\white.png",0,0 F,0,29152,,0.69 S,0,29152,,0.005017607 R,0,29152,,0 M,19,29152,29552,237,364,337,353 M,0,29552,30152,337,353,346,352 F,0,29852,30152,0.69,0
Sprite,Foreground,Centre,"sb\white.png",0,0 F,0,29152,,0.69 S,0,29152,,0.01848256 R,0,29152,,1 M,19,29152,29552,237,364,362,390 M,0,29552,30152,362,390,373,393 F,0,29852,30152,0.69,0
Sprite,Foreground,Centre,"sb\white.png",0,0 F,0,29152,,0.69 S,0,29152,,0.01028036 R,0,29152,,0 M,19,29152,29552,237,364,280,310 M,0,29552,30152,280,310,284,305 F,0,29852,30152,0.69,0
Sprite,Foreground,Centre,"sb\white.png",0,0 F,0,29152,,0.69 S,0,29152,,0.02571466 R,0,29152,,2 M,19,29152,29552,237,364,285,435 M,0,29552,30152,285,435,289,441 F,0,29852,30152,0.69,0
Sprite,Foreground,Centre,"sb\white.png",0,0 F,0,29152,,0.69 S,0,29152,,0.0107283 R,0,29152,,0 M,19,29152,29552,237,364,238,296 M,0,29552,30152,238,296,238,291 F,0,29852,30152,0.69,0
Sprite,Foreground,Centre,"sb\white.png",0,0 F,0,29152,,0.69 S,0,29152,,0.009032021 R,0,29152,,1 M,19,29152,29552,237,364,313,437 M,0,29552,30152,313,437,319,443 F,0,29852,30152,0.69,0
Sprite,Foreground,Centre,"sb\white.png",0,0 F,0,29152,,0.69 S,0,29152,,0.0272261 R,0,29152,,0 M,19,29152,29552,237,364,224,274 M,0,29552,30152,224,274,223,266 F,0,29852,30152,0.69,0
Sprite,Foreground,Centre,"sb\white.png",0,0 F,0,29152,,0.69 S,0,29152,,0.005248467 R,0,29152,,0 M,19,29152,29552,237,364,160,419 M,0,29552,30152,160,419,153,424 F,0,29852,30152,0.69,0
Sprite,Foreground,Centre,"sb\white.png",0,0 F,0,29152,,0.69 S,0,29152,,0.01399375 R,0,29152,,1 M,19,29152,29552,237,364,162,371 M,0,29552,30152,162,371,156,372 F,0,29852,30152,0.69,0
Sprite,Foreground,Centre,"sb\white.png",0,0 F,0,29152,,0.69 S,0,29152,,0.02623951 R,0,29152,,0 M,19,29152,29552,237,364,140,422 M,0,29552,30152,140,422,131,427 F,0,29852,30152,0.69,0
Sprite,Foreground,Centre,"sb\white.png",0,0 F,0,29152,,0.69 S,0,29152,,0.00777759 R,0,29152,,1 M,19,29152,29552,237,364,321,425 M,0,29552,30152,321,425,328,430 F,0,29852,30152,0.69,0
Sprite,Foreground,Centre,"sb\white.png",0,0 F,0,29152,,0.69 S,0,29152,,0.01449954 R,0,29152,,2 M,19,29152,29552,237,364,240,245 M,0,29552,30152,240,245,241,235 F,0,29852,30152,0.69,0
Sprite,Foreground,Centre,"sb\white.png",0,0 F,0,29152,,0.69 S,0,29152,,0.006389068 R,0,29152,,1 M,19,29152,29552,237,364,112,399 M,0,29552,30152,112,399,101,403 F,0,29852,30152,0.69,0
Sprite,Foreground,Centre,"sb\white.png",0,0 F,0,29152,,0.69 S,0,29152,,0.02578397 R,0,29152,,1 M,19,29152,29552,237,364,301,380 M,0,29552,30152,301,380,306,381 F,0,29852,30152,0.69,0
Sprite,Foreground,Centre,"sb\white.png",0,0 F,0,29152,,0.69 S,0,29152,,0.02380038 R,0,29152,,1 M,19,29152,29552,237,364,204,270 M,0,29552,30152,204,270,201,261 F,0,29852,30152,0.69,0
Sprite,Foreground,Centre,"sb\white.png",0,0 F,0,29152,,0.69 S,0,29152,,0.02746229 R,0,29152,,1 M,19,29152,29552,237,364,109,327 M,0,29552,30152,109,327,98,324 F,0,29852,30152,0.69,0
Sprite,Foreground,Centre,"sb\white.png",0,0 F,0,29152,,0.69 S,0,29152,,0.01546844 R,0,29152,,2 M,19,29152,29552,237,364,323,305 M,0,29552,30152,323,305,330,300 F,0,29852,30152,0.69,0
Sprite,Foreground,Centre,"sb\white.png",0,0 F,0,29152,,0.69 S,0,29152,,0.02504146 R,0,29152,,0 M,19,29152,29552,237,364,121,300 M,0,29552,30152,121,300,111,294 F,0,29852,30152,0.69,0
Sprite,Foreground,Centre,"sb\white.png",0,0 F,0,29152,,0.69 S,0,29152,,0.0203677 R,0,29152,,2 M,19,29152,29552,237,364,318,320 M,0,29552,30152,318,320,326,316 F,0,29852,30152,0.69,0
Sprite,Foreground,Centre,"sb\white.png",0,0 F,0,29152,,0.69 S,0,29152,,0.01938571 R,0,29152,,0 M,19,29152,29552,237,364,313,388 M,0,29552,30152,313,388,319,390 F,0,29852,30152,0.69,0
Sprite,Foreground,Centre,"sb\white.png",0,0 F,0,29152,,0.69 S,0,29152,,0.0164103 R,0,29152,,1 M,19,29152,29552,237,364,322,343 M,0,29552,30152,322,343,330,342 F,0,29852,30152,0.69,0
Sprite,Foreground,Centre,"sb\white.png",0,0 F,0,29152,,0.69 S,0,29152,,0.005542558 R,0,29152,,1 M,19,29152,29552,237,364,318,320 M,0,29552,30152,318,320,325,316 F,0,29852,30152,0.69,0
Sprite,Foreground,Centre,"sb\white.png",0,0 F,0,29152,,0.69 S,0,29152,,0.03197321 R,0,29152,,2 M,19,29152,29552,237,364,194,479 M,0,29552,30152,194,479,191,489 F,0,29852,30152,0.69,0
Sprite,Foreground,Centre,"sb\white.png",0,0 F,0,29152,,0.69 S,0,29152,,0.02266951 R,0,29152,,0 M,19,29152,29552,237,364,134,395 M,0,29552,30152,134,395,126,398 F,0,29852,30152,0.69,0
Sprite,Foreground,Centre,"sb\glow.png",452,312 C,0,31234,,17,196,255 F,0,31234,31334,0,1 F,0,31834,31934,1,0
Sprite,Foreground,Centre,"sb\glow.png",519,238 C,0,31598,,17,196,255 F,0,31598,31698,0,1 F,0,32198,32298,1,0
Sprite,Foreground,Centre,"sb\pinkC.png",0,0 M,0,32062,,487,142 F,0,32062,32562,1 S,19,32062,33062,0.1,0.52 F,0,32762,33062,1,0
Sprite,Foreground,Centre,"sb\white.png",0,0 F,0,32062,,0.69 S,0,32062,,0.02328828 R,0,32062,,0 M,19,32062,32462,487,142,614,134 M,0,32462,33062,614,134,625,134 F,0,32762,33062,0.69,0
Sprite,Foreground,Centre,"sb\white.png",0,0 F,0,32062,,0.69 S,0,32062,,0.02362102 R,0,32062,,1 M,19,32062,32462,487,142,580,53 M,0,32462,33062,580,53,589,46 F,0,32762,33062,0.69,0
Sprite,Foreground,Centre,"sb\white.png",0,0 F,0,32062,,0.69 S,0,32062,,0.0303195 R,0,32062,,1 M,19,32062,32462,487,142,520,61 M,0,32462,33062,520,61,523,54 F,0,32762,33062,0.69,0
Sprite,Foreground,Centre,"sb\white.png",0,0 F,0,32062,,0.69 S,0,32062,,0.01828551 R,0,32062,,1 M,19,32062,32462,487,142,530,240 M,0,32462,33062,530,240,534,248 F,0,32762,33062,0.69,0
Sprite,Foreground,Centre,"sb\white.png",0,0 F,0,32062,,0.69 S,0,32062,,0.01858607 R,0,32062,,1 M,19,32062,32462,487,142,434,194 M,0,32462,33062,434,194,429,199 F,0,32762,33062,0.69,0
Sprite,Foreground,Centre,"sb\white.png",0,0 F,0,32062,,0.69 S,0,32062,,0.02730031 R,0,32062,,2 M,19,32062,32462,487,142,469,211 M,0,32462,33062,469,211,468,217 F,0,32762,33062,0.69,0
Sprite,Foreground,Centre,"sb\white.png",0,0 F,0,32062,,0.69 S,0,32062,,0.01533423 R,0,32062,,1 M,19,32062,32462,487,142,469,19 M,0,32462,33062,469,19,467,8 F,0,32762,33062,0.69,0
Sprite,Foreground,Centre,"sb\white.png",0,0 F,0,32062,,0.69 S,0,32062,,0.006078069 R,0,32062,,1 M,19,32062,32462,487,142,418,178 M,0,32462,33062,418,178,412,182 F,0,32762,33062,0.69,0
Sprite,Foreground,Centre,"sb\white.png",0,0 F,0,32062,,0.69 S,0,32062,,0.02574111 R,0,32062,,1 M,19,32062,32462,487,142,542,108 M,0,32462,33062,542,108,546,105 F,0,32762,33062,0.69,0
Sprite,Foreground,Centre,"sb\white.png",0,0 F,0,32062,,0.69 S,0,32062,,0.01062987 R,0,32062,,2 M,19,32062,32462,487,142,514,84 M,0,32462,33062,514,84,517,79 F,0,32762,33062,0.69,0
Sprite,Foreground,Centre,"sb\white.png",0,0 F,0,32062,,0.69 S,0,32062,,0.01662955 R,0,32062,,2 M,19,32062,32462,487,142,419,117 M,0,32462,33062,419,117,413,115 F,0,32762,33062,0.69,0
Sprite,Foreground,Centre,"sb\white.png",0,0 F,0,32062,,0.69 S,0,32062,,0.0204812 R,0,32062,,0 M,19,32062,32462,487,142,465,30 M,0,32462,33062,465,30,463,21 F,0,32762,33062,0.69,0
Sprite,Foreground,Centre,"sb\white.png",0,0 F,0,32062,,0.69 S,0,32062,,0.00515312 R,0,32062,,2 M,19,32062,32462,487,142,518,209 M,0,32462,33062,518,209,521,215 F,0,32762,33062,0.69,0
Sprite,Foreground,Centre,"sb\white.png",0,0 F,0,32062,,0.69 S,0,32062,,0.0106122 R,0,32062,,1 M,19,32062,32462,487,142,410,33 M,0,32462,33062,410,33,404,24 F,0,32762,33062,0.69,0
Sprite,Foreground,Centre,"sb\white.png",0,0 F,0,32062,,0.69 S,0,32062,,0.02588693 R,0,32062,,2 M,19,32062,32462,487,142,405,45 M,0,32462,33062,405,45,398,37 F,0,32762,33062,0.69,0
Sprite,Foreground,Centre,"sb\white.png",0,0 F,0,32062,,0.69 S,0,32062,,0.01929294 R,0,32062,,1 M,19,32062,32462,487,142,567,165 M,0,32462,33062,567,165,574,167 F,0,32762,33062,0.69,0
Sprite,Foreground,Centre,"sb\white.png",0,0 F,0,32062,,0.69 S,0,32062,,0.004476437 R,0,32062,,0 M,19,32062,32462,487,142,483,233 M,0,32462,33062,483,233,483,240 F,0,32762,33062,0.69,0
Sprite,Foreground,Centre,"sb\white.png",0,0 F,0,32062,,0.69 S,0,32062,,0.02432901 R,0,32062,,0 M,19,32062,32462,487,142,602,198 M,0,32462,33062,602,198,612,203 F,0,32762,33062,0.69,0
Sprite,Foreground,Centre,"sb\white.png",0,0 F,0,32062,,0.69 S,0,32062,,0.01989478 R,0,32062,,1 M,19,32062,32462,487,142,421,117 M,0,32462,33062,421,117,415,114 F,0,32762,33062,0.69,0
Sprite,Foreground,Centre,"sb\white.png",0,0 F,0,32062,,0.69 S,0,32062,,0.03105339 R,0,32062,,2 M,19,32062,32462,487,142,469,59 M,0,32462,33062,469,59,467,52 F,0,32762,33062,0.69,0
Sprite,Foreground,Centre,"sb\white.png",0,0 F,0,32062,,0.69 S,0,32062,,0.03178752 R,0,32062,,2 M,19,32062,32462,487,142,457,75 M,0,32462,33062,457,75,454,69 F,0,32762,33062,0.69,0
Sprite,Foreground,Centre,"sb\white.png",0,0 F,0,32062,,0.69 S,0,32062,,0.02154058 R,0,32062,,0 M,19,32062,32462,487,142,455,78 M,0,32462,33062,455,78,453,72 F,0,32762,33062,0.69,0
Sprite,Foreground,Centre,"sb\white.png",0,0 F,0,32062,,0.69 S,0,32062,,0.022373 R,0,32062,,2 M,19,32062,32462,487,142,416,54 M,0,32462,33062,416,54,410,47 F,0,32762,33062,0.69,0
Sprite,Foreground,Centre,"sb\white.png",0,0 F,0,32062,,0.69 S,0,32062,,0.007024006 R,0,32062,,2 M,19,32062,32462,487,142,440,241 M,0,32462,33062,440,241,436,249 F,0,32762,33062,0.69,0
Sprite,Foreground,Centre,"sb\white.png",0,0 F,0,32062,,0.69 S,0,32062,,0.006082623 R,0,32062,,0 M,19,32062,32462,487,142,557,93 M,0,32462,33062,557,93,563,89 F,0,32762,33062,0.69,0
Sprite,Foreground,Centre,"sb\white.png",0,0 F,0,32062,,0.69 S,0,32062,,0.02594243 R,0,32062,,0 M,19,32062,32462,487,142,556,106 M,0,32462,33062,556,106,562,103 F,0,32762,33062,0.69,0
Sprite,Foreground,Centre,"sb\white.png",0,0 F,0,32062,,0.69 S,0,32062,,0.02838482 R,0,32062,,0 M,19,32062,32462,487,142,431,182 M,0,32462,33062,431,182,427,185 F,0,32762,33062,0.69,0
Sprite,Foreground,Centre,"sb\white.png",0,0 F,0,32062,,0.69 S,0,32062,,0.01985705 R,0,32062,,0 M,19,32062,32462,487,142,587,232 M,0,32462,33062,587,232,596,240 F,0,32762,33062,0.69,0
Sprite,Foreground,Centre,"sb\white.png",0,0 F,0,32062,,0.69 S,0,32062,,0.0175228 R,0,32062,,2 M,19,32062,32462,487,142,452,80 M,0,32462,33062,452,80,449,74 F,0,32762,33062,0.69,0
Sprite,Foreground,Centre,"sb\white.png",0,0 F,0,32062,,0.69 S,0,32062,,0.008551624 R,0,32062,,0 M,19,32062,32462,487,142,366,156 M,0,32462,33062,366,156,356,158 F,0,32762,33062,0.69,0
Sprite,Foreground,Centre,"sb\white.png",0,0 F,0,32062,,0.69 S,0,32062,,0.01704975 R,0,32062,,0 M,19,32062,32462,487,142,416,166 M,0,32462,33062,416,166,410,168 F,0,32762,33062,0.69,0
Sprite,Foreground,Centre,"sb\white.png",0,0 F,0,32062,,0.69 S,0,32062,,0.03113079 R,0,32062,,0 M,19,32062,32462,487,142,585,115 M,0,32462,33062,585,115,594,112 F,0,32762,33062,0.69,0
Sprite,Foreground,Centre,"sb\white.png",0,0 F,0,32062,,0.69 S,0,32062,,0.03091496 R,0,32062,,0 M,19,32062,32462,487,142,546,101 M,0,32462,33062,546,101,551,98 F,0,32762,33062,0.69,0
Sprite,Foreground,Centre,"sb\white.png",0,0 F,0,32062,,0.69 S,0,32062,,0.01529764 R,0,32062,,2 M,19,32062,32462,487,142,569,56 M,0,32462,33062,569,56,576,48 F,0,32762,33062,0.69,0
Sprite,Foreground,Centre,"sb\white.png",0,0 F,0,32062,,0.69 S,0,32062,,0.03021801 R,0,32062,,2 M,19,32062,32462,487,142,380,64 M,0,32462,33062,380,64,371,58 F,0,32762,33062,0.69,0
Sprite,Foreground,Centre,"sb\white.png",0,0 F,0,32062,,0.69 S,0,32062,,0.008711754 R,0,32062,,1 M,19,32062,32462,487,142,425,203 M,0,32462,33062,425,203,420,208 F,0,32762,33062,0.69,0
Sprite,Foreground,Centre,"sb\white.png",0,0 F,0,32062,,0.69 S,0,32062,,0.02170246 R,0,32062,,2 M,19,32062,32462,487,142,593,211 M,0,32462,33062,593,211,602,217 F,0,32762,33062,0.69,0
Sprite,Foreground,Centre,"sb\white.png",0,0 F,0,32062,,0.69 S,0,32062,,0.01281957 R,0,32062,,0 M,19,32062,32462,487,142,445,231 M,0,32462,33062,445,231,441,239 F,0,32762,33062,0.69,0
Sprite,Foreground,Centre,"sb\white.png",0,0 F,0,32062,,0.69 S,0,32062,,0.01988892 R,0,32062,,1 M,19,32062,32462,487,142,458,67 M,0,32462,33062,458,67,455,60 F,0,32762,33062,0.69,0
Sprite,Foreground,Centre,"sb\white.png",0,0 F,0,32062,,0.69 S,0,32062,,0.004226203 R,0,32062,,0 M,19,32062,32462,487,142,370,154 M,0,32462,33062,370,154,360,155 F,0,32762,33062,0.69,0
Sprite,Foreground,Centre,"sb\white.png",0,0 F,0,32062,,0.69 S,0,32062,,0.008508487 R,0,32062,,1 M,19,32062,32462,487,142,429,242 M,0,32462,33062,429,242,424,251 F,0,32762,33062,0.69,0
Sprite,Foreground,Centre,"sb\white.png",0,0 F,0,32062,,0.69 S,0,32062,,0.02843998 R,0,32062,,1 M,19,32062,32462,487,142,552,100 M,0,32462,33062,552,100,558,97 F,0,32762,33062,0.69,0
Sprite,Foreground,Centre,"sb\white.png",0,0 F,0,32062,,0.69 S,0,32062,,0.03051839 R,0,32062,,0 M,19,32062,32462,487,142,466,55 M,0,32462,33062,466,55,465,48 F,0,32762,33062,0.69,0
Sprite,Foreground,Centre,"sb\white.png",0,0 F,0,32062,,0.69 S,0,32062,,0.004560564 R,0,32062,,2 M,19,32062,32462,487,142,568,98 M,0,32462,33062,568,98,576,94 F,0,32762,33062,0.69,0
Sprite,Foreground,Centre,"sb\white.png",0,0 F,0,32062,,0.69 S,0,32062,,0.01878005 R,0,32062,,1 M,19,32062,32462,487,142,552,217 M,0,32462,33062,552,217,558,224 F,0,32762,33062,0.69,0
Sprite,Foreground,Centre,"sb\white.png",0,0 F,0,32062,,0.69 S,0,32062,,0.01844973 R,0,32062,,1 M,19,32062,32462,487,142,432,228 M,0,32462,33062,432,228,428,236 F,0,32762,33062,0.69,0
Sprite,Foreground,Centre,"sb\white.png",0,0 F,0,32062,,0.69 S,0,32062,,0.01229047 R,0,32062,,0 M,19,32062,32462,487,142,455,224 M,0,32462,33062,455,224,452,231 F,0,32762,33062,0.69,0
Sprite,Foreground,Centre,"sb\white.png",0,0 F,0,32062,,0.69 S,0,32062,,0.01485041 R,0,32062,,1 M,19,32062,32462,487,142,602,198 M,0,32462,33062,602,198,612,203 F,0,32762,33062,0.69,0
Sprite,Foreground,Centre,"sb\white.png",0,0 F,0,32062,,0.69 S,0,32062,,0.007523892 R,0,32062,,0 M,19,32062,32462,487,142,494,231 M,0,32462,33062,494,231,495,239 F,0,32762,33062,0.69,0
Sprite,Foreground,Centre,"sb\white.png",0,0 F,0,32062,,0.69 S,0,32062,,0.01143504 R,0,32062,,1 M,19,32062,32462,487,142,608,124 M,0,32462,33062,608,124,618,123 F,0,32762,33062,0.69,0
Sprite,Foreground,Centre,"sb\white.png",0,0 F,0,32062,,0.69 S,0,32062,,0.01584038 R,0,32062,,2 M,19,32062,32462,487,142,540,20 M,0,32462,33062,540,20,545,10 F,0,32762,33062,0.69,0
Sprite,Foreground,Centre,"sb\white.png",0,0 F,0,32062,,0.69 S,0,32062,,0.01911343 R,0,32062,,0 M,19,32062,32462,487,142,564,147 M,0,32462,33062,564,147,570,147 F,0,32762,33062,0.69,0
Sprite,Foreground,Centre,"sb\white.png",0,0 F,0,32062,,0.69 S,0,32062,,0.02333318 R,0,32062,,0 M,19,32062,32462,487,142,429,186 M,0,32462,33062,429,186,424,190 F,0,32762,33062,0.69,0
Sprite,Foreground,Centre,"sb\white.png",0,0 F,0,32062,,0.69 S,0,32062,,0.02247825 R,0,32062,,0 M,19,32062,32462,487,142,477,228 M,0,32462,33062,477,228,477,236 F,0,32762,33062,0.69,0
Sprite,Foreground,Centre,"sb\white.png",0,0 F,0,32062,,0.69 S,0,32062,,0.008715892 R,0,32062,,1 M,19,32062,32462,487,142,368,108 M,0,32462,33062,368,108,358,105 F,0,32762,33062,0.69,0
Sprite,Foreground,Centre,"sb\white.png",0,0 F,0,32062,,0.69 S,0,32062,,0.009174283 R,0,32062,,2 M,19,32062,32462,487,142,593,115 M,0,32462,33062,593,115,602,112 F,0,32762,33062,0.69,0
Sprite,Foreground,Centre,"sb\white.png",0,0 F,0,32062,,0.69 S,0,32062,,0.01390351 R,0,32062,,0 M,19,32062,32462,487,142,420,73 M,0,32462,33062,420,73,414,67 F,0,32762,33062,0.69,0
Sprite,Foreground,Centre,"sb\white.png",0,0 F,0,32062,,0.69 S,0,32062,,0.008835197 R,0,32062,,2 M,19,32062,32462,487,142,511,57 M,0,32462,33062,511,57,513,49 F,0,32762,33062,0.69,0
Sprite,Foreground,Centre,"sb\white.png",0,0 F,0,32062,,0.69 S,0,32062,,0.01130124 R,0,32062,,2 M,19,32062,32462,487,142,535,50 M,0,32462,33062,535,50,539,42 F,0,32762,33062,0.69,0
Sprite,Foreground,Centre,"sb\white.png",0,0 F,0,32062,,0.69 S,0,32062,,0.02288436 R,0,32062,,2 M,19,32062,32462,487,142,605,112 M,0,32462,33062,605,112,615,109 F,0,32762,33062,0.69,0
Sprite,Foreground,Centre,"sb\white.png",0,0 F,0,32062,,0.69 S,0,32062,,0.02461631 R,0,32062,,2 M,19,32062,32462,487,142,393,148 M,0,32462,33062,393,148,385,149 F,0,32762,33062,0.69,0
Sprite,Foreground,Centre,"sb\white.png",0,0 F,0,32062,,0.69 S,0,32062,,0.007003152 R,0,32062,,1 M,19,32062,32462,487,142,461,58 M,0,32462,33062,461,58,459,51 F,0,32762,33062,0.69,0
Sprite,Foreground,Centre,"sb\white.png",0,0 F,0,32062,,0.69 S,0,32062,,0.007516235 R,0,32062,,2 M,19,32062,32462,487,142,561,58 M,0,32462,33062,561,58,568,51 F,0,32762,33062,0.69,0
Sprite,Foreground,Centre,"sb\white.png",0,0 F,0,32062,,0.69 S,0,32062,,0.03042966 R,0,32062,,2 M,19,32062,32462,487,142,505,248 M,0,32462,33062,505,248,507,258 F,0,32762,33062,0.69,0
Sprite,Foreground,Centre,"sb\white.png",0,0 F,0,32062,,0.69 S,0,32062,,0.005222825 R,0,32062,,1 M,19,32062,32462,487,142,392,102 M,0,32462,33062,392,102,384,98 F,0,32762,33062,0.69,0
Sprite,Foreground,Centre,"sb\white.png",0,0 F,0,32062,,0.69 S,0,32062,,0.01875961 R,0,32062,,0 M,19,32062,32462,487,142,584,205 M,0,32462,33062,584,205,592,210 F,0,32762,33062,0.69,0
Sprite,Foreground,Centre,"sb\white.png",0,0 F,0,32062,,0.69 S,0,32062,,0.01170921 R,0,32062,,2 M,19,32062,32462,487,142,603,74 M,0,32462,33062,603,74,614,68 F,0,32762,33062,0.69,0
Sprite,Foreground,Centre,"sb\white.png",0,0 F,0,32062,,0.69 S,0,32062,,0.01384975 R,0,32062,,2 M,19,32062,32462,487,142,439,196 M,0,32462,33062,439,196,435,201 F,0,32762,33062,0.69,0
Sprite,Foreground,Centre,"sb\white.png",0,0 F,0,32062,,0.69 S,0,32062,,0.004602766 R,0,32062,,0 M,19,32062,32462,487,142,439,207 M,0,32462,33062,439,207,435,213 F,0,32762,33062,0.69,0
Sprite,Foreground,Centre,"sb\white.png",0,0 F,0,32062,,0.69 S,0,32062,,0.009121809 R,0,32062,,0 M,19,32062,32462,487,142,493,231 M,0,32462,33062,493,231,493,238 F,0,32762,33062,0.69,0
Sprite,Foreground,Centre,"sb\white.png",0,0 F,0,32062,,0.69 S,0,32062,,0.01612636 R,0,32062,,0 M,19,32062,32462,487,142,369,167 M,0,32462,33062,369,167,358,169 F,0,32762,33062,0.69,0
Sprite,Foreground,Centre,"sb\white.png",0,0 F,0,32062,,0.69 S,0,32062,,0.0257341 R,0,32062,,2 M,19,32062,32462,487,142,437,259 M,0,32462,33062,437,259,432,270 F,0,32762,33062,0.69,0
Sprite,Foreground,Centre,"sb\white.png",0,0 F,0,32062,,0.69 S,0,32062,,0.0275846 R,0,32062,,0 M,19,32062,32462,487,142,410,122 M,0,32462,33062,410,122,403,121 F,0,32762,33062,0.69,0
Sprite,Foreground,Centre,"sb\white.png",0,0 F,0,32062,,0.69 S,0,32062,,0.00658616 R,0,32062,,0 M,19,32062,32462,487,142,603,152 M,0,32462,33062,603,152,613,153 F,0,32762,33062,0.69,0
Sprite,Foreground,Centre,"sb\white.png",0,0 F,0,32062,,0.69 S,0,32062,,0.01528338 R,0,32062,,1 M,19,32062,32462,487,142,525,13 M,0,32462,33062,525,13,529,2 F,0,32762,33062,0.69,0
Sprite,Foreground,Centre,"sb\white.png",0,0 F,0,32062,,0.69 S,0,32062,,0.01043042 R,0,32062,,0 M,19,32062,32462,487,142,501,232 M,0,32462,33062,501,232,502,240 F,0,32762,33062,0.69,0
Sprite,Foreground,Centre,"sb\glow.png",273,184 C,0,34143,,255,36,130 F,0,34143,34243,0,1 F,0,34743,34843,1,0
Sprite,Foreground,Centre,"sb\glow.png",173,179 C,0,34507,,255,36,130 F,0,34507,34607,0,1 F,0,35107,35207,1,0
Sprite,Foreground,Centre,"sb\blueC.png",0,0 M,0,34971,,104,252 F,0,34971,35471,1 S,19,34971,35971,0.1,0.52 F,0,35671,35971,1,0
Sprite,Foreground,Centre,"sb\white.png",0,0 F,0,34971,,0.69 S,0,34971,,0.02458908 R,0,34971,,2 M,19,34971,35371,104,252,219,310 M,0,35371,35971,219,310,229,315 F,0,35671,35971,0.69,0
Sprite,Foreground,Centre,"sb\white.png",0,0 F,0,34971,,0.69 S,0,34971,,0.005264938 R,0,34971,,1 M,19,34971,35371,104,252,5,218 M,0,35371,35971,5,218,-2,215 F,0,35671,35971,0.69,0
Sprite,Foreground,Centre,"sb\white.png",0,0 F,0,34971,,0.69 S,0,34971,,0.007553412 R,0,34971,,1 M,19,34971,35371,104,252,142,144 M,0,35371,35971,142,144,146,135 F,0,35671,35971,0.69,0
Sprite,Foreground,Centre,"sb\white.png",0,0 F,0,34971,,0.69 S,0,34971,,0.01390726 R,0,34971,,0 M,19,34971,35371,104,252,112,184 M,0,35371,35971,112,184,112,178 F,0,35671,35971,0.69,0
Sprite,Foreground,Centre,"sb\white.png",0,0 F,0,34971,,0.69 S,0,34971,,0.02158569 R,0,34971,,2 M,19,34971,35371,104,252,37,351 M,0,35371,35971,37,351,31,359 F,0,35671,35971,0.69,0
Sprite,Foreground,Centre,"sb\white.png",0,0 F,0,34971,,0.69 S,0,34971,,0.02516695 R,0,34971,,1 M,19,34971,35371,104,252,79,161 M,0,35371,35971,79,161,77,153 F,0,35671,35971,0.69,0
Sprite,Foreground,Centre,"sb\white.png",0,0 F,0,34971,,0.69 S,0,34971,,0.01099907 R,0,34971,,0 M,19,34971,35371,104,252,151,127 M,0,35371,35971,151,127,155,116 F,0,35671,35971,0.69,0
Sprite,Foreground,Centre,"sb\white.png",0,0 F,0,34971,,0.69 S,0,34971,,0.01950765 R,0,34971,,2 M,19,34971,35371,104,252,88,189 M,0,35371,35971,88,189,86,184 F,0,35671,35971,0.69,0
Sprite,Foreground,Centre,"sb\white.png",0,0 F,0,34971,,0.69 S,0,34971,,0.02928556 R,0,34971,,0 M,19,34971,35371,104,252,140,306 M,0,35371,35971,140,306,143,310 F,0,35671,35971,0.69,0
Sprite,Foreground,Centre,"sb\white.png",0,0 F,0,34971,,0.69 S,0,34971,,0.01981777 R,0,34971,,2 M,19,34971,35371,104,252,177,183 M,0,35371,35971,177,183,183,177 F,0,35671,35971,0.69,0
Sprite,Foreground,Centre,"sb\white.png",0,0 F,0,34971,,0.69 S,0,34971,,0.007480048 R,0,34971,,2 M,19,34971,35371,104,252,15,252 M,0,35371,35971,15,252,8,252 F,0,35671,35971,0.69,0
Sprite,Foreground,Centre,"sb\white.png",0,0 F,0,34971,,0.69 S,0,34971,,0.008629521 R,0,34971,,1 M,19,34971,35371,104,252,158,302 M,0,35371,35971,158,302,163,307 F,0,35671,35971,0.69,0
Sprite,Foreground,Centre,"sb\white.png",0,0 F,0,34971,,0.69 S,0,34971,,0.02960751 R,0,34971,,1 M,19,34971,35371,104,252,-18,216 M,0,35371,35971,-18,216,-29,213 F,0,35671,35971,0.69,0
Sprite,Foreground,Centre,"sb\white.png",0,0 F,0,34971,,0.69 S,0,34971,,0.01829547 R,0,34971,,1 M,19,34971,35371,104,252,43,197 M,0,35371,35971,43,197,37,192 F,0,35671,35971,0.69,0
Sprite,Foreground,Centre,"sb\white.png",0,0 F,0,34971,,0.69 S,0,34971,,0.02555821 R,0,34971,,1 M,19,34971,35371,104,252,28,233 M,0,35371,35971,28,233,22,231 F,0,35671,35971,0.69,0
Sprite,Foreground,Centre,"sb\white.png",0,0 F,0,34971,,0.69 S,0,34971,,0.02270671 R,0,34971,,1 M,19,34971,35371,104,252,227,232 M,0,35371,35971,227,232,238,230 F,0,35671,35971,0.69,0
Sprite,Foreground,Centre,"sb\white.png",0,0 F,0,34971,,0.69 S,0,34971,,0.006518453 R,0,34971,,1 M,19,34971,35371,104,252,192,329 M,0,35371,35971,192,329,200,335 F,0,35671,35971,0.69,0
Sprite,Foreground,Centre,"sb\white.png",0,0 F,0,34971,,0.69 S,0,34971,,0.0156549 R,0,34971,,2 M,19,34971,35371,104,252,198,180 M,0,35371,35971,198,180,206,174 F,0,35671,35971,0.69,0
Sprite,Foreground,Centre,"sb\white.png",0,0 F,0,34971,,0.69 S,0,34971,,0.01417321 R,0,34971,,0 M,19,34971,35371,104,252,177,164 M,0,35371,35971,177,164,183,156 F,0,35671,35971,0.69,0
Sprite,Foreground,Centre,"sb\white.png",0,0 F,0,34971,,0.69 S,0,34971,,0.01510179 R,0,34971,,0 M,19,34971,35371,104,252,227,289 M,0,35371,35971,227,289,237,292 F,0,35671,35971,0.69,0
Sprite,Foreground,Centre,"sb\white.png",0,0 F,0,34971,,0.69 S,0,34971,,0.02987492 R,0,34971,,1 M,19,34971,35371,104,252,130,366 M,0,35371,35971,130,366,132,376 F,0,35671,35971,0.69,0
Sprite,Foreground,Centre,"sb\white.png",0,0 F,0,34971,,0.69 S,0,34971,,0.01149413 R,0,34971,,0 M,19,34971,35371,104,252,16,291 M,0,35371,35971,16,291,9,294 F,0,35671,35971,0.69,0
Sprite,Foreground,Centre,"sb\white.png",0,0 F,0,34971,,0.69 S,0,34971,,0.01032219 R,0,34971,,1 M,19,34971,35371,104,252,84,324 M,0,35371,35971,84,324,82,331 F,0,35671,35971,0.69,0
Sprite,Foreground,Centre,"sb\white.png",0,0 F,0,34971,,0.69 S,0,34971,,0.008583887 R,0,34971,,2 M,19,34971,35371,104,252,-19,256 M,0,35371,35971,-19,256,-29,256 F,0,35671,35971,0.69,0
Sprite,Foreground,Centre,"sb\white.png",0,0 F,0,34971,,0.69 S,0,34971,,0.00939406 R,0,34971,,2 M,19,34971,35371,104,252,193,338 M,0,35371,35971,193,338,201,345 F,0,35671,35971,0.69,0
Sprite,Foreground,Centre,"sb\white.png",0,0 F,0,34971,,0.69 S,0,34971,,0.008854927 R,0,34971,,2 M,19,34971,35371,104,252,20,177 M,0,35371,35971,20,177,13,170 F,0,35671,35971,0.69,0
Sprite,Foreground,Centre,"sb\white.png",0,0 F,0,34971,,0.69 S,0,34971,,0.009109422 R,0,34971,,0 M,19,34971,35371,104,252,147,370 M,0,35371,35971,147,370,150,380 F,0,35671,35971,0.69,0
Sprite,Foreground,Centre,"sb\white.png",0,0 F,0,34971,,0.69 S,0,34971,,0.02542794 R,0,34971,,1 M,19,34971,35371,104,252,84,159 M,0,35371,35971,84,159,82,151 F,0,35671,35971,0.69,0
Sprite,Foreground,Centre,"sb\white.png",0,0 F,0,34971,,0.69 S,0,34971,,0.02088713 R,0,34971,,2 M,19,34971,35371,104,252,83,316 M,0,35371,35971,83,316,81,322 F,0,35671,35971,0.69,0
Sprite,Foreground,Centre,"sb\white.png",0,0 F,0,34971,,0.69 S,0,34971,,0.01126916 R,0,34971,,2 M,19,34971,35371,104,252,149,137 M,0,35371,35971,149,137,153,127 F,0,35671,35971,0.69,0
Sprite,Foreground,Centre,"sb\white.png",0,0 F,0,34971,,0.69 S,0,34971,,0.01790393 R,0,34971,,1 M,19,34971,35371,104,252,92,383 M,0,35371,35971,92,383,91,395 F,0,35671,35971,0.69,0
Sprite,Foreground,Centre,"sb\white.png",0,0 F,0,34971,,0.69 S,0,34971,,0.01522157 R,0,34971,,1 M,19,34971,35371,104,252,108,388 M,0,35371,35971,108,388,109,399 F,0,35671,35971,0.69,0
Sprite,Foreground,Centre,"sb\white.png",0,0 F,0,34971,,0.69 S,0,34971,,0.006895176 R,0,34971,,1 M,19,34971,35371,104,252,182,298 M,0,35371,35971,182,298,188,302 F,0,35671,35971,0.69,0
Sprite,Foreground,Centre,"sb\white.png",0,0 F,0,34971,,0.69 S,0,34971,,0.02308431 R,0,34971,,1 M,19,34971,35371,104,252,100,326 M,0,35371,35971,100,326,99,332 F,0,35671,35971,0.69,0
Sprite,Foreground,Centre,"sb\white.png",0,0 F,0,34971,,0.69 S,0,34971,,0.02140193 R,0,34971,,2 M,19,34971,35371,104,252,199,252 M,0,35371,35971,199,252,208,252 F,0,35671,35971,0.69,0
Sprite,Foreground,Centre,"sb\white.png",0,0 F,0,34971,,0.69 S,0,34971,,0.02572868 R,0,34971,,0 M,19,34971,35371,104,252,128,185 M,0,35371,35971,128,185,130,179 F,0,35671,35971,0.69,0
Sprite,Foreground,Centre,"sb\white.png",0,0 F,0,34971,,0.69 S,0,34971,,0.01081562 R,0,34971,,0 M,19,34971,35371,104,252,111,352 M,0,35371,35971,111,352,111,360 F,0,35671,35971,0.69,0
Sprite,Foreground,Centre,"sb\white.png",0,0 F,0,34971,,0.69 S,0,34971,,0.02786896 R,0,34971,,0 M,19,34971,35371,104,252,32,306 M,0,35371,35971,32,306,25,311 F,0,35671,35971,0.69,0
Sprite,Foreground,Centre,"sb\white.png",0,0 F,0,34971,,0.69 S,0,34971,,0.01792952 R,0,34971,,0 M,19,34971,35371,104,252,157,215 M,0,35371,35971,157,215,161,212 F,0,35671,35971,0.69,0
Sprite,Foreground,Centre,"sb\white.png",0,0 F,0,34971,,0.69 S,0,34971,,0.007750253 R,0,34971,,1 M,19,34971,35371,104,252,194,306 M,0,35371,35971,194,306,202,311 F,0,35671,35971,0.69,0
Sprite,Foreground,Centre,"sb\white.png",0,0 F,0,34971,,0.69 S,0,34971,,0.01748706 R,0,34971,,2 M,19,34971,35371,104,252,-19,237 M,0,35371,35971,-19,237,-30,235 F,0,35671,35971,0.69,0
Sprite,Foreground,Centre,"sb\white.png",0,0 F,0,34971,,0.69 S,0,34971,,0.01041038 R,0,34971,,2 M,19,34971,35371,104,252,40,154 M,0,35371,35971,40,154,35,146 F,0,35671,35971,0.69,0
Sprite,Foreground,Centre,"sb\white.png",0,0 F,0,34971,,0.69 S,0,34971,,0.02855983 R,0,34971,,2 M,19,34971,35371,104,252,55,351 M,0,35371,35971,55,351,51,359 F,0,35671,35971,0.69,0
Sprite,Foreground,Centre,"sb\white.png",0,0 F,0,34971,,0.69 S,0,34971,,0.01886298 R,0,34971,,0 M,19,34971,35371,104,252,150,318 M,0,35371,35971,150,318,154,324 F,0,35671,35971,0.69,0
Sprite,Foreground,Centre,"sb\white.png",0,0 F,0,34971,,0.69 S,0,34971,,0.03024754 R,0,34971,,1 M,19,34971,35371,104,252,82,362 M,0,35371,35971,82,362,80,371 F,0,35671,35971,0.69,0
Sprite,Foreground,Centre,"sb\white.png",0,0 F,0,34971,,0.69 S,0,34971,,0.02407829 R,0,34971,,0 M,19,34971,35371,104,252,128,160 M,0,35371,35971,128,160,130,152 F,0,35671,35971,0.69,0
Sprite,Foreground,Centre,"sb\white.png",0,0 F,0,34971,,0.69 S,0,34971,,0.01789295 R,0,34971,,2 M,19,34971,35371,104,252,30,229 M,0,35371,35971,30,229,24,227 F,0,35671,35971,0.69,0
Sprite,Foreground,Centre,"sb\white.png",0,0 F,0,34971,,0.69 S,0,34971,,0.02001324 R,0,34971,,0 M,19,34971,35371,104,252,-2,263 M,0,35371,35971,-2,263,-11,264 F,0,35671,35971,0.69,0
Sprite,Foreground,Centre,"sb\white.png",0,0 F,0,34971,,0.69 S,0,34971,,0.02831933 R,0,34971,,1 M,19,34971,35371,104,252,28,188 M,0,35371,35971,28,188,21,183 F,0,35671,35971,0.69,0
Sprite,Foreground,Centre,"sb\white.png",0,0 F,0,34971,,0.69 S,0,34971,,0.01348152 R,0,34971,,2 M,19,34971,35371,104,252,72,345 M,0,35371,35971,72,345,69,353 F,0,35671,35971,0.69,0
Sprite,Foreground,Centre,"sb\white.png",0,0 F,0,34971,,0.69 S,0,34971,,0.004008721 R,0,34971,,2 M,19,34971,35371,104,252,-9,309 M,0,35371,35971,-9,309,-18,314 F,0,35671,35971,0.69,0
Sprite,Foreground,Centre,"sb\white.png",0,0 F,0,34971,,0.69 S,0,34971,,0.02464805 R,0,34971,,0 M,19,34971,35371,104,252,148,176 M,0,35371,35971,148,176,152,170 F,0,35671,35971,0.69,0
Sprite,Foreground,Centre,"sb\white.png",0,0 F,0,34971,,0.69 S,0,34971,,0.01354444 R,0,34971,,1 M,19,34971,35371,104,252,17,265 M,0,35371,35971,17,265,10,267 F,0,35671,35971,0.69,0
Sprite,Foreground,Centre,"sb\white.png",0,0 F,0,34971,,0.69 S,0,34971,,0.01750326 R,0,34971,,2 M,19,34971,35371,104,252,99,338 M,0,35371,35971,99,338,99,345 F,0,35671,35971,0.69,0
Sprite,Foreground,Centre,"sb\white.png",0,0 F,0,34971,,0.69 S,0,34971,,0.0064447 R,0,34971,,2 M,19,34971,35371,104,252,-11,306 M,0,35371,35971,-11,306,-21,310 F,0,35671,35971,0.69,0
Sprite,Foreground,Centre,"sb\white.png",0,0 F,0,34971,,0.69 S,0,34971,,0.007246599 R,0,34971,,2 M,19,34971,35371,104,252,194,336 M,0,35371,35971,194,336,202,343 F,0,35671,35971,0.69,0
Sprite,Foreground,Centre,"sb\white.png",0,0 F,0,34971,,0.69 S,0,34971,,0.007206192 R,0,34971,,2 M,19,34971,35371,104,252,74,135 M,0,35371,35971,74,135,72,124 F,0,35671,35971,0.69,0
Sprite,Foreground,Centre,"sb\white.png",0,0 F,0,34971,,0.69 S,0,34971,,0.01907158 R,0,34971,,1 M,19,34971,35371,104,252,175,258 M,0,35371,35971,175,258,181,258 F,0,35671,35971,0.69,0
Sprite,Foreground,Centre,"sb\white.png",0,0 F,0,34971,,0.69 S,0,34971,,0.005037777 R,0,34971,,2 M,19,34971,35371,104,252,152,170 M,0,35371,35971,152,170,156,163 F,0,35671,35971,0.69,0
Sprite,Foreground,Centre,"sb\white.png",0,0 F,0,34971,,0.69 S,0,34971,,0.005361824 R,0,34971,,1 M,19,34971,35371,104,252,172,228 M,0,35371,35971,172,228,178,226 F,0,35671,35971,0.69,0
Sprite,Foreground,Centre,"sb\white.png",0,0 F,0,34971,,0.69 S,0,34971,,0.004540385 R,0,34971,,1 M,19,34971,35371,104,252,180,262 M,0,35371,35971,180,262,187,263 F,0,35671,35971,0.69,0
Sprite,Foreground,Centre,"sb\white.png",0,0 F,0,34971,,0.69 S,0,34971,,0.02430947 R,0,34971,,1 M,19,34971,35371,104,252,153,209 M,0,35371,35971,153,209,157,205 F,0,35671,35971,0.69,0
Sprite,Foreground,Centre,"sb\white.png",0,0 F,0,34971,,0.69 S,0,34971,,0.01642831 R,0,34971,,0 M,19,34971,35371,104,252,164,295 M,0,35371,35971,164,295,169,299 F,0,35671,35971,0.69,0
Sprite,Foreground,Centre,"sb\white.png",0,0 F,0,34971,,0.69 S,0,34971,,0.01286285 R,0,34971,,1 M,19,34971,35371,104,252,65,370 M,0,35371,35971,65,370,62,380 F,0,35671,35971,0.69,0
Sprite,Foreground,Centre,"sb\white.png",0,0 F,0,34971,,0.69 S,0,34971,,0.01211015 R,0,34971,,0 M,19,34971,35371,104,252,103,181 M,0,35371,35971,103,181,103,175 F,0,35671,35971,0.69,0
Sprite,Foreground,Centre,"sb\white.png",0,0 F,0,34971,,0.69 S,0,34971,,0.00547594 R,0,34971,,1 M,19,34971,35371,104,252,217,196 M,0,35371,35971,217,196,226,191 F,0,35671,35971,0.69,0
Sprite,Foreground,Centre,"sb\white.png",0,0 F,0,34971,,0.69 S,0,34971,,0.0177795 R,0,34971,,2 M,19,34971,35371,104,252,69,353 M,0,35371,35971,69,353,66,362 F,0,35671,35971,0.69,0
Sprite,Foreground,Centre,"sb\white.png",0,0 F,0,34971,,0.69 S,0,34971,,0.02054609 R,0,34971,,0 M,19,34971,35371,104,252,85,124 M,0,35371,35971,85,124,84,113 F,0,35671,35971,0.69,0
Sprite,Foreground,Centre,"sb\white.png",0,0 F,0,34971,,0.69 S,0,34971,,0.01555261 R,0,34971,,1 M,19,34971,35371,104,252,179,324 M,0,35371,35971,179,324,186,331 F,0,35671,35971,0.69,0
Sprite,Foreground,Centre,"sb\white.png",0,0 F,0,34971,,0.69 S,0,34971,,0.004008499 R,0,34971,,2 M,19,34971,35371,104,252,54,342 M,0,35371,35971,54,342,49,350 F,0,35671,35971,0.69,0
Sprite,Foreground,Centre,"sb\white.png",0,0 F,0,34971,,0.69 S,0,34971,,0.018732 R,0,34971,,0 M,19,34971,35371,104,252,87,318 M,0,35371,35971,87,318,86,323 F,0,35671,35971,0.69,0
Sprite,Foreground,Centre,"sb\white.png",0,0 F,0,34971,,0.69 S,0,34971,,0.0106096 R,0,34971,,1 M,19,34971,35371,104,252,236,277 M,0,35371,35971,236,277,248,280 F,0,35671,35971,0.69,0
Sprite,Foreground,Centre,"sb\white.png",0,0 F,0,34971,,0.69 S,0,34971,,0.01920792 R,0,34971,,1 M,19,34971,35371,104,252,26,347 M,0,35371,35971,26,347,19,356 F,0,35671,35971,0.69,0
Sprite,Foreground,Centre,"sb\white.png",0,0 F,0,34971,,0.69 S,0,34971,,0.004543701 R,0,34971,,2 M,19,34971,35371,104,252,143,336 M,0,35371,35971,143,336,146,343 F,0,35671,35971,0.69,0
Sprite,Foreground,Centre,"sb\white.png",0,0 F,0,34971,,0.69 S,0,34971,,0.01553939 R,0,34971,,2 M,19,34971,35371,104,252,83,165 M,0,35371,35971,83,165,81,157 F,0,35671,35971,0.69,0
Sprite,Foreground,Centre,"sb\white.png",0,0 F,0,34971,,0.69 S,0,34971,,0.0113865 R,0,34971,,0 M,19,34971,35371,104,252,15,314 M,0,35371,35971,15,314,7,319 F,0,35671,35971,0.69,0
Sprite,Foreground,Centre,"sb\glow.png",269,422 C,0,37052,,17,196,255 F,0,37052,37152,0,1 F,0,37652,37752,1,0
Sprite,Foreground,Centre,"sb\pinkC.png",0,0 M,0,37880,,469,426 F,0,37880,38380,1 S,19,37880,38880,0.1,0.52 F,0,38580,38880,1,0
Sprite,Foreground,Centre,"sb\white.png",0,0 F,0,37880,,0.69 S,0,37880,,0.02945898 R,0,37880,,2 M,19,37880,38280,469,426,388,348 M,0,38280,38880,388,348,381,341 F,0,38580,38880,0.69,0
Sprite,Foreground,Centre,"sb\white.png",0,0 F,0,37880,,0.69 S,0,37880,,0.02209857 R,0,37880,,1 M,19,37880,38280,469,426,364,479 M,0,38280,38880,364,479,355,484 F,0,38580,38880,0.69,0
Sprite,Foreground,Centre,"sb\white.png",0,0 F,0,37880,,0.69 S,0,37880,,0.01223146 R,0,37880,,1 M,19,37880,38280,469,426,381,357 M,0,38280,38880,381,357,373,351 F,0,38580,38880,0.69,0
Sprite,Foreground,Centre,"sb\white.png",0,0 F,0,37880,,0.69 S,0,37880,,0.02543961 R,0,37880,,0 M,19,37880,38280,469,426,443,486 M,0,38280,38880,443,486,441,491 F,0,38580,38880,0.69,0
Sprite,Foreground,Centre,"sb\white.png",0,0 F,0,37880,,0.69 S,0,37880,,0.0255272 R,0,37880,,1 M,19,37880,38280,469,426,537,456 M,0,38280,38880,537,456,543,459 F,0,38580,38880,0.69,0
Sprite,Foreground,Centre,"sb\white.png",0,0 F,0,37880,,0.69 S,0,37880,,0.004304431 R,0,37880,,2 M,19,37880,38280,469,426,388,427 M,0,38280,38880,388,427,382,427 F,0,38580,38880,0.69,0
Sprite,Foreground,Centre,"sb\white.png",0,0 F,0,37880,,0.69 S,0,37880,,0.02413397 R,0,37880,,0 M,19,37880,38280,469,426,536,465 M,0,38280,38880,536,465,542,468 F,0,38580,38880,0.69,0
Sprite,Foreground,Centre,"sb\white.png",0,0 F,0,37880,,0.69 S,0,37880,,0.01989903 R,0,37880,,1 M,19,37880,38280,469,426,387,399 M,0,38280,38880,387,399,380,397 F,0,38580,38880,0.69,0
Sprite,Foreground,Centre,"sb\white.png",0,0 F,0,37880,,0.69 S,0,37880,,0.007402543 R,0,37880,,1 M,19,37880,38280,469,426,561,515 M,0,38280,38880,561,515,569,523 F,0,38580,38880,0.69,0
Sprite,Foreground,Centre,"sb\white.png",0,0 F,0,37880,,0.69 S,0,37880,,0.004391606 R,0,37880,,0 M,19,37880,38280,469,426,546,467 M,0,38280,38880,546,467,553,471 F,0,38580,38880,0.69,0
Sprite,Foreground,Centre,"sb\white.png",0,0 F,0,37880,,0.69 S,0,37880,,0.02412344 R,0,37880,,0 M,19,37880,38280,469,426,358,482 M,0,38280,38880,358,482,348,487 F,0,38580,38880,0.69,0
Sprite,Foreground,Centre,"sb\white.png",0,0 F,0,37880,,0.69 S,0,37880,,0.02382003 R,0,37880,,0 M,19,37880,38280,469,426,497,539 M,0,38280,38880,497,539,499,549 F,0,38580,38880,0.69,0
Sprite,Foreground,Centre,"sb\white.png",0,0 F,0,37880,,0.69 S,0,37880,,0.02821815 R,0,37880,,2 M,19,37880,38280,469,426,447,331 M,0,38280,38880,447,331,445,323 F,0,38580,38880,0.69,0
Sprite,Foreground,Centre,"sb\white.png",0,0 F,0,37880,,0.69 S,0,37880,,0.01588219 R,0,37880,,2 M,19,37880,38280,469,426,458,324 M,0,38280,38880,458,324,457,315 F,0,38580,38880,0.69,0
Sprite,Foreground,Centre,"sb\white.png",0,0 F,0,37880,,0.69 S,0,37880,,0.005287574 R,0,37880,,2 M,19,37880,38280,469,426,570,447 M,0,38280,38880,570,447,579,449 F,0,38580,38880,0.69,0
Sprite,Foreground,Centre,"sb\white.png",0,0 F,0,37880,,0.69 S,0,37880,,0.00718125 R,0,37880,,0 M,19,37880,38280,469,426,553,451 M,0,38280,38880,553,451,560,454 F,0,38580,38880,0.69,0
Sprite,Foreground,Centre,"sb\white.png",0,0 F,0,37880,,0.69 S,0,37880,,0.01003272 R,0,37880,,1 M,19,37880,38280,469,426,479,499 M,0,38280,38880,479,499,480,506 F,0,38580,38880,0.69,0
Sprite,Foreground,Centre,"sb\white.png",0,0 F,0,37880,,0.69 S,0,37880,,0.01296615 R,0,37880,,1 M,19,37880,38280,469,426,556,429 M,0,38280,38880,556,429,563,429 F,0,38580,38880,0.69,0
Sprite,Foreground,Centre,"sb\white.png",0,0 F,0,37880,,0.69 S,0,37880,,0.006040772 R,0,37880,,1 M,19,37880,38280,469,426,505,525 M,0,38280,38880,505,525,508,534 F,0,38580,38880,0.69,0
Sprite,Foreground,Centre,"sb\white.png",0,0 F,0,37880,,0.69 S,0,37880,,0.01247197 R,0,37880,,1 M,19,37880,38280,469,426,334,449 M,0,38280,38880,334,449,323,451 F,0,38580,38880,0.69,0
Sprite,Foreground,Centre,"sb\white.png",0,0 F,0,37880,,0.69 S,0,37880,,0.01876386 R,0,37880,,0 M,19,37880,38280,469,426,557,477 M,0,38280,38880,557,477,565,481 F,0,38580,38880,0.69,0
Sprite,Foreground,Centre,"sb\white.png",0,0 F,0,37880,,0.69 S,0,37880,,0.02887099 R,0,37880,,0 M,19,37880,38280,469,426,470,515 M,0,38280,38880,470,515,470,522 F,0,38580,38880,0.69,0
Sprite,Foreground,Centre,"sb\white.png",0,0 F,0,37880,,0.69 S,0,37880,,0.02794141 R,0,37880,,0 M,19,37880,38280,469,426,505,485 M,0,38280,38880,505,485,508,491 F,0,38580,38880,0.69,0
Sprite,Foreground,Centre,"sb\white.png",0,0 F,0,37880,,0.69 S,0,37880,,0.02594078 R,0,37880,,0 M,19,37880,38280,469,426,391,532 M,0,38280,38880,391,532,385,541 F,0,38580,38880,0.69,0
Sprite,Foreground,Centre,"sb\white.png",0,0 F,0,37880,,0.69 S,0,37880,,0.01375094 R,0,37880,,0 M,19,37880,38280,469,426,534,383 M,0,38280,38880,534,383,540,379 F,0,38580,38880,0.69,0
Sprite,Foreground,Centre,"sb\white.png",0,0 F,0,37880,,0.69 S,0,37880,,0.01845825 R,0,37880,,1 M,19,37880,38280,469,426,565,506 M,0,38280,38880,565,506,573,514 F,0,38580,38880,0.69,0
Sprite,Foreground,Centre,"sb\white.png",0,0 F,0,37880,,0.69 S,0,37880,,0.006054942 R,0,37880,,0 M,19,37880,38280,469,426,458,345 M,0,38280,38880,458,345,458,338 F,0,38580,38880,0.69,0
Sprite,Foreground,Centre,"sb\white.png",0,0 F,0,37880,,0.69 S,0,37880,,0.02785598 R,0,37880,,2 M,19,37880,38280,469,426,489,529 M,0,38280,38880,489,529,491,538 F,0,38580,38880,0.69,0
Sprite,Foreground,Centre,"sb\white.png",0,0 F,0,37880,,0.69 S,0,37880,,0.01571948 R,0,37880,,1 M,19,37880,38280,469,426,485,318 M,0,38280,38880,485,318,487,309 F,0,38580,38880,0.69,0
Sprite,Foreground,Centre,"sb\white.png",0,0 F,0,37880,,0.69 S,0,37880,,0.004514829 R,0,37880,,1 M,19,37880,38280,469,426,387,364 M,0,38280,38880,387,364,380,359 F,0,38580,38880,0.69,0
Sprite,Foreground,Centre,"sb\white.png",0,0 F,0,37880,,0.69 S,0,37880,,0.01075461 R,0,37880,,1 M,19,37880,38280,469,426,467,344 M,0,38280,38880,467,344,467,337 F,0,38580,38880,0.69,0
Sprite,Foreground,Centre,"sb\white.png",0,0 F,0,37880,,0.69 S,0,37880,,0.02225378 R,0,37880,,2 M,19,37880,38280,469,426,409,504 M,0,38280,38880,409,504,404,511 F,0,38580,38880,0.69,0
Sprite,Foreground,Centre,"sb\white.png",0,0 F,0,37880,,0.69 S,0,37880,,0.02598097 R,0,37880,,0 M,19,37880,38280,469,426,410,332 M,0,38280,38880,410,332,405,324 F,0,38580,38880,0.69,0
Sprite,Foreground,Centre,"sb\white.png",0,0 F,0,37880,,0.69 S,0,37880,,0.02878762 R,0,37880,,0 M,19,37880,38280,469,426,457,343 M,0,38280,38880,457,343,456,335 F,0,38580,38880,0.69,0
Sprite,Foreground,Centre,"sb\white.png",0,0 F,0,37880,,0.69 S,0,37880,,0.02852818 R,0,37880,,1 M,19,37880,38280,469,426,517,545 M,0,38280,38880,517,545,521,555 F,0,38580,38880,0.69,0
Sprite,Foreground,Centre,"sb\white.png",0,0 F,0,37880,,0.69 S,0,37880,,0.006715098 R,0,37880,,2 M,19,37880,38280,469,426,467,495 M,0,38280,38880,467,495,467,501 F,0,38580,38880,0.69,0
Sprite,Foreground,Centre,"sb\white.png",0,0 F,0,37880,,0.69 S,0,37880,,0.006338482 R,0,37880,,1 M,19,37880,38280,469,426,469,545 M,0,38280,38880,469,545,469,555 F,0,38580,38880,0.69,0
Sprite,Foreground,Centre,"sb\white.png",0,0 F,0,37880,,0.69 S,0,37880,,0.02479412 R,0,37880,,0 M,19,37880,38280,469,426,525,303 M,0,38280,38880,525,303,530,292 F,0,38580,38880,0.69,0
Sprite,Foreground,Centre,"sb\white.png",0,0 F,0,37880,,0.69 S,0,37880,,0.02812721 R,0,37880,,2 M,19,37880,38280,469,426,339,412 M,0,38280,38880,339,412,328,411 F,0,38580,38880,0.69,0
Sprite,Foreground,Centre,"sb\white.png",0,0 F,0,37880,,0.69 S,0,37880,,0.01721587 R,0,37880,,1 M,19,37880,38280,469,426,337,442 M,0,38280,38880,337,442,326,443 F,0,38580,38880,0.69,0
Sprite,Foreground,Centre,"sb\white.png",0,0 F,0,37880,,0.69 S,0,37880,,0.01967716 R,0,37880,,2 M,19,37880,38280,469,426,412,351 M,0,38280,38880,412,351,408,345 F,0,38580,38880,0.69,0
Sprite,Foreground,Centre,"sb\white.png",0,0 F,0,37880,,0.69 S,0,37880,,0.02088071 R,0,37880,,1 M,19,37880,38280,469,426,387,467 M,0,38280,38880,387,467,379,471 F,0,38580,38880,0.69,0
Sprite,Foreground,Centre,"sb\white.png",0,0 F,0,37880,,0.69 S,0,37880,,0.01956 R,0,37880,,2 M,19,37880,38280,469,426,382,376 M,0,38280,38880,382,376,374,371 F,0,38580,38880,0.69,0
Sprite,Foreground,Centre,"sb\white.png",0,0 F,0,37880,,0.69 S,0,37880,,0.01658412 R,0,37880,,2 M,19,37880,38280,469,426,405,473 M,0,38280,38880,405,473,400,477 F,0,38580,38880,0.69,0
Sprite,Foreground,Centre,"sb\white.png",0,0 F,0,37880,,0.69 S,0,37880,,0.004047561 R,0,37880,,0 M,19,37880,38280,469,426,418,484 M,0,38280,38880,418,484,413,489 F,0,38580,38880,0.69,0
Sprite,Foreground,Centre,"sb\white.png",0,0 F,0,37880,,0.69 S,0,37880,,0.004909988 R,0,37880,,2 M,19,37880,38280,469,426,467,354 M,0,38280,38880,467,354,467,348 F,0,38580,38880,0.69,0
Sprite,Foreground,Centre,"sb\white.png",0,0 F,0,37880,,0.69 S,0,37880,,0.01862305 R,0,37880,,0 M,19,37880,38280,469,426,400,501 M,0,38280,38880,400,501,394,508 F,0,38580,38880,0.69,0
Sprite,Foreground,Centre,"sb\white.png",0,0 F,0,37880,,0.69 S,0,37880,,0.01391282 R,0,37880,,2 M,19,37880,38280,469,426,354,484 M,0,38280,38880,354,484,344,489 F,0,38580,38880,0.69,0
Sprite,Foreground,Centre,"sb\white.png",0,0 F,0,37880,,0.69 S,0,37880,,0.0300411 R,0,37880,,1 M,19,37880,38280,469,426,581,486 M,0,38280,38880,581,486,591,491 F,0,38580,38880,0.69,0
Sprite,Foreground,Centre,"sb\white.png",0,0 F,0,37880,,0.69 S,0,37880,,0.02746267 R,0,37880,,2 M,19,37880,38280,469,426,435,486 M,0,38280,38880,435,486,432,491 F,0,38580,38880,0.69,0
Sprite,Foreground,Centre,"sb\white.png",0,0 F,0,37880,,0.69 S,0,37880,,0.009057319 R,0,37880,,0 M,19,37880,38280,469,426,485,510 M,0,38280,38880,485,510,487,518 F,0,38580,38880,0.69,0
Sprite,Foreground,Centre,"sb\white.png",0,0 F,0,37880,,0.69 S,0,37880,,0.00629326 R,0,37880,,0 M,19,37880,38280,469,426,420,313 M,0,38280,38880,420,313,416,303 F,0,38580,38880,0.69,0
Sprite,Foreground,Centre,"sb\white.png",0,0 F,0,37880,,0.69 S,0,37880,,0.02538139 R,0,37880,,0 M,19,37880,38280,469,426,366,482 M,0,38280,38880,366,482,358,487 F,0,38580,38880,0.69,0
Sprite,Foreground,Centre,"sb\white.png",0,0 F,0,37880,,0.69 S,0,37880,,0.02280858 R,0,37880,,1 M,19,37880,38280,469,426,525,377 M,0,38280,38880,525,377,530,373 F,0,38580,38880,0.69,0
Sprite,Foreground,Centre,"sb\white.png",0,0 F,0,37880,,0.69 S,0,37880,,0.02786731 R,0,37880,,1 M,19,37880,38280,469,426,448,554 M,0,38280,38880,448,554,447,565 F,0,38580,38880,0.69,0
Sprite,Foreground,Centre,"sb\white.png",0,0 F,0,37880,,0.69 S,0,37880,,0.0167536 R,0,37880,,2 M,19,37880,38280,469,426,526,311 M,0,38280,38880,526,311,531,301 F,0,38580,38880,0.69,0
Sprite,Foreground,Centre,"sb\white.png",0,0 F,0,37880,,0.69 S,0,37880,,0.02549329 R,0,37880,,2 M,19,37880,38280,469,426,536,442 M,0,38280,38880,536,442,542,444 F,0,38580,38880,0.69,0
Sprite,Foreground,Centre,"sb\white.png",0,0 F,0,37880,,0.69 S,0,37880,,0.007214009 R,0,37880,,2 M,19,37880,38280,469,426,441,346 M,0,38280,38880,441,346,438,339 F,0,38580,38880,0.69,0
Sprite,Foreground,Centre,"sb\white.png",0,0 F,0,37880,,0.69 S,0,37880,,0.0102168 R,0,37880,,0 M,19,37880,38280,469,426,523,498 M,0,38280,38880,523,498,528,505 F,0,38580,38880,0.69,0
Sprite,Foreground,Centre,"sb\white.png",0,0 F,0,37880,,0.69 S,0,37880,,0.01373119 R,0,37880,,2 M,19,37880,38280,469,426,561,358 M,0,38280,38880,561,358,569,352 F,0,38580,38880,0.69,0
Sprite,Foreground,Centre,"sb\white.png",0,0 F,0,37880,,0.69 S,0,37880,,0.01101095 R,0,37880,,2 M,19,37880,38280,469,426,560,450 M,0,38280,38880,560,450,568,452 F,0,38580,38880,0.69,0
Sprite,Foreground,Centre,"sb\white.png",0,0 F,0,37880,,0.69 S,0,37880,,0.008923014 R,0,37880,,0 M,19,37880,38280,469,426,537,379 M,0,38280,38880,537,379,543,375 F,0,38580,38880,0.69,0
Sprite,Foreground,Centre,"sb\white.png",0,0 F,0,37880,,0.69 S,0,37880,,0.02292982 R,0,37880,,2 M,19,37880,38280,469,426,377,479 M,0,38280,38880,377,479,369,483 F,0,38580,38880,0.69,0
Sprite,Foreground,Centre,"sb\white.png",0,0 F,0,37880,,0.69 S,0,37880,,0.01316818 R,0,37880,,0 M,19,37880,38280,469,426,554,323 M,0,38280,38880,554,323,561,314 F,0,38580,38880,0.69,0
Sprite,Foreground,Centre,"sb\white.png",0,0 F,0,37880,,0.69 S,0,37880,,0.01736119 R,0,37880,,2 M,19,37880,38280,469,426,442,338 M,0,38280,38880,442,338,439,331 F,0,38580,38880,0.69,0
Sprite,Foreground,Centre,"sb\white.png",0,0 F,0,37880,,0.69 S,0,37880,,0.008224036 R,0,37880,,1 M,19,37880,38280,469,426,485,331 M,0,38280,38880,485,331,486,323 F,0,38580,38880,0.69,0
Sprite,Foreground,Centre,"sb\white.png",0,0 F,0,37880,,0.69 S,0,37880,,0.01109149 R,0,37880,,1 M,19,37880,38280,469,426,444,501 M,0,38280,38880,444,501,442,507 F,0,38580,38880,0.69,0
Sprite,Foreground,Centre,"sb\white.png",0,0 F,0,37880,,0.69 S,0,37880,,0.01217944 R,0,37880,,0 M,19,37880,38280,469,426,472,305 M,0,38280,38880,472,305,473,295 F,0,38580,38880,0.69,0
Sprite,Foreground,Centre,"sb\white.png",0,0 F,0,37880,,0.69 S,0,37880,,0.01863034 R,0,37880,,0 M,19,37880,38280,469,426,596,391 M,0,38280,38880,596,391,607,388 F,0,38580,38880,0.69,0
Sprite,Foreground,Centre,"sb\white.png",0,0 F,0,37880,,0.69 S,0,37880,,0.01911792 R,0,37880,,2 M,19,37880,38280,469,426,418,486 M,0,38280,38880,418,486,413,491 F,0,38580,38880,0.69,0
Sprite,Foreground,Centre,"sb\white.png",0,0 F,0,37880,,0.69 S,0,37880,,0.01856304 R,0,37880,,1 M,19,37880,38280,469,426,539,491 M,0,38280,38880,539,491,545,496 F,0,38580,38880,0.69,0
Sprite,Foreground,Centre,"sb\white.png",0,0 F,0,37880,,0.69 S,0,37880,,0.02768009 R,0,37880,,1 M,19,37880,38280,469,426,373,356 M,0,38280,38880,373,356,365,350 F,0,38580,38880,0.69,0
Sprite,Foreground,Centre,"sb\white.png",0,0 F,0,37880,,0.69 S,0,37880,,0.01434746 R,0,37880,,2 M,19,37880,38280,469,426,500,361 M,0,38280,38880,500,361,503,355 F,0,38580,38880,0.69,0
Sprite,Foreground,Centre,"sb\white.png",0,0 F,0,37880,,0.69 S,0,37880,,0.01539307 R,0,37880,,2 M,19,37880,38280,469,426,423,478 M,0,38280,38880,423,478,419,483 F,0,38580,38880,0.69,0
Sprite,Foreground,Centre,"sb\white.png",0,0 F,0,37880,,0.69 S,0,37880,,0.008992856 R,0,37880,,1 M,19,37880,38280,469,426,505,347 M,0,38280,38880,505,347,508,340 F,0,38580,38880,0.69,0
Sprite,Foreground,Centre,"sb\white.png",0,0 F,0,37880,,0.69 S,0,37880,,0.03189978 R,0,37880,,1 M,19,37880,38280,469,426,353,382 M,0,38280,38880,353,382,343,378 F,0,38580,38880,0.69,0
Sprite,Foreground,Centre,"sb\blueC.png",0,0 M,0,40789,,111,154 F,0,40789,41289,1 S,19,40789,41789,0.1,0.52 F,0,41489,41789,1,0
Sprite,Foreground,Centre,"sb\white.png",0,0 F,0,40789,,0.69 S,0,40789,,0.01429786 R,0,40789,,0 M,19,40789,41189,111,154,169,195 M,0,41189,41789,169,195,174,198 F,0,41489,41789,0.69,0
Sprite,Foreground,Centre,"sb\white.png",0,0 F,0,40789,,0.69 S,0,40789,,0.02082825 R,0,40789,,0 M,19,40789,41189,111,154,80,56 M,0,41189,41789,80,56,78,47 F,0,41489,41789,0.69,0
Sprite,Foreground,Centre,"sb\white.png",0,0 F,0,40789,,0.69 S,0,40789,,0.01201174 R,0,40789,,2 M,19,40789,41189,111,154,149,264 M,0,41189,41789,149,264,152,274 F,0,41489,41789,0.69,0
Sprite,Foreground,Centre,"sb\white.png",0,0 F,0,40789,,0.69 S,0,40789,,0.03046124 R,0,40789,,1 M,19,40789,41189,111,154,28,45 M,0,41189,41789,28,45,21,35 F,0,41489,41789,0.69,0
Sprite,Foreground,Centre,"sb\white.png",0,0 F,0,40789,,0.69 S,0,40789,,0.005539875 R,0,40789,,0 M,19,40789,41189,111,154,135,234 M,0,41189,41789,135,234,137,241 F,0,41489,41789,0.69,0
Sprite,Foreground,Centre,"sb\white.png",0,0 F,0,40789,,0.69 S,0,40789,,0.02481073 R,0,40789,,2 M,19,40789,41189,111,154,210,192 M,0,41189,41789,210,192,219,195 F,0,41489,41789,0.69,0
Sprite,Foreground,Centre,"sb\white.png",0,0 F,0,40789,,0.69 S,0,40789,,0.006872455 R,0,40789,,1 M,19,40789,41189,111,154,188,50 M,0,41189,41789,188,50,195,41 F,0,41489,41789,0.69,0
Sprite,Foreground,Centre,"sb\white.png",0,0 F,0,40789,,0.69 S,0,40789,,0.03079152 R,0,40789,,2 M,19,40789,41189,111,154,23,196 M,0,41189,41789,23,196,15,200 F,0,41489,41789,0.69,0
Sprite,Foreground,Centre,"sb\white.png",0,0 F,0,40789,,0.69 S,0,40789,,0.03019442 R,0,40789,,2 M,19,40789,41189,111,154,162,53 M,0,41189,41789,162,53,166,44 F,0,41489,41789,0.69,0
Sprite,Foreground,Centre,"sb\white.png",0,0 F,0,40789,,0.69 S,0,40789,,0.03022168 R,0,40789,,0 M,19,40789,41189,111,154,64,27 M,0,41189,41789,64,27,60,15 F,0,41489,41789,0.69,0
Sprite,Foreground,Centre,"sb\white.png",0,0 F,0,40789,,0.69 S,0,40789,,0.01522073 R,0,40789,,1 M,19,40789,41189,111,154,59,100 M,0,41189,41789,59,100,54,95 F,0,41489,41789,0.69,0
Sprite,Foreground,Centre,"sb\white.png",0,0 F,0,40789,,0.69 S,0,40789,,0.01139395 R,0,40789,,0 M,19,40789,41189,111,154,25,196 M,0,41189,41789,25,196,17,199 F,0,41489,41789,0.69,0
Sprite,Foreground,Centre,"sb\white.png",0,0 F,0,40789,,0.69 S,0,40789,,0.0156273 R,0,40789,,2 M,19,40789,41189,111,154,125,88 M,0,41189,41789,125,88,127,82 F,0,41489,41789,0.69,0
Sprite,Foreground,Centre,"sb\white.png",0,0 F,0,40789,,0.69 S,0,40789,,0.01525576 R,0,40789,,1 M,19,40789,41189,111,154,81,216 M,0,41189,41789,81,216,79,222 F,0,41489,41789,0.69,0
Sprite,Foreground,Centre,"sb\white.png",0,0 F,0,40789,,0.69 S,0,40789,,0.008929806 R,0,40789,,1 M,19,40789,41189,111,154,-9,184 M,0,41189,41789,-9,184,-19,186 F,0,41489,41789,0.69,0
Sprite,Foreground,Centre,"sb\white.png",0,0 F,0,40789,,0.69 S,0,40789,,0.008544077 R,0,40789,,1 M,19,40789,41189,111,154,215,168 M,0,41189,41789,215,168,224,169 F,0,41489,41789,0.69,0
Sprite,Foreground,Centre,"sb\white.png",0,0 F,0,40789,,0.69 S,0,40789,,0.02531442 R,0,40789,,1 M,19,40789,41189,111,154,29,53 M,0,41189,41789,29,53,22,44 F,0,41489,41789,0.69,0
Sprite,Foreground,Centre,"sb\white.png",0,0 F,0,40789,,0.69 S,0,40789,,0.02381023 R,0,40789,,2 M,19,40789,41189,111,154,63,103 M,0,41189,41789,63,103,59,99 F,0,41489,41789,0.69,0
Sprite,Foreground,Centre,"sb\white.png",0,0 F,0,40789,,0.69 S,0,40789,,0.0227615 R,0,40789,,1 M,19,40789,41189,111,154,231,158 M,0,41189,41789,231,158,241,158 F,0,41489,41789,0.69,0
Sprite,Foreground,Centre,"sb\white.png",0,0 F,0,40789,,0.69 S,0,40789,,0.0286176 R,0,40789,,1 M,19,40789,41189,111,154,88,245 M,0,41189,41789,88,245,86,253 F,0,41489,41789,0.69,0
Sprite,Foreground,Centre,"sb\white.png",0,0 F,0,40789,,0.69 S,0,40789,,0.01808838 R,0,40789,,1 M,19,40789,41189,111,154,112,261 M,0,41189,41789,112,261,113,270 F,0,41489,41789,0.69,0
Sprite,Foreground,Centre,"sb\white.png",0,0 F,0,40789,,0.69 S,0,40789,,0.00448368 R,0,40789,,1 M,19,40789,41189,111,154,184,44 M,0,41189,41789,184,44,190,35 F,0,41489,41789,0.69,0
Sprite,Foreground,Centre,"sb\white.png",0,0 F,0,40789,,0.69 S,0,40789,,0.02569299 R,0,40789,,2 M,19,40789,41189,111,154,182,225 M,0,41189,41789,182,225,188,231 F,0,41489,41789,0.69,0
Sprite,Foreground,Centre,"sb\white.png",0,0 F,0,40789,,0.69 S,0,40789,,0.01159414 R,0,40789,,0 M,19,40789,41189,111,154,194,134 M,0,41189,41789,194,134,201,132 F,0,41489,41789,0.69,0
Sprite,Foreground,Centre,"sb\white.png",0,0 F,0,40789,,0.69 S,0,40789,,0.01886789 R,0,40789,,2 M,19,40789,41189,111,154,163,107 M,0,41189,41789,163,107,168,103 F,0,41489,41789,0.69,0
Sprite,Foreground,Centre,"sb\white.png",0,0 F,0,40789,,0.69 S,0,40789,,0.03105073 R,0,40789,,2 M,19,40789,41189,111,154,197,194 M,0,41189,41789,197,194,205,197 F,0,41489,41789,0.69,0
Sprite,Foreground,Centre,"sb\white.png",0,0 F,0,40789,,0.69 S,0,40789,,0.0264496 R,0,40789,,2 M,19,40789,41189,111,154,49,233 M,0,41189,41789,49,233,43,239 F,0,41489,41789,0.69,0
Sprite,Foreground,Centre,"sb\white.png",0,0 F,0,40789,,0.69 S,0,40789,,0.00545185 R,0,40789,,0 M,19,40789,41189,111,154,31,156 M,0,41189,41789,31,156,24,157 F,0,41489,41789,0.69,0
Sprite,Foreground,Centre,"sb\white.png",0,0 F,0,40789,,0.69 S,0,40789,,0.0319243 R,0,40789,,2 M,19,40789,41189,111,154,81,92 M,0,41189,41789,81,92,78,87 F,0,41489,41789,0.69,0
Sprite,Foreground,Centre,"sb\white.png",0,0 F,0,40789,,0.69 S,0,40789,,0.01581879 R,0,40789,,1 M,19,40789,41189,111,154,33,70 M,0,41189,41789,33,70,26,63 F,0,41489,41789,0.69,0
Sprite,Foreground,Centre,"sb\white.png",0,0 F,0,40789,,0.69 S,0,40789,,0.01796751 R,0,40789,,1 M,19,40789,41189,111,154,116,74 M,0,41189,41789,116,74,116,67 F,0,41489,41789,0.69,0
Sprite,Foreground,Centre,"sb\white.png",0,0 F,0,40789,,0.69 S,0,40789,,0.006069228 R,0,40789,,2 M,19,40789,41189,111,154,109,224 M,0,41189,41789,109,224,109,230 F,0,41489,41789,0.69,0
Sprite,Foreground,Centre,"sb\white.png",0,0 F,0,40789,,0.69 S,0,40789,,0.02132119 R,0,40789,,0 M,19,40789,41189,111,154,143,273 M,0,41189,41789,143,273,146,284 F,0,41489,41789,0.69,0
Sprite,Foreground,Centre,"sb\white.png",0,0 F,0,40789,,0.69 S,0,40789,,0.02908952 R,0,40789,,1 M,19,40789,41189,111,154,182,84 M,0,41189,41789,182,84,188,78 F,0,41489,41789,0.69,0
Sprite,Foreground,Centre,"sb\white.png",0,0 F,0,40789,,0.69 S,0,40789,,0.02302004 R,0,40789,,1 M,19,40789,41189,111,154,50,131 M,0,41189,41789,50,131,45,129 F,0,41489,41789,0.69,0
Sprite,Foreground,Centre,"sb\white.png",0,0 F,0,40789,,0.69 S,0,40789,,0.02484963 R,0,40789,,0 M,19,40789,41189,111,154,164,195 M,0,41189,41789,164,195,169,199 F,0,41489,41789,0.69,0
Sprite,Foreground,Centre,"sb\white.png",0,0 F,0,40789,,0.69 S,0,40789,,0.03015896 R,0,40789,,2 M,19,40789,41189,111,154,134,215 M,0,41189,41789,134,215,136,221 F,0,41489,41789,0.69,0
Sprite,Foreground,Centre,"sb\white.png",0,0 F,0,40789,,0.69 S,0,40789,,0.03012583 R,0,40789,,0 M,19,40789,41189,111,154,65,107 M,0,41189,41789,65,107,61,103 F,0,41489,41789,0.69,0
Sprite,Foreground,Centre,"sb\white.png",0,0 F,0,40789,,0.69 S,0,40789,,0.02509605 R,0,40789,,1 M,19,40789,41189,111,154,164,110 M,0,41189,41789,164,110,169,106 F,0,41489,41789,0.69,0
Sprite,Foreground,Centre,"sb\white.png",0,0 F,0,40789,,0.69 S,0,40789,,0.008640472 R,0,40789,,0 M,19,40789,41189,111,154,145,218 M,0,41189,41789,145,218,148,223 F,0,41489,41789,0.69,0
Sprite,Foreground,Centre,"sb\white.png",0,0 F,0,40789,,0.69 S,0,40789,,0.01785885 R,0,40789,,1 M,19,40789,41189,111,154,181,56 M,0,41189,41789,181,56,187,47 F,0,41489,41789,0.69,0
Sprite,Foreground,Centre,"sb\white.png",0,0 F,0,40789,,0.69 S,0,40789,,0.00967811 R,0,40789,,2 M,19,40789,41189,111,154,145,249 M,0,41189,41789,145,249,149,258 F,0,41489,41789,0.69,0
Sprite,Foreground,Centre,"sb\white.png",0,0 F,0,40789,,0.69 S,0,40789,,0.02176938 R,0,40789,,1 M,19,40789,41189,111,154,132,73 M,0,41189,41789,132,73,134,66 F,0,41489,41789,0.69,0
Sprite,Foreground,Centre,"sb\white.png",0,0 F,0,40789,,0.69 S,0,40789,,0.02813447 R,0,40789,,1 M,19,40789,41189,111,154,144,50 M,0,41189,41789,144,50,147,41 F,0,41489,41789,0.69,0
Sprite,Foreground,Centre,"sb\white.png",0,0 F,0,40789,,0.69 S,0,40789,,0.01734465 R,0,40789,,2 M,19,40789,41189,111,154,40,88 M,0,41189,41789,40,88,34,83 F,0,41489,41789,0.69,0
Sprite,Foreground,Centre,"sb\white.png",0,0 F,0,40789,,0.69 S,0,40789,,0.03013795 R,0,40789,,1 M,19,40789,41189,111,154,50,208 M,0,41189,41789,50,208,44,213 F,0,41489,41789,0.69,0
Sprite,Foreground,Centre,"sb\white.png",0,0 F,0,40789,,0.69 S,0,40789,,0.02000577 R,0,40789,,0 M,19,40789,41189,111,154,63,47 M,0,41189,41789,63,47,59,38 F,0,41489,41789,0.69,0
Sprite,Foreground,Centre,"sb\white.png",0,0 F,0,40789,,0.69 S,0,40789,,0.01629262 R,0,40789,,1 M,19,40789,41189,111,154,24,145 M,0,41189,41789,24,145,17,144 F,0,41489,41789,0.69,0
Sprite,Foreground,Centre,"sb\white.png",0,0 F,0,40789,,0.69 S,0,40789,,0.007669112 R,0,40789,,1 M,19,40789,41189,111,154,185,91 M,0,41189,41789,185,91,192,85 F,0,41489,41789,0.69,0
Sprite,Foreground,Centre,"sb\white.png",0,0 F,0,40789,,0.69 S,0,40789,,0.01411748 R,0,40789,,0 M,19,40789,41189,111,154,4,182 M,0,41189,41789,4,182,-4,185 F,0,41489,41789,0.69,0
Sprite,Foreground,Centre,"sb\white.png",0,0 F,0,40789,,0.69 S,0,40789,,0.004995492 R,0,40789,,1 M,19,40789,41189,111,154,17,186 M,0,41189,41789,17,186,9,188 F,0,41489,41789,0.69,0
Sprite,Foreground,Centre,"sb\white.png",0,0 F,0,40789,,0.69 S,0,40789,,0.004815692 R,0,40789,,1 M,19,40789,41189,111,154,186,240 M,0,41189,41789,186,240,193,248 F,0,41489,41789,0.69,0
Sprite,Foreground,Centre,"sb\white.png",0,0 F,0,40789,,0.69 S,0,40789,,0.01419381 R,0,40789,,1 M,19,40789,41189,111,154,234,180 M,0,41189,41789,234,180,245,182 F,0,41489,41789,0.69,0
Sprite,Foreground,Centre,"sb\white.png",0,0 F,0,40789,,0.69 S,0,40789,,0.01282496 R,0,40789,,0 M,19,40789,41189,111,154,83,27 M,0,41189,41789,83,27,81,16 F,0,41489,41789,0.69,0
Sprite,Foreground,Centre,"sb\white.png",0,0 F,0,40789,,0.69 S,0,40789,,0.0149613 R,0,40789,,0 M,19,40789,41189,111,154,94,75 M,0,41189,41789,94,75,92,68 F,0,41489,41789,0.69,0
Sprite,Foreground,Centre,"sb\white.png",0,0 F,0,40789,,0.69 S,0,40789,,0.004229025 R,0,40789,,1 M,19,40789,41189,111,154,28,259 M,0,41189,41789,28,259,21,268 F,0,41489,41789,0.69,0
Sprite,Foreground,Centre,"sb\white.png",0,0 F,0,40789,,0.69 S,0,40789,,0.01818424 R,0,40789,,2 M,19,40789,41189,111,154,147,219 M,0,41189,41789,147,219,150,225 F,0,41489,41789,0.69,0
Sprite,Foreground,Centre,"sb\white.png",0,0 F,0,40789,,0.69 S,0,40789,,0.01769581 R,0,40789,,1 M,19,40789,41189,111,154,223,213 M,0,41189,41789,223,213,232,218 F,0,41489,41789,0.69,0
Sprite,Foreground,Centre,"sb\white.png",0,0 F,0,40789,,0.69 S,0,40789,,0.01336187 R,0,40789,,0 M,19,40789,41189,111,154,120,56 M,0,41189,41789,120,56,121,48 F,0,41489,41789,0.69,0
Sprite,Foreground,Centre,"sb\white.png",0,0 F,0,40789,,0.69 S,0,40789,,0.01259178 R,0,40789,,0 M,19,40789,41189,111,154,156,101 M,0,41189,41789,156,101,160,97 F,0,41489,41789,0.69,0
Sprite,Foreground,Centre,"sb\white.png",0,0 F,0,40789,,0.69 S,0,40789,,0.01333203 R,0,40789,,0 M,19,40789,41189,111,154,131,223 M,0,41189,41789,131,223,132,229 F,0,41489,41789,0.69,0
Sprite,Foreground,Centre,"sb\white.png",0,0 F,0,40789,,0.69 S,0,40789,,0.01391847 R,0,40789,,2 M,19,40789,41189,111,154,183,237 M,0,41189,41789,183,237,189,244 F,0,41489,41789,0.69,0
Sprite,Foreground,Centre,"sb\white.png",0,0 F,0,40789,,0.69 S,0,40789,,0.01752884 R,0,40789,,1 M,19,40789,41189,111,154,203,81 M,0,41189,41789,203,81,211,74 F,0,41489,41789,0.69,0
Sprite,Foreground,Centre,"sb\white.png",0,0 F,0,40789,,0.69 S,0,40789,,0.01382238 R,0,40789,,1 M,19,40789,41189,111,154,-16,151 M,0,41189,41789,-16,151,-27,151 F,0,41489,41789,0.69,0
Sprite,Foreground,Centre,"sb\white.png",0,0 F,0,40789,,0.69 S,0,40789,,0.03109335 R,0,40789,,0 M,19,40789,41189,111,154,201,82 M,0,41189,41789,201,82,209,76 F,0,41489,41789,0.69,0
Sprite,Foreground,Centre,"sb\white.png",0,0 F,0,40789,,0.69 S,0,40789,,0.02632446 R,0,40789,,0 M,19,40789,41189,111,154,184,244 M,0,41189,41789,184,244,190,252 F,0,41489,41789,0.69,0
Sprite,Foreground,Centre,"sb\white.png",0,0 F,0,40789,,0.69 S,0,40789,,0.01894045 R,0,40789,,0 M,19,40789,41189,111,154,27,204 M,0,41189,41789,27,204,20,208 F,0,41489,41789,0.69,0
Sprite,Foreground,Centre,"sb\white.png",0,0 F,0,40789,,0.69 S,0,40789,,0.01203379 R,0,40789,,2 M,19,40789,41189,111,154,160,193 M,0,41189,41789,160,193,164,197 F,0,41489,41789,0.69,0
Sprite,Foreground,Centre,"sb\white.png",0,0 F,0,40789,,0.69 S,0,40789,,0.01432613 R,0,40789,,1 M,19,40789,41189,111,154,21,154 M,0,41189,41789,21,154,14,154 F,0,41489,41789,0.69,0
Sprite,Foreground,Centre,"sb\white.png",0,0 F,0,40789,,0.69 S,0,40789,,0.01440205 R,0,40789,,2 M,19,40789,41189,111,154,184,62 M,0,41189,41789,184,62,191,54 F,0,41489,41789,0.69,0
Sprite,Foreground,Centre,"sb\white.png",0,0 F,0,40789,,0.69 S,0,40789,,0.0087625 R,0,40789,,0 M,19,40789,41189,111,154,61,228 M,0,41189,41789,61,228,56,234 F,0,41489,41789,0.69,0
Sprite,Foreground,Centre,"sb\white.png",0,0 F,0,40789,,0.69 S,0,40789,,0.01830869 R,0,40789,,2 M,19,40789,41189,111,154,4,228 M,0,41189,41789,4,228,-4,235 F,0,41489,41789,0.69,0
Sprite,Foreground,Centre,"sb\white.png",0,0 F,0,40789,,0.69 S,0,40789,,0.0203182 R,0,40789,,0 M,19,40789,41189,111,154,171,52 M,0,41189,41789,171,52,176,44 F,0,41489,41789,0.69,0
Sprite,Foreground,Centre,"sb\white.png",0,0 F,0,40789,,0.69 S,0,40789,,0.01693241 R,0,40789,,1 M,19,40789,41189,111,154,115,290 M,0,41189,41789,115,290,116,301 F,0,41489,41789,0.69,0
Sprite,Foreground,Centre,"sb\white.png",0,0 F,0,40789,,0.69 S,0,40789,,0.0226785 R,0,40789,,0 M,19,40789,41189,111,154,233,160 M,0,41189,41789,233,160,243,160 F,0,41489,41789,0.69,0
Sprite,Foreground,Centre,"sb\white.png",0,0 F,0,40789,,0.69 S,0,40789,,0.009114833 R,0,40789,,1 M,19,40789,41189,111,154,111,245 M,0,41189,41789,111,245,111,253 F,0,41489,41789,0.69,0
Sprite,Foreground,Centre,"sb\glow.png",162,433 C,0,42871,,255,36,130 F,0,42871,42971,0,0.6 F,0,43835,43935,0.6,0
Sprite,Foreground,Centre,"sb\glow.png",168.8627,432.5894 C,0,42896,,255,36,130 F,0,42896,42996,0,0.6 F,0,43835,43935,0.6,0
Sprite,Foreground,Centre,"sb\glow.png",175.7255,432.1788 C,0,42921,,255,36,130 F,0,42921,43021,0,0.6 F,0,43835,43935,0.6,0
Sprite,Foreground,Centre,"sb\glow.png",182.5882,431.7682 C,0,42946,,255,36,130 F,0,42946,43046,0,0.6 F,0,43835,43935,0.6,0
Sprite,Foreground,Centre,"sb\glow.png",189.4509,431.3576 C,0,42971,,255,36,130 F,0,42971,43071,0,0.6 F,0,43835,43935,0.6,0
Sprite,Foreground,Centre,"sb\glow.png",196.3136,430.9471 C,0,42996,,255,36,130 F,0,42996,43096,0,0.6 F,0,43835,43935,0.6,0
Sprite,Foreground,Centre,"sb\glow.png",203.1764,430.5365 C,0,43021,,255,36,130 F,0,43021,43121,0,0.6 F,0,43835,43935,0.6,0
Sprite,Foreground,Centre,"sb\glow.png",210.0391,430.1259 C,0,43046,,255,36,130 F,0,43046,43146,0,0.6 F,0,43835,43935,0.6,0
Sprite,Foreground,Centre,"sb\glow.png",216.9018,429.7153 C,0,43071,,255,36,130 F,0,43071,43171,0,0.6 F,0,43835,43935,0.6,0
Sprite,Foreground,Centre,"sb\glow.png",223.7646,429.3047 C,0,43096,,255,36,130 F,0,43096,43196,0,0.6 F,0,43835,43935,0.6,0
Sprite,Foreground,Centre,"sb\glow.png",230.6273,428.8941 C,0,43121,,255,36,130 F,0,43121,43221,0,0.6 F,0,43835,43935,0.6,0
Sprite,Foreground,Centre,"sb\glow.png",237.49,428.4835 C,0,43146,,255,36,130 F,0,43146,43246,0,0.6 F,0,43835,43935,0.6,0
Sprite,Foreground,Centre,"sb\glow.png",244.3527,428.0729 C,0,43171,,255,36,130 F,0,43171,43271,0,0.6 F,0,43835,43935,0.6,0
Sprite,Foreground,Centre,"sb\glow.png",251.2155,427.6623 C,0,43196,,255,36,130 F,0,43196,43296,0,0.6 F,0,43835,43935,0.6,0
Sprite,Foreground,Centre,"sb\glow.png",258.0782,427.2517 C,0,43221,,255,36,130 F,0,43221,43321,0,0.6 F,0,43835,43935,0.6,0
Sprite,Foreground,Centre,"sb\pinkC.png",0,0 M,0,43698,,365,425 F,0,43698,44198,1 S,19,43698,44698,0.1,0.52 F,0,44398,44698,1,0
Sprite,Foreground,Centre,"sb\white.png",0,0 F,0,43698,,0.69 S,0,43698,,0.02149028 R,0,43698,,1 M,19,43698,44098,365,425,317,504 M,0,44098,44698,317,504,313,511 F,0,44398,44698,0.69,0
Sprite,Foreground,Centre,"sb\white.png",0,0 F,0,43698,,0.69 S,0,43698,,0.01657904 R,0,43698,,2 M,19,43698,44098,365,425,468,430 M,0,44098,44698,468,430,477,430 F,0,44398,44698,0.69,0
Sprite,Foreground,Centre,"sb\white.png",0,0 F,0,43698,,0.69 S,0,43698,,0.006724458 R,0,43698,,0 M,19,43698,44098,365,425,425,403 M,0,44098,44698,425,403,431,402 F,0,44398,44698,0.69,0
Sprite,Foreground,Centre,"sb\white.png",0,0 F,0,43698,,0.69 S,0,43698,,0.0218104 R,0,43698,,2 M,19,43698,44098,365,425,263,484 M,0,44098,44698,263,484,254,489 F,0,44398,44698,0.69,0
Sprite,Foreground,Centre,"sb\white.png",0,0 F,0,43698,,0.69 S,0,43698,,0.005002816 R,0,43698,,0 M,19,43698,44098,365,425,342,553 M,0,44098,44698,342,553,340,564 F,0,44398,44698,0.69,0
Sprite,Foreground,Centre,"sb\white.png",0,0 F,0,43698,,0.69 S,0,43698,,0.008464978 R,0,43698,,0 M,19,43698,44098,365,425,364,310 M,0,44098,44698,364,310,364,301 F,0,44398,44698,0.69,0
Sprite,Foreground,Centre,"sb\white.png",0,0 F,0,43698,,0.69 S,0,43698,,0.01775696 R,0,43698,,1 M,19,43698,44098,365,425,230,415 M,0,44098,44698,230,415,219,415 F,0,44398,44698,0.69,0
Sprite,Foreground,Centre,"sb\white.png",0,0 F,0,43698,,0.69 S,0,43698,,0.01256607 R,0,43698,,0 M,19,43698,44098,365,425,351,519 M,0,44098,44698,351,519,350,528 F,0,44398,44698,0.69,0
Sprite,Foreground,Centre,"sb\white.png",0,0 F,0,43698,,0.69 S,0,43698,,0.008749824 R,0,43698,,0 M,19,43698,44098,365,425,489,431 M,0,44098,44698,489,431,500,432 F,0,44398,44698,0.69,0
Sprite,Foreground,Centre,"sb\white.png",0,0 F,0,43698,,0.69 S,0,43698,,0.006808266 R,0,43698,,1 M,19,43698,44098,365,425,263,354 M,0,44098,44698,263,354,255,348 F,0,44398,44698,0.69,0
Sprite,Foreground,Centre,"sb\white.png",0,0 F,0,43698,,0.69 S,0,43698,,0.01100112 R,0,43698,,0 M,19,43698,44098,365,425,341,356 M,0,44098,44698,341,356,339,350 F,0,44398,44698,0.69,0
Sprite,Foreground,Centre,"sb\white.png",0,0 F,0,43698,,0.69 S,0,43698,,0.01859212 R,0,43698,,2 M,19,43698,44098,365,425,446,436 M,0,44098,44698,446,436,454,437 F,0,44398,44698,0.69,0
Sprite,Foreground,Centre,"sb\white.png",0,0 F,0,43698,,0.69 S,0,43698,,0.01342953 R,0,43698,,2 M,19,43698,44098,365,425,439,534 M,0,44098,44698,439,534,445,544 F,0,44398,44698,0.69,0
Sprite,Foreground,Centre,"sb\white.png",0,0 F,0,43698,,0.69 S,0,43698,,0.01676402 R,0,43698,,1 M,19,43698,44098,365,425,345,516 M,0,44098,44698,345,516,343,524 F,0,44398,44698,0.69,0
Sprite,Foreground,Centre,"sb\white.png",0,0 F,0,43698,,0.69 S,0,43698,,0.01570969 R,0,43698,,2 M,19,43698,44098,365,425,441,390 M,0,44098,44698,441,390,448,387 F,0,44398,44698,0.69,0
Sprite,Foreground,Centre,"sb\white.png",0,0 F,0,43698,,0.69 S,0,43698,,0.03104623 R,0,43698,,1 M,19,43698,44098,365,425,483,463 M,0,44098,44698,483,463,493,466 F,0,44398,44698,0.69,0
Sprite,Foreground,Centre,"sb\white.png",0,0 F,0,43698,,0.69 S,0,43698,,0.01117709 R,0,43698,,1 M,19,43698,44098,365,425,269,484 M,0,44098,44698,269,484,261,489 F,0,44398,44698,0.69,0
Sprite,Foreground,Centre,"sb\white.png",0,0 F,0,43698,,0.69 S,0,43698,,0.02467184 R,0,43698,,2 M,19,43698,44098,365,425,449,411 M,0,44098,44698,449,411,456,410 F,0,44398,44698,0.69,0
Sprite,Foreground,Centre,"sb\white.png",0,0 F,0,43698,,0.69 S,0,43698,,0.005766009 R,0,43698,,0 M,19,43698,44098,365,425,431,453 M,0,44098,44698,431,453,436,455 F,0,44398,44698,0.69,0
Sprite,Foreground,Centre,"sb\white.png",0,0 F,0,43698,,0.69 S,0,43698,,0.03194642 R,0,43698,,0 M,19,43698,44098,365,425,311,535 M,0,44098,44698,311,535,306,544 F,0,44398,44698,0.69,0
Sprite,Foreground,Centre,"sb\white.png",0,0 F,0,43698,,0.69 S,0,43698,,0.01382901 R,0,43698,,2 M,19,43698,44098,365,425,340,351 M,0,44098,44698,340,351,338,345 F,0,44398,44698,0.69,0
Sprite,Foreground,Centre,"sb\white.png",0,0 F,0,43698,,0.69 S,0,43698,,0.02414728 R,0,43698,,1 M,19,43698,44098,365,425,271,472 M,0,44098,44698,271,472,263,476 F,0,44398,44698,0.69,0
Sprite,Foreground,Centre,"sb\white.png",0,0 F,0,43698,,0.69 S,0,43698,,0.01114207 R,0,43698,,1 M,19,43698,44098,365,425,397,317 M,0,44098,44698,397,317,400,308 F,0,44398,44698,0.69,0
Sprite,Foreground,Centre,"sb\white.png",0,0 F,0,43698,,0.69 S,0,43698,,0.02065873 R,0,43698,,2 M,19,43698,44098,365,425,297,502 M,0,44098,44698,297,502,291,509 F,0,44398,44698,0.69,0
Sprite,Foreground,Centre,"sb\white.png",0,0 F,0,43698,,0.69 S,0,43698,,0.0103914 R,0,43698,,0 M,19,43698,44098,365,425,298,442 M,0,44098,44698,298,442,292,444 F,0,44398,44698,0.69,0
Sprite,Foreground,Centre,"sb\white.png",0,0 F,0,43698,,0.69 S,0,43698,,0.0134932 R,0,43698,,2 M,19,43698,44098,365,425,494,459 M,0,44098,44698,494,459,506,462 F,0,44398,44698,0.69,0
Sprite,Foreground,Centre,"sb\white.png",0,0 F,0,43698,,0.69 S,0,43698,,0.030838 R,0,43698,,0 M,19,43698,44098,365,425,353,532 M,0,44098,44698,353,532,352,542 F,0,44398,44698,0.69,0
Sprite,Foreground,Centre,"sb\white.png",0,0 F,0,43698,,0.69 S,0,43698,,0.009166517 R,0,43698,,2 M,19,43698,44098,365,425,317,364 M,0,44098,44698,317,364,313,358 F,0,44398,44698,0.69,0
Sprite,Foreground,Centre,"sb\white.png",0,0 F,0,43698,,0.69 S,0,43698,,0.0242694 R,0,43698,,1 M,19,43698,44098,365,425,413,465 M,0,44098,44698,413,465,417,469 F,0,44398,44698,0.69,0
Sprite,Foreground,Centre,"sb\white.png",0,0 F,0,43698,,0.69 S,0,43698,,0.03087943 R,0,43698,,1 M,19,43698,44098,365,425,258,428 M,0,44098,44698,258,428,249,429 F,0,44398,44698,0.69,0
Sprite,Foreground,Centre,"sb\white.png",0,0 F,0,43698,,0.69 S,0,43698,,0.02738524 R,0,43698,,1 M,19,43698,44098,365,425,246,483 M,0,44098,44698,246,483,235,488 F,0,44398,44698,0.69,0
Sprite,Foreground,Centre,"sb\white.png",0,0 F,0,43698,,0.69 S,0,43698,,0.02030743 R,0,43698,,0 M,19,43698,44098,365,425,278,459 M,0,44098,44698,278,459,271,462 F,0,44398,44698,0.69,0
Sprite,Foreground,Centre,"sb\white.png",0,0 F,0,43698,,0.69 S,0,43698,,0.01825173 R,0,43698,,2 M,19,43698,44098,365,425,294,465 M,0,44098,44698,294,465,288,469 F,0,44398,44698,0.69,0
Sprite,Foreground,Centre,"sb\white.png",0,0 F,0,43698,,0.69 S,0,43698,,0.01106944 R,0,43698,,2 M,19,43698,44098,365,425,251,381 M,0,44098,44698,251,381,241,377 F,0,44398,44698,0.69,0
Sprite,Foreground,Centre,"sb\white.png",0,0 F,0,43698,,0.69 S,0,43698,,0.005358363 R,0,43698,,1 M,19,43698,44098,365,425,447,373 M,0,44098,44698,447,373,454,368 F,0,44398,44698,0.69,0
Sprite,Foreground,Centre,"sb\white.png",0,0 F,0,43698,,0.69 S,0,43698,,0.01842557 R,0,43698,,1 M,19,43698,44098,365,425,333,353 M,0,44098,44698,333,353,330,347 F,0,44398,44698,0.69,0
Sprite,Foreground,Centre,"sb\white.png",0,0 F,0,43698,,0.69 S,0,43698,,0.004617362 R,0,43698,,2 M,19,43698,44098,365,425,311,345 M,0,44098,44698,311,345,306,338 F,0,44398,44698,0.69,0
Sprite,Foreground,Centre,"sb\white.png",0,0 F,0,43698,,0.69 S,0,43698,,0.005532704 R,0,43698,,0 M,19,43698,44098,365,425,268,470 M,0,44098,44698,268,470,259,474 F,0,44398,44698,0.69,0
Sprite,Foreground,Centre,"sb\white.png",0,0 F,0,43698,,0.69 S,0,43698,,0.005564812 R,0,43698,,0 M,19,43698,44098,365,425,465,476 M,0,44098,44698,465,476,474,480 F,0,44398,44698,0.69,0
Sprite,Foreground,Centre,"sb\white.png",0,0 F,0,43698,,0.69 S,0,43698,,0.01280119 R,0,43698,,2 M,19,43698,44098,365,425,412,492 M,0,44098,44698,412,492,416,498 F,0,44398,44698,0.69,0
Sprite,Foreground,Centre,"sb\white.png",0,0 F,0,43698,,0.69 S,0,43698,,0.01252763 R,0,43698,,0 M,19,43698,44098,365,425,415,371 M,0,44098,44698,415,371,420,367 F,0,44398,44698,0.69,0
Sprite,Foreground,Centre,"sb\white.png",0,0 F,0,43698,,0.69 S,0,43698,,0.03022746 R,0,43698,,2 M,19,43698,44098,365,425,467,462 M,0,44098,44698,467,462,475,465 F,0,44398,44698,0.69,0
Sprite,Foreground,Centre,"sb\white.png",0,0 F,0,43698,,0.69 S,0,43698,,0.004522159 R,0,43698,,1 M,19,43698,44098,365,425,244,437 M,0,44098,44698,244,437,233,438 F,0,44398,44698,0.69,0
Sprite,Foreground,Centre,"sb\white.png",0,0 F,0,43698,,0.69 S,0,43698,,0.0215324 R,0,43698,,2 M,19,43698,44098,365,425,466,377 M,0,44098,44698,466,377,475,373 F,0,44398,44698,0.69,0
Sprite,Foreground,Centre,"sb\white.png",0,0 F,0,43698,,0.69 S,0,43698,,0.02379994 R,0,43698,,2 M,19,43698,44098,365,425,409,534 M,0,44098,44698,409,534,413,543 F,0,44398,44698,0.69,0
Sprite,Foreground,Centre,"sb\white.png",0,0 F,0,43698,,0.69 S,0,43698,,0.02455957 R,0,43698,,0 M,19,43698,44098,365,425,280,429 M,0,44098,44698,280,429,273,429 F,0,44398,44698,0.69,0
Sprite,Foreground,Centre,"sb\white.png",0,0 F,0,43698,,0.69 S,0,43698,,0.01596369 R,0,43698,,0 M,19,43698,44098,365,425,419,541 M,0,44098,44698,419,541,424,551 F,0,44398,44698,0.69,0
Sprite,Foreground,Centre,"sb\white.png",0,0 F,0,43698,,0.69 S,0,43698,,0.02748848 R,0,43698,,2 M,19,43698,44098,365,425,459,425 M,0,44098,44698,459,425,468,425 F,0,44398,44698,0.69,0
Sprite,Foreground,Centre,"sb\white.png",0,0 F,0,43698,,0.69 S,0,43698,,0.03191974 R,0,43698,,2 M,19,43698,44098,365,425,352,311 M,0,44098,44698,352,311,351,301 F,0,44398,44698,0.69,0
Sprite,Foreground,Centre,"sb\white.png",0,0 F,0,43698,,0.69 S,0,43698,,0.01422864 R,0,43698,,1 M,19,43698,44098,365,425,333,527 M,0,44098,44698,333,527,330,536 F,0,44398,44698,0.69,0
Sprite,Foreground,Centre,"sb\white.png",0,0 F,0,43698,,0.69 S,0,43698,,0.01138302 R,0,43698,,0 M,19,43698,44098,365,425,438,393 M,0,44098,44698,438,393,444,390 F,0,44398,44698,0.69,0
Sprite,Foreground,Centre,"sb\white.png",0,0 F,0,43698,,0.69 S,0,43698,,0.02321852 R,0,43698,,2 M,19,43698,44098,365,425,334,326 M,0,44098,44698,334,326,332,317 F,0,44398,44698,0.69,0
Sprite,Foreground,Centre,"sb\white.png",0,0 F,0,43698,,0.69 S,0,43698,,0.0279343 R,0,43698,,0 M,19,43698,44098,365,425,267,483 M,0,44098,44698,267,483,258,489 F,0,44398,44698,0.69,0
Sprite,Foreground,Centre,"sb\white.png",0,0 F,0,43698,,0.69 S,0,43698,,0.009625728 R,0,43698,,1 M,19,43698,44098,365,425,443,367 M,0,44098,44698,443,367,450,362 F,0,44398,44698,0.69,0
Sprite,Foreground,Centre,"sb\white.png",0,0 F,0,43698,,0.69 S,0,43698,,0.02430701 R,0,43698,,1 M,19,43698,44098,365,425,422,358 M,0,44098,44698,422,358,427,353 F,0,44398,44698,0.69,0
Sprite,Foreground,Centre,"sb\white.png",0,0 F,0,43698,,0.69 S,0,43698,,0.01077386 R,0,43698,,1 M,19,43698,44098,365,425,444,359 M,0,44098,44698,444,359,451,354 F,0,44398,44698,0.69,0
Sprite,Foreground,Centre,"sb\white.png",0,0 F,0,43698,,0.69 S,0,43698,,0.02032618 R,0,43698,,0 M,19,43698,44098,365,425,308,523 M,0,44098,44698,308,523,303,532 F,0,44398,44698,0.69,0
Sprite,Foreground,Centre,"sb\white.png",0,0 F,0,43698,,0.69 S,0,43698,,0.03117221 R,0,43698,,2 M,19,43698,44098,365,425,466,442 M,0,44098,44698,466,442,475,444 F,0,44398,44698,0.69,0
Sprite,Foreground,Centre,"sb\white.png",0,0 F,0,43698,,0.69 S,0,43698,,0.02843116 R,0,43698,,1 M,19,43698,44098,365,425,387,326 M,0,44098,44698,387,326,389,317 F,0,44398,44698,0.69,0
Sprite,Foreground,Centre,"sb\white.png",0,0 F,0,43698,,0.69 S,0,43698,,0.01303129 R,0,43698,,2 M,19,43698,44098,365,425,291,519 M,0,44098,44698,291,519,285,527 F,0,44398,44698,0.69,0
Sprite,Foreground,Centre,"sb\white.png",0,0 F,0,43698,,0.69 S,0,43698,,0.009177661 R,0,43698,,1 M,19,43698,44098,365,425,473,409 M,0,44098,44698,473,409,482,408 F,0,44398,44698,0.69,0
Sprite,Foreground,Centre,"sb\white.png",0,0 F,0,43698,,0.69 S,0,43698,,0.03178541 R,0,43698,,1 M,19,43698,44098,365,425,458,509 M,0,44098,44698,458,509,466,516 F,0,44398,44698,0.69,0
Sprite,Foreground,Centre,"sb\white.png",0,0 F,0,43698,,0.69 S,0,43698,,0.01760942 R,0,43698,,0 M,19,43698,44098,365,425,300,353 M,0,44098,44698,300,353,294,347 F,0,44398,44698,0.69,0
Sprite,Foreground,Centre,"sb\white.png",0,0 F,0,43698,,0.69 S,0,43698,,0.006157915 R,0,43698,,2 M,19,43698,44098,365,425,367,339 M,0,44098,44698,367,339,368,332 F,0,44398,44698,0.69,0
Sprite,Foreground,Centre,"sb\white.png",0,0 F,0,43698,,0.69 S,0,43698,,0.01186794 R,0,43698,,0 M,19,43698,44098,365,425,492,442 M,0,44098,44698,492,442,503,444 F,0,44398,44698,0.69,0
Sprite,Foreground,Centre,"sb\white.png",0,0 F,0,43698,,0.69 S,0,43698,,0.007852372 R,0,43698,,0 M,19,43698,44098,365,425,341,331 M,0,44098,44698,341,331,339,323 F,0,44398,44698,0.69,0
Sprite,Foreground,Centre,"sb\white.png",0,0 F,0,43698,,0.69 S,0,43698,,0.02752195 R,0,43698,,2 M,19,43698,44098,365,425,235,390 M,0,44098,44698,235,390,223,387 F,0,44398,44698,0.69,0
Sprite,Foreground,Centre,"sb\white.png",0,0 F,0,43698,,0.69 S,0,43698,,0.03103482 R,0,43698,,2 M,19,43698,44098,365,425,291,459 M,0,44098,44698,291,459,285,462 F,0,44398,44698,0.69,0
Sprite,Foreground,Centre,"sb\white.png",0,0 F,0,43698,,0.69 S,0,43698,,0.02941819 R,0,43698,,0 M,19,43698,44098,365,425,398,535 M,0,44098,44698,398,535,401,545 F,0,44398,44698,0.69,0
Sprite,Foreground,Centre,"sb\white.png",0,0 F,0,43698,,0.69 S,0,43698,,0.02965051 R,0,43698,,2 M,19,43698,44098,365,425,337,501 M,0,44098,44698,337,501,334,508 F,0,44398,44698,0.69,0
Sprite,Foreground,Centre,"sb\white.png",0,0 F,0,43698,,0.69 S,0,43698,,0.005640944 R,0,43698,,1 M,19,43698,44098,365,425,242,440 M,0,44098,44698,242,440,232,441 F,0,44398,44698,0.69,0
Sprite,Foreground,Centre,"sb\white.png",0,0 F,0,43698,,0.69 S,0,43698,,0.02982393 R,0,43698,,0 M,19,43698,44098,365,425,425,539 M,0,44098,44698,425,539,431,549 F,0,44398,44698,0.69,0
Sprite,Foreground,Centre,"sb\white.png",0,0 F,0,43698,,0.69 S,0,43698,,0.02485512 R,0,43698,,2 M,19,43698,44098,365,425,435,315 M,0,44098,44698,435,315,442,305 F,0,44398,44698,0.69,0
Sprite,Foreground,Centre,"sb\white.png",0,0 F,0,43698,,0.69 S,0,43698,,0.01124042 R,0,43698,,2 M,19,43698,44098,365,425,458,444 M,0,44098,44698,458,444,466,446 F,0,44398,44698,0.69,0
Sprite,Foreground,Centre,"sb\white.png",0,0 F,0,43698,,0.69 S,0,43698,,0.02011311 R,0,43698,,1 M,19,43698,44098,365,425,329,494 M,0,44098,44698,329,494,326,500 F,0,44398,44698,0.69,0
Sprite,Foreground,Centre,"sb\white.png",0,0 F,0,43698,,0.69 S,0,43698,,0.004177082 R,0,43698,,2 M,19,43698,44098,365,425,272,460 M,0,44098,44698,272,460,264,463 F,0,44398,44698,0.69,0
Sprite,Foreground,Centre,"sb\glow.png",424,237 C,0,45780,,17,196,255 F,0,45780,45880,0,1 F,0,46380,46480,1,0
Sprite,Foreground,Centre,"sb\glow.png",481,153 C,0,46143,,17,196,255 F,0,46143,46243,0,1 F,0,46743,46843,1,0
Sprite,Foreground,Centre,"sb\blueC.png",0,0 M,0,46607,,425,73 F,0,46607,47107,1 S,19,46607,47607,0.1,0.52 F,0,47307,47607,1,0
Sprite,Foreground,Centre,"sb\white.png",0,0 F,0,46607,,0.69 S,0,46607,,0.00609361 R,0,46607,,2 M,19,46607,47007,425,73,369,-11 M,0,47007,47607,369,-11,364,-19 F,0,47307,47607,0.69,0
Sprite,Foreground,Centre,"sb\white.png",0,0 F,0,46607,,0.69 S,0,46607,,0.02682348 R,0,46607,,1 M,19,46607,47007,425,73,355,169 M,0,47007,47607,355,169,349,177 F,0,47307,47607,0.69,0
Sprite,Foreground,Centre,"sb\white.png",0,0 F,0,46607,,0.69 S,0,46607,,0.01930117 R,0,46607,,0 M,19,46607,47007,425,73,453,136 M,0,47007,47607,453,136,455,142 F,0,47307,47607,0.69,0
Sprite,Foreground,Centre,"sb\white.png",0,0 F,0,46607,,0.69 S,0,46607,,0.02960396 R,0,46607,,0 M,19,46607,47007,425,73,501,-9 M,0,47007,47607,501,-9,508,-17 F,0,47307,47607,0.69,0
Sprite,Foreground,Centre,"sb\white.png",0,0 F,0,46607,,0.69 S,0,46607,,0.01317788 R,0,46607,,1 M,19,46607,47007,425,73,482,98 M,0,47007,47607,482,98,488,101 F,0,47307,47607,0.69,0
Sprite,Foreground,Centre,"sb\white.png",0,0 F,0,46607,,0.69 S,0,46607,,0.01172408 R,0,46607,,0 M,19,46607,47007,425,73,453,172 M,0,47007,47607,453,172,456,181 F,0,47307,47607,0.69,0
Sprite,Foreground,Centre,"sb\white.png",0,0 F,0,46607,,0.69 S,0,46607,,0.02785407 R,0,46607,,1 M,19,46607,47007,425,73,387,127 M,0,47007,47607,387,127,383,132 F,0,47307,47607,0.69,0
Sprite,Foreground,Centre,"sb\white.png",0,0 F,0,46607,,0.69 S,0,46607,,0.02833054 R,0,46607,,1 M,19,46607,47007,425,73,443,143 M,0,47007,47607,443,143,445,149 F,0,47307,47607,0.69,0
Sprite,Foreground,Centre,"sb\white.png",0,0 F,0,46607,,0.69 S,0,46607,,0.01824152 R,0,46607,,1 M,19,46607,47007,425,73,357,135 M,0,47007,47607,357,135,351,141 F,0,47307,47607,0.69,0
Sprite,Foreground,Centre,"sb\white.png",0,0 F,0,46607,,0.69 S,0,46607,,0.006968423 R,0,46607,,1 M,19,46607,47007,425,73,536,70 M,0,47007,47607,536,70,545,70 F,0,47307,47607,0.69,0
Sprite,Foreground,Centre,"sb\white.png",0,0 F,0,46607,,0.69 S,0,46607,,0.02535741 R,0,46607,,2 M,19,46607,47007,425,73,408,176 M,0,47007,47607,408,176,407,185 F,0,47307,47607,0.69,0
Sprite,Foreground,Centre,"sb\white.png",0,0 F,0,46607,,0.69 S,0,46607,,0.02211351 R,0,46607,,2 M,19,46607,47007,425,73,346,13 M,0,47007,47607,346,13,339,8 F,0,47307,47607,0.69,0
Sprite,Foreground,Centre,"sb\white.png",0,0 F,0,46607,,0.69 S,0,46607,,0.007644998 R,0,46607,,0 M,19,46607,47007,425,73,511,119 M,0,47007,47607,511,119,519,123 F,0,47307,47607,0.69,0
Sprite,Foreground,Centre,"sb\white.png",0,0 F,0,46607,,0.69 S,0,46607,,0.03166134 R,0,46607,,1 M,19,46607,47007,425,73,508,98 M,0,47007,47607,508,98,515,100 F,0,47307,47607,0.69,0
Sprite,Foreground,Centre,"sb\white.png",0,0 F,0,46607,,0.69 S,0,46607,,0.03121882 R,0,46607,,2 M,19,46607,47007,425,73,450,-15 M,0,47007,47607,450,-15,452,-23 F,0,47307,47607,0.69,0
Sprite,Foreground,Centre,"sb\white.png",0,0 F,0,46607,,0.69 S,0,46607,,0.03099701 R,0,46607,,2 M,19,46607,47007,425,73,362,-9 M,0,47007,47607,362,-9,357,-16 F,0,47307,47607,0.69,0
Sprite,Foreground,Centre,"sb\white.png",0,0 F,0,46607,,0.69 S,0,46607,,0.007357288 R,0,46607,,0 M,19,46607,47007,425,73,457,145 M,0,47007,47607,457,145,460,151 F,0,47307,47607,0.69,0
Sprite,Foreground,Centre,"sb\white.png",0,0 F,0,46607,,0.69 S,0,46607,,0.006657703 R,0,46607,,0 M,19,46607,47007,425,73,308,83 M,0,47007,47607,308,83,298,84 F,0,47307,47607,0.69,0
Sprite,Foreground,Centre,"sb\white.png",0,0 F,0,46607,,0.69 S,0,46607,,0.01660964 R,0,46607,,0 M,19,46607,47007,425,73,382,149 M,0,47007,47607,382,149,379,156 F,0,47307,47607,0.69,0
Sprite,Foreground,Centre,"sb\white.png",0,0 F,0,46607,,0.69 S,0,46607,,0.0311978 R,0,46607,,0 M,19,46607,47007,425,73,375,149 M,0,47007,47607,375,149,371,156 F,0,47307,47607,0.69,0
Sprite,Foreground,Centre,"sb\white.png",0,0 F,0,46607,,0.69 S,0,46607,,0.00918041 R,0,46607,,1 M,19,46607,47007,425,73,476,34 M,0,47007,47607,476,34,481,31 F,0,47307,47607,0.69,0
Sprite,Foreground,Centre,"sb\white.png",0,0 F,0,46607,,0.69 S,0,46607,,0.02065687 R,0,46607,,0 M,19,46607,47007,425,73,459,7 M,0,47007,47607,459,7,462,1 F,0,47307,47607,0.69,0
Sprite,Foreground,Centre,"sb\white.png",0,0 F,0,46607,,0.69 S,0,46607,,0.01703203 R,0,46607,,2 M,19,46607,47007,425,73,480,191 M,0,47007,47607,480,191,485,201 F,0,47307,47607,0.69,0
Sprite,Foreground,Centre,"sb\white.png",0,0 F,0,46607,,0.69 S,0,46607,,0.007585492 R,0,46607,,0 M,19,46607,47007,425,73,406,-58 M,0,47007,47607,406,-58,404,-69 F,0,47307,47607,0.69,0
Sprite,Foreground,Centre,"sb\white.png",0,0 F,0,46607,,0.69 S,0,46607,,0.01232861 R,0,46607,,2 M,19,46607,47007,425,73,443,-61 M,0,47007,47607,443,-61,445,-73 F,0,47307,47607,0.69,0
Sprite,Foreground,Centre,"sb\white.png",0,0 F,0,46607,,0.69 S,0,46607,,0.01558467 R,0,46607,,2 M,19,46607,47007,425,73,489,64 M,0,47007,47607,489,64,495,64 F,0,47307,47607,0.69,0
Sprite,Foreground,Centre,"sb\white.png",0,0 F,0,46607,,0.69 S,0,46607,,0.02450549 R,0,46607,,1 M,19,46607,47007,425,73,349,42 M,0,47007,47607,349,42,342,39 F,0,47307,47607,0.69,0
Sprite,Foreground,Centre,"sb\white.png",0,0 F,0,46607,,0.69 S,0,46607,,0.0267759 R,0,46607,,2 M,19,46607,47007,425,73,353,-25 M,0,47007,47607,353,-25,347,-33 F,0,47307,47607,0.69,0
Sprite,Foreground,Centre,"sb\white.png",0,0 F,0,46607,,0.69 S,0,46607,,0.0260829 R,0,46607,,2 M,19,46607,47007,425,73,510,126 M,0,47007,47607,510,126,517,130 F,0,47307,47607,0.69,0
Sprite,Foreground,Centre,"sb\white.png",0,0 F,0,46607,,0.69 S,0,46607,,0.01164629 R,0,46607,,0 M,19,46607,47007,425,73,421,-7 M,0,47007,47607,421,-7,421,-14 F,0,47307,47607,0.69,0
Sprite,Foreground,Centre,"sb\white.png",0,0 F,0,46607,,0.69 S,0,46607,,0.02462703 R,0,46607,,0 M,19,46607,47007,425,73,374,17 M,0,47007,47607,374,17,370,12 F,0,47307,47607,0.69,0
Sprite,Foreground,Centre,"sb\white.png",0,0 F,0,46607,,0.69 S,0,46607,,0.008165834 R,0,46607,,2 M,19,46607,47007,425,73,523,31 M,0,47007,47607,523,31,531,27 F,0,47307,47607,0.69,0
Sprite,Foreground,Centre,"sb\white.png",0,0 F,0,46607,,0.69 S,0,46607,,0.0310841 R,0,46607,,1 M,19,46607,47007,425,73,511,34 M,0,47007,47607,511,34,518,30 F,0,47307,47607,0.69,0
Sprite,Foreground,Centre,"sb\white.png",0,0 F,0,46607,,0.69 S,0,46607,,0.01702828 R,0,46607,,1 M,19,46607,47007,425,73,366,-45 M,0,47007,47607,366,-45,361,-56 F,0,47307,47607,0.69,0
Sprite,Foreground,Centre,"sb\white.png",0,0 F,0,46607,,0.69 S,0,46607,,0.01680353 R,0,46607,,2 M,19,46607,47007,425,73,427,185 M,0,47007,47607,427,185,427,194 F,0,47307,47607,0.69,0
Sprite,Foreground,Centre,"sb\white.png",0,0 F,0,46607,,0.69 S,0,46607,,0.02395179 R,0,46607,,2 M,19,46607,47007,425,73,481,153 M,0,47007,47607,481,153,486,160 F,0,47307,47607,0.69,0
Sprite,Foreground,Centre,"sb\white.png",0,0 F,0,46607,,0.69 S,0,46607,,0.01373899 R,0,46607,,0 M,19,46607,47007,425,73,394,196 M,0,47007,47607,394,196,391,206 F,0,47307,47607,0.69,0
Sprite,Foreground,Centre,"sb\white.png",0,0 F,0,46607,,0.69 S,0,46607,,0.02583544 R,0,46607,,0 M,19,46607,47007,425,73,398,142 M,0,47007,47607,398,142,396,148 F,0,47307,47607,0.69,0
Sprite,Foreground,Centre,"sb\white.png",0,0 F,0,46607,,0.69 S,0,46607,,0.01100885 R,0,46607,,1 M,19,46607,47007,425,73,432,-38 M,0,47007,47607,432,-38,433,-47 F,0,47307,47607,0.69,0
Sprite,Foreground,Centre,"sb\white.png",0,0 F,0,46607,,0.69 S,0,46607,,0.02468845 R,0,46607,,2 M,19,46607,47007,425,73,351,95 M,0,47007,47607,351,95,344,97 F,0,47307,47607,0.69,0
Sprite,Foreground,Centre,"sb\white.png",0,0 F,0,46607,,0.69 S,0,46607,,0.01620802 R,0,46607,,0 M,19,46607,47007,425,73,342,81 M,0,47007,47607,342,81,335,82 F,0,47307,47607,0.69,0
Sprite,Foreground,Centre,"sb\white.png",0,0 F,0,46607,,0.69 S,0,46607,,0.006608181 R,0,46607,,1 M,19,46607,47007,425,73,326,83 M,0,47007,47607,326,83,317,84 F,0,47307,47607,0.69,0
Sprite,Foreground,Centre,"sb\white.png",0,0 F,0,46607,,0.69 S,0,46607,,0.02746399 R,0,46607,,0 M,19,46607,47007,425,73,523,64 M,0,47007,47607,523,64,531,63 F,0,47307,47607,0.69,0
Sprite,Foreground,Centre,"sb\white.png",0,0 F,0,46607,,0.69 S,0,46607,,0.005331263 R,0,46607,,1 M,19,46607,47007,425,73,523,112 M,0,47007,47607,523,112,531,116 F,0,47307,47607,0.69,0
Sprite,Foreground,Centre,"sb\white.png",0,0 F,0,46607,,0.69 S,0,46607,,0.02874149 R,0,46607,,0 M,19,46607,47007,425,73,347,63 M,0,47007,47607,347,63,340,62 F,0,47307,47607,0.69,0
Sprite,Foreground,Centre,"sb\white.png",0,0 F,0,46607,,0.69 S,0,46607,,0.01522081 R,0,46607,,1 M,19,46607,47007,425,73,532,103 M,0,47007,47607,532,103,541,106 F,0,47307,47607,0.69,0
Sprite,Foreground,Centre,"sb\white.png",0,0 F,0,46607,,0.69 S,0,46607,,0.03022273 R,0,46607,,0 M,19,46607,47007,425,73,547,66 M,0,47007,47607,547,66,557,65 F,0,47307,47607,0.69,0
Sprite,Foreground,Centre,"sb\white.png",0,0 F,0,46607,,0.69 S,0,46607,,0.01678781 R,0,46607,,2 M,19,46607,47007,425,73,506,-14 M,0,47007,47607,506,-14,513,-22 F,0,47307,47607,0.69,0
Sprite,Foreground,Centre,"sb\white.png",0,0 F,0,46607,,0.69 S,0,46607,,0.01314247 R,0,46607,,2 M,19,46607,47007,425,73,484,164 M,0,47007,47607,484,164,489,172 F,0,47307,47607,0.69,0
Sprite,Foreground,Centre,"sb\white.png",0,0 F,0,46607,,0.69 S,0,46607,,0.008898065 R,0,46607,,2 M,19,46607,47007,425,73,511,24 M,0,47007,47607,511,24,519,20 F,0,47307,47607,0.69,0
Sprite,Foreground,Centre,"sb\white.png",0,0 F,0,46607,,0.69 S,0,46607,,0.01746838 R,0,46607,,0 M,19,46607,47007,425,73,315,124 M,0,47007,47607,315,124,306,128 F,0,47307,47607,0.69,0
Sprite,Foreground,Centre,"sb\white.png",0,0 F,0,46607,,0.69 S,0,46607,,0.009457765 R,0,46607,,0 M,19,46607,47007,425,73,324,26 M,0,47007,47607,324,26,316,22 F,0,47307,47607,0.69,0
Sprite,Foreground,Centre,"sb\white.png",0,0 F,0,46607,,0.69 S,0,46607,,0.02543766 R,0,46607,,1 M,19,46607,47007,425,73,396,151 M,0,47007,47607,396,151,393,158 F,0,47307,47607,0.69,0
Sprite,Foreground,Centre,"sb\white.png",0,0 F,0,46607,,0.69 S,0,46607,,0.008678064 R,0,46607,,2 M,19,46607,47007,425,73,338,10 M,0,47007,47607,338,10,331,4 F,0,47307,47607,0.69,0
Sprite,Foreground,Centre,"sb\white.png",0,0 F,0,46607,,0.69 S,0,46607,,0.01041848 R,0,46607,,0 M,19,46607,47007,425,73,365,-5 M,0,47007,47607,365,-5,360,-12 F,0,47307,47607,0.69,0
Sprite,Foreground,Centre,"sb\white.png",0,0 F,0,46607,,0.69 S,0,46607,,0.02610159 R,0,46607,,2 M,19,46607,47007,425,73,310,1 M,0,47007,47607,310,1,300,-4 F,0,47307,47607,0.69,0
Sprite,Foreground,Centre,"sb\white.png",0,0 F,0,46607,,0.69 S,0,46607,,0.02405792 R,0,46607,,2 M,19,46607,47007,425,73,490,59 M,0,47007,47607,490,59,496,58 F,0,47307,47607,0.69,0
Sprite,Foreground,Centre,"sb\white.png",0,0 F,0,46607,,0.69 S,0,46607,,0.01688228 R,0,46607,,2 M,19,46607,47007,425,73,541,83 M,0,47007,47607,541,83,551,84 F,0,47307,47607,0.69,0
Sprite,Foreground,Centre,"sb\white.png",0,0 F,0,46607,,0.69 S,0,46607,,0.02117622 R,0,46607,,2 M,19,46607,47007,425,73,411,-19 M,0,47007,47607,411,-19,410,-27 F,0,47307,47607,0.69,0
Sprite,Foreground,Centre,"sb\white.png",0,0 F,0,46607,,0.69 S,0,46607,,0.01308162 R,0,46607,,2 M,19,46607,47007,425,73,412,197 M,0,47007,47607,412,197,410,208 F,0,47307,47607,0.69,0
Sprite,Foreground,Centre,"sb\white.png",0,0 F,0,46607,,0.69 S,0,46607,,0.005876991 R,0,46607,,1 M,19,46607,47007,425,73,303,127 M,0,47007,47607,303,127,292,132 F,0,47307,47607,0.69,0
Sprite,Foreground,Centre,"sb\white.png",0,0 F,0,46607,,0.69 S,0,46607,,0.02163539 R,0,46607,,1 M,19,46607,47007,425,73,425,182 M,0,47007,47607,425,182,425,191 F,0,47307,47607,0.69,0
Sprite,Foreground,Centre,"sb\white.png",0,0 F,0,46607,,0.69 S,0,46607,,0.0305618 R,0,46607,,2 M,19,46607,47007,425,73,442,155 M,0,47007,47607,442,155,444,162 F,0,47307,47607,0.69,0
Sprite,Foreground,Centre,"sb\white.png",0,0 F,0,46607,,0.69 S,0,46607,,0.02470028 R,0,46607,,1 M,19,46607,47007,425,73,432,152 M,0,47007,47607,432,152,432,159 F,0,47307,47607,0.69,0
Sprite,Foreground,Centre,"sb\white.png",0,0 F,0,46607,,0.69 S,0,46607,,0.015026 R,0,46607,,2 M,19,46607,47007,425,73,560,65 M,0,47007,47607,560,65,571,64 F,0,47307,47607,0.69,0
Sprite,Foreground,Centre,"sb\white.png",0,0 F,0,46607,,0.69 S,0,46607,,0.0102043 R,0,46607,,0 M,19,46607,47007,425,73,462,186 M,0,47007,47607,462,186,465,196 F,0,47307,47607,0.69,0
Sprite,Foreground,Centre,"sb\white.png",0,0 F,0,46607,,0.69 S,0,46607,,0.01995448 R,0,46607,,1 M,19,46607,47007,425,73,328,-20 M,0,47007,47607,328,-20,319,-28 F,0,47307,47607,0.69,0
Sprite,Foreground,Centre,"sb\white.png",0,0 F,0,46607,,0.69 S,0,46607,,0.03053979 R,0,46607,,1 M,19,46607,47007,425,73,531,113 M,0,47007,47607,531,113,540,117 F,0,47307,47607,0.69,0
Sprite,Foreground,Centre,"sb\white.png",0,0 F,0,46607,,0.69 S,0,46607,,0.01564428 R,0,46607,,0 M,19,46607,47007,425,73,525,103 M,0,47007,47607,525,103,534,106 F,0,47307,47607,0.69,0
Sprite,Foreground,Centre,"sb\white.png",0,0 F,0,46607,,0.69 S,0,46607,,0.02754509 R,0,46607,,1 M,19,46607,47007,425,73,334,119 M,0,47007,47607,334,119,326,123 F,0,47307,47607,0.69,0
Sprite,Foreground,Centre,"sb\white.png",0,0 F,0,46607,,0.69 S,0,46607,,0.005100807 R,0,46607,,1 M,19,46607,47007,425,73,546,112 M,0,47007,47607,546,112,557,115 F,0,47307,47607,0.69,0
Sprite,Foreground,Centre,"sb\white.png",0,0 F,0,46607,,0.69 S,0,46607,,0.008646461 R,0,46607,,0 M,19,46607,47007,425,73,318,-1 M,0,47007,47607,318,-1,309,-7 F,0,47307,47607,0.69,0
Sprite,Foreground,Centre,"sb\white.png",0,0 F,0,46607,,0.69 S,0,46607,,0.01516053 R,0,46607,,1 M,19,46607,47007,425,73,441,138 M,0,47007,47607,441,138,442,143 F,0,47307,47607,0.69,0
Sprite,Foreground,Centre,"sb\white.png",0,0 F,0,46607,,0.69 S,0,46607,,0.0144195 R,0,46607,,2 M,19,46607,47007,425,73,411,-52 M,0,47007,47607,411,-52,410,-63 F,0,47307,47607,0.69,0
Sprite,Foreground,Centre,"sb\white.png",0,0 F,0,46607,,0.69 S,0,46607,,0.02455815 R,0,46607,,2 M,19,46607,47007,425,73,450,163 M,0,47007,47607,450,163,453,171 F,0,47307,47607,0.69,0
Sprite,Foreground,Centre,"sb\white.png",0,0 F,0,46607,,0.69 S,0,46607,,0.00465511 R,0,46607,,0 M,19,46607,47007,425,73,447,168 M,0,47007,47607,447,168,448,176 F,0,47307,47607,0.69,0
Sprite,Foreground,Centre,"sb\glow.png",93,155 C,0,48689,,255,36,130 F,0,48689,48789,0,0.6 F,0,49653,49753,0.6,0
Sprite,Foreground,Centre,"sb\glow.png",92.37756,161.8468 C,0,48714,,255,36,130 F,0,48714,48814,0,0.6 F,0,49653,49753,0.6,0
Sprite,Foreground,Centre,"sb\glow.png",91.75513,168.6935 C,0,48739,,255,36,130 F,0,48739,48839,0,0.6 F,0,49653,49753,0.6,0
Sprite,Foreground,Centre,"sb\glow.png",91.1327,175.5403 C,0,48764,,255,36,130 F,0,48764,48864,0,0.6 F,0,49653,49753,0.6,0
Sprite,Foreground,Centre,"sb\glow.png",90.51027,182.3871 C,0,48789,,255,36,130 F,0,48789,48889,0,0.6 F,0,49653,49753,0.6,0
Sprite,Foreground,Centre,"sb\glow.png",89.88783,189.2338 C,0,48814,,255,36,130 F,0,48814,48914,0,0.6 F,0,49653,49753,0.6,0
Sprite,Foreground,Centre,"sb\glow.png",89.2654,196.0806 C,0,48839,,255,36,130 F,0,48839,48939,0,0.6 F,0,49653,49753,0.6,0
Sprite,Foreground,Centre,"sb\glow.png",88.64297,202.9274 C,0,48864,,255,36,130 F,0,48864,48964,0,0.6 F,0,49653,49753,0.6,0
Sprite,Foreground,Centre,"sb\glow.png",88.02054,209.7741 C,0,48889,,255,36,130 F,0,48889,48989,0,0.6 F,0,49653,49753,0.6,0
Sprite,Foreground,Centre,"sb\glow.png",87.3981,216.6209 C,0,48914,,255,36,130 F,0,48914,49014,0,0.6 F,0,49653,49753,0.6,0
Sprite,Foreground,Centre,"sb\glow.png",86.77567,223.4677 C,0,48939,,255,36,130 F,0,48939,49039,0,0.6 F,0,49653,49753,0.6,0
Sprite,Foreground,Centre,"sb\glow.png",86.15324,230.3144 C,0,48964,,255,36,130 F,0,48964,49064,0,0.6 F,0,49653,49753,0.6,0
Sprite,Foreground,Centre,"sb\glow.png",85.5308,237.1612 C,0,48989,,255,36,130 F,0,48989,49089,0,0.6 F,0,49653,49753,0.6,0
Sprite,Foreground,Centre,"sb\glow.png",84.90837,244.0079 C,0,49014,,255,36,130 F,0,49014,49114,0,0.6 F,0,49653,49753,0.6,0
Sprite,Foreground,Centre,"sb\glow.png",84.28593,250.8547 C,0,49039,,255,36,130 F,0,49039,49139,0,0.6 F,0,49653,49753,0.6,0
Sprite,Foreground,Centre,"sb\pinkC.png",0,0 M,0,49516,,84,354 F,0,49516,50016,1 S,19,49516,50516,0.1,0.52 F,0,50216,50516,1,0
Sprite,Foreground,Centre,"sb\white.png",0,0 F,0,49516,,0.69 S,0,49516,,0.01879958 R,0,49516,,1 M,19,49516,49916,84,354,216,379 M,0,49916,50516,216,379,228,382 F,0,50216,50516,0.69,0
Sprite,Foreground,Centre,"sb\white.png",0,0 F,0,49516,,0.69 S,0,49516,,0.02197887 R,0,49516,,2 M,19,49516,49916,84,354,83,229 M,0,49916,50516,83,229,83,219 F,0,50216,50516,0.69,0
Sprite,Foreground,Centre,"sb\white.png",0,0 F,0,49516,,0.69 S,0,49516,,0.01446924 R,0,49516,,0 M,19,49516,49916,84,354,93,424 M,0,49916,50516,93,424,94,430 F,0,50216,50516,0.69,0
Sprite,Foreground,Centre,"sb\white.png",0,0 F,0,49516,,0.69 S,0,49516,,0.00963684 R,0,49516,,0 M,19,49516,49916,84,354,110,440 M,0,49916,50516,110,440,112,447 F,0,50216,50516,0.69,0
Sprite,Foreground,Centre,"sb\white.png",0,0 F,0,49516,,0.69 S,0,49516,,0.02617498 R,0,49516,,0 M,19,49516,49916,84,354,11,333 M,0,49916,50516,11,333,5,331 F,0,50216,50516,0.69,0
Sprite,Foreground,Centre,"sb\white.png",0,0 F,0,49516,,0.69 S,0,49516,,0.009256896 R,0,49516,,2 M,19,49516,49916,84,354,141,398 M,0,49916,50516,141,398,146,402 F,0,50216,50516,0.69,0
Sprite,Foreground,Centre,"sb\white.png",0,0 F,0,49516,,0.69 S,0,49516,,0.01504739 R,0,49516,,0 M,19,49516,49916,84,354,130,475 M,0,49916,50516,130,475,134,485 F,0,50216,50516,0.69,0
Sprite,Foreground,Centre,"sb\white.png",0,0 F,0,49516,,0.69 S,0,49516,,0.03172142 R,0,49516,,2 M,19,49516,49916,84,354,34,268 M,0,49916,50516,34,268,29,260 F,0,50216,50516,0.69,0
Sprite,Foreground,Centre,"sb\white.png",0,0 F,0,49516,,0.69 S,0,49516,,0.02895472 R,0,49516,,0 M,19,49516,49916,84,354,37,305 M,0,49916,50516,37,305,33,301 F,0,50216,50516,0.69,0
Sprite,Foreground,Centre,"sb\white.png",0,0 F,0,49516,,0.69 S,0,49516,,0.0278874 R,0,49516,,0 M,19,49516,49916,84,354,56,279 M,0,49916,50516,56,279,54,273 F,0,50216,50516,0.69,0
Sprite,Foreground,Centre,"sb\white.png",0,0 F,0,49516,,0.69 S,0,49516,,0.02736405 R,0,49516,,1 M,19,49516,49916,84,354,-35,368 M,0,49916,50516,-35,368,-45,370 F,0,50216,50516,0.69,0
Sprite,Foreground,Centre,"sb\white.png",0,0 F,0,49516,,0.69 S,0,49516,,0.01500889 R,0,49516,,0 M,19,49516,49916,84,354,193,320 M,0,49916,50516,193,320,203,317 F,0,50216,50516,0.69,0
Sprite,Foreground,Centre,"sb\white.png",0,0 F,0,49516,,0.69 S,0,49516,,0.01234919 R,0,49516,,1 M,19,49516,49916,84,354,114,429 M,0,49916,50516,114,429,117,436 F,0,50216,50516,0.69,0
Sprite,Foreground,Centre,"sb\white.png",0,0 F,0,49516,,0.69 S,0,49516,,0.01430482 R,0,49516,,2 M,19,49516,49916,84,354,55,287 M,0,49916,50516,55,287,52,281 F,0,50216,50516,0.69,0
Sprite,Foreground,Centre,"sb\white.png",0,0 F,0,49516,,0.69 S,0,49516,,0.004196102 R,0,49516,,0 M,19,49516,49916,84,354,216,337 M,0,49916,50516,216,337,227,335 F,0,50216,50516,0.69,0
Sprite,Foreground,Centre,"sb\white.png",0,0 F,0,49516,,0.69 S,0,49516,,0.009268074 R,0,49516,,1 M,19,49516,49916,84,354,6,424 M,0,49916,50516,6,424,0,430 F,0,50216,50516,0.69,0
Sprite,Foreground,Centre,"sb\white.png",0,0 F,0,49516,,0.69 S,0,49516,,0.006808051 R,0,49516,,1 M,19,49516,49916,84,354,70,246 M,0,49916,50516,70,246,69,236 F,0,50216,50516,0.69,0
Sprite,Foreground,Centre,"sb\white.png",0,0 F,0,49516,,0.69 S,0,49516,,0.004577796 R,0,49516,,1 M,19,49516,49916,84,354,66,467 M,0,49916,50516,66,467,64,477 F,0,50216,50516,0.69,0
Sprite,Foreground,Centre,"sb\white.png",0,0 F,0,49516,,0.69 S,0,49516,,0.01417745 R,0,49516,,1 M,19,49516,49916,84,354,132,273 M,0,49916,50516,132,273,136,266 F,0,50216,50516,0.69,0
Sprite,Foreground,Centre,"sb\white.png",0,0 F,0,49516,,0.69 S,0,49516,,0.007464616 R,0,49516,,2 M,19,49516,49916,84,354,5,319 M,0,49916,50516,5,319,-1,316 F,0,50216,50516,0.69,0
Sprite,Foreground,Centre,"sb\white.png",0,0 F,0,49516,,0.69 S,0,49516,,0.01892373 R,0,49516,,1 M,19,49516,49916,84,354,-1,323 M,0,49916,50516,-1,323,-9,320 F,0,50216,50516,0.69,0
Sprite,Foreground,Centre,"sb\white.png",0,0 F,0,49516,,0.69 S,0,49516,,0.02424327 R,0,49516,,1 M,19,49516,49916,84,354,175,289 M,0,49916,50516,175,289,183,283 F,0,50216,50516,0.69,0
Sprite,Foreground,Centre,"sb\white.png",0,0 F,0,49516,,0.69 S,0,49516,,0.02054694 R,0,49516,,1 M,19,49516,49916,84,354,116,284 M,0,49916,50516,116,284,118,278 F,0,50216,50516,0.69,0
Sprite,Foreground,Centre,"sb\white.png",0,0 F,0,49516,,0.69 S,0,49516,,0.02969257 R,0,49516,,2 M,19,49516,49916,84,354,115,241 M,0,49916,50516,115,241,118,231 F,0,50216,50516,0.69,0
Sprite,Foreground,Centre,"sb\white.png",0,0 F,0,49516,,0.69 S,0,49516,,0.01819819 R,0,49516,,0 M,19,49516,49916,84,354,54,445 M,0,49916,50516,54,445,51,453 F,0,50216,50516,0.69,0
Sprite,Foreground,Centre,"sb\white.png",0,0 F,0,49516,,0.69 S,0,49516,,0.02327972 R,0,49516,,2 M,19,49516,49916,84,354,-16,399 M,0,49916,50516,-16,399,-25,402 F,0,50216,50516,0.69,0
Sprite,Foreground,Centre,"sb\white.png",0,0 F,0,49516,,0.69 S,0,49516,,0.01079427 R,0,49516,,2 M,19,49516,49916,84,354,-1,268 M,0,49916,50516,-1,268,-8,261 F,0,50216,50516,0.69,0
Sprite,Foreground,Centre,"sb\white.png",0,0 F,0,49516,,0.69 S,0,49516,,0.030978 R,0,49516,,2 M,19,49516,49916,84,354,-12,267 M,0,49916,50516,-12,267,-20,259 F,0,50216,50516,0.69,0
Sprite,Foreground,Centre,"sb\white.png",0,0 F,0,49516,,0.69 S,0,49516,,0.00972434 R,0,49516,,2 M,19,49516,49916,84,354,50,296 M,0,49916,50516,50,296,47,291 F,0,50216,50516,0.69,0
Sprite,Foreground,Centre,"sb\white.png",0,0 F,0,49516,,0.69 S,0,49516,,0.007253107 R,0,49516,,0 M,19,49516,49916,84,354,92,225 M,0,49916,50516,92,225,93,214 F,0,50216,50516,0.69,0
Sprite,Foreground,Centre,"sb\white.png",0,0 F,0,49516,,0.69 S,0,49516,,0.02138145 R,0,49516,,0 M,19,49516,49916,84,354,95,271 M,0,49916,50516,95,271,96,264 F,0,50216,50516,0.69,0
Sprite,Foreground,Centre,"sb\white.png",0,0 F,0,49516,,0.69 S,0,49516,,0.007636745 R,0,49516,,2 M,19,49516,49916,84,354,8,257 M,0,49916,50516,8,257,1,249 F,0,50216,50516,0.69,0
Sprite,Foreground,Centre,"sb\white.png",0,0 F,0,49516,,0.69 S,0,49516,,0.006108324 R,0,49516,,0 M,19,49516,49916,84,354,71,452 M,0,49916,50516,71,452,70,461 F,0,50216,50516,0.69,0
Sprite,Foreground,Centre,"sb\white.png",0,0 F,0,49516,,0.69 S,0,49516,,0.01979003 R,0,49516,,1 M,19,49516,49916,84,354,142,242 M,0,49916,50516,142,242,147,232 F,0,50216,50516,0.69,0
Sprite,Foreground,Centre,"sb\white.png",0,0 F,0,49516,,0.69 S,0,49516,,0.03025191 R,0,49516,,0 M,19,49516,49916,84,354,126,444 M,0,49916,50516,126,444,130,452 F,0,50216,50516,0.69,0
Sprite,Foreground,Centre,"sb\white.png",0,0 F,0,49516,,0.69 S,0,49516,,0.03128063 R,0,49516,,1 M,19,49516,49916,84,354,30,274 M,0,49916,50516,30,274,25,267 F,0,50216,50516,0.69,0
Sprite,Foreground,Centre,"sb\white.png",0,0 F,0,49516,,0.69 S,0,49516,,0.0152744 R,0,49516,,2 M,19,49516,49916,84,354,-10,285 M,0,49916,50516,-10,285,-18,279 F,0,50216,50516,0.69,0
Sprite,Foreground,Centre,"sb\white.png",0,0 F,0,49516,,0.69 S,0,49516,,0.03040809 R,0,49516,,2 M,19,49516,49916,84,354,8,328 M,0,49916,50516,8,328,1,325 F,0,50216,50516,0.69,0
Sprite,Foreground,Centre,"sb\white.png",0,0 F,0,49516,,0.69 S,0,49516,,0.03030171 R,0,49516,,1 M,19,49516,49916,84,354,191,386 M,0,49916,50516,191,386,200,389 F,0,50216,50516,0.69,0
Sprite,Foreground,Centre,"sb\white.png",0,0 F,0,49516,,0.69 S,0,49516,,0.01067516 R,0,49516,,1 M,19,49516,49916,84,354,94,255 M,0,49916,50516,94,255,95,246 F,0,50216,50516,0.69,0
Sprite,Foreground,Centre,"sb\white.png",0,0 F,0,49516,,0.69 S,0,49516,,0.005620496 R,0,49516,,1 M,19,49516,49916,84,354,-40,311 M,0,49916,50516,-40,311,-51,307 F,0,50216,50516,0.69,0
Sprite,Foreground,Centre,"sb\white.png",0,0 F,0,49516,,0.69 S,0,49516,,0.00460383 R,0,49516,,0 M,19,49516,49916,84,354,28,415 M,0,49916,50516,28,415,23,420 F,0,50216,50516,0.69,0
Sprite,Foreground,Centre,"sb\white.png",0,0 F,0,49516,,0.69 S,0,49516,,0.02237974 R,0,49516,,1 M,19,49516,49916,84,354,66,277 M,0,49916,50516,66,277,64,271 F,0,50216,50516,0.69,0
Sprite,Foreground,Centre,"sb\white.png",0,0 F,0,49516,,0.69 S,0,49516,,0.008606951 R,0,49516,,1 M,19,49516,49916,84,354,131,471 M,0,49916,50516,131,471,135,481 F,0,50216,50516,0.69,0
Sprite,Foreground,Centre,"sb\white.png",0,0 F,0,49516,,0.69 S,0,49516,,0.02626917 R,0,49516,,2 M,19,49516,49916,84,354,41,230 M,0,49916,50516,41,230,37,219 F,0,50216,50516,0.69,0
Sprite,Foreground,Centre,"sb\white.png",0,0 F,0,49516,,0.69 S,0,49516,,0.01621201 R,0,49516,,0 M,19,49516,49916,84,354,161,414 M,0,49916,50516,161,414,168,419 F,0,50216,50516,0.69,0
Sprite,Foreground,Centre,"sb\white.png",0,0 F,0,49516,,0.69 S,0,49516,,0.004286845 R,0,49516,,0 M,19,49516,49916,84,354,-21,304 M,0,49916,50516,-21,304,-31,300 F,0,50216,50516,0.69,0
Sprite,Foreground,Centre,"sb\white.png",0,0 F,0,49516,,0.69 S,0,49516,,0.008516308 R,0,49516,,2 M,19,49516,49916,84,354,48,463 M,0,49916,50516,48,463,45,472 F,0,50216,50516,0.69,0
Sprite,Foreground,Centre,"sb\white.png",0,0 F,0,49516,,0.69 S,0,49516,,0.01011451 R,0,49516,,2 M,19,49516,49916,84,354,32,423 M,0,49916,50516,32,423,27,429 F,0,50216,50516,0.69,0
Sprite,Foreground,Centre,"sb\white.png",0,0 F,0,49516,,0.69 S,0,49516,,0.0207603 R,0,49516,,0 M,19,49516,49916,84,354,51,477 M,0,49916,50516,51,477,48,488 F,0,50216,50516,0.69,0
Sprite,Foreground,Centre,"sb\white.png",0,0 F,0,49516,,0.69 S,0,49516,,0.01809287 R,0,49516,,2 M,19,49516,49916,84,354,75,452 M,0,49916,50516,75,452,74,460 F,0,50216,50516,0.69,0
Sprite,Foreground,Centre,"sb\white.png",0,0 F,0,49516,,0.69 S,0,49516,,0.01176438 R,0,49516,,1 M,19,49516,49916,84,354,93,243 M,0,49916,50516,93,243,94,233 F,0,50216,50516,0.69,0
Sprite,Foreground,Centre,"sb\white.png",0,0 F,0,49516,,0.69 S,0,49516,,0.02674379 R,0,49516,,2 M,19,49516,49916,84,354,155,422 M,0,49916,50516,155,422,161,428 F,0,50216,50516,0.69,0
Sprite,Foreground,Centre,"sb\white.png",0,0 F,0,49516,,0.69 S,0,49516,,0.03037042 R,0,49516,,0 M,19,49516,49916,84,354,159,286 M,0,49916,50516,159,286,165,280 F,0,50216,50516,0.69,0
Sprite,Foreground,Centre,"sb\white.png",0,0 F,0,49516,,0.69 S,0,49516,,0.01550365 R,0,49516,,0 M,19,49516,49916,84,354,158,439 M,0,49916,50516,158,439,164,446 F,0,50216,50516,0.69,0
Sprite,Foreground,Centre,"sb\white.png",0,0 F,0,49516,,0.69 S,0,49516,,0.02798036 R,0,49516,,0 M,19,49516,49916,84,354,179,392 M,0,49916,50516,179,392,187,395 F,0,50216,50516,0.69,0
Sprite,Foreground,Centre,"sb\white.png",0,0 F,0,49516,,0.69 S,0,49516,,0.03037198 R,0,49516,,1 M,19,49516,49916,84,354,113,444 M,0,49916,50516,113,444,116,452 F,0,50216,50516,0.69,0
Sprite,Foreground,Centre,"sb\white.png",0,0 F,0,49516,,0.69 S,0,49516,,0.009538636 R,0,49516,,0 M,19,49516,49916,84,354,0,331 M,0,49916,50516,0,331,-7,329 F,0,50216,50516,0.69,0
Sprite,Foreground,Centre,"sb\white.png",0,0 F,0,49516,,0.69 S,0,49516,,0.01107987 R,0,49516,,2 M,19,49516,49916,84,354,58,466 M,0,49916,50516,58,466,55,475 F,0,50216,50516,0.69,0
Sprite,Foreground,Centre,"sb\white.png",0,0 F,0,49516,,0.69 S,0,49516,,0.004400938 R,0,49516,,2 M,19,49516,49916,84,354,90,258 M,0,49916,50516,90,258,91,250 F,0,50216,50516,0.69,0
Sprite,Foreground,Centre,"sb\white.png",0,0 F,0,49516,,0.69 S,0,49516,,0.0158089 R,0,49516,,0 M,19,49516,49916,84,354,-13,266 M,0,49916,50516,-13,266,-22,258 F,0,50216,50516,0.69,0
Sprite,Foreground,Centre,"sb\white.png",0,0 F,0,49516,,0.69 S,0,49516,,0.02992612 R,0,49516,,1 M,19,49516,49916,84,354,116,431 M,0,49916,50516,116,431,119,437 F,0,50216,50516,0.69,0
Sprite,Foreground,Centre,"sb\white.png",0,0 F,0,49516,,0.69 S,0,49516,,0.03013859 R,0,49516,,1 M,19,49516,49916,84,354,104,221 M,0,49916,50516,104,221,106,209 F,0,50216,50516,0.69,0
Sprite,Foreground,Centre,"sb\white.png",0,0 F,0,49516,,0.69 S,0,49516,,0.03153821 R,0,49516,,1 M,19,49516,49916,84,354,134,448 M,0,49916,50516,134,448,138,456 F,0,50216,50516,0.69,0
Sprite,Foreground,Centre,"sb\white.png",0,0 F,0,49516,,0.69 S,0,49516,,0.0231595 R,0,49516,,0 M,19,49516,49916,84,354,164,418 M,0,49916,50516,164,418,171,424 F,0,50216,50516,0.69,0
Sprite,Foreground,Centre,"sb\white.png",0,0 F,0,49516,,0.69 S,0,49516,,0.0085885 R,0,49516,,2 M,19,49516,49916,84,354,170,299 M,0,49916,50516,170,299,177,294 F,0,50216,50516,0.69,0
Sprite,Foreground,Centre,"sb\white.png",0,0 F,0,49516,,0.69 S,0,49516,,0.01220738 R,0,49516,,1 M,19,49516,49916,84,354,7,366 M,0,49916,50516,7,366,1,367 F,0,50216,50516,0.69,0
Sprite,Foreground,Centre,"sb\white.png",0,0 F,0,49516,,0.69 S,0,49516,,0.006548136 R,0,49516,,1 M,19,49516,49916,84,354,-18,336 M,0,49916,50516,-18,336,-27,334 F,0,50216,50516,0.69,0
Sprite,Foreground,Centre,"sb\white.png",0,0 F,0,49516,,0.69 S,0,49516,,0.02421574 R,0,49516,,0 M,19,49516,49916,84,354,32,233 M,0,49916,50516,32,233,28,223 F,0,50216,50516,0.69,0
Sprite,Foreground,Centre,"sb\white.png",0,0 F,0,49516,,0.69 S,0,49516,,0.01735867 R,0,49516,,0 M,19,49516,49916,84,354,-5,281 M,0,49916,50516,-5,281,-13,275 F,0,50216,50516,0.69,0
Sprite,Foreground,Centre,"sb\white.png",0,0 F,0,49516,,0.69 S,0,49516,,0.01411218 R,0,49516,,2 M,19,49516,49916,84,354,1,287 M,0,49916,50516,1,287,-5,281 F,0,50216,50516,0.69,0
Sprite,Foreground,Centre,"sb\white.png",0,0 F,0,49516,,0.69 S,0,49516,,0.01146661 R,0,49516,,1 M,19,49516,49916,84,354,136,397 M,0,49916,50516,136,397,140,401 F,0,50216,50516,0.69,0
Sprite,Foreground,Centre,"sb\white.png",0,0 F,0,49516,,0.69 S,0,49516,,0.03059174 R,0,49516,,1 M,19,49516,49916,84,354,79,433 M,0,49916,50516,79,433,79,439 F,0,50216,50516,0.69,0
Sprite,Foreground,Centre,"sb\white.png",0,0 F,0,49516,,0.69 S,0,49516,,0.0119881 R,0,49516,,2 M,19,49516,49916,84,354,6,314 M,0,49916,50516,6,314,0,311 F,0,50216,50516,0.69,0
Sprite,Foreground,Centre,"sb\white.png",0,0 F,0,49516,,0.69 S,0,49516,,0.004831389 R,0,49516,,2 M,19,49516,49916,84,354,35,304 M,0,49916,50516,35,304,31,300 F,0,50216,50516,0.69,0
Sprite,Foreground,Centre,"sb\white.png",0,0 F,0,49516,,0.69 S,0,49516,,0.01614161 R,0,49516,,1 M,19,49516,49916,84,354,173,266 M,0,49916,50516,173,266,181,259 F,0,50216,50516,0.69,0
Sprite,Foreground,Centre,"sb\glow.png",0,0 C,0,96789,,255,36,130 M,0,96789,96834,547,189,533.3245,187.5712 F,2,96789,97170,1,0 S,2,96789,97170,1.3,0.26 P,0,96789,97170,A M,0,96834,96879,533.3245,187.5712,519.6489,186.1424 M,0,96879,96925,519.6489,186.1424,505.9733,184.7136 M,0,96925,96970,505.9733,184.7136,492.2977,183.2848
Sprite,Foreground,Centre,"sb\glow.png",437,177 C,0,97152,,255,36,130 F,2,97152,97352,1,0 S,2,97152,97352,1.3,0.26 P,0,97152,97352,A
Sprite,Foreground,Centre,"sb\glow.png",0,0 C,0,97516,,17,196,255 M,0,97516,97561,375,87,361.3327,88.50572 F,2,97516,98079,1,0 S,2,97516,98079,1.3,0.26 P,0,97516,98079,A M,0,97561,97606,361.3327,88.50572,347.6654,90.01144 M,0,97606,97652,347.6654,90.01144,333.9981,91.51717 M,0,97652,97697,333.9981,91.51717,320.3308,93.02288 M,0,97697,97743,320.3308,93.02288,306.6635,94.5286 M,0,97743,97788,306.6635,94.5286,292.9962,96.03432 M,0,97788,97834,292.9962,96.03432,279.3289,97.54004 M,0,97834,97879,279.3289,97.54004,265.6615,99.04576
Sprite,Foreground,Centre,"sb\glow.png",0,0 C,0,98243,,17,196,255 M,0,98243,98288,155,110,155.8997,96.27946 F,2,98243,98806,1,0 S,2,98243,98806,1.3,0.26 P,0,98243,98806,A M,0,98288,98333,155.8997,96.27946,156.7994,82.55893 M,0,98333,98379,156.7994,82.55893,157.6991,68.8384 M,0,98379,98424,157.6991,68.8384,158.5988,55.11787 M,0,98424,98470,158.5988,55.11787,157.6991,68.83839 M,0,98470,98515,157.6991,68.83839,156.7994,82.55893 M,0,98515,98561,156.7994,82.55893,155.8997,96.27946 M,0,98561,98606,155.8997,96.27946,155,110
Sprite,Foreground,Centre,"sb\glow.png",0,0 C,0,98971,,255,36,130 M,0,98971,99016,68,179,79.98694,185.6544 F,2,98971,99534,1,0 S,2,98971,99534,1.3,0.26 P,0,98971,99534,A M,0,99016,99061,79.98694,185.6544,91.16306,193.5836 M,0,99061,99107,91.16306,193.5836,100.796,203.3311 M,0,99107,99152,100.796,203.3311,109.1425,214.1759 M,0,99152,99198,109.1425,214.1759,115.9316,226.0974 M,0,99198,99243,115.9316,226.0974,120.4438,239.041 M,0,99243,99289,120.4438,239.041,123.4316,252.4059 M,0,99289,99334,123.4316,252.4059,124.1287,266.0908
Sprite,Foreground,Centre,"sb\glow.png",88,375 C,0,99698,,255,36,130 F,2,99698,99898,1,0 S,2,99698,99898,1.3,0.26 P,0,99698,99898,A
Sprite,Foreground,Centre,"sb\glow.png",88,375 C,0,99880,,255,36,130 F,2,99880,100080,1,0 S,2,99880,100080,1.3,0.26 P,0,99880,100080,A
Sprite,Foreground,Centre,"sb\glow.png",88,375 C,0,100062,,255,36,130 F,2,100062,100262,1,0 S,2,100062,100262,1.3,0.26 P,0,100062,100262,A
Sprite,Foreground,Centre,"sb\glow.png",0,0 C,0,100425,,17,196,255 M,0,100425,100470,178,436,177.87,422.2755 F,2,100425,100988,1,0 S,2,100425,100988,1.3,0.26 P,0,100425,100988,A M,0,100470,100515,177.87,422.2755,178.9078,408.5921 M,0,100515,100561,178.9078,408.5921,181.8308,395.1852 M,0,100561,100606,181.8308,395.1852,185.9981,382.1221 M,0,100606,100652,185.9981,382.1221,191.5554,369.5582 M,0,100652,100697,191.5554,369.5582,198.896,357.961 M,0,100697,100743,198.896,357.961,207.1955,347.0326 M,0,100743,100788,207.1955,347.0326,216.7642,337.1745
Sprite,Foreground,Centre,"sb\glow.png",0,0 C,0,101152,,17,196,255 M,0,101152,101197,295,259,304.9507,268.401 F,2,101152,101715,1,0 S,2,101152,101715,1.3,0.26 P,0,101152,101715,A M,0,101197,101242,304.9507,268.401,313.5711,279.0294 M,0,101242,101288,313.5711,279.0294,319.6904,291.2661 M,0,101288,101333,319.6904,291.2661,323.9604,304.2397 M,0,101333,101379,323.9604,304.2397,319.6904,291.2661 M,0,101379,101424,319.6904,291.2661,313.5712,279.0294 M,0,101424,101470,313.5712,279.0294,304.9507,268.401 M,0,101470,101515,304.9507,268.401,295,259
Sprite,Foreground,Centre,"sb\glow.png",249,237 C,0,101698,,17,196,255 F,2,101698,101898,1,0 S,2,101698,101898,1.3,0.26 P,0,101698,101898,A
Sprite,Foreground,Centre,"sb\glow.png",249,237 C,0,101880,,255,36,130 F,2,101880,102080,1,0 S,2,101880,102080,1.3,0.26 P,0,101880,102080,A
Sprite,Foreground,Centre,"sb\glow.png",256,127 C,0,102243,,255,36,130 F,2,102243,102443,1,0 S,2,102243,102443,1.3,0.26 P,0,102243,102443,A
Sprite,Foreground,Centre,"sb\glow.png",0,0 C,0,102607,,255,36,130 M,0,102607,102652,365,116,378.6952,114.7736 F,2,102607,102988,1,0 S,2,102607,102988,1.3,0.26 P,0,102607,102988,A M,0,102652,102697,378.6952,114.7736,392.3904,113.5471 M,0,102697,102743,392.3904,113.5471,406.0856,112.3207 M,0,102743,102788,406.0856,112.3207,419.7808,111.0943
Sprite,Foreground,Centre,"sb\glow.png",474,105 C,0,102971,,255,36,130 F,2,102971,103171,1,0 S,2,102971,103171,1.3,0.26 P,0,102971,103171,A
Sprite,Foreground,Centre,"sb\glow.png",0,0 C,0,103334,,17,196,255 M,0,103334,103379,576,143,574.9801,156.7121 F,2,103334,103897,1,0 S,2,103334,103897,1.3,0.26 P,0,103334,103897,A M,0,103379,103424,574.9801,156.7121,573.9602,170.4242 M,0,103424,103470,573.9602,170.4242,572.9403,184.1364 M,0,103470,103515,572.9403,184.1364,571.9203,197.8485 M,0,103515,103561,571.9203,197.8485,570.9005,211.5606 M,0,103561,103606,570.9005,211.5606,569.8806,225.2727 M,0,103606,103652,569.8806,225.2727,568.8606,238.9849 M,0,103652,103697,568.8606,238.9849,567.8407,252.697
Sprite,Foreground,Centre,"sb\glow.png",561,370 C,0,104062,,17,196,255 F,2,104062,104262,1,0 S,2,104062,104262,1.3,0.26 P,0,104062,104262,A
Sprite,Foreground,Centre,"sb\glow.png",561,370 C,0,104243,,17,196,255 F,2,104243,104443,1,0 S,2,104243,104443,1.3,0.26 P,0,104243,104443,A
Sprite,Foreground,Centre,"sb\glow.png",561,370 C,0,104425,,17,196,255 F,2,104425,104625,1,0 S,2,104425,104625,1.3,0.26 P,0,104425,104625,A
Sprite,Foreground,Centre,"sb\glow.png",0,0 C,0,104789,,255,36,130 M,0,104789,104834,473,437,459.2849,437.9796 F,2,104789,105352,1,0 S,2,104789,105352,1.3,0.26 P,0,104789,105352,A M,0,104834,104879,459.2849,437.9796,445.5699,438.9593 M,0,104879,104925,445.5699,438.9593,431.8548,439.9389 M,0,104925,104970,431.8548,439.9389,418.1398,440.9186 M,0,104970,105016,418.1398,440.9186,406.4514,434.0955 M,0,105016,105061,406.4514,434.0955,394.9468,426.5652 M,0,105061,105107,394.9468,426.5652,383.4421,419.0349 M,0,105107,105152,383.4421,419.0349,371.9375,411.5045
Sprite,Foreground,Centre,"sb\glow.png",330,383 C,0,105334,,255,36,130 F,2,105334,105534,1,0 S,2,105334,105534,1.3,0.26 P,0,105334,105534,A
Sprite,Foreground,Centre,"sb\glow.png",0,0 C,0,105516,,255,36,130 M,0,105516,105561,330,383,318.2806,375.8085 F,2,105516,106079,1,0 S,2,105516,106079,1.3,0.26 P,0,105516,106079,A M,0,105561,105606,318.2806,375.8085,306.5611,368.6171 M,0,105606,105652,306.5611,368.6171,294.8417,361.4256 M,0,105652,105697,294.8417,361.4256,282.6523,356.4391 M,0,105697,105743,282.6523,356.4391,269.019,358.227 M,0,105743,105788,269.019,358.227,255.3858,360.015 M,0,105788,105834,255.3858,360.015,241.7525,361.8029 M,0,105834,105879,241.7525,361.8029,228.1193,363.5909
Sprite,Foreground,Centre,"sb\glow.png",118,367 C,0,106243,,17,196,255 F,2,106243,106443,1,0 S,2,106243,106443,1.3,0.26 P,0,106243,106443,A
Sprite,Foreground,Centre,"sb\glow.png",126,257 C,0,106607,,17,196,255 F,2,106607,106807,1,0 S,2,106607,106807,1.3,0.26 P,0,106607,106807,A
Sprite,Foreground,Centre,"sb\glow.png",135,150 C,0,106971,,17,196,255 F,2,106971,107171,1,0 S,2,106971,107171,1.3,0.26 P,0,106971,107171,A
Sprite,Foreground,Centre,"sb\glow.png",0,0 C,0,107152,,17,196,255 M,0,107152,107197,135,150,121.3111,151.2949 F,2,107152,107715,1,0 S,2,107152,107715,1.3,0.26 P,0,107152,107715,A M,0,107197,107242,121.3111,151.2949,107.6222,152.5898 M,0,107242,107288,107.6222,152.5898,93.93333,153.8847 M,0,107288,107333,93.93333,153.8847,80.24444,155.1796 M,0,107333,107379,80.24444,155.1796,93.93333,153.8847 M,0,107379,107424,93.93333,153.8847,107.6222,152.5898 M,0,107424,107470,107.6222,152.5898,121.3111,151.2949 M,0,107470,107515,121.3111,151.2949,135,150
Sprite,Foreground,Centre,"sb\glow.png",0,0 C,0,107698,,255,36,130 M,0,107698,107743,179,182,192.6953,183.2248 F,2,107698,108261,1,0 S,2,107698,108261,1.3,0.26 P,0,107698,108261,A M,0,107743,107788,192.6953,183.2248,206.3907,184.4496 M,0,107788,107834,206.3907,184.4496,220.086,185.6744 M,0,107834,107879,220.086,185.6744,233.7814,186.8991 M,0,107879,107925,233.7814,186.8991,247.4767,188.1239 M,0,107925,107970,247.4767,188.1239,261.1721,189.3487 M,0,107970,108016,261.1721,189.3487,274.8674,190.5735 M,0,108016,108061,274.8674,190.5735,288.5627,191.7983
Sprite,Foreground,Centre,"sb\glow.png",0,0 C,0,108425,,255,36,130 M,0,108425,108470,343,95,356.7017,96.15141 F,2,108425,108988,1,0 S,2,108425,108988,1.3,0.26 P,0,108425,108988,A M,0,108470,108515,356.7017,96.15141,370.4034,97.30281 M,0,108515,108561,370.4034,97.30281,384.1051,98.45421 M,0,108561,108606,384.1051,98.45421,397.8068,99.60561 M,0,108606,108652,397.8068,99.60561,411.5085,100.757 M,0,108652,108697,411.5085,100.757,425.2102,101.9084 M,0,108697,108743,425.2102,101.9084,438.912,103.0598 M,0,108743,108788,438.912,103.0598,452.6136,104.2112
Sprite,Foreground,Centre,"sb\glow.png",0,0 C,0,109152,,255,36,130 M,0,109152,109197,563,110,561.6122,96.32021 F,2,109152,109715,1,0 S,2,109152,109715,1.3,0.26 P,0,109152,109715,A M,0,109197,109242,561.6122,96.32021,560.2244,82.64043 M,0,109242,109288,560.2244,82.64043,558.8365,68.96065 M,0,109288,109333,558.8365,68.96065,557.4488,55.28086 M,0,109333,109379,557.4488,55.28086,558.8365,68.96065 M,0,109379,109424,558.8365,68.96065,560.2244,82.64043 M,0,109424,109470,560.2244,82.64043,561.6122,96.32021 M,0,109470,109515,561.6122,96.32021,563,110
Sprite,Foreground,Centre,"sb\glow.png",568,163 C,0,109698,,255,36,130 F,2,109698,109898,1,0 S,2,109698,109898,1.3,0.26 P,0,109698,109898,A
Sprite,Foreground,Centre,"sb\glow.png",0,0 C,0,109880,,255,36,130 M,0,109880,109925,568,163,568.957,176.7167 F,2,109880,110443,1,0 S,2,109880,110443,1.3,0.26 P,0,109880,110443,A M,0,109925,109970,568.957,176.7167,569.9139,190.4333 M,0,109970,110016,569.9139,190.4333,570.871,204.15 M,0,110016,110061,570.871,204.15,571.8279,217.8666 M,0,110061,110107,571.8279,217.8666,572.7849,231.5833 M,0,110107,110152,572.7849,231.5833,573.7418,245.3 M,0,110152,110198,573.7418,245.3,574.6989,259.0166 M,0,110198,110243,574.6989,259.0166,575.6558,272.7333
Sprite,Foreground,Centre,"sb\glow.png",0,0 C,0,110607,,17,196,255 M,0,110607,110652,496,349,483.315,354.2451 F,2,110607,111170,1,0 S,2,110607,111170,1.3,0.26 P,0,110607,111170,A M,0,110652,110697,483.315,354.2451,470.2294,358.3706 M,0,110697,110743,470.2294,358.3706,456.7124,360.7392 M,0,110743,110788,456.7124,360.7392,443.0412,361.7655 M,0,110788,110834,443.0412,361.7655,429.3238,361.316 M,0,110834,110879,429.3238,361.316,415.793,359.0227 M,0,110879,110925,415.793,359.0227,402.5534,355.455 M,0,110925,110970,402.5534,355.455,389.7575,350.4783
Sprite,Foreground,Centre,"sb\glow.png",0,0 C,0,111334,,17,196,255 M,0,111334,111379,312,271,300.0753,264.1993 F,2,111334,111897,1,0 S,2,111334,111897,1.3,0.26 P,0,111334,111897,A M,0,111379,111424,300.0753,264.1993,287.6356,258.4024 M,0,111424,111470,287.6356,258.4024,274.5452,254.2795 M,0,111470,111515,274.5452,254.2795,261.1422,251.376 M,0,111515,111561,261.1422,251.376,247.4911,249.8674 M,0,111561,111606,247.4911,249.8674,233.7698,250.2453 M,0,111606,111652,233.7698,250.2453,220.1364,251.7878 M,0,111652,111697,220.1364,251.7878,206.7327,254.8071
Sprite,Foreground,Centre,"sb\glow.png",105,293 C,0,112062,,17,196,255 F,2,112062,112262,1,0 S,2,112062,112262,1.3,0.26 P,0,112062,112262,A
Sprite,Foreground,Centre,"sb\glow.png",0,0 C,0,112243,,17,196,255 M,0,112243,112288,105,293,102.3224,279.5482 F,2,112243,112806,1,0 S,2,112243,112806,1.3,0.26 P,0,112243,112806,A M,0,112288,112333,102.3224,279.5482,98.18275,266.4868 M,0,112333,112379,98.18275,266.4868,92.31123,254.0784 M,0,112379,112424,92.31123,254.0784,84.41408,242.866 M,0,112424,112470,84.41408,242.866,92.31123,254.0784 M,0,112470,112515,92.31123,254.0784,98.18275,266.4868 M,0,112515,112561,98.18275,266.4868,102.3224,279.5482 M,0,112561,112606,102.3224,279.5482,105,293
Sprite,Foreground,Centre,"sb\glow.png",107,348 C,0,112789,,17,196,255 F,2,112789,112989,1,0 S,2,112789,112989,1.3,0.26 P,0,112789,112989,A
Sprite,Foreground,Centre,"sb\glow.png",0,0 C,0,113152,,255,36,130 M,0,113152,113197,192,416,205.6659,414.4816 F,2,113152,113517,1,0 S,2,113152,113517,1.3,0.26 P,0,113152,113517,A M,0,113197,113242,205.6659,414.4816,219.3318,412.9631 M,0,113242,113288,219.3318,412.9631,232.9977,411.4447 M,0,113288,113317,232.9977,411.4447,241.7687,410.4702
Sprite,Foreground,Centre,"sb\glow.png",0,0 C,0,113516,,255,36,130 M,0,113516,113561,291,405,304.7055,403.8947 F,2,113516,114261,1,0 S,2,113516,114261,1.3,0.26 P,0,113516,114261,A M,0,113561,113606,304.7055,403.8947,318.411,402.7894 M,0,113606,113652,318.411,402.7894,332.1165,401.6841 M,0,113652,113697,332.1165,401.6841,345.822,400.5789 M,0,113697,113743,345.822,400.5789,358.3289,403.8064 M,0,113743,113788,358.3289,403.8064,369.5177,411.7984 M,0,113788,113834,369.5177,411.7984,380.7066,419.7904 M,0,113834,113879,380.7066,419.7904,394.319,418.6289 M,0,113879,113925,394.319,418.6289,407.9967,417.2209 M,0,113925,113970,407.9967,417.2209,421.6745,415.8129 M,0,113970,114015,421.6745,415.8129,435.3522,414.4049 M,0,114015,114061,435.3522,414.4049,449,413
Sprite,Foreground,Centre,"sb\glow.png",0,0 C,0,114243,,17,196,255 M,0,114243,114288,503,408,495.943,396.2351 F,2,114243,114806,1,0 S,2,114243,114806,1.3,0.26 P,0,114243,114806,A M,0,114288,114333,495.943,396.2351,490.0966,383.8331 M,0,114333,114379,490.0966,383.8331,486.1888,370.6874 M,0,114379,114424,486.1888,370.6874,483.7984,357.201 M,0,114424,114470,483.7984,357.201,483.0921,343.503 M,0,114470,114515,483.0921,343.503,484.5096,329.8612 M,0,114515,114561,484.5096,329.8612,487.413,316.4731 M,0,114561,114606,487.413,316.4731,491.9157,303.5035
Sprite,Foreground,Centre,"sb\glow.png",0,0 C,0,114971,,17,196,255 M,0,114971,115016,557,214,565.4225,224.7853 F,2,114971,115534,1,0 S,2,114971,115534,1.3,0.26 P,0,114971,115534,A M,0,115016,115061,565.4225,224.7853,575.3973,234.1092 M,0,115061,115107,575.3973,234.1092,586.9862,241.4071 M,0,115107,115152,586.9862,241.4071,599.936,245.816 M,0,115152,115198,599.936,245.816,586.9862,241.4071 M,0,115198,115243,586.9862,241.4071,575.3973,234.1092 M,0,115243,115289,575.3973,234.1092,565.4225,224.7853 M,0,115289,115334,565.4225,224.7853,557,214
Sprite,Foreground,Centre,"sb\glow.png",538,168 C,0,115516,,17,196,255 F,2,115516,115716,1,0 S,2,115516,115716,1.3,0.26 P,0,115516,115716,A
Sprite,Foreground,Centre,"sb\glow.png",0,0 C,0,115698,,17,196,255 M,0,115698,115743,538,168,542.6592,155.0921 F,2,115698,116261,1,0 S,2,115698,116261,1.3,0.26 P,0,115698,116261,A M,0,115743,115788,542.6592,155.0921,546.0827,141.8111 M,0,115788,115834,546.0827,141.8111,547.6073,128.1774 M,0,115834,115879,547.6073,128.1774,547.6581,114.4747 M,0,115879,115925,547.6581,114.4747,546.1145,100.844 M,0,115925,115970,546.1145,100.844,542.644,87.57097 M,0,115970,116016,542.644,87.57097,537.7993,74.75193 M,0,116016,116061,537.7993,74.75193,531.5432,62.53087
Sprite,Foreground,Centre,"sb\glow.png",0,0 C,0,116425,,255,36,130 M,0,116425,116470,422,63,408.2952,61.88579 F,2,116425,116988,1,0 S,2,116425,116988,1.3,0.26 P,0,116425,116988,A M,0,116470,116515,408.2952,61.88579,394.5905,60.77158 M,0,116515,116561,394.5905,60.77158,380.8857,59.65737 M,0,116561,116606,380.8857,59.65737,367.1809,58.54316 M,0,116606,116652,367.1809,58.54316,353.4761,57.42895 M,0,116652,116697,353.4761,57.42895,339.7713,56.31474 M,0,116697,116743,339.7713,56.31474,326.0665,55.20053 M,0,116743,116788,326.0665,55.20053,312.3618,54.08632
Sprite,Foreground,Centre,"sb\glow.png",0,0 C,0,117152,,255,36,130 M,0,117152,117197,282,160,268.3065,158.7551 F,2,117152,117715,1,0 S,2,117152,117715,1.3,0.26 P,0,117152,117715,A M,0,117197,117242,268.3065,158.7551,254.6129,157.5103 M,0,117242,117288,254.6129,157.5103,240.9194,156.2654 M,0,117288,117333,240.9194,156.2654,227.2259,155.0205 M,0,117333,117379,227.2259,155.0205,213.5323,153.7757 M,0,117379,117424,213.5323,153.7757,199.8388,152.5308 M,0,117424,117470,199.8388,152.5308,186.1453,151.2859 M,0,117470,117515,186.1453,151.2859,172.4518,150.0411
Sprite,Foreground,Centre,"sb\glow.png",68,148 C,0,117880,,255,36,130 F,2,117880,118080,1,0 S,2,117880,118080,1.3,0.26 P,0,117880,118080,A
Sprite,Foreground,Centre,"sb\glow.png",0,0 C,0,118062,,255,36,130 M,0,118062,118107,68,147,66.85812,133.2975 F,2,118062,118625,1,0 S,2,118062,118625,1.3,0.26 P,0,118062,118625,A M,0,118107,118152,66.85812,133.2975,65.71625,119.595 M,0,118152,118198,65.71625,119.595,64.57437,105.8925 M,0,118198,118243,64.57437,105.8925,63.4325,92.18999 M,0,118243,118289,63.4325,92.18999,64.57437,105.8925 M,0,118289,118334,64.57437,105.8925,65.71625,119.595 M,0,118334,118380,65.71625,119.595,66.85812,133.2975 M,0,118380,118425,66.85812,133.2975,68,147
Sprite,Foreground,Centre,"sb\glow.png",73,197 C,0,118607,,255,36,130 F,2,118607,118807,1,0 S,2,118607,118807,1.3,0.26 P,0,118607,118807,A
Sprite,Foreground,Centre,"sb\glow.png",89,315 C,0,118971,,255,36,130 F,2,118971,119171,1,0 S,2,118971,119171,1.3,0.26 P,0,118971,119171,A
Sprite,Foreground,Centre,"sb\glow.png",89,315 C,0,119152,,255,36,130 F,2,119152,119352,1,0 S,2,119152,119352,1.3,0.26 P,0,119152,119352,A
Sprite,Foreground,Centre,"sb\glow.png",0,0 C,0,119334,,17,196,255 M,0,119334,119379,89,315,101.4602,315.9968 F,2,119334,120806,1,0 S,2,119334,120806,1.3,0.26 P,0,119334,120806,A M,0,119379,119424,101.4602,315.9968,113.9204,316.9936 M,0,119424,119470,113.9204,316.9936,126.3806,317.9904 M,0,119470,119515,126.3806,317.9904,138.8408,318.9873 M,0,119515,119561,138.8408,318.9873,151.301,319.9841 M,0,119561,119606,151.301,319.9841,163.7611,320.9809 M,0,119606,119652,163.7611,320.9809,176.2213,321.9777 M,0,119652,119697,176.2213,321.9777,188.6815,322.9745 M,0,119697,119743,188.6815,322.9745,200.2145,318.246 M,0,119743,119788,200.2145,318.246,211.7231,313.3674 M,0,119788,119833,211.7231,313.3674,223.2318,308.4887 M,0,119833,119879,223.2318,308.4887,234.7404,303.61 M,0,119879,119924,234.7404,303.61,246.249,298.7314 M,0,119924,119970,246.249,298.7314,257.7577,293.8527 M,0,119970,120015,257.7577,293.8527,269.2663,288.9741 M,0,120015,120061,269.2663,288.9741,280.7749,284.0954 M,0,120061,120106,280.7749,284.0954,291.1781,290.8268 M,0,120106,120152,291.1781,290.8268,301.5592,297.7897 M,0,120152,120197,301.5592,297.7897,311.9403,304.7527 M,0,120197,120243,311.9403,304.7527,322.3214,311.7156 M,0,120243,120288,322.3214,311.7156,332.7025,318.6785 M,0,120288,120333,332.7025,318.6785,343.0836,325.6415 M,0,120333,120379,343.0836,325.6415,353.4648,332.6044 M,0,120379,120424,353.4648,332.6044,364.0151,339.0832 M,0,120424,120470,364.0151,339.0832,376.4733,340.1044 M,0,120470,120515,376.4733,340.1044,388.9315,341.1255 M,0,120515,120561,388.9315,341.1255,401.3898,342.1467 M,0,120561,120606,401.3898,342.1467,413.848,343.1679
//Storyboard Layer 4 (Overlay)
//Storyboard Sound Samples

[TimingPoints]
62,363.636363636364,4,2,1,60,1,0
24789,-100,4,2,1,30,0,0
25152,-100,4,2,1,50,0,0
25516,-100,4,2,1,70,0,0
25880,-100,4,2,1,80,0,0
39334,-100,4,2,1,30,0,0
39698,-100,4,2,1,40,0,0
40062,-100,4,2,1,50,0,0
40425,-100,4,2,1,60,0,0
40971,-100,4,2,1,80,0,0
50971,-100,4,2,1,30,0,0
51334,-100,4,2,1,40,0,0
51698,-100,4,2,1,50,0,0
52062,-100,4,2,1,60,0,0
52425,-100,4,2,1,40,0,0
69880,-100,4,2,1,60,0,0
93152,-100,4,2,1,80,0,0
94607,-100,4,2,1,30,0,0
94971,-100,4,2,1,50,0,0
95334,-100,4,2,1,70,0,0
95698,-100,4,2,1,80,0,0
96062,-90.9090909090909,4,2,1,100,0,1
107334,-90.9090909090909,4,2,1,100,0,0
107698,-90.9090909090909,4,2,1,100,0,1
118971,-90.9090909090909,4,2,1,80,0,1
119334,-100,4,2,1,60,0,0
120789,-100,4,2,1,30,0,0
121152,-100,4,2,1,40,0,0
121516,-100,4,2,1,50,0,0
121880,-100,4,2,1,60,0,0

[Colours]
Combo1 : 17,196,255
Combo2 : 255,36,130

[HitObjects]
150,102,62,5,6,2:0:0:0:
150,102,2243,6,0,P|101:95|53:109,2,100.0125,2|0|0,3:2|3:2|3:2,2:0:0:0:
218,189,5152,6,0,P|247:149|258:101,2,100.0125,2|0|0,3:2|3:2|3:2,2:0:0:0:
107,205,8062,6,0,P|125:249|161:284,2,100.0125,2|0|0,3:2|3:2|3:2,2:0:0:0:
150,102,10971,6,0,P|101:95|53:109,1,100.15,2|0,3:2|3:2,2:0:0:0:
0,168,11698,6,0,P|12:264|92:318,1,200.025,2|0,3:2|3:2,2:0:0:0:
221,225,13152,1,2,3:2:0:0:
237,382,13880,1,2,3:2:0:0:
221,225,14607,6,0,L|425:243,1,200.025,2|0,3:2|3:2,2:0:0:0:
500,248,15698,1,2,2:0:0:0:
511,327,16062,2,0,L|307:309,1,200.025,2|0,3:2|3:2,2:0:0:0:
163,369,17516,6,0,P|169:320|143:265,1,100.15,2|0,3:2|3:2,2:0:0:0:
93,218,18243,2,0,P|74:171|80:122,1,100.15,2|0,3:2|3:2,2:0:0:0:
139,68,18971,1,2,3:2:0:0:
219,76,19334,1,2,3:2:0:0:
298,82,19698,2,0,L|409:88,1,100.075,2|0,3:2|3:0,2:0:0:0:
465,45,20425,6,0,B|419:84|419:84|432:227,1,200.025,10|0,3:2|3:2,2:0:0:0:
438,303,21516,1,10,3:2:0:0:
448,382,21880,2,0,B|338:379|401:290|258:300,2,200.0125,10|0|0,3:2|3:2|3:2,2:0:0:0:
448,382,24789,5,2,2:0:0:0:
365,322,25152,1,2,2:0:0:0:
264,311,25516,1,2,2:0:0:0:
171,353,25880,2,0,P|132:352|101:337,1,50.0750000000004,8|0,2:0|3:2,2:0:0:0:
78,325,26243,6,0,L|68:216,1,100.15,6|8,3:2|2:0,2:0:0:0:
61,125,26971,2,0,B|86:122|86:122|102:103,1,50.0750000000004,2|0,3:2|2:0,2:0:0:0:
132,64,27334,1,10,2:0:0:0:
132,64,27516,2,0,B|164:26|164:26|214:20,2,100.0125,2|0|0,2:0|2:0|2:0,2:0:0:0:
153,110,28425,1,2,3:2:0:0:
162,209,28789,1,10,2:0:0:0:
173,308,29152,6,0,P|217:354|274:364,1,100.15,6|8,3:2|2:0,2:0:0:0:
348,339,29880,2,0,P|361:312|385:293,1,50.0750000000004,2|0,3:2|2:0,2:0:0:0:
428,287,30243,1,8,2:0:0:0:
428,287,30425,2,0,B|485:280|474:329|523:322,2,100.0125,2|0|0,2:0|2:0|2:0,2:0:0:0:
388,256,31334,1,2,3:2:0:0:
455,182,31698,1,10,2:0:0:0:
423,86,32062,6,0,B|393:44|393:44|339:39,1,100.15,6|8,3:2|2:0,2:0:0:0:
244,32,32789,2,0,L|249:94,1,50.0750000000004,2|0,3:2|2:0,2:0:0:0:
259,135,33152,1,10,2:0:0:0:
259,135,33334,2,0,B|375:145,2,100.0125,2|0|0,2:0|2:0|2:0,2:0:0:0:
209,128,34243,1,2,3:2:0:0:
109,123,34607,1,10,2:0:0:0:
40,196,34971,6,0,B|33:253|82:242|75:291,1,100.15,2|8,3:2|2:0,2:0:0:0:
79,338,35516,1,2,2:0:0:0:
79,338,35698,2,0,P|126:353|174:342,1,100.15,2|8,3:2|2:0,2:0:0:0:
218,318,36243,2,0,P|280:309|331:337,2,100.0125,2|0|0,2:0|2:0|2:0,2:0:0:0:
205,366,37152,1,2,3:2:0:0:
405,370,37880,6,0,B|445:277|445:277|390:195|390:195|429:97|429:97|387:49,1,350.25,6|0,3:2|2:0,2:0:0:0:
366,25,39334,5,10,2:0:0:0:
266,17,39698,1,10,2:0:0:0:
165,8,40062,1,10,2:0:0:0:
65,2,40425,2,0,L|70:63,1,50.0750000000004,10|0,2:0|3:2,2:0:0:0:
47,98,40789,5,6,3:2:0:0:
47,98,40971,2,0,P|49:162|70:197,1,100.15,2|0,2:0|2:0,2:0:0:0:
104,224,41516,2,0,L|172:217,2,50.0750000000004,10|0|0,2:0|2:0|2:0,2:0:0:0:
37,298,42243,2,0,L|-32:304,2,50.0750000000004,2|0|0,3:2|2:0|2:0,2:0:0:0:
98,377,42971,2,0,L|215:370,1,100.15,10|2,2:0|2:0,2:0:0:0:
301,369,43698,5,2,3:2:0:0:
301,369,43880,2,0,P|320:322|373:278,1,100.15,2|0,2:0|2:0,2:0:0:0:
403,271,44425,2,0,P|404:311|421:337,2,50.0750000000004,10|0|0,2:0|2:0|2:0,2:0:0:0:
460,189,45152,2,0,P|493:166|507:139,2,50.0750000000004,2|0|0,3:2|2:0|2:0,2:0:0:0:
360,181,45880,1,10,2:0:0:0:
417,97,46243,1,10,2:0:0:0:
361,17,46607,5,6,3:2:0:0:
361,17,46789,2,0,P|289:25|256:55,1,100.15,2|0,2:0|2:0,2:0:0:0:
227,68,47334,2,0,L|232:1,2,50.0750000000004,10|0|0,2:0|2:0|2:0,2:0:0:0:
128,84,48062,2,0,L|122:149,2,50.0750000000004,2|0|0,3:2|2:0|2:0,2:0:0:0:
29,99,48789,2,0,L|19:209,1,100.15,10|2,2:0|2:0,2:0:0:0:
20,298,49516,6,0,P|59:357|99:377,1,100.15,2|0,3:2|2:0,2:0:0:0:
181,361,50243,2,0,P|223:300|226:257,1,100.15,2|0,3:2|2:0,2:0:0:0:
235,175,50971,5,10,2:0:0:0:
270,81,51334,1,10,2:0:0:0:
361,39,51698,1,10,2:0:0:0:
455,74,52062,2,0,P|474:88|490:116,1,50,10|0,0:0|0:0,0:0:0:0:
504,157,52425,5,6,3:2:0:0:
170,57,58243,6,0,L|284:46,1,100.25,2|0,3:2|3:0,2:0:0:0:
361,91,58971,2,0,L|475:80,1,100.25,2|0,3:2|3:0,2:0:0:0:
510,105,59516,1,2,2:0:0:0:
510,105,59698,2,0,L|500:-9,2,100.1125,2|0|0,3:2|3:0|3:0,2:0:0:0:
441,176,60789,1,2,3:2:0:0:
503,254,61152,6,0,P|480:294|415:330,1,100.25,2|0,3:2|3:0,2:0:0:0:
364,256,61880,2,0,P|316:256|253:217,1,100.25,2|0,3:2|3:0,2:0:0:0:
236,204,62425,1,2,2:0:0:0:
236,204,62607,2,0,P|190:181|141:181,1,100.25,2|0,3:2|3:0,2:0:0:0:
52,226,63334,1,2,3:2:0:0:
44,324,63698,1,2,3:2:0:0:
128,376,64062,5,6,3:2:0:0:
343,10,69880,6,0,B|387:-11|387:-11|459:4,2,100.0125,10|8|8,3:2|3:2|3:2,2:0:0:0:
257,61,70971,1,2,2:0:0:0:
171,112,71334,2,0,B|127:91|127:91|55:106,2,100.0125,10|8|8,3:2|3:2|3:2,2:0:0:0:
257,163,72425,1,2,2:0:0:0:
343,213,72789,6,0,L|449:203,2,100.0125,10|8|8,3:2|3:2|3:2,2:0:0:0:
257,264,73880,1,2,2:0:0:0:
170,314,74243,2,0,L|63:304,2,100.0125,10|8|8,3:2|3:2|3:2,2:0:0:0:
256,365,75334,1,2,2:0:0:0:
355,372,75698,6,0,P|393:339|411:293,1,100.15,10|8,3:2|3:2,2:0:0:0:
507,264,76425,2,0,P|497:214|467:175,1,100.15,10|8,3:2|3:2,2:0:0:0:
489,78,77152,2,0,P|441:61|392:68,1,100.15,10|8,3:2|3:2,2:0:0:0:
304,113,77880,1,10,3:2:0:0:
204,100,78243,1,10,3:2:0:0:
157,12,78607,6,0,P|119:45|101:91,1,100.15,10|8,3:2|3:2,2:0:0:0:
5,120,79334,2,0,P|15:170|45:209,1,100.15,10|8,3:2|3:2,2:0:0:0:
23,306,80062,2,0,P|71:323|120:316,1,100.15,10|8,3:2|3:2,2:0:0:0:
201,260,80789,1,10,3:2:0:0:
301,273,81152,1,10,3:2:0:0:
400,284,81516,6,0,L|410:395,2,100.0125,2|0|0,3:2|3:0|3:0,2:0:0:0:
435,249,82425,1,0,0:0:0:0:
435,249,82607,1,2,3:2:0:0:
419,150,82971,2,0,L|308:140,1,100.0125,2|0,3:2|3:0,2:0:0:0:
219,130,83698,1,2,3:2:0:0:
175,39,84062,2,0,L|110:43,1,50.0750000000004,10|0,2:0|2:0,2:0:0:0:
75,44,84425,6,0,P|63:93|75:141,1,100.15,2|0,3:2|3:2,2:0:0:0:
2,208,85152,2,0,P|39:243|86:257,1,100.15,2|0,3:2|3:2,2:0:0:0:
112,353,85880,2,0,P|161:337|197:303,1,100.15,2|0,3:2|3:2,2:0:0:0:
253,222,86607,1,2,3:2:0:0:
352,235,86971,1,10,2:0:0:0:
256,192,87334,12,2,89880,2:0:0:0:
256,192,90243,12,2,93152,3:2:0:0:
197,296,94607,5,2,2:0:0:0:
266,368,94971,1,2,2:0:0:0:
339,298,95334,1,2,2:0:0:0:
406,371,95698,2,0,P|443:373|476:361,1,50.0750000000004,10|0,2:0|3:2,2:0:0:0:
503,353,96062,6,0,L|492:232,1,110.000003356934,6|8,3:2|2:0,2:0:0:0:
483,133,96789,2,0,L|416:126,1,55.0000016784668,2|0,3:2|2:0,2:0:0:0:
373,121,97152,1,10,2:0:0:0:
311,31,97516,6,0,L|193:44,1,110.000003356934,2|8,3:2|2:0,2:0:0:0:
91,54,98243,2,0,L|95:-7,2,55.0000016784668,2|0|8,3:2|2:0|2:0,2:0:0:0:
4,123,98971,6,0,P|46:159|60:219,1,110.000003356934,2|8,3:2|2:0,2:0:0:0:
24,319,99698,1,2,3:2:0:0:
24,319,99880,1,2,0:0:0:0:
24,319,100062,1,10,2:0:0:0:
114,380,100425,6,0,P|120:331|154:280,1,110.000003356934,2|8,3:2|2:0,2:0:0:0:
231,203,101152,2,0,P|251:225|262:262,2,55.0000016784668,2|0|8,3:2|2:0|2:0,2:0:0:0:
185,181,101698,1,2,2:0:0:0:
185,181,101880,5,2,3:2:0:0:
192,71,102243,1,10,2:0:0:0:
301,60,102607,2,0,L|368:54,1,55.0000016784668,2|0,3:2|2:0,2:0:0:0:
410,49,102971,1,10,2:0:0:0:
512,87,103334,6,0,L|503:208,1,110.000003356934,2|8,3:2|2:0,2:0:0:0:
497,314,104062,1,2,3:2:0:0:
497,314,104243,1,2,0:0:0:0:
497,314,104425,1,10,0:0:0:0:
409,381,104789,6,0,B|353:385|353:385|298:349,1,110.000003356934,2|8,3:2|2:0,2:0:0:0:
266,327,105334,1,2,0:0:0:0:
266,327,105516,2,0,B|222:300|222:300|161:308,1,110.000003356934,2|8,3:2|2:0,2:0:0:0:
54,311,106243,5,2,3:2:0:0:
62,201,106607,1,2,3:2:0:0:
71,94,106971,1,2,3:2:0:0:
71,94,107152,2,0,L|-3:101,2,55.0000016784668,2|0|0,3:2|2:0|2:0,2:0:0:0:
115,126,107698,6,0,L|238:137,1,110.000003356934,6|0,3:2|3:2,2:0:0:0:
279,39,108425,2,0,L|398:49,1,110.000003356934,2|0,3:2|3:2,2:0:0:0:
499,54,109152,2,0,L|492:-15,2,55.0000016784668,2|0|0,3:2|2:0|3:2,2:0:0:0:
504,107,109698,1,2,2:0:0:0:
504,107,109880,2,0,L|513:236,1,110.000003356934,2|0,3:2|3:2,2:0:0:0:
432,293,110607,6,0,P|379:306|312:287,1,110.000003356934,2|0,3:2|3:2,2:0:0:0:
248,215,111334,2,0,P|196:195|142:199,1,110.000003356934,2|0,3:2|3:2,2:0:0:0:
41,237,112062,1,2,3:2:0:0:
41,237,112243,2,0,P|35:212|14:179,2,55.0000016784668,2|0|0,2:0|3:2|2:0,2:0:0:0:
43,292,112789,1,2,3:2:0:0:
128,360,113152,6,0,L|192:352,1,55.0000016784668,2|0,3:2|2:0,2:0:0:0:
227,349,113516,2,0,B|289:344|289:344|317:364|317:364|385:357,1,165.000005035401,2|0,3:2|2:0,2:0:0:0:
439,352,114243,6,0,P|420:305|431:241,1,110.000003356934,2|0,3:2|3:2,2:0:0:0:
493,158,114971,2,0,P|520:184|545:192,2,55.0000016784668,2|0|0,3:2|2:0|3:2,2:0:0:0:
474,112,115516,1,2,2:0:0:0:
474,112,115698,2,0,P|484:60|464:1,1,110.000003356934,2|0,3:2|3:2,2:0:0:0:
358,7,116425,6,0,L|235:-3,1,110.000003356934,2|0,3:2|3:2,2:0:0:0:
218,104,117152,2,0,L|97:93,1,110.000003356934,2|0,3:2|3:2,2:0:0:0:
4,92,117880,1,2,3:2:0:0:
4,91,118062,2,0,L|-1:31,2,55.0000016784668,2|0|0,2:0|3:2|2:0,2:0:0:0:
9,141,118607,1,2,3:2:0:0:
25,259,118971,1,8,0:0:0:0:
25,259,119152,1,8,0:0:0:0:
25,259,119334,6,0,B|125:267|125:267|217:228|217:228|299:283|299:283|360:288,1,350,6|0,3:2|2:0,2:0:0:0:
399,291,120789,5,10,2:0:0:0:
475,227,121152,1,10,2:0:0:0:
469,127,121516,1,10,2:0:0:0:
407,48,121880,2,0,P|371:40|352:43,1,50,10|0,2:0|3:2,2:0:0:0:
316,65,122243,5,6,3:2:0:0:
316,65,122425,2,0,P|351:122|384:142,2,100.0125,2|0|0,3:2|3:2|3:2,2:0:0:0:
231,10,123516,2,0,P|164:12|130:31,1,100.15,2|0,3:2|3:2,2:0:0:0:
203,107,124243,5,2,3:2:0:0:
203,107,124425,1,2,3:2:0:0:
159,197,124789,1,2,3:2:0:0:
207,284,125152,1,6,3:2:0:0:
