osu file format v14

[General]
AudioFilename: audio.mp3
AudioLeadIn: 0
PreviewTime: 96080
Countdown: 0
SampleSet: Soft
StackLeniency: 0.4
Mode: 0
LetterboxInBreaks: 0
EpilepsyWarning: 1
WidescreenStoryboard: 1

[Editor]
DistanceSpacing: 0.1
BeatDivisor: 4
GridSize: 8
TimelineZoom: 2.9

[Metadata]
Title:Modelista
TitleUnicode:Modelista
Artist:HiTECH NINJA
ArtistUnicode:HiTECH NINJA
Creator:-jordan-
Version:Future Lv.8
Source:Arcaea
Tags:groove coaster lapix full on electronic instrumental rhythm video game memory archive light lowiro taito corp 2019 yusi fusionnqn misery venerablenyanta jory
BeatmapID:2478381
BeatmapSetID:1148442

[Difficulty]
HPDrainRate:5
CircleSize:4
OverallDifficulty:7.6
ApproachRate:9
SliderMultiplier:1.8
SliderTickRate:1

[Events]
//Background and Video events
0,0,"bg.jpg",0,0
//Break Periods
2,52625,56916
2,64262,68734
//Storyboard Layer 0 (Background)
Sprite,Background,Centre,"sb\credits\bm.png",0,0 S,0,125172,,0.5 M,22,125172,125536,320,125,320,145 F,16,125172,125536,0,1 F,0,127354,127536,1,0
Sprite,Background,Centre,"sb\credits\sb.png",0,0 S,0,125536,,0.5 M,22,125536,125900,320,280,320,300 F,16,125536,125900,0,1 F,0,127354,127536,1,0
Sprite,Background,Centre,"sb\credits\ny.png",0,0 S,0,125718,,0.5 M,22,125718,126082,320,315,320,335 F,16,125718,126082,0,1 F,0,127354,127536,1,0
Sprite,Background,Centre,"sb\credits\jd.png",0,0 S,0,125354,,0.5 M,22,125354,125718,320,160,320,180 F,16,125354,125718,0,1 F,0,127354,127536,1,0
//Storyboard Layer 1 (Fail)
//Storyboard Layer 2 (Pass)
//Storyboard Layer 3 (Foreground)
Sprite,Foreground,Centre,"sb\pinkC.png",0,0 M,0,26243,,241,75 F,0,26243,26743,1 S,19,26243,27243,0.1,0.52 F,0,26943,27243,1,0
Sprite,Foreground,Centre,"sb\white.png",0,0 F,0,26243,,0.69 S,0,26243,,0.02688511 R,0,26243,,2 M,19,26243,26643,241,75,227,-9 M,0,26643,27243,227,-9,226,-16 F,0,26943,27243,0.69,0
Sprite,Foreground,Centre,"sb\white.png",0,0 F,0,26243,,0.69 S,0,26243,,0.009768928 R,0,26243,,1 M,19,26243,26643,241,75,164,47 M,0,26643,27243,164,47,158,45 F,0,26943,27243,0.69,0
Sprite,Foreground,Centre,"sb\white.png",0,0 F,0,26243,,0.69 S,0,26243,,0.01638098 R,0,26243,,2 M,19,26243,26643,241,75,348,2 M,0,26643,27243,348,2,357,-4 F,0,26943,27243,0.69,0
Sprite,Foreground,Centre,"sb\white.png",0,0 F,0,26243,,0.69 S,0,26243,,0.01217338 R,0,26243,,1 M,19,26243,26643,241,75,229,156 M,0,26643,27243,229,156,228,163 F,0,26943,27243,0.69,0
Sprite,Foreground,Centre,"sb\white.png",0,0 F,0,26243,,0.69 S,0,26243,,0.01714633 R,0,26243,,2 M,19,26243,26643,241,75,178,7 M,0,26643,27243,178,7,172,2 F,0,26943,27243,0.69,0
Sprite,Foreground,Centre,"sb\white.png",0,0 F,0,26243,,0.69 S,0,26243,,0.02814636 R,0,26243,,2 M,19,26243,26643,241,75,338,92 M,0,26643,27243,338,92,347,93 F,0,26943,27243,0.69,0
Sprite,Foreground,Centre,"sb\white.png",0,0 F,0,26243,,0.69 S,0,26243,,0.01280857 R,0,26243,,2 M,19,26243,26643,241,75,201,-1 M,0,26643,27243,201,-1,198,-8 F,0,26943,27243,0.69,0
Sprite,Foreground,Centre,"sb\white.png",0,0 F,0,26243,,0.69 S,0,26243,,0.03177326 R,0,26243,,0 M,19,26243,26643,241,75,278,21 M,0,26643,27243,278,21,281,16 F,0,26943,27243,0.69,0
Sprite,Foreground,Centre,"sb\white.png",0,0 F,0,26243,,0.69 S,0,26243,,0.01873596 R,0,26243,,2 M,19,26243,26643,241,75,216,3 M,0,26643,27243,216,3,214,-2 F,0,26943,27243,0.69,0
Sprite,Foreground,Centre,"sb\white.png",0,0 F,0,26243,,0.69 S,0,26243,,0.01931083 R,0,26243,,0 M,19,26243,26643,241,75,204,-10 M,0,26643,27243,204,-10,201,-17 F,0,26943,27243,0.69,0
Sprite,Foreground,Centre,"sb\white.png",0,0 F,0,26243,,0.69 S,0,26243,,0.01669316 R,0,26243,,0 M,19,26243,26643,241,75,266,135 M,0,26643,27243,266,135,268,140 F,0,26943,27243,0.69,0
Sprite,Foreground,Centre,"sb\white.png",0,0 F,0,26243,,0.69 S,0,26243,,0.02199553 R,0,26243,,2 M,19,26243,26643,241,75,368,63 M,0,26643,27243,368,63,379,62 F,0,26943,27243,0.69,0
Sprite,Foreground,Centre,"sb\white.png",0,0 F,0,26243,,0.69 S,0,26243,,0.01466813 R,0,26243,,1 M,19,26243,26643,241,75,362,96 M,0,26643,27243,362,96,372,98 F,0,26943,27243,0.69,0
Sprite,Foreground,Centre,"sb\white.png",0,0 F,0,26243,,0.69 S,0,26243,,0.01814362 R,0,26243,,2 M,19,26243,26643,241,75,369,37 M,0,26643,27243,369,37,380,34 F,0,26943,27243,0.69,0
Sprite,Foreground,Centre,"sb\white.png",0,0 F,0,26243,,0.69 S,0,26243,,0.01165664 R,0,26243,,2 M,19,26243,26643,241,75,331,156 M,0,26643,27243,331,156,339,163 F,0,26943,27243,0.69,0
Sprite,Foreground,Centre,"sb\white.png",0,0 F,0,26243,,0.69 S,0,26243,,0.01344049 R,0,26243,,1 M,19,26243,26643,241,75,276,-51 M,0,26643,27243,276,-51,280,-62 F,0,26943,27243,0.69,0
Sprite,Foreground,Centre,"sb\white.png",0,0 F,0,26243,,0.69 S,0,26243,,0.01019681 R,0,26243,,1 M,19,26243,26643,241,75,314,168 M,0,26643,27243,314,168,320,176 F,0,26943,27243,0.69,0
Sprite,Foreground,Centre,"sb\white.png",0,0 F,0,26243,,0.69 S,0,26243,,0.02135525 R,0,26243,,1 M,19,26243,26643,241,75,220,-22 M,0,26643,27243,220,-22,218,-30 F,0,26943,27243,0.69,0
Sprite,Foreground,Centre,"sb\white.png",0,0 F,0,26243,,0.69 S,0,26243,,0.02858936 R,0,26243,,2 M,19,26243,26643,241,75,273,163 M,0,26643,27243,273,163,275,170 F,0,26943,27243,0.69,0
Sprite,Foreground,Centre,"sb\white.png",0,0 F,0,26243,,0.69 S,0,26243,,0.02803014 R,0,26243,,2 M,19,26243,26643,241,75,228,-43 M,0,26643,27243,228,-43,227,-54 F,0,26943,27243,0.69,0
Sprite,Foreground,Centre,"sb\white.png",0,0 F,0,26243,,0.69 S,0,26243,,0.01011539 R,0,26243,,2 M,19,26243,26643,241,75,161,-1 M,0,26643,27243,161,-1,154,-8 F,0,26943,27243,0.69,0
Sprite,Foreground,Centre,"sb\white.png",0,0 F,0,26243,,0.69 S,0,26243,,0.006424237 R,0,26243,,2 M,19,26243,26643,241,75,335,0 M,0,26643,27243,335,0,343,-5 F,0,26943,27243,0.69,0
Sprite,Foreground,Centre,"sb\white.png",0,0 F,0,26243,,0.69 S,0,26243,,0.02203523 R,0,26243,,2 M,19,26243,26643,241,75,303,188 M,0,26643,27243,303,188,309,198 F,0,26943,27243,0.69,0
Sprite,Foreground,Centre,"sb\white.png",0,0 F,0,26243,,0.69 S,0,26243,,0.03199923 R,0,26243,,1 M,19,26243,26643,241,75,260,164 M,0,26643,27243,260,164,261,172 F,0,26943,27243,0.69,0
Sprite,Foreground,Centre,"sb\white.png",0,0 F,0,26243,,0.69 S,0,26243,,0.02415233 R,0,26243,,2 M,19,26243,26643,241,75,167,-25 M,0,26643,27243,167,-25,161,-34 F,0,26943,27243,0.69,0
Sprite,Foreground,Centre,"sb\white.png",0,0 F,0,26243,,0.69 S,0,26243,,0.02441463 R,0,26243,,2 M,19,26243,26643,241,75,301,118 M,0,26643,27243,301,118,306,122 F,0,26943,27243,0.69,0
Sprite,Foreground,Centre,"sb\white.png",0,0 F,0,26243,,0.69 S,0,26243,,0.02934494 R,0,26243,,0 M,19,26243,26643,241,75,302,136 M,0,26643,27243,302,136,308,142 F,0,26943,27243,0.69,0
Sprite,Foreground,Centre,"sb\white.png",0,0 F,0,26243,,0.69 S,0,26243,,0.01914227 R,0,26243,,0 M,19,26243,26643,241,75,141,90 M,0,26643,27243,141,90,133,92 F,0,26943,27243,0.69,0
Sprite,Foreground,Centre,"sb\white.png",0,0 F,0,26243,,0.69 S,0,26243,,0.01711514 R,0,26243,,2 M,19,26243,26643,241,75,188,-19 M,0,26643,27243,188,-19,183,-28 F,0,26943,27243,0.69,0
Sprite,Foreground,Centre,"sb\white.png",0,0 F,0,26243,,0.69 S,0,26243,,0.02622165 R,0,26243,,2 M,19,26243,26643,241,75,274,-12 M,0,26643,27243,274,-12,277,-20 F,0,26943,27243,0.69,0
Sprite,Foreground,Centre,"sb\white.png",0,0 F,0,26243,,0.69 S,0,26243,,0.01225991 R,0,26243,,1 M,19,26243,26643,241,75,306,46 M,0,26643,27243,306,46,312,44 F,0,26943,27243,0.69,0
Sprite,Foreground,Centre,"sb\white.png",0,0 F,0,26243,,0.69 S,0,26243,,0.01331249 R,0,26243,,0 M,19,26243,26643,241,75,186,-12 M,0,26643,27243,186,-12,181,-19 F,0,26943,27243,0.69,0
Sprite,Foreground,Centre,"sb\white.png",0,0 F,0,26243,,0.69 S,0,26243,,0.0102305 R,0,26243,,0 M,19,26243,26643,241,75,274,2 M,0,26643,27243,274,2,277,-3 F,0,26943,27243,0.69,0
Sprite,Foreground,Centre,"sb\white.png",0,0 F,0,26243,,0.69 S,0,26243,,0.02148944 R,0,26243,,2 M,19,26243,26643,241,75,314,107 M,0,26643,27243,314,107,320,110 F,0,26943,27243,0.69,0
Sprite,Foreground,Centre,"sb\white.png",0,0 F,0,26243,,0.69 S,0,26243,,0.02997385 R,0,26243,,0 M,19,26243,26643,241,75,155,-13 M,0,26643,27243,155,-13,147,-21 F,0,26943,27243,0.69,0
Sprite,Foreground,Centre,"sb\white.png",0,0 F,0,26243,,0.69 S,0,26243,,0.005862605 R,0,26243,,2 M,19,26243,26643,241,75,342,25 M,0,26643,27243,342,25,351,20 F,0,26943,27243,0.69,0
Sprite,Foreground,Centre,"sb\white.png",0,0 F,0,26243,,0.69 S,0,26243,,0.006631385 R,0,26243,,0 M,19,26243,26643,241,75,195,-18 M,0,26643,27243,195,-18,191,-26 F,0,26943,27243,0.69,0
Sprite,Foreground,Centre,"sb\white.png",0,0 F,0,26243,,0.69 S,0,26243,,0.02107637 R,0,26243,,2 M,19,26243,26643,241,75,334,148 M,0,26643,27243,334,148,342,154 F,0,26943,27243,0.69,0
Sprite,Foreground,Centre,"sb\white.png",0,0 F,0,26243,,0.69 S,0,26243,,0.008145575 R,0,26243,,2 M,19,26243,26643,241,75,141,82 M,0,26643,27243,141,82,133,82 F,0,26943,27243,0.69,0
Sprite,Foreground,Centre,"sb\white.png",0,0 F,0,26243,,0.69 S,0,26243,,0.01031129 R,0,26243,,1 M,19,26243,26643,241,75,170,42 M,0,26643,27243,170,42,163,39 F,0,26943,27243,0.69,0
Sprite,Foreground,Centre,"sb\white.png",0,0 F,0,26243,,0.69 S,0,26243,,0.01410629 R,0,26243,,2 M,19,26243,26643,241,75,367,77 M,0,26643,27243,367,77,377,77 F,0,26943,27243,0.69,0
Sprite,Foreground,Centre,"sb\white.png",0,0 F,0,26243,,0.69 S,0,26243,,0.01188612 R,0,26243,,2 M,19,26243,26643,241,75,325,109 M,0,26643,27243,325,109,332,112 F,0,26943,27243,0.69,0
Sprite,Foreground,Centre,"sb\white.png",0,0 F,0,26243,,0.69 S,0,26243,,0.03168675 R,0,26243,,1 M,19,26243,26643,241,75,335,49 M,0,26643,27243,335,49,343,47 F,0,26943,27243,0.69,0
Sprite,Foreground,Centre,"sb\white.png",0,0 F,0,26243,,0.69 S,0,26243,,0.01184911 R,0,26243,,1 M,19,26243,26643,241,75,134,60 M,0,26643,27243,134,60,125,58 F,0,26943,27243,0.69,0
Sprite,Foreground,Centre,"sb\white.png",0,0 F,0,26243,,0.69 S,0,26243,,0.005596235 R,0,26243,,0 M,19,26243,26643,241,75,169,61 M,0,26643,27243,169,61,163,60 F,0,26943,27243,0.69,0
Sprite,Foreground,Centre,"sb\white.png",0,0 F,0,26243,,0.69 S,0,26243,,0.02769963 R,0,26243,,1 M,19,26243,26643,241,75,130,79 M,0,26643,27243,130,79,121,79 F,0,26943,27243,0.69,0
Sprite,Foreground,Centre,"sb\white.png",0,0 F,0,26243,,0.69 S,0,26243,,0.02478521 R,0,26243,,1 M,19,26243,26643,241,75,292,113 M,0,26643,27243,292,113,296,117 F,0,26943,27243,0.69,0
Sprite,Foreground,Centre,"sb\white.png",0,0 F,0,26243,,0.69 S,0,26243,,0.007659554 R,0,26243,,2 M,19,26243,26643,241,75,323,38 M,0,26643,27243,323,38,330,34 F,0,26943,27243,0.69,0
Sprite,Foreground,Centre,"sb\white.png",0,0 F,0,26243,,0.69 S,0,26243,,0.0272559 R,0,26243,,2 M,19,26243,26643,241,75,151,-2 M,0,26643,27243,151,-2,144,-8 F,0,26943,27243,0.69,0
Sprite,Foreground,Centre,"sb\white.png",0,0 F,0,26243,,0.69 S,0,26243,,0.008837493 R,0,26243,,0 M,19,26243,26643,241,75,129,23 M,0,26643,27243,129,23,119,18 F,0,26943,27243,0.69,0
Sprite,Foreground,Centre,"sb\white.png",0,0 F,0,26243,,0.69 S,0,26243,,0.01102095 R,0,26243,,2 M,19,26243,26643,241,75,152,3 M,0,26643,27243,152,3,144,-2 F,0,26943,27243,0.69,0
Sprite,Foreground,Centre,"sb\white.png",0,0 F,0,26243,,0.69 S,0,26243,,0.005776226 R,0,26243,,0 M,19,26243,26643,241,75,144,32 M,0,26643,27243,144,32,135,28 F,0,26943,27243,0.69,0
Sprite,Foreground,Centre,"sb\white.png",0,0 F,0,26243,,0.69 S,0,26243,,0.01990641 R,0,26243,,1 M,19,26243,26643,241,75,312,-35 M,0,26643,27243,312,-35,318,-45 F,0,26943,27243,0.69,0
Sprite,Foreground,Centre,"sb\white.png",0,0 F,0,26243,,0.69 S,0,26243,,0.03116356 R,0,26243,,0 M,19,26243,26643,241,75,107,63 M,0,26643,27243,107,63,95,62 F,0,26943,27243,0.69,0
Sprite,Foreground,Centre,"sb\white.png",0,0 F,0,26243,,0.69 S,0,26243,,0.008361429 R,0,26243,,2 M,19,26243,26643,241,75,129,67 M,0,26643,27243,129,67,119,66 F,0,26943,27243,0.69,0
Sprite,Foreground,Centre,"sb\white.png",0,0 F,0,26243,,0.69 S,0,26243,,0.02011102 R,0,26243,,1 M,19,26243,26643,241,75,198,22 M,0,26643,27243,198,22,194,17 F,0,26943,27243,0.69,0
Sprite,Foreground,Centre,"sb\white.png",0,0 F,0,26243,,0.69 S,0,26243,,0.0318473 R,0,26243,,0 M,19,26243,26643,241,75,179,-40 M,0,26643,27243,179,-40,174,-50 F,0,26943,27243,0.69,0
Sprite,Foreground,Centre,"sb\white.png",0,0 F,0,26243,,0.69 S,0,26243,,0.01703969 R,0,26243,,1 M,19,26243,26643,241,75,335,114 M,0,26643,27243,335,114,343,118 F,0,26943,27243,0.69,0
Sprite,Foreground,Centre,"sb\white.png",0,0 F,0,26243,,0.69 S,0,26243,,0.006007309 R,0,26243,,0 M,19,26243,26643,241,75,265,179 M,0,26643,27243,265,179,267,188 F,0,26943,27243,0.69,0
Sprite,Foreground,Centre,"sb\white.png",0,0 F,0,26243,,0.69 S,0,26243,,0.0165132 R,0,26243,,1 M,19,26243,26643,241,75,301,157 M,0,26643,27243,301,157,306,164 F,0,26943,27243,0.69,0
Sprite,Foreground,Centre,"sb\white.png",0,0 F,0,26243,,0.69 S,0,26243,,0.01488746 R,0,26243,,2 M,19,26243,26643,241,75,339,87 M,0,26643,27243,339,87,348,88 F,0,26943,27243,0.69,0
Sprite,Foreground,Centre,"sb\white.png",0,0 F,0,26243,,0.69 S,0,26243,,0.02958162 R,0,26243,,0 M,19,26243,26643,241,75,260,136 M,0,26643,27243,260,136,262,141 F,0,26943,27243,0.69,0
Sprite,Foreground,Centre,"sb\white.png",0,0 F,0,26243,,0.69 S,0,26243,,0.03096091 R,0,26243,,2 M,19,26243,26643,241,75,139,69 M,0,26643,27243,139,69,131,69 F,0,26943,27243,0.69,0
Sprite,Foreground,Centre,"sb\white.png",0,0 F,0,26243,,0.69 S,0,26243,,0.02229852 R,0,26243,,0 M,19,26243,26643,241,75,341,85 M,0,26643,27243,341,85,350,86 F,0,26943,27243,0.69,0
Sprite,Foreground,Centre,"sb\white.png",0,0 F,0,26243,,0.69 S,0,26243,,0.02045819 R,0,26243,,2 M,19,26243,26643,241,75,338,54 M,0,26643,27243,338,54,346,52 F,0,26943,27243,0.69,0
Sprite,Foreground,Centre,"sb\white.png",0,0 F,0,26243,,0.69 S,0,26243,,0.01577191 R,0,26243,,2 M,19,26243,26643,241,75,191,175 M,0,26643,27243,191,175,187,184 F,0,26943,27243,0.69,0
Sprite,Foreground,Centre,"sb\white.png",0,0 F,0,26243,,0.69 S,0,26243,,0.03124084 R,0,26243,,0 M,19,26243,26643,241,75,317,5 M,0,26643,27243,317,5,324,0 F,0,26943,27243,0.69,0
Sprite,Foreground,Centre,"sb\white.png",0,0 F,0,26243,,0.69 S,0,26243,,0.02912309 R,0,26243,,0 M,19,26243,26643,241,75,329,169 M,0,26643,27243,329,169,337,178 F,0,26943,27243,0.69,0
Sprite,Foreground,Centre,"sb\white.png",0,0 F,0,26243,,0.69 S,0,26243,,0.0192504 R,0,26243,,2 M,19,26243,26643,241,75,307,12 M,0,26643,27243,307,12,313,7 F,0,26943,27243,0.69,0
Sprite,Foreground,Centre,"sb\white.png",0,0 F,0,26243,,0.69 S,0,26243,,0.01386674 R,0,26243,,2 M,19,26243,26643,241,75,109,63 M,0,26643,27243,109,63,97,62 F,0,26943,27243,0.69,0
Sprite,Foreground,Centre,"sb\white.png",0,0 F,0,26243,,0.69 S,0,26243,,0.02336837 R,0,26243,,0 M,19,26243,26643,241,75,361,100 M,0,26643,27243,361,100,372,102 F,0,26943,27243,0.69,0
Sprite,Foreground,Centre,"sb\white.png",0,0 F,0,26243,,0.69 S,0,26243,,0.01790247 R,0,26243,,1 M,19,26243,26643,241,75,284,194 M,0,26643,27243,284,194,288,204 F,0,26943,27243,0.69,0
Sprite,Foreground,Centre,"sb\white.png",0,0 F,0,26243,,0.69 S,0,26243,,0.01269017 R,0,26243,,0 M,19,26243,26643,241,75,234,174 M,0,26643,27243,234,174,233,182 F,0,26943,27243,0.69,0
Sprite,Foreground,Centre,"sb\white.png",0,0 F,0,26243,,0.69 S,0,26243,,0.007725679 R,0,26243,,1 M,19,26243,26643,241,75,259,-14 M,0,26643,27243,259,-14,261,-21 F,0,26943,27243,0.69,0
Sprite,Foreground,Centre,"sb\white.png",0,0 F,0,26243,,0.69 S,0,26243,,0.02235734 R,0,26243,,1 M,19,26243,26643,241,75,120,29 M,0,26643,27243,120,29,110,25 F,0,26943,27243,0.69,0
Sprite,Foreground,Centre,"sb\white.png",0,0 F,0,26243,,0.69 S,0,26243,,0.006724006 R,0,26243,,2 M,19,26243,26643,241,75,337,88 M,0,26643,27243,337,88,345,89 F,0,26943,27243,0.69,0
Sprite,Foreground,Centre,"sb\glow.png",330,381 C,0,28325,,17,196,255 F,0,28325,28425,0,0.6 F,0,29107,29207,0.6,0
Sprite,Foreground,Centre,"sb\glow.png",318.8193,397.3411 C,0,28350,,17,196,255 F,0,28350,28450,0,0.6 F,0,29107,29207,0.6,0
Sprite,Foreground,Centre,"sb\glow.png",307.6385,413.6822 C,0,28375,,17,196,255 F,0,28375,28475,0,0.6 F,0,29107,29207,0.6,0
Sprite,Foreground,Centre,"sb\glow.png",290.6888,420.0991 C,0,28400,,17,196,255 F,0,28400,28500,0,0.6 F,0,29107,29207,0.6,0
Sprite,Foreground,Centre,"sb\glow.png",270.9559,421.7284 C,0,28425,,17,196,255 F,0,28425,28525,0,0.6 F,0,29107,29207,0.6,0
Sprite,Foreground,Centre,"sb\glow.png",251.2231,423.3577 C,0,28450,,17,196,255 F,0,28450,28550,0,0.6 F,0,29107,29207,0.6,0
Sprite,Foreground,Centre,"sb\glow.png",231.4902,424.9871 C,0,28475,,17,196,255 F,0,28475,28575,0,0.6 F,0,29107,29207,0.6,0
Sprite,Foreground,Centre,"sb\glow.png",211.7574,426.6164 C,0,28500,,17,196,255 F,0,28500,28600,0,0.6 F,0,29107,29207,0.6,0
Sprite,Foreground,Centre,"sb\glow.png",64,440 C,0,28689,,17,196,255 F,0,28689,28789,0,0.6 F,0,29471,29571,0.6,0
Sprite,Foreground,Centre,"sb\glow.png",74.68539,423.3308 C,0,28714,,17,196,255 F,0,28714,28814,0,0.6 F,0,29471,29571,0.6,0
Sprite,Foreground,Centre,"sb\glow.png",85.37077,406.6616 C,0,28739,,17,196,255 F,0,28739,28839,0,0.6 F,0,29471,29571,0.6,0
Sprite,Foreground,Centre,"sb\glow.png",102.0307,399.9241 C,0,28764,,17,196,255 F,0,28764,28864,0,0.6 F,0,29471,29571,0.6,0
Sprite,Foreground,Centre,"sb\glow.png",121.7636,398.2947 C,0,28789,,17,196,255 F,0,28789,28889,0,0.6 F,0,29471,29571,0.6,0
Sprite,Foreground,Centre,"sb\glow.png",141.4964,396.6654 C,0,28814,,17,196,255 F,0,28814,28914,0,0.6 F,0,29471,29571,0.6,0
Sprite,Foreground,Centre,"sb\glow.png",161.2293,395.0361 C,0,28839,,17,196,255 F,0,28839,28939,0,0.6 F,0,29471,29571,0.6,0
Sprite,Foreground,Centre,"sb\glow.png",180.9621,393.4068 C,0,28864,,17,196,255 F,0,28864,28964,0,0.6 F,0,29471,29571,0.6,0
Sprite,Foreground,Centre,"sb\blueC.png",0,0 M,0,29152,,71,278 F,0,29152,29652,1 S,19,29152,30152,0.1,0.52 F,0,29852,30152,1,0
Sprite,Foreground,Centre,"sb\white.png",0,0 F,0,29152,,0.69 S,0,29152,,0.02897989 R,0,29152,,1 M,19,29152,29552,71,278,40,165 M,0,29552,30152,40,165,37,155 F,0,29852,30152,0.69,0
Sprite,Foreground,Centre,"sb\white.png",0,0 F,0,29152,,0.69 S,0,29152,,0.01141533 R,0,29152,,1 M,19,29152,29552,71,278,69,394 M,0,29552,30152,69,394,68,404 F,0,29852,30152,0.69,0
Sprite,Foreground,Centre,"sb\white.png",0,0 F,0,29152,,0.69 S,0,29152,,0.02885237 R,0,29152,,1 M,19,29152,29552,71,278,107,378 M,0,29552,30152,107,378,110,386 F,0,29852,30152,0.69,0
Sprite,Foreground,Centre,"sb\white.png",0,0 F,0,29152,,0.69 S,0,29152,,0.01295194 R,0,29152,,1 M,19,29152,29552,71,278,0,196 M,0,29552,30152,0,196,-5,189 F,0,29852,30152,0.69,0
Sprite,Foreground,Centre,"sb\white.png",0,0 F,0,29152,,0.69 S,0,29152,,0.03187178 R,0,29152,,1 M,19,29152,29552,71,278,73,343 M,0,29552,30152,73,343,73,348 F,0,29852,30152,0.69,0
Sprite,Foreground,Centre,"sb\white.png",0,0 F,0,29152,,0.69 S,0,29152,,0.03153595 R,0,29152,,2 M,19,29152,29552,71,278,159,278 M,0,29552,30152,159,278,167,278 F,0,29852,30152,0.69,0
Sprite,Foreground,Centre,"sb\white.png",0,0 F,0,29152,,0.69 S,0,29152,,0.02562319 R,0,29152,,0 M,19,29152,29552,71,278,118,348 M,0,29552,30152,118,348,122,354 F,0,29852,30152,0.69,0
Sprite,Foreground,Centre,"sb\white.png",0,0 F,0,29152,,0.69 S,0,29152,,0.005750071 R,0,29152,,0 M,19,29152,29552,71,278,98,347 M,0,29552,30152,98,347,101,353 F,0,29852,30152,0.69,0
Sprite,Foreground,Centre,"sb\white.png",0,0 F,0,29152,,0.69 S,0,29152,,0.006853868 R,0,29152,,2 M,19,29152,29552,71,278,54,145 M,0,29552,30152,54,145,52,134 F,0,29852,30152,0.69,0
Sprite,Foreground,Centre,"sb\white.png",0,0 F,0,29152,,0.69 S,0,29152,,0.02004329 R,0,29152,,0 M,19,29152,29552,71,278,20,215 M,0,29552,30152,20,215,16,210 F,0,29852,30152,0.69,0
Sprite,Foreground,Centre,"sb\white.png",0,0 F,0,29152,,0.69 S,0,29152,,0.02806826 R,0,29152,,1 M,19,29152,29552,71,278,109,214 M,0,29552,30152,109,214,112,208 F,0,29852,30152,0.69,0
Sprite,Foreground,Centre,"sb\white.png",0,0 F,0,29152,,0.69 S,0,29152,,0.02648871 R,0,29152,,1 M,19,29152,29552,71,278,146,226 M,0,29552,30152,146,226,152,222 F,0,29852,30152,0.69,0
Sprite,Foreground,Centre,"sb\white.png",0,0 F,0,29152,,0.69 S,0,29152,,0.02578779 R,0,29152,,1 M,19,29152,29552,71,278,7,380 M,0,29552,30152,7,380,1,389 F,0,29852,30152,0.69,0
Sprite,Foreground,Centre,"sb\white.png",0,0 F,0,29152,,0.69 S,0,29152,,0.03197217 R,0,29152,,1 M,19,29152,29552,71,278,-7,178 M,0,29552,30152,-7,178,-14,169 F,0,29852,30152,0.69,0
Sprite,Foreground,Centre,"sb\white.png",0,0 F,0,29152,,0.69 S,0,29152,,0.02146754 R,0,29152,,2 M,19,29152,29552,71,278,136,318 M,0,29552,30152,136,318,142,322 F,0,29852,30152,0.69,0
Sprite,Foreground,Centre,"sb\white.png",0,0 F,0,29152,,0.69 S,0,29152,,0.01910723 R,0,29152,,0 M,19,29152,29552,71,278,135,210 M,0,29552,30152,135,210,140,205 F,0,29852,30152,0.69,0
Sprite,Foreground,Centre,"sb\white.png",0,0 F,0,29152,,0.69 S,0,29152,,0.01960903 R,0,29152,,2 M,19,29152,29552,71,278,135,278 M,0,29552,30152,135,278,141,278 F,0,29852,30152,0.69,0
Sprite,Foreground,Centre,"sb\white.png",0,0 F,0,29152,,0.69 S,0,29152,,0.0282527 R,0,29152,,0 M,19,29152,29552,71,278,2,344 M,0,29552,30152,2,344,-3,350 F,0,29852,30152,0.69,0
Sprite,Foreground,Centre,"sb\white.png",0,0 F,0,29152,,0.69 S,0,29152,,0.01855888 R,0,29152,,2 M,19,29152,29552,71,278,93,177 M,0,29552,30152,93,177,95,168 F,0,29852,30152,0.69,0
Sprite,Foreground,Centre,"sb\white.png",0,0 F,0,29152,,0.69 S,0,29152,,0.0186303 R,0,29152,,0 M,19,29152,29552,71,278,-55,246 M,0,29552,30152,-55,246,-66,243 F,0,29852,30152,0.69,0
Sprite,Foreground,Centre,"sb\white.png",0,0 F,0,29152,,0.69 S,0,29152,,0.01949055 R,0,29152,,0 M,19,29152,29552,71,278,-15,181 M,0,29552,30152,-15,181,-23,173 F,0,29852,30152,0.69,0
Sprite,Foreground,Centre,"sb\white.png",0,0 F,0,29152,,0.69 S,0,29152,,0.02641765 R,0,29152,,1 M,19,29152,29552,71,278,72,365 M,0,29552,30152,72,365,72,372 F,0,29852,30152,0.69,0
Sprite,Foreground,Centre,"sb\white.png",0,0 F,0,29152,,0.69 S,0,29152,,0.01344712 R,0,29152,,0 M,19,29152,29552,71,278,175,219 M,0,29552,30152,175,219,184,214 F,0,29852,30152,0.69,0
Sprite,Foreground,Centre,"sb\white.png",0,0 F,0,29152,,0.69 S,0,29152,,0.02251757 R,0,29152,,0 M,19,29152,29552,71,278,133,363 M,0,29552,30152,133,363,138,371 F,0,29852,30152,0.69,0
Sprite,Foreground,Centre,"sb\white.png",0,0 F,0,29152,,0.69 S,0,29152,,0.01827916 R,0,29152,,2 M,19,29152,29552,71,278,-28,256 M,0,29552,30152,-28,256,-37,255 F,0,29852,30152,0.69,0
Sprite,Foreground,Centre,"sb\white.png",0,0 F,0,29152,,0.69 S,0,29152,,0.006833809 R,0,29152,,1 M,19,29152,29552,71,278,-9,287 M,0,29552,30152,-9,287,-16,288 F,0,29852,30152,0.69,0
Sprite,Foreground,Centre,"sb\white.png",0,0 F,0,29152,,0.69 S,0,29152,,0.02806972 R,0,29152,,1 M,19,29152,29552,71,278,128,329 M,0,29552,30152,128,329,133,334 F,0,29852,30152,0.69,0
Sprite,Foreground,Centre,"sb\white.png",0,0 F,0,29152,,0.69 S,0,29152,,0.02193885 R,0,29152,,0 M,19,29152,29552,71,278,34,167 M,0,29552,30152,34,167,31,158 F,0,29852,30152,0.69,0
Sprite,Foreground,Centre,"sb\white.png",0,0 F,0,29152,,0.69 S,0,29152,,0.01682279 R,0,29152,,2 M,19,29152,29552,71,278,7,249 M,0,29552,30152,7,249,1,247 F,0,29852,30152,0.69,0
Sprite,Foreground,Centre,"sb\white.png",0,0 F,0,29152,,0.69 S,0,29152,,0.007373993 R,0,29152,,0 M,19,29152,29552,71,278,142,346 M,0,29552,30152,142,346,148,352 F,0,29852,30152,0.69,0
Sprite,Foreground,Centre,"sb\white.png",0,0 F,0,29152,,0.69 S,0,29152,,0.02637985 R,0,29152,,0 M,19,29152,29552,71,278,26,230 M,0,29552,30152,26,230,23,226 F,0,29852,30152,0.69,0
Sprite,Foreground,Centre,"sb\white.png",0,0 F,0,29152,,0.69 S,0,29152,,0.004363668 R,0,29152,,1 M,19,29152,29552,71,278,62,374 M,0,29552,30152,62,374,61,382 F,0,29852,30152,0.69,0
Sprite,Foreground,Centre,"sb\white.png",0,0 F,0,29152,,0.69 S,0,29152,,0.02751312 R,0,29152,,2 M,19,29152,29552,71,278,40,391 M,0,29552,30152,40,391,37,401 F,0,29852,30152,0.69,0
Sprite,Foreground,Centre,"sb\white.png",0,0 F,0,29152,,0.69 S,0,29152,,0.03064377 R,0,29152,,0 M,19,29152,29552,71,278,-25,261 M,0,29552,30152,-25,261,-34,259 F,0,29852,30152,0.69,0
Sprite,Foreground,Centre,"sb\white.png",0,0 F,0,29152,,0.69 S,0,29152,,0.0278486 R,0,29152,,2 M,19,29152,29552,71,278,196,231 M,0,29552,30152,196,231,207,227 F,0,29852,30152,0.69,0
Sprite,Foreground,Centre,"sb\white.png",0,0 F,0,29152,,0.69 S,0,29152,,0.02764151 R,0,29152,,1 M,19,29152,29552,71,278,-24,298 M,0,29552,30152,-24,298,-32,300 F,0,29852,30152,0.69,0
Sprite,Foreground,Centre,"sb\white.png",0,0 F,0,29152,,0.69 S,0,29152,,0.01252016 R,0,29152,,1 M,19,29152,29552,71,278,-16,249 M,0,29552,30152,-16,249,-24,247 F,0,29852,30152,0.69,0
Sprite,Foreground,Centre,"sb\white.png",0,0 F,0,29152,,0.69 S,0,29152,,0.01581015 R,0,29152,,1 M,19,29152,29552,71,278,10,328 M,0,29552,30152,10,328,5,333 F,0,29852,30152,0.69,0
Sprite,Foreground,Centre,"sb\white.png",0,0 F,0,29152,,0.69 S,0,29152,,0.03009593 R,0,29152,,2 M,19,29152,29552,71,278,-17,213 M,0,29552,30152,-17,213,-25,208 F,0,29852,30152,0.69,0
Sprite,Foreground,Centre,"sb\white.png",0,0 F,0,29152,,0.69 S,0,29152,,0.02305425 R,0,29152,,1 M,19,29152,29552,71,278,38,383 M,0,29552,30152,38,383,36,392 F,0,29852,30152,0.69,0
Sprite,Foreground,Centre,"sb\white.png",0,0 F,0,29152,,0.69 S,0,29152,,0.02637924 R,0,29152,,0 M,19,29152,29552,71,278,7,291 M,0,29552,30152,7,291,1,292 F,0,29852,30152,0.69,0
Sprite,Foreground,Centre,"sb\white.png",0,0 F,0,29152,,0.69 S,0,29152,,0.01855031 R,0,29152,,2 M,19,29152,29552,71,278,126,241 M,0,29552,30152,126,241,131,238 F,0,29852,30152,0.69,0
Sprite,Foreground,Centre,"sb\white.png",0,0 F,0,29152,,0.69 S,0,29152,,0.01158553 R,0,29152,,1 M,19,29152,29552,71,278,177,240 M,0,29552,30152,177,240,187,237 F,0,29852,30152,0.69,0
Sprite,Foreground,Centre,"sb\white.png",0,0 F,0,29152,,0.69 S,0,29152,,0.009264598 R,0,29152,,0 M,19,29152,29552,71,278,35,347 M,0,29552,30152,35,347,32,353 F,0,29852,30152,0.69,0
Sprite,Foreground,Centre,"sb\white.png",0,0 F,0,29152,,0.69 S,0,29152,,0.02048897 R,0,29152,,2 M,19,29152,29552,71,278,-2,214 M,0,29552,30152,-2,214,-8,209 F,0,29852,30152,0.69,0
Sprite,Foreground,Centre,"sb\white.png",0,0 F,0,29152,,0.69 S,0,29152,,0.02519043 R,0,29152,,2 M,19,29152,29552,71,278,24,335 M,0,29552,30152,24,335,20,341 F,0,29852,30152,0.69,0
Sprite,Foreground,Centre,"sb\white.png",0,0 F,0,29152,,0.69 S,0,29152,,0.006871135 R,0,29152,,1 M,19,29152,29552,71,278,155,354 M,0,29552,30152,155,354,163,360 F,0,29852,30152,0.69,0
Sprite,Foreground,Centre,"sb\white.png",0,0 F,0,29152,,0.69 S,0,29152,,0.01997581 R,0,29152,,2 M,19,29152,29552,71,278,28,229 M,0,29552,30152,28,229,24,225 F,0,29852,30152,0.69,0
Sprite,Foreground,Centre,"sb\white.png",0,0 F,0,29152,,0.69 S,0,29152,,0.01070973 R,0,29152,,1 M,19,29152,29552,71,278,145,191 M,0,29552,30152,145,191,152,184 F,0,29852,30152,0.69,0
Sprite,Foreground,Centre,"sb\white.png",0,0 F,0,29152,,0.69 S,0,29152,,0.02257676 R,0,29152,,0 M,19,29152,29552,71,278,-10,225 M,0,29552,30152,-10,225,-18,220 F,0,29852,30152,0.69,0
Sprite,Foreground,Centre,"sb\white.png",0,0 F,0,29152,,0.69 S,0,29152,,0.0318662 R,0,29152,,0 M,19,29152,29552,71,278,-46,255 M,0,29552,30152,-46,255,-56,253 F,0,29852,30152,0.69,0
Sprite,Foreground,Centre,"sb\white.png",0,0 F,0,29152,,0.69 S,0,29152,,0.005786427 R,0,29152,,0 M,19,29152,29552,71,278,3,287 M,0,29552,30152,3,287,-2,288 F,0,29852,30152,0.69,0
Sprite,Foreground,Centre,"sb\white.png",0,0 F,0,29152,,0.69 S,0,29152,,0.005017607 R,0,29152,,0 M,19,29152,29552,71,278,141,270 M,0,29552,30152,141,270,147,269 F,0,29852,30152,0.69,0
Sprite,Foreground,Centre,"sb\white.png",0,0 F,0,29152,,0.69 S,0,29152,,0.01848256 R,0,29152,,1 M,19,29152,29552,71,278,160,296 M,0,29552,30152,160,296,167,298 F,0,29852,30152,0.69,0
Sprite,Foreground,Centre,"sb\white.png",0,0 F,0,29152,,0.69 S,0,29152,,0.01028036 R,0,29152,,0 M,19,29152,29552,71,278,120,216 M,0,29552,30152,120,216,124,211 F,0,29852,30152,0.69,0
Sprite,Foreground,Centre,"sb\white.png",0,0 F,0,29152,,0.69 S,0,29152,,0.02571466 R,0,29152,,2 M,19,29152,29552,71,278,132,368 M,0,29552,30152,132,368,137,376 F,0,29852,30152,0.69,0
Sprite,Foreground,Centre,"sb\white.png",0,0 F,0,29152,,0.69 S,0,29152,,0.0107283 R,0,29152,,0 M,19,29152,29552,71,278,72,195 M,0,29552,30152,72,195,72,188 F,0,29852,30152,0.69,0
Sprite,Foreground,Centre,"sb\white.png",0,0 F,0,29152,,0.69 S,0,29152,,0.009032021 R,0,29152,,1 M,19,29152,29552,71,278,117,322 M,0,29552,30152,117,322,121,326 F,0,29852,30152,0.69,0
Sprite,Foreground,Centre,"sb\white.png",0,0 F,0,29152,,0.69 S,0,29152,,0.0272261 R,0,29152,,0 M,19,29152,29552,71,278,52,146 M,0,29552,30152,52,146,50,135 F,0,29852,30152,0.69,0
Sprite,Foreground,Centre,"sb\white.png",0,0 F,0,29152,,0.69 S,0,29152,,0.005248467 R,0,29152,,0 M,19,29152,29552,71,278,12,320 M,0,29552,30152,12,320,7,323 F,0,29852,30152,0.69,0
Sprite,Foreground,Centre,"sb\white.png",0,0 F,0,29152,,0.69 S,0,29152,,0.01399375 R,0,29152,,1 M,19,29152,29552,71,278,-14,287 M,0,29552,30152,-14,287,-22,287 F,0,29852,30152,0.69,0
Sprite,Foreground,Centre,"sb\white.png",0,0 F,0,29152,,0.69 S,0,29152,,0.02623951 R,0,29152,,0 M,19,29152,29552,71,278,-29,338 M,0,29552,30152,-29,338,-37,343 F,0,29852,30152,0.69,0
Sprite,Foreground,Centre,"sb\white.png",0,0 F,0,29152,,0.69 S,0,29152,,0.00777759 R,0,29152,,1 M,19,29152,29552,71,278,138,327 M,0,29552,30152,138,327,144,331 F,0,29852,30152,0.69,0
Sprite,Foreground,Centre,"sb\white.png",0,0 F,0,29152,,0.69 S,0,29152,,0.01449954 R,0,29152,,2 M,19,29152,29552,71,278,74,172 M,0,29552,30152,74,172,74,163 F,0,29852,30152,0.69,0
Sprite,Foreground,Centre,"sb\white.png",0,0 F,0,29152,,0.69 S,0,29152,,0.006389068 R,0,29152,,1 M,19,29152,29552,71,278,-30,307 M,0,29552,30152,-30,307,-39,309 F,0,29852,30152,0.69,0
Sprite,Foreground,Centre,"sb\white.png",0,0 F,0,29152,,0.69 S,0,29152,,0.02578397 R,0,29152,,1 M,19,29152,29552,71,278,174,303 M,0,29552,30152,174,303,183,306 F,0,29852,30152,0.69,0
Sprite,Foreground,Centre,"sb\white.png",0,0 F,0,29152,,0.69 S,0,29152,,0.02380038 R,0,29152,,1 M,19,29152,29552,71,278,41,191 M,0,29552,30152,41,191,38,184 F,0,29852,30152,0.69,0
Sprite,Foreground,Centre,"sb\white.png",0,0 F,0,29152,,0.69 S,0,29152,,0.02746229 R,0,29152,,1 M,19,29152,29552,71,278,6,259 M,0,29552,30152,6,259,0,258 F,0,29852,30152,0.69,0
Sprite,Foreground,Centre,"sb\white.png",0,0 F,0,29152,,0.69 S,0,29152,,0.01546844 R,0,29152,,2 M,19,29152,29552,71,278,164,214 M,0,29552,30152,164,214,172,208 F,0,29852,30152,0.69,0
Sprite,Foreground,Centre,"sb\white.png",0,0 F,0,29152,,0.69 S,0,29152,,0.02504146 R,0,29152,,0 M,19,29152,29552,71,278,-36,218 M,0,29552,30152,-36,218,-46,213 F,0,29852,30152,0.69,0
Sprite,Foreground,Centre,"sb\white.png",0,0 F,0,29152,,0.69 S,0,29152,,0.0203677 R,0,29152,,2 M,19,29152,29552,71,278,176,221 M,0,29552,30152,176,221,185,216 F,0,29852,30152,0.69,0
Sprite,Foreground,Centre,"sb\white.png",0,0 F,0,29152,,0.69 S,0,29152,,0.01938571 R,0,29152,,0 M,19,29152,29552,71,278,200,320 M,0,29552,30152,200,320,211,323 F,0,29852,30152,0.69,0
Sprite,Foreground,Centre,"sb\white.png",0,0 F,0,29152,,0.69 S,0,29152,,0.0164103 R,0,29152,,1 M,19,29152,29552,71,278,146,260 M,0,29552,30152,146,260,152,258 F,0,29852,30152,0.69,0
Sprite,Foreground,Centre,"sb\white.png",0,0 F,0,29152,,0.69 S,0,29152,,0.005542558 R,0,29152,,1 M,19,29152,29552,71,278,177,221 M,0,29552,30152,177,221,186,216 F,0,29852,30152,0.69,0
Sprite,Foreground,Centre,"sb\white.png",0,0 F,0,29152,,0.69 S,0,29152,,0.03197321 R,0,29152,,2 M,19,29152,29552,71,278,44,351 M,0,29552,30152,44,351,42,357 F,0,29852,30152,0.69,0
Sprite,Foreground,Centre,"sb\white.png",0,0 F,0,29152,,0.69 S,0,29152,,0.02266951 R,0,29152,,0 M,19,29152,29552,71,278,0,299 M,0,29552,30152,0,299,-6,301 F,0,29852,30152,0.69,0
Sprite,Foreground,Centre,"sb\glow.png",189,56 C,0,31234,,255,36,130 F,0,31234,31334,0,0.6 F,0,32016,32116,0.6,0
Sprite,Foreground,Centre,"sb\glow.png",198.2451,73.46691 C,0,31259,,255,36,130 F,0,31259,31359,0,0.6 F,0,32016,32116,0.6,0
Sprite,Foreground,Centre,"sb\glow.png",204.722,92.12302 C,0,31284,,255,36,130 F,0,31284,31384,0,0.6 F,0,32016,32116,0.6,0
Sprite,Foreground,Centre,"sb\glow.png",208.4785,111.5172 C,0,31309,,255,36,130 F,0,31309,31409,0,0.6 F,0,32016,32116,0.6,0
Sprite,Foreground,Centre,"sb\glow.png",208.8407,131.2702 C,0,31334,,255,36,130 F,0,31334,31434,0,0.6 F,0,32016,32116,0.6,0
Sprite,Foreground,Centre,"sb\glow.png",206.1965,150.8377 C,0,31359,,255,36,130 F,0,31359,31459,0,0.6 F,0,32016,32116,0.6,0
Sprite,Foreground,Centre,"sb\glow.png",200.7183,169.8079 C,0,31384,,255,36,130 F,0,31384,31484,0,0.6 F,0,32016,32116,0.6,0
Sprite,Foreground,Centre,"sb\glow.png",192.1249,187.5916 C,0,31409,,255,36,130 F,0,31409,31509,0,0.6 F,0,32016,32116,0.6,0
Sprite,Foreground,Centre,"sb\glow.png",64,168 C,0,31598,,255,36,130 F,0,31598,31698,0,0.6 F,0,32380,32480,0.6,0
Sprite,Foreground,Centre,"sb\glow.png",83.70641,166.5222 C,0,31623,,255,36,130 F,0,31623,31723,0,0.6 F,0,32380,32480,0.6,0
Sprite,Foreground,Centre,"sb\glow.png",103.3912,168.0913 C,0,31648,,255,36,130 F,0,31648,31748,0,0.6 F,0,32380,32480,0.6,0
Sprite,Foreground,Centre,"sb\glow.png",122.6478,172.4893 C,0,31673,,255,36,130 F,0,31673,31773,0,0.6 F,0,32380,32480,0.6,0
Sprite,Foreground,Centre,"sb\glow.png",140.85,180.1655 C,0,31698,,255,36,130 F,0,31698,31798,0,0.6 F,0,32380,32480,0.6,0
Sprite,Foreground,Centre,"sb\glow.png",157.6459,190.5441 C,0,31723,,255,36,130 F,0,31723,31823,0,0.6 F,0,32380,32480,0.6,0
Sprite,Foreground,Centre,"sb\glow.png",172.7079,203.3073 C,0,31748,,255,36,130 F,0,31748,31848,0,0.6 F,0,32380,32480,0.6,0
Sprite,Foreground,Centre,"sb\glow.png",185.3967,218.4406 C,0,31773,,255,36,130 F,0,31773,31873,0,0.6 F,0,32380,32480,0.6,0
Sprite,Foreground,Centre,"sb\pinkC.png",0,0 M,0,32062,,64,440 F,0,32062,32562,1 S,19,32062,33062,0.1,0.52 F,0,32762,33062,1,0
Sprite,Foreground,Centre,"sb\white.png",0,0 F,0,32062,,0.69 S,0,32062,,0.02328828 R,0,32062,,0 M,19,32062,32462,64,440,176,433 M,0,32462,33062,176,433,185,433 F,0,32762,33062,0.69,0
Sprite,Foreground,Centre,"sb\white.png",0,0 F,0,32062,,0.69 S,0,32062,,0.02362102 R,0,32062,,1 M,19,32062,32462,64,440,145,363 M,0,32462,33062,145,363,152,356 F,0,32762,33062,0.69,0
Sprite,Foreground,Centre,"sb\white.png",0,0 F,0,32062,,0.69 S,0,32062,,0.0303195 R,0,32062,,1 M,19,32062,32462,64,440,94,367 M,0,32462,33062,94,367,97,360 F,0,32762,33062,0.69,0
Sprite,Foreground,Centre,"sb\white.png",0,0 F,0,32062,,0.69 S,0,32062,,0.01828551 R,0,32062,,1 M,19,32062,32462,64,440,105,533 M,0,32462,33062,105,533,109,541 F,0,32762,33062,0.69,0
Sprite,Foreground,Centre,"sb\white.png",0,0 F,0,32062,,0.69 S,0,32062,,0.01858607 R,0,32062,,1 M,19,32062,32462,64,440,6,497 M,0,32462,33062,6,497,1,503 F,0,32762,33062,0.69,0
Sprite,Foreground,Centre,"sb\white.png",0,0 F,0,32062,,0.69 S,0,32062,,0.02730031 R,0,32062,,2 M,19,32062,32462,64,440,39,539 M,0,32462,33062,39,539,37,547 F,0,32762,33062,0.69,0
Sprite,Foreground,Centre,"sb\white.png",0,0 F,0,32062,,0.69 S,0,32062,,0.01533423 R,0,32062,,1 M,19,32062,32462,64,440,48,328 M,0,32462,33062,48,328,46,319 F,0,32762,33062,0.69,0
Sprite,Foreground,Centre,"sb\white.png",0,0 F,0,32062,,0.69 S,0,32062,,0.006078069 R,0,32062,,1 M,19,32062,32462,64,440,-17,483 M,0,32462,33062,-17,483,-25,487 F,0,32762,33062,0.69,0
Sprite,Foreground,Centre,"sb\white.png",0,0 F,0,32062,,0.69 S,0,32062,,0.02574111 R,0,32062,,1 M,19,32062,32462,64,440,140,393 M,0,32462,33062,140,393,146,389 F,0,32762,33062,0.69,0
Sprite,Foreground,Centre,"sb\white.png",0,0 F,0,32062,,0.69 S,0,32062,,0.01062987 R,0,32062,,2 M,19,32062,32462,64,440,121,321 M,0,32462,33062,121,321,126,311 F,0,32762,33062,0.69,0
Sprite,Foreground,Centre,"sb\white.png",0,0 F,0,32062,,0.69 S,0,32062,,0.01662955 R,0,32062,,2 M,19,32062,32462,64,440,-9,413 M,0,32462,33062,-9,413,-15,411 F,0,32762,33062,0.69,0
Sprite,Foreground,Centre,"sb\white.png",0,0 F,0,32062,,0.69 S,0,32062,,0.0204812 R,0,32062,,0 M,19,32062,32462,64,440,43,334 M,0,32462,33062,43,334,41,325 F,0,32762,33062,0.69,0
Sprite,Foreground,Centre,"sb\white.png",0,0 F,0,32062,,0.69 S,0,32062,,0.00515312 R,0,32062,,2 M,19,32062,32462,64,440,104,526 M,0,32462,33062,104,526,108,534 F,0,32762,33062,0.69,0
Sprite,Foreground,Centre,"sb\white.png",0,0 F,0,32062,,0.69 S,0,32062,,0.0106122 R,0,32062,,1 M,19,32062,32462,64,440,16,373 M,0,32462,33062,16,373,12,367 F,0,32762,33062,0.69,0
Sprite,Foreground,Centre,"sb\white.png",0,0 F,0,32062,,0.69 S,0,32062,,0.02588693 R,0,32062,,2 M,19,32062,32462,64,440,3,368 M,0,32462,33062,3,368,-1,361 F,0,32762,33062,0.69,0
Sprite,Foreground,Centre,"sb\white.png",0,0 F,0,32062,,0.69 S,0,32062,,0.01929294 R,0,32062,,1 M,19,32062,32462,64,440,127,458 M,0,32462,33062,127,458,133,459 F,0,32762,33062,0.69,0
Sprite,Foreground,Centre,"sb\white.png",0,0 F,0,32062,,0.69 S,0,32062,,0.004476437 R,0,32062,,0 M,19,32062,32462,64,440,59,563 M,0,32462,33062,59,563,59,573 F,0,32762,33062,0.69,0
Sprite,Foreground,Centre,"sb\white.png",0,0 F,0,32062,,0.69 S,0,32062,,0.02432901 R,0,32062,,0 M,19,32062,32462,64,440,168,490 M,0,32462,33062,168,490,177,495 F,0,32762,33062,0.69,0
Sprite,Foreground,Centre,"sb\white.png",0,0 F,0,32062,,0.69 S,0,32062,,0.01989478 R,0,32062,,1 M,19,32062,32462,64,440,-22,406 M,0,32462,33062,-22,406,-30,403 F,0,32762,33062,0.69,0
Sprite,Foreground,Centre,"sb\white.png",0,0 F,0,32062,,0.69 S,0,32062,,0.03105339 R,0,32062,,2 M,19,32062,32462,64,440,36,311 M,0,32462,33062,36,311,33,300 F,0,32762,33062,0.69,0
Sprite,Foreground,Centre,"sb\white.png",0,0 F,0,32062,,0.69 S,0,32062,,0.03178752 R,0,32062,,2 M,19,32062,32462,64,440,33,371 M,0,32462,33062,33,371,30,366 F,0,32762,33062,0.69,0
Sprite,Foreground,Centre,"sb\white.png",0,0 F,0,32062,,0.69 S,0,32062,,0.02154058 R,0,32062,,0 M,19,32062,32462,64,440,24,359 M,0,32462,33062,24,359,20,352 F,0,32762,33062,0.69,0
Sprite,Foreground,Centre,"sb\white.png",0,0 F,0,32062,,0.69 S,0,32062,,0.022373 R,0,32062,,2 M,19,32062,32462,64,440,1,362 M,0,32462,33062,1,362,-4,356 F,0,32762,33062,0.69,0
Sprite,Foreground,Centre,"sb\white.png",0,0 F,0,32062,,0.69 S,0,32062,,0.007024006 R,0,32062,,2 M,19,32062,32462,64,440,36,498 M,0,32462,33062,36,498,34,503 F,0,32762,33062,0.69,0
Sprite,Foreground,Centre,"sb\white.png",0,0 F,0,32062,,0.69 S,0,32062,,0.006082623 R,0,32062,,0 M,19,32062,32462,64,440,162,373 M,0,32462,33062,162,373,170,367 F,0,32762,33062,0.69,0
Sprite,Foreground,Centre,"sb\white.png",0,0 F,0,32062,,0.69 S,0,32062,,0.02594243 R,0,32062,,0 M,19,32062,32462,64,440,123,409 M,0,32462,33062,123,409,128,406 F,0,32762,33062,0.69,0
Sprite,Foreground,Centre,"sb\white.png",0,0 F,0,32062,,0.69 S,0,32062,,0.02838482 R,0,32062,,0 M,19,32062,32462,64,440,-29,508 M,0,32462,33062,-29,508,-37,514 F,0,32762,33062,0.69,0
Sprite,Foreground,Centre,"sb\white.png",0,0 F,0,32062,,0.69 S,0,32062,,0.01985705 R,0,32062,,0 M,19,32062,32462,64,440,135,504 M,0,32462,33062,135,504,142,510 F,0,32762,33062,0.69,0
Sprite,Foreground,Centre,"sb\white.png",0,0 F,0,32062,,0.69 S,0,32062,,0.0175228 R,0,32062,,2 M,19,32062,32462,64,440,8,339 M,0,32462,33062,8,339,3,330 F,0,32762,33062,0.69,0
Sprite,Foreground,Centre,"sb\white.png",0,0 F,0,32062,,0.69 S,0,32062,,0.008551624 R,0,32062,,0 M,19,32062,32462,64,440,-33,452 M,0,32462,33062,-33,452,-42,453 F,0,32762,33062,0.69,0
Sprite,Foreground,Centre,"sb\white.png",0,0 F,0,32062,,0.69 S,0,32062,,0.01704975 R,0,32062,,0 M,19,32062,32462,64,440,-10,465 M,0,32462,33062,-10,465,-17,468 F,0,32762,33062,0.69,0
Sprite,Foreground,Centre,"sb\white.png",0,0 F,0,32062,,0.69 S,0,32062,,0.03113079 R,0,32062,,0 M,19,32062,32462,64,440,188,406 M,0,32462,33062,188,406,199,403 F,0,32762,33062,0.69,0
Sprite,Foreground,Centre,"sb\white.png",0,0 F,0,32062,,0.69 S,0,32062,,0.03091496 R,0,32062,,0 M,19,32062,32462,64,440,129,395 M,0,32462,33062,129,395,135,391 F,0,32762,33062,0.69,0
Sprite,Foreground,Centre,"sb\white.png",0,0 F,0,32062,,0.69 S,0,32062,,0.01529764 R,0,32062,,2 M,19,32062,32462,64,440,117,384 M,0,32462,33062,117,384,122,379 F,0,32762,33062,0.69,0
Sprite,Foreground,Centre,"sb\white.png",0,0 F,0,32062,,0.69 S,0,32062,,0.03021801 R,0,32062,,2 M,19,32062,32462,64,440,5,397 M,0,32462,33062,5,397,0,394 F,0,32762,33062,0.69,0
Sprite,Foreground,Centre,"sb\white.png",0,0 F,0,32062,,0.69 S,0,32062,,0.008711754 R,0,32062,,1 M,19,32062,32462,64,440,-31,535 M,0,32462,33062,-31,535,-39,544 F,0,32762,33062,0.69,0
Sprite,Foreground,Centre,"sb\white.png",0,0 F,0,32062,,0.69 S,0,32062,,0.02170246 R,0,32062,,2 M,19,32062,32462,64,440,177,513 M,0,32462,33062,177,513,187,520 F,0,32762,33062,0.69,0
Sprite,Foreground,Centre,"sb\white.png",0,0 F,0,32062,,0.69 S,0,32062,,0.01281957 R,0,32062,,0 M,19,32062,32462,64,440,7,561 M,0,32462,33062,7,561,2,572 F,0,32762,33062,0.69,0
Sprite,Foreground,Centre,"sb\white.png",0,0 F,0,32062,,0.69 S,0,32062,,0.01988892 R,0,32062,,1 M,19,32062,32462,64,440,26,342 M,0,32462,33062,26,342,22,333 F,0,32762,33062,0.69,0
Sprite,Foreground,Centre,"sb\white.png",0,0 F,0,32062,,0.69 S,0,32062,,0.004226203 R,0,32062,,0 M,19,32062,32462,64,440,-42,451 M,0,32462,33062,-42,451,-51,452 F,0,32762,33062,0.69,0
Sprite,Foreground,Centre,"sb\white.png",0,0 F,0,32062,,0.69 S,0,32062,,0.008508487 R,0,32062,,1 M,19,32062,32462,64,440,24,507 M,0,32462,33062,24,507,21,513 F,0,32762,33062,0.69,0
Sprite,Foreground,Centre,"sb\white.png",0,0 F,0,32062,,0.69 S,0,32062,,0.02843998 R,0,32062,,1 M,19,32062,32462,64,440,125,401 M,0,32462,33062,125,401,130,397 F,0,32762,33062,0.69,0
Sprite,Foreground,Centre,"sb\white.png",0,0 F,0,32062,,0.69 S,0,32062,,0.03051839 R,0,32062,,0 M,19,32062,32462,64,440,35,319 M,0,32462,33062,35,319,33,309 F,0,32762,33062,0.69,0
Sprite,Foreground,Centre,"sb\white.png",0,0 F,0,32062,,0.69 S,0,32062,,0.004560564 R,0,32062,,2 M,19,32062,32462,64,440,119,410 M,0,32462,33062,119,410,124,407 F,0,32762,33062,0.69,0
Sprite,Foreground,Centre,"sb\white.png",0,0 F,0,32062,,0.69 S,0,32062,,0.01878005 R,0,32062,,1 M,19,32062,32462,64,440,137,523 M,0,32462,33062,137,523,143,531 F,0,32762,33062,0.69,0
Sprite,Foreground,Centre,"sb\white.png",0,0 F,0,32062,,0.69 S,0,32062,,0.01844973 R,0,32062,,1 M,19,32062,32462,64,440,-6,553 M,0,32462,33062,-6,553,-12,563 F,0,32762,33062,0.69,0
Sprite,Foreground,Centre,"sb\white.png",0,0 F,0,32062,,0.69 S,0,32062,,0.01229047 R,0,32062,,0 M,19,32062,32462,64,440,31,524 M,0,32462,33062,31,524,28,531 F,0,32762,33062,0.69,0
Sprite,Foreground,Centre,"sb\white.png",0,0 F,0,32062,,0.69 S,0,32062,,0.01485041 R,0,32062,,1 M,19,32062,32462,64,440,178,495 M,0,32462,33062,178,495,188,500 F,0,32762,33062,0.69,0
Sprite,Foreground,Centre,"sb\white.png",0,0 F,0,32062,,0.69 S,0,32062,,0.007523892 R,0,32062,,0 M,19,32062,32462,64,440,73,546 M,0,32462,33062,73,546,74,555 F,0,32762,33062,0.69,0
Sprite,Foreground,Centre,"sb\white.png",0,0 F,0,32062,,0.69 S,0,32062,,0.01143504 R,0,32062,,1 M,19,32062,32462,64,440,173,424 M,0,32462,33062,173,424,182,422 F,0,32762,33062,0.69,0
Sprite,Foreground,Centre,"sb\white.png",0,0 F,0,32062,,0.69 S,0,32062,,0.01584038 R,0,32062,,2 M,19,32062,32462,64,440,94,371 M,0,32462,33062,94,371,97,365 F,0,32762,33062,0.69,0
Sprite,Foreground,Centre,"sb\white.png",0,0 F,0,32062,,0.69 S,0,32062,,0.01911343 R,0,32062,,0 M,19,32062,32462,64,440,195,449 M,0,32462,33062,195,449,206,449 F,0,32762,33062,0.69,0
Sprite,Foreground,Centre,"sb\white.png",0,0 F,0,32062,,0.69 S,0,32062,,0.02333318 R,0,32062,,0 M,19,32062,32462,64,440,-12,499 M,0,32462,33062,-12,499,-18,504 F,0,32762,33062,0.69,0
Sprite,Foreground,Centre,"sb\white.png",0,0 F,0,32062,,0.69 S,0,32062,,0.02247825 R,0,32062,,0 M,19,32062,32462,64,440,53,538 M,0,32462,33062,53,538,52,547 F,0,32762,33062,0.69,0
Sprite,Foreground,Centre,"sb\white.png",0,0 F,0,32062,,0.69 S,0,32062,,0.008715892 R,0,32062,,1 M,19,32062,32462,64,440,-5,420 M,0,32462,33062,-5,420,-11,418 F,0,32762,33062,0.69,0
Sprite,Foreground,Centre,"sb\white.png",0,0 F,0,32062,,0.69 S,0,32062,,0.009174283 R,0,32062,,2 M,19,32062,32462,64,440,137,421 M,0,32462,33062,137,421,143,419 F,0,32762,33062,0.69,0
Sprite,Foreground,Centre,"sb\white.png",0,0 F,0,32062,,0.69 S,0,32062,,0.01390351 R,0,32062,,0 M,19,32062,32462,64,440,-30,342 M,0,32462,33062,-30,342,-39,333 F,0,32762,33062,0.69,0
Sprite,Foreground,Centre,"sb\white.png",0,0 F,0,32062,,0.69 S,0,32062,,0.008835197 R,0,32062,,2 M,19,32062,32462,64,440,82,376 M,0,32462,33062,82,376,83,370 F,0,32762,33062,0.69,0
Sprite,Foreground,Centre,"sb\white.png",0,0 F,0,32062,,0.69 S,0,32062,,0.01130124 R,0,32062,,2 M,19,32062,32462,64,440,123,326 M,0,32462,33062,123,326,128,317 F,0,32762,33062,0.69,0
Sprite,Foreground,Centre,"sb\white.png",0,0 F,0,32062,,0.69 S,0,32062,,0.02288436 R,0,32062,,2 M,19,32062,32462,64,440,175,411 M,0,32462,33062,175,411,185,409 F,0,32762,33062,0.69,0
Sprite,Foreground,Centre,"sb\white.png",0,0 F,0,32062,,0.69 S,0,32062,,0.02461631 R,0,32062,,2 M,19,32062,32462,64,440,-21,446 M,0,32462,33062,-21,446,-28,446 F,0,32762,33062,0.69,0
Sprite,Foreground,Centre,"sb\white.png",0,0 F,0,32062,,0.69 S,0,32062,,0.007003152 R,0,32062,,1 M,19,32062,32462,64,440,27,320 M,0,32462,33062,27,320,23,310 F,0,32762,33062,0.69,0
Sprite,Foreground,Centre,"sb\white.png",0,0 F,0,32062,,0.69 S,0,32062,,0.007516235 R,0,32062,,2 M,19,32062,32462,64,440,119,377 M,0,32462,33062,119,377,124,372 F,0,32762,33062,0.69,0
Sprite,Foreground,Centre,"sb\white.png",0,0 F,0,32062,,0.69 S,0,32062,,0.03042966 R,0,32062,,2 M,19,32062,32462,64,440,82,546 M,0,32462,33062,82,546,84,556 F,0,32762,33062,0.69,0
Sprite,Foreground,Centre,"sb\white.png",0,0 F,0,32062,,0.69 S,0,32062,,0.005222825 R,0,32062,,1 M,19,32062,32462,64,440,-31,399 M,0,32462,33062,-31,399,-40,396 F,0,32762,33062,0.69,0
Sprite,Foreground,Centre,"sb\white.png",0,0 F,0,32062,,0.69 S,0,32062,,0.01875961 R,0,32062,,0 M,19,32062,32462,64,440,129,482 M,0,32462,33062,129,482,135,486 F,0,32762,33062,0.69,0
Sprite,Foreground,Centre,"sb\white.png",0,0 F,0,32062,,0.69 S,0,32062,,0.01170921 R,0,32062,,2 M,19,32062,32462,64,440,119,407 M,0,32462,33062,119,407,124,404 F,0,32762,33062,0.69,0
Sprite,Foreground,Centre,"sb\white.png",0,0 F,0,32062,,0.69 S,0,32062,,0.01384975 R,0,32062,,2 M,19,32062,32462,64,440,-17,534 M,0,32462,33062,-17,534,-25,542 F,0,32762,33062,0.69,0
Sprite,Foreground,Centre,"sb\white.png",0,0 F,0,32062,,0.69 S,0,32062,,0.004602766 R,0,32062,,0 M,19,32062,32462,64,440,-5,536 M,0,32462,33062,-5,536,-11,544 F,0,32762,33062,0.69,0
Sprite,Foreground,Centre,"sb\white.png",0,0 F,0,32062,,0.69 S,0,32062,,0.009121809 R,0,32062,,0 M,19,32062,32462,64,440,71,545 M,0,32462,33062,71,545,72,554 F,0,32762,33062,0.69,0
Sprite,Foreground,Centre,"sb\white.png",0,0 F,0,32062,,0.69 S,0,32062,,0.01612636 R,0,32062,,0 M,19,32062,32462,64,440,-64,467 M,0,32462,33062,-64,467,-75,469 F,0,32762,33062,0.69,0
Sprite,Foreground,Centre,"sb\white.png",0,0 F,0,32062,,0.69 S,0,32062,,0.0257341 R,0,32062,,2 M,19,32062,32462,64,440,27,527 M,0,32462,33062,27,527,23,534 F,0,32762,33062,0.69,0
Sprite,Foreground,Centre,"sb\white.png",0,0 F,0,32062,,0.69 S,0,32062,,0.0275846 R,0,32062,,0 M,19,32062,32462,64,440,-62,408 M,0,32462,33062,-62,408,-73,405 F,0,32762,33062,0.69,0
Sprite,Foreground,Centre,"sb\white.png",0,0 F,0,32062,,0.69 S,0,32062,,0.00658616 R,0,32062,,0 M,19,32062,32462,64,440,175,449 M,0,32462,33062,175,449,185,450 F,0,32762,33062,0.69,0
Sprite,Foreground,Centre,"sb\white.png",0,0 F,0,32062,,0.69 S,0,32062,,0.01528338 R,0,32062,,1 M,19,32062,32462,64,440,93,344 M,0,32462,33062,93,344,95,335 F,0,32762,33062,0.69,0
Sprite,Foreground,Centre,"sb\white.png",0,0 F,0,32062,,0.69 S,0,32062,,0.01043042 R,0,32062,,0 M,19,32062,32462,64,440,77,525 M,0,32462,33062,77,525,78,532 F,0,32762,33062,0.69,0
Sprite,Foreground,Centre,"sb\glow.png",573,126 C,0,34143,,255,36,130 F,0,34143,34243,0,0.6 F,0,34925,35025,0.6,0
Sprite,Foreground,Centre,"sb\glow.png",559.2098,111.7919 C,0,34168,,255,36,130 F,0,34168,34268,0,0.6 F,0,34925,35025,0.6,0
Sprite,Foreground,Centre,"sb\glow.png",545.4196,97.5838 C,0,34193,,255,36,130 F,0,34193,34293,0,0.6 F,0,34925,35025,0.6,0
Sprite,Foreground,Centre,"sb\glow.png",528.0326,93.10809 C,0,34218,,255,36,130 F,0,34218,34318,0,0.6 F,0,34925,35025,0.6,0
Sprite,Foreground,Centre,"sb\glow.png",508.317,94.93362 C,0,34243,,255,36,130 F,0,34243,34343,0,0.6 F,0,34925,35025,0.6,0
Sprite,Foreground,Centre,"sb\glow.png",488.6013,96.75914 C,0,34268,,255,36,130 F,0,34268,34368,0,0.6 F,0,34925,35025,0.6,0
Sprite,Foreground,Centre,"sb\glow.png",468.8856,98.58466 C,0,34293,,255,36,130 F,0,34293,34393,0,0.6 F,0,34925,35025,0.6,0
Sprite,Foreground,Centre,"sb\glow.png",449.17,100.4102 C,0,34318,,255,36,130 F,0,34318,34418,0,0.6 F,0,34925,35025,0.6,0
Sprite,Foreground,Centre,"sb\glow.png",321,199 C,0,34507,,255,36,130 F,0,34507,34607,0,0.6 F,0,35289,35389,0.6,0
Sprite,Foreground,Centre,"sb\glow.png",334.7837,213.2144 C,0,34532,,255,36,130 F,0,34532,34632,0,0.6 F,0,35289,35389,0.6,0
Sprite,Foreground,Centre,"sb\glow.png",348.5674,227.4289 C,0,34557,,255,36,130 F,0,34557,34657,0,0.6 F,0,35289,35389,0.6,0
Sprite,Foreground,Centre,"sb\glow.png",366.3754,230.7615 C,0,34582,,255,36,130 F,0,34582,34682,0,0.6 F,0,35289,35389,0.6,0
Sprite,Foreground,Centre,"sb\glow.png",386.0911,228.936 C,0,34607,,255,36,130 F,0,34607,34707,0,0.6 F,0,35289,35389,0.6,0
Sprite,Foreground,Centre,"sb\glow.png",405.8067,227.1105 C,0,34632,,255,36,130 F,0,34632,34732,0,0.6 F,0,35289,35389,0.6,0
Sprite,Foreground,Centre,"sb\glow.png",425.5224,225.285 C,0,34657,,255,36,130 F,0,34657,34757,0,0.6 F,0,35289,35389,0.6,0
Sprite,Foreground,Centre,"sb\glow.png",445.2381,223.4594 C,0,34682,,255,36,130 F,0,34682,34782,0,0.6 F,0,35289,35389,0.6,0
Sprite,Foreground,Centre,"sb\blueC.png",0,0 M,0,34971,,375,56 F,0,34971,35471,1 S,19,34971,35971,0.1,0.52 F,0,35671,35971,1,0
Sprite,Foreground,Centre,"sb\white.png",0,0 F,0,34971,,0.69 S,0,34971,,0.02458908 R,0,34971,,2 M,19,34971,35371,375,56,489,114 M,0,35371,35971,489,114,499,119 F,0,35671,35971,0.69,0
Sprite,Foreground,Centre,"sb\white.png",0,0 F,0,34971,,0.69 S,0,34971,,0.005264938 R,0,34971,,1 M,19,34971,35371,375,56,261,17 M,0,35371,35971,261,17,252,13 F,0,35671,35971,0.69,0
Sprite,Foreground,Centre,"sb\white.png",0,0 F,0,34971,,0.69 S,0,34971,,0.007553412 R,0,34971,,1 M,19,34971,35371,375,56,420,-70 M,0,35371,35971,420,-70,424,-81 F,0,35671,35971,0.69,0
Sprite,Foreground,Centre,"sb\white.png",0,0 F,0,34971,,0.69 S,0,34971,,0.01390726 R,0,34971,,0 M,19,34971,35371,375,56,385,-34 M,0,35371,35971,385,-34,386,-42 F,0,35671,35971,0.69,0
Sprite,Foreground,Centre,"sb\white.png",0,0 F,0,34971,,0.69 S,0,34971,,0.02158569 R,0,34971,,2 M,19,34971,35371,375,56,311,150 M,0,35371,35971,311,150,305,158 F,0,35671,35971,0.69,0
Sprite,Foreground,Centre,"sb\white.png",0,0 F,0,34971,,0.69 S,0,34971,,0.02516695 R,0,34971,,1 M,19,34971,35371,375,56,343,-59 M,0,35371,35971,343,-59,341,-69 F,0,35671,35971,0.69,0
Sprite,Foreground,Centre,"sb\white.png",0,0 F,0,34971,,0.69 S,0,34971,,0.01099907 R,0,34971,,0 M,19,34971,35371,375,56,420,-64 M,0,35371,35971,420,-64,424,-74 F,0,35671,35971,0.69,0
Sprite,Foreground,Centre,"sb\white.png",0,0 F,0,34971,,0.69 S,0,34971,,0.01950765 R,0,34971,,2 M,19,34971,35371,375,56,359,-5 M,0,35371,35971,359,-5,358,-10 F,0,35671,35971,0.69,0
Sprite,Foreground,Centre,"sb\white.png",0,0 F,0,34971,,0.69 S,0,34971,,0.02928556 R,0,34971,,0 M,19,34971,35371,375,56,418,120 M,0,35371,35971,418,120,422,125 F,0,35671,35971,0.69,0
Sprite,Foreground,Centre,"sb\white.png",0,0 F,0,34971,,0.69 S,0,34971,,0.01981777 R,0,34971,,2 M,19,34971,35371,375,56,424,9 M,0,35371,35971,424,9,428,5 F,0,35671,35971,0.69,0
Sprite,Foreground,Centre,"sb\white.png",0,0 F,0,34971,,0.69 S,0,34971,,0.007480048 R,0,34971,,2 M,19,34971,35371,375,56,279,56 M,0,35371,35971,279,56,271,56 F,0,35671,35971,0.69,0
Sprite,Foreground,Centre,"sb\white.png",0,0 F,0,34971,,0.69 S,0,34971,,0.008629521 R,0,34971,,1 M,19,34971,35371,375,56,461,136 M,0,35371,35971,461,136,468,143 F,0,35671,35971,0.69,0
Sprite,Foreground,Centre,"sb\white.png",0,0 F,0,34971,,0.69 S,0,34971,,0.02960751 R,0,34971,,1 M,19,34971,35371,375,56,304,35 M,0,35371,35971,304,35,298,34 F,0,35671,35971,0.69,0
Sprite,Foreground,Centre,"sb\white.png",0,0 F,0,34971,,0.69 S,0,34971,,0.01829547 R,0,34971,,1 M,19,34971,35371,375,56,304,-7 M,0,35371,35971,304,-7,298,-12 F,0,35671,35971,0.69,0
Sprite,Foreground,Centre,"sb\white.png",0,0 F,0,34971,,0.69 S,0,34971,,0.02555821 R,0,34971,,1 M,19,34971,35371,375,56,248,24 M,0,35371,35971,248,24,237,21 F,0,35671,35971,0.69,0
Sprite,Foreground,Centre,"sb\white.png",0,0 F,0,34971,,0.69 S,0,34971,,0.02270671 R,0,34971,,1 M,19,34971,35371,375,56,481,38 M,0,35371,35971,481,38,490,37 F,0,35671,35971,0.69,0
Sprite,Foreground,Centre,"sb\white.png",0,0 F,0,34971,,0.69 S,0,34971,,0.006518453 R,0,34971,,1 M,19,34971,35371,375,56,429,103 M,0,35371,35971,429,103,433,107 F,0,35671,35971,0.69,0
Sprite,Foreground,Centre,"sb\white.png",0,0 F,0,34971,,0.69 S,0,34971,,0.0156549 R,0,34971,,2 M,19,34971,35371,375,56,473,-18 M,0,35371,35971,473,-18,481,-24 F,0,35671,35971,0.69,0
Sprite,Foreground,Centre,"sb\white.png",0,0 F,0,34971,,0.69 S,0,34971,,0.01417321 R,0,34971,,0 M,19,34971,35371,375,56,438,-19 M,0,35371,35971,438,-19,443,-26 F,0,35671,35971,0.69,0
Sprite,Foreground,Centre,"sb\white.png",0,0 F,0,34971,,0.69 S,0,34971,,0.01510179 R,0,34971,,0 M,19,34971,35371,375,56,461,82 M,0,35371,35971,461,82,468,84 F,0,35671,35971,0.69,0
Sprite,Foreground,Centre,"sb\white.png",0,0 F,0,34971,,0.69 S,0,34971,,0.02987492 R,0,34971,,1 M,19,34971,35371,375,56,396,148 M,0,35371,35971,396,148,398,156 F,0,35671,35971,0.69,0
Sprite,Foreground,Centre,"sb\white.png",0,0 F,0,34971,,0.69 S,0,34971,,0.01149413 R,0,34971,,0 M,19,34971,35371,375,56,316,82 M,0,35371,35971,316,82,311,84 F,0,35671,35971,0.69,0
Sprite,Foreground,Centre,"sb\white.png",0,0 F,0,34971,,0.69 S,0,34971,,0.01032219 R,0,34971,,1 M,19,34971,35371,375,56,344,169 M,0,35371,35971,344,169,341,179 F,0,35671,35971,0.69,0
Sprite,Foreground,Centre,"sb\white.png",0,0 F,0,34971,,0.69 S,0,34971,,0.008583887 R,0,34971,,2 M,19,34971,35371,375,56,302,58 M,0,35371,35971,302,58,296,58 F,0,35671,35971,0.69,0
Sprite,Foreground,Centre,"sb\white.png",0,0 F,0,34971,,0.69 S,0,34971,,0.00939406 R,0,34971,,2 M,19,34971,35371,375,56,467,145 M,0,35371,35971,467,145,475,153 F,0,35671,35971,0.69,0
Sprite,Foreground,Centre,"sb\white.png",0,0 F,0,34971,,0.69 S,0,34971,,0.008854927 R,0,34971,,2 M,19,34971,35371,375,56,301,-9 M,0,35371,35971,301,-9,295,-15 F,0,35671,35971,0.69,0
Sprite,Foreground,Centre,"sb\white.png",0,0 F,0,34971,,0.69 S,0,34971,,0.009109422 R,0,34971,,0 M,19,34971,35371,375,56,409,149 M,0,35371,35971,409,149,412,157 F,0,35671,35971,0.69,0
Sprite,Foreground,Centre,"sb\white.png",0,0 F,0,34971,,0.69 S,0,34971,,0.02542794 R,0,34971,,1 M,19,34971,35371,375,56,351,-51 M,0,35371,35971,351,-51,349,-60 F,0,35671,35971,0.69,0
Sprite,Foreground,Centre,"sb\white.png",0,0 F,0,34971,,0.69 S,0,34971,,0.02088713 R,0,34971,,2 M,19,34971,35371,375,56,347,140 M,0,35371,35971,347,140,345,148 F,0,35671,35971,0.69,0
Sprite,Foreground,Centre,"sb\white.png",0,0 F,0,34971,,0.69 S,0,34971,,0.01126916 R,0,34971,,2 M,19,34971,35371,375,56,425,-70 M,0,35371,35971,425,-70,430,-81 F,0,35671,35971,0.69,0
Sprite,Foreground,Centre,"sb\white.png",0,0 F,0,34971,,0.69 S,0,34971,,0.01790393 R,0,34971,,1 M,19,34971,35371,375,56,367,143 M,0,35371,35971,367,143,366,151 F,0,35671,35971,0.69,0
Sprite,Foreground,Centre,"sb\white.png",0,0 F,0,34971,,0.69 S,0,34971,,0.01522157 R,0,34971,,1 M,19,34971,35371,375,56,378,165 M,0,35371,35971,378,165,379,174 F,0,35671,35971,0.69,0
Sprite,Foreground,Centre,"sb\white.png",0,0 F,0,34971,,0.69 S,0,34971,,0.006895176 R,0,34971,,1 M,19,34971,35371,375,56,457,105 M,0,35371,35971,457,105,464,109 F,0,35671,35971,0.69,0
Sprite,Foreground,Centre,"sb\white.png",0,0 F,0,34971,,0.69 S,0,34971,,0.02308431 R,0,34971,,1 M,19,34971,35371,375,56,371,123 M,0,35371,35971,371,123,371,128 F,0,35671,35971,0.69,0
Sprite,Foreground,Centre,"sb\white.png",0,0 F,0,34971,,0.69 S,0,34971,,0.02140193 R,0,34971,,2 M,19,34971,35371,375,56,498,56 M,0,35371,35971,498,56,509,56 F,0,35671,35971,0.69,0
Sprite,Foreground,Centre,"sb\white.png",0,0 F,0,34971,,0.69 S,0,34971,,0.02572868 R,0,34971,,0 M,19,34971,35371,375,56,412,-48 M,0,35371,35971,412,-48,416,-57 F,0,35671,35971,0.69,0
Sprite,Foreground,Centre,"sb\white.png",0,0 F,0,34971,,0.69 S,0,34971,,0.01081562 R,0,34971,,0 M,19,34971,35371,375,56,381,149 M,0,35371,35971,381,149,382,157 F,0,35671,35971,0.69,0
Sprite,Foreground,Centre,"sb\white.png",0,0 F,0,34971,,0.69 S,0,34971,,0.02786896 R,0,34971,,0 M,19,34971,35371,375,56,269,135 M,0,35371,35971,269,135,260,142 F,0,35671,35971,0.69,0
Sprite,Foreground,Centre,"sb\white.png",0,0 F,0,34971,,0.69 S,0,34971,,0.01792952 R,0,34971,,0 M,19,34971,35371,375,56,454,2 M,0,35371,35971,454,2,461,-2 F,0,35671,35971,0.69,0
Sprite,Foreground,Centre,"sb\white.png",0,0 F,0,34971,,0.69 S,0,34971,,0.007750253 R,0,34971,,1 M,19,34971,35371,375,56,429,88 M,0,35371,35971,429,88,434,91 F,0,35671,35971,0.69,0
Sprite,Foreground,Centre,"sb\white.png",0,0 F,0,34971,,0.69 S,0,34971,,0.01748706 R,0,34971,,2 M,19,34971,35371,375,56,301,47 M,0,35371,35971,301,47,295,46 F,0,35671,35971,0.69,0
Sprite,Foreground,Centre,"sb\white.png",0,0 F,0,34971,,0.69 S,0,34971,,0.01041038 R,0,34971,,2 M,19,34971,35371,375,56,332,-8 M,0,35371,35971,332,-8,329,-14 F,0,35671,35971,0.69,0
Sprite,Foreground,Centre,"sb\white.png",0,0 F,0,34971,,0.69 S,0,34971,,0.02855983 R,0,34971,,2 M,19,34971,35371,375,56,321,166 M,0,35371,35971,321,166,316,176 F,0,35671,35971,0.69,0
Sprite,Foreground,Centre,"sb\white.png",0,0 F,0,34971,,0.69 S,0,34971,,0.01886298 R,0,34971,,0 M,19,34971,35371,375,56,437,144 M,0,35371,35971,437,144,442,152 F,0,35671,35971,0.69,0
Sprite,Foreground,Centre,"sb\white.png",0,0 F,0,34971,,0.69 S,0,34971,,0.03024754 R,0,34971,,1 M,19,34971,35371,375,56,356,152 M,0,35371,35971,356,152,354,161 F,0,35671,35971,0.69,0
Sprite,Foreground,Centre,"sb\white.png",0,0 F,0,34971,,0.69 S,0,34971,,0.02407829 R,0,34971,,0 M,19,34971,35371,375,56,405,-59 M,0,35371,35971,405,-59,408,-69 F,0,35671,35971,0.69,0
Sprite,Foreground,Centre,"sb\white.png",0,0 F,0,34971,,0.69 S,0,34971,,0.01789295 R,0,34971,,2 M,19,34971,35371,375,56,249,17 M,0,35371,35971,249,17,238,14 F,0,35671,35971,0.69,0
Sprite,Foreground,Centre,"sb\white.png",0,0 F,0,34971,,0.69 S,0,34971,,0.02001324 R,0,34971,,0 M,19,34971,35371,375,56,282,65 M,0,35371,35971,282,65,274,66 F,0,35671,35971,0.69,0
Sprite,Foreground,Centre,"sb\white.png",0,0 F,0,34971,,0.69 S,0,34971,,0.02831933 R,0,34971,,1 M,19,34971,35371,375,56,317,8 M,0,35371,35971,317,8,312,4 F,0,35671,35971,0.69,0
Sprite,Foreground,Centre,"sb\white.png",0,0 F,0,34971,,0.69 S,0,34971,,0.01348152 R,0,34971,,2 M,19,34971,35371,375,56,350,126 M,0,35371,35971,350,126,348,132 F,0,35671,35971,0.69,0
Sprite,Foreground,Centre,"sb\white.png",0,0 F,0,34971,,0.69 S,0,34971,,0.004008721 R,0,34971,,2 M,19,34971,35371,375,56,295,96 M,0,35371,35971,295,96,288,100 F,0,35671,35971,0.69,0
Sprite,Foreground,Centre,"sb\white.png",0,0 F,0,34971,,0.69 S,0,34971,,0.02464805 R,0,34971,,0 M,19,34971,35371,375,56,409,-2 M,0,35371,35971,409,-2,412,-7 F,0,35671,35971,0.69,0
Sprite,Foreground,Centre,"sb\white.png",0,0 F,0,34971,,0.69 S,0,34971,,0.01354444 R,0,34971,,1 M,19,34971,35371,375,56,304,67 M,0,35371,35971,304,67,297,68 F,0,35671,35971,0.69,0
Sprite,Foreground,Centre,"sb\white.png",0,0 F,0,34971,,0.69 S,0,34971,,0.01750326 R,0,34971,,2 M,19,34971,35371,375,56,369,159 M,0,35371,35971,369,159,369,168 F,0,35671,35971,0.69,0
Sprite,Foreground,Centre,"sb\white.png",0,0 F,0,34971,,0.69 S,0,34971,,0.0064447 R,0,34971,,2 M,19,34971,35371,375,56,281,99 M,0,35371,35971,281,99,273,103 F,0,35671,35971,0.69,0
Sprite,Foreground,Centre,"sb\white.png",0,0 F,0,34971,,0.69 S,0,34971,,0.007246599 R,0,34971,,2 M,19,34971,35371,375,56,449,125 M,0,35371,35971,449,125,456,131 F,0,35671,35971,0.69,0
Sprite,Foreground,Centre,"sb\white.png",0,0 F,0,34971,,0.69 S,0,34971,,0.007206192 R,0,34971,,2 M,19,34971,35371,375,56,356,-18 M,0,35371,35971,356,-18,354,-24 F,0,35671,35971,0.69,0
Sprite,Foreground,Centre,"sb\white.png",0,0 F,0,34971,,0.69 S,0,34971,,0.01907158 R,0,34971,,1 M,19,34971,35371,375,56,465,63 M,0,35371,35971,465,63,473,64 F,0,35671,35971,0.69,0
Sprite,Foreground,Centre,"sb\white.png",0,0 F,0,34971,,0.69 S,0,34971,,0.005037777 R,0,34971,,2 M,19,34971,35371,375,56,413,-7 M,0,35371,35971,413,-7,416,-13 F,0,35671,35971,0.69,0
Sprite,Foreground,Centre,"sb\white.png",0,0 F,0,34971,,0.69 S,0,34971,,0.005361824 R,0,34971,,1 M,19,34971,35371,375,56,466,24 M,0,35371,35971,466,24,474,21 F,0,35671,35971,0.69,0
Sprite,Foreground,Centre,"sb\white.png",0,0 F,0,34971,,0.69 S,0,34971,,0.004540385 R,0,34971,,1 M,19,34971,35371,375,56,500,73 M,0,35371,35971,500,73,511,75 F,0,35671,35971,0.69,0
Sprite,Foreground,Centre,"sb\white.png",0,0 F,0,34971,,0.69 S,0,34971,,0.02430947 R,0,34971,,1 M,19,34971,35371,375,56,476,-32 M,0,35371,35971,476,-32,484,-40 F,0,35671,35971,0.69,0
Sprite,Foreground,Centre,"sb\white.png",0,0 F,0,34971,,0.69 S,0,34971,,0.01642831 R,0,34971,,0 M,19,34971,35371,375,56,462,119 M,0,35371,35971,462,119,470,125 F,0,35671,35971,0.69,0
Sprite,Foreground,Centre,"sb\white.png",0,0 F,0,34971,,0.69 S,0,34971,,0.01286285 R,0,34971,,1 M,19,34971,35371,375,56,354,120 M,0,35371,35971,354,120,352,126 F,0,35671,35971,0.69,0
Sprite,Foreground,Centre,"sb\white.png",0,0 F,0,34971,,0.69 S,0,34971,,0.01211015 R,0,34971,,0 M,19,34971,35371,375,56,374,-74 M,0,35371,35971,374,-74,374,-85 F,0,35671,35971,0.69,0
Sprite,Foreground,Centre,"sb\white.png",0,0 F,0,34971,,0.69 S,0,34971,,0.00547594 R,0,34971,,1 M,19,34971,35371,375,56,468,10 M,0,35371,35971,468,10,476,6 F,0,35671,35971,0.69,0
Sprite,Foreground,Centre,"sb\white.png",0,0 F,0,34971,,0.69 S,0,34971,,0.0177795 R,0,34971,,2 M,19,34971,35371,375,56,351,124 M,0,35371,35971,351,124,349,130 F,0,35671,35971,0.69,0
Sprite,Foreground,Centre,"sb\white.png",0,0 F,0,34971,,0.69 S,0,34971,,0.02054609 R,0,34971,,0 M,19,34971,35371,375,56,356,-73 M,0,35371,35971,356,-73,354,-84 F,0,35671,35971,0.69,0
Sprite,Foreground,Centre,"sb\white.png",0,0 F,0,34971,,0.69 S,0,34971,,0.01555261 R,0,34971,,1 M,19,34971,35371,375,56,443,121 M,0,35371,35971,443,121,449,127 F,0,35671,35971,0.69,0
Sprite,Foreground,Centre,"sb\white.png",0,0 F,0,34971,,0.69 S,0,34971,,0.004008499 R,0,34971,,2 M,19,34971,35371,375,56,312,168 M,0,35371,35971,312,168,307,178 F,0,35671,35971,0.69,0
Sprite,Foreground,Centre,"sb\white.png",0,0 F,0,34971,,0.69 S,0,34971,,0.018732 R,0,34971,,0 M,19,34971,35371,375,56,354,139 M,0,35371,35971,354,139,352,147 F,0,35671,35971,0.69,0
Sprite,Foreground,Centre,"sb\white.png",0,0 F,0,34971,,0.69 S,0,34971,,0.0106096 R,0,34971,,1 M,19,34971,35371,375,56,482,76 M,0,35371,35971,482,76,491,78 F,0,35671,35971,0.69,0
Sprite,Foreground,Centre,"sb\white.png",0,0 F,0,34971,,0.69 S,0,34971,,0.01920792 R,0,34971,,1 M,19,34971,35371,375,56,302,145 M,0,35371,35971,302,145,296,153 F,0,35671,35971,0.69,0
Sprite,Foreground,Centre,"sb\white.png",0,0 F,0,34971,,0.69 S,0,34971,,0.004543701 R,0,34971,,2 M,19,34971,35371,375,56,424,161 M,0,35371,35971,424,161,428,170 F,0,35671,35971,0.69,0
Sprite,Foreground,Centre,"sb\white.png",0,0 F,0,34971,,0.69 S,0,34971,,0.01553939 R,0,34971,,2 M,19,34971,35371,375,56,346,-65 M,0,35371,35971,346,-65,344,-76 F,0,35671,35971,0.69,0
Sprite,Foreground,Centre,"sb\white.png",0,0 F,0,34971,,0.69 S,0,34971,,0.0113865 R,0,34971,,0 M,19,34971,35371,375,56,306,104 M,0,35371,35971,306,104,300,108 F,0,35671,35971,0.69,0
Sprite,Foreground,Centre,"sb\glow.png",359,334 C,0,37052,,17,196,255 F,0,37052,37152,0,0.6 F,0,37834,37934,0.6,0
Sprite,Foreground,Centre,"sb\glow.png",367.5124,357.0732 C,0,37077,,17,196,255 F,0,37077,37177,0,0.6 F,0,37834,37934,0.6,0
Sprite,Foreground,Centre,"sb\glow.png",367.588,381.7183 C,0,37102,,17,196,255 F,0,37102,37202,0,0.6 F,0,37834,37934,0.6,0
Sprite,Foreground,Centre,"sb\glow.png",360.6269,405.3874 C,0,37127,,17,196,255 F,0,37127,37227,0,0.6 F,0,37834,37934,0.6,0
Sprite,Foreground,Centre,"sb\glow.png",347.344,426.1523 C,0,37152,,17,196,255 F,0,37152,37252,0,0.6 F,0,37834,37934,0.6,0
Sprite,Foreground,Centre,"sb\glow.png",326.908,439.3483 C,0,37177,,17,196,255 F,0,37177,37277,0,0.6 F,0,37834,37934,0.6,0
Sprite,Foreground,Centre,"sb\glow.png",311.284,425.1215 C,0,37202,,17,196,255 F,0,37202,37302,0,0.6 F,0,37834,37934,0.6,0
Sprite,Foreground,Centre,"sb\glow.png",320.6099,402.6937 C,0,37227,,17,196,255 F,0,37227,37327,0,0.6 F,0,37834,37934,0.6,0
Sprite,Foreground,Centre,"sb\glow.png",498,360 C,0,37416,,255,36,130 F,0,37416,37516,0,1 F,0,38016,38116,1,0
Sprite,Foreground,Centre,"sb\glow.png",519,370 C,0,37507,,255,36,130 F,0,37507,37607,0,1 F,0,38107,38207,1,0
Sprite,Foreground,Centre,"sb\glow.png",541,389 C,0,37598,,255,36,130 F,0,37598,37698,0,1 F,0,38198,38298,1,0
Sprite,Foreground,Centre,"sb\glow.png",557,414 C,0,37689,,255,36,130 F,0,37689,37789,0,1 F,0,38289,38389,1,0
Sprite,Foreground,Centre,"sb\pinkC.png",0,0 M,0,37880,,567,440 F,0,37880,38380,1 S,19,37880,38880,0.1,0.52 F,0,38580,38880,1,0
Sprite,Foreground,Centre,"sb\white.png",0,0 F,0,37880,,0.69 S,0,37880,,0.02945898 R,0,37880,,2 M,19,37880,38280,567,440,510,385 M,0,38280,38880,510,385,505,381 F,0,38580,38880,0.69,0
Sprite,Foreground,Centre,"sb\white.png",0,0 F,0,37880,,0.69 S,0,37880,,0.02209857 R,0,37880,,1 M,19,37880,38280,567,440,467,491 M,0,38280,38880,467,491,458,495 F,0,38580,38880,0.69,0
Sprite,Foreground,Centre,"sb\white.png",0,0 F,0,37880,,0.69 S,0,37880,,0.01223146 R,0,37880,,1 M,19,37880,38280,567,440,488,378 M,0,38280,38880,488,378,481,373 F,0,38580,38880,0.69,0
Sprite,Foreground,Centre,"sb\white.png",0,0 F,0,37880,,0.69 S,0,37880,,0.02543961 R,0,37880,,0 M,19,37880,38280,567,440,532,521 M,0,38280,38880,532,521,529,528 F,0,38580,38880,0.69,0
Sprite,Foreground,Centre,"sb\white.png",0,0 F,0,37880,,0.69 S,0,37880,,0.0255272 R,0,37880,,1 M,19,37880,38280,567,440,670,486 M,0,38280,38880,670,486,679,490 F,0,38580,38880,0.69,0
Sprite,Foreground,Centre,"sb\white.png",0,0 F,0,37880,,0.69 S,0,37880,,0.004304431 R,0,37880,,2 M,19,37880,38280,567,440,486,441 M,0,38280,38880,486,441,480,441 F,0,38580,38880,0.69,0
Sprite,Foreground,Centre,"sb\white.png",0,0 F,0,37880,,0.69 S,0,37880,,0.02413397 R,0,37880,,0 M,19,37880,38280,567,440,671,500 M,0,38280,38880,671,500,680,505 F,0,38580,38880,0.69,0
Sprite,Foreground,Centre,"sb\white.png",0,0 F,0,37880,,0.69 S,0,37880,,0.01989903 R,0,37880,,1 M,19,37880,38280,567,440,504,419 M,0,38280,38880,504,419,499,418 F,0,38580,38880,0.69,0
Sprite,Foreground,Centre,"sb\white.png",0,0 F,0,37880,,0.69 S,0,37880,,0.007402543 R,0,37880,,1 M,19,37880,38280,567,440,623,494 M,0,38280,38880,623,494,628,499 F,0,38580,38880,0.69,0
Sprite,Foreground,Centre,"sb\white.png",0,0 F,0,37880,,0.69 S,0,37880,,0.004391606 R,0,37880,,0 M,19,37880,38280,567,440,630,473 M,0,38280,38880,630,473,635,476 F,0,38580,38880,0.69,0
Sprite,Foreground,Centre,"sb\white.png",0,0 F,0,37880,,0.69 S,0,37880,,0.02412344 R,0,37880,,0 M,19,37880,38280,567,440,485,481 M,0,38280,38880,485,481,477,485 F,0,38580,38880,0.69,0
Sprite,Foreground,Centre,"sb\white.png",0,0 F,0,37880,,0.69 S,0,37880,,0.02382003 R,0,37880,,0 M,19,37880,38280,567,440,596,557 M,0,38280,38880,596,557,599,568 F,0,38580,38880,0.69,0
Sprite,Foreground,Centre,"sb\white.png",0,0 F,0,37880,,0.69 S,0,37880,,0.02821815 R,0,37880,,2 M,19,37880,38280,567,440,546,353 M,0,38280,38880,546,353,545,346 F,0,38580,38880,0.69,0
Sprite,Foreground,Centre,"sb\white.png",0,0 F,0,37880,,0.69 S,0,37880,,0.01588219 R,0,37880,,2 M,19,37880,38280,567,440,555,329 M,0,38280,38880,555,329,554,319 F,0,38580,38880,0.69,0
Sprite,Foreground,Centre,"sb\white.png",0,0 F,0,37880,,0.69 S,0,37880,,0.005287574 R,0,37880,,2 M,19,37880,38280,567,440,638,455 M,0,38280,38880,638,455,644,456 F,0,38580,38880,0.69,0
Sprite,Foreground,Centre,"sb\white.png",0,0 F,0,37880,,0.69 S,0,37880,,0.00718125 R,0,37880,,0 M,19,37880,38280,567,440,683,475 M,0,38280,38880,683,475,693,478 F,0,38580,38880,0.69,0
Sprite,Foreground,Centre,"sb\white.png",0,0 F,0,37880,,0.69 S,0,37880,,0.01003272 R,0,37880,,1 M,19,37880,38280,567,440,580,532 M,0,38280,38880,580,532,581,540 F,0,38580,38880,0.69,0
Sprite,Foreground,Centre,"sb\white.png",0,0 F,0,37880,,0.69 S,0,37880,,0.01296615 R,0,37880,,1 M,19,37880,38280,567,440,644,442 M,0,38280,38880,644,442,650,442 F,0,38580,38880,0.69,0
Sprite,Foreground,Centre,"sb\white.png",0,0 F,0,37880,,0.69 S,0,37880,,0.006040772 R,0,37880,,1 M,19,37880,38280,567,440,613,566 M,0,38280,38880,613,566,617,577 F,0,38580,38880,0.69,0
Sprite,Foreground,Centre,"sb\white.png",0,0 F,0,37880,,0.69 S,0,37880,,0.01247197 R,0,37880,,1 M,19,37880,38280,567,440,495,452 M,0,38280,38880,495,452,489,453 F,0,38580,38880,0.69,0
Sprite,Foreground,Centre,"sb\white.png",0,0 F,0,37880,,0.69 S,0,37880,,0.01876386 R,0,37880,,0 M,19,37880,38280,567,440,645,485 M,0,38280,38880,645,485,652,489 F,0,38580,38880,0.69,0
Sprite,Foreground,Centre,"sb\white.png",0,0 F,0,37880,,0.69 S,0,37880,,0.02887099 R,0,37880,,0 M,19,37880,38280,567,440,569,555 M,0,38280,38880,569,555,569,565 F,0,38580,38880,0.69,0
Sprite,Foreground,Centre,"sb\white.png",0,0 F,0,37880,,0.69 S,0,37880,,0.02794141 R,0,37880,,0 M,19,37880,38280,567,440,624,535 M,0,38280,38880,624,535,629,543 F,0,38580,38880,0.69,0
Sprite,Foreground,Centre,"sb\white.png",0,0 F,0,37880,,0.69 S,0,37880,,0.02594078 R,0,37880,,0 M,19,37880,38280,567,440,517,508 M,0,38280,38880,517,508,513,514 F,0,38580,38880,0.69,0
Sprite,Foreground,Centre,"sb\white.png",0,0 F,0,37880,,0.69 S,0,37880,,0.01375094 R,0,37880,,0 M,19,37880,38280,567,440,657,381 M,0,38280,38880,657,381,664,375 F,0,38580,38880,0.69,0
Sprite,Foreground,Centre,"sb\white.png",0,0 F,0,37880,,0.69 S,0,37880,,0.01845825 R,0,37880,,1 M,19,37880,38280,567,440,649,509 M,0,38280,38880,649,509,656,515 F,0,38580,38880,0.69,0
Sprite,Foreground,Centre,"sb\white.png",0,0 F,0,37880,,0.69 S,0,37880,,0.006054942 R,0,37880,,0 M,19,37880,38280,567,440,552,326 M,0,38280,38880,552,326,551,316 F,0,38580,38880,0.69,0
Sprite,Foreground,Centre,"sb\white.png",0,0 F,0,37880,,0.69 S,0,37880,,0.02785598 R,0,37880,,2 M,19,37880,38280,567,440,589,557 M,0,38280,38880,589,557,591,567 F,0,38580,38880,0.69,0
Sprite,Foreground,Centre,"sb\white.png",0,0 F,0,37880,,0.69 S,0,37880,,0.01571948 R,0,37880,,1 M,19,37880,38280,567,440,577,370 M,0,38280,38880,577,370,578,363 F,0,38580,38880,0.69,0
Sprite,Foreground,Centre,"sb\white.png",0,0 F,0,37880,,0.69 S,0,37880,,0.004514829 R,0,37880,,1 M,19,37880,38280,567,440,483,377 M,0,38280,38880,483,377,476,372 F,0,38580,38880,0.69,0
Sprite,Foreground,Centre,"sb\white.png",0,0 F,0,37880,,0.69 S,0,37880,,0.01075461 R,0,37880,,1 M,19,37880,38280,567,440,565,357 M,0,38280,38880,565,357,565,350 F,0,38580,38880,0.69,0
Sprite,Foreground,Centre,"sb\white.png",0,0 F,0,37880,,0.69 S,0,37880,,0.02225378 R,0,37880,,2 M,19,37880,38280,567,440,525,495 M,0,38280,38880,525,495,521,499 F,0,38580,38880,0.69,0
Sprite,Foreground,Centre,"sb\white.png",0,0 F,0,37880,,0.69 S,0,37880,,0.02598097 R,0,37880,,0 M,19,37880,38280,567,440,500,334 M,0,38280,38880,500,334,494,324 F,0,38580,38880,0.69,0
Sprite,Foreground,Centre,"sb\white.png",0,0 F,0,37880,,0.69 S,0,37880,,0.02878762 R,0,37880,,0 M,19,37880,38280,567,440,549,320 M,0,38280,38880,549,320,548,310 F,0,38580,38880,0.69,0
Sprite,Foreground,Centre,"sb\white.png",0,0 F,0,37880,,0.69 S,0,37880,,0.02852818 R,0,37880,,1 M,19,37880,38280,567,440,593,506 M,0,38280,38880,593,506,596,512 F,0,38580,38880,0.69,0
Sprite,Foreground,Centre,"sb\white.png",0,0 F,0,37880,,0.69 S,0,37880,,0.006715098 R,0,37880,,2 M,19,37880,38280,567,440,565,537 M,0,38280,38880,565,537,565,545 F,0,38580,38880,0.69,0
Sprite,Foreground,Centre,"sb\white.png",0,0 F,0,37880,,0.69 S,0,37880,,0.006338482 R,0,37880,,1 M,19,37880,38280,567,440,567,521 M,0,38280,38880,567,521,567,528 F,0,38580,38880,0.69,0
Sprite,Foreground,Centre,"sb\white.png",0,0 F,0,37880,,0.69 S,0,37880,,0.02479412 R,0,37880,,0 M,19,37880,38280,567,440,612,341 M,0,38280,38880,612,341,616,332 F,0,38580,38880,0.69,0
Sprite,Foreground,Centre,"sb\white.png",0,0 F,0,37880,,0.69 S,0,37880,,0.02812721 R,0,37880,,2 M,19,37880,38280,567,440,462,429 M,0,38280,38880,462,429,453,428 F,0,38580,38880,0.69,0
Sprite,Foreground,Centre,"sb\white.png",0,0 F,0,37880,,0.69 S,0,37880,,0.01721587 R,0,37880,,1 M,19,37880,38280,567,440,488,449 M,0,38280,38880,488,449,481,450 F,0,38580,38880,0.69,0
Sprite,Foreground,Centre,"sb\white.png",0,0 F,0,37880,,0.69 S,0,37880,,0.01967716 R,0,37880,,2 M,19,37880,38280,567,440,499,350 M,0,38280,38880,499,350,493,342 F,0,38580,38880,0.69,0
Sprite,Foreground,Centre,"sb\white.png",0,0 F,0,37880,,0.69 S,0,37880,,0.02088071 R,0,37880,,1 M,19,37880,38280,567,440,455,496 M,0,38280,38880,455,496,445,501 F,0,38580,38880,0.69,0
Sprite,Foreground,Centre,"sb\white.png",0,0 F,0,37880,,0.69 S,0,37880,,0.01956 R,0,37880,,2 M,19,37880,38280,567,440,501,402 M,0,38280,38880,501,402,495,399 F,0,38580,38880,0.69,0
Sprite,Foreground,Centre,"sb\white.png",0,0 F,0,37880,,0.69 S,0,37880,,0.01658412 R,0,37880,,2 M,19,37880,38280,567,440,514,479 M,0,38280,38880,514,479,510,482 F,0,38580,38880,0.69,0
Sprite,Foreground,Centre,"sb\white.png",0,0 F,0,37880,,0.69 S,0,37880,,0.004047561 R,0,37880,,0 M,19,37880,38280,567,440,497,519 M,0,38280,38880,497,519,491,526 F,0,38580,38880,0.69,0
Sprite,Foreground,Centre,"sb\white.png",0,0 F,0,37880,,0.69 S,0,37880,,0.004909988 R,0,37880,,2 M,19,37880,38280,567,440,565,348 M,0,38280,38880,565,348,565,341 F,0,38580,38880,0.69,0
Sprite,Foreground,Centre,"sb\white.png",0,0 F,0,37880,,0.69 S,0,37880,,0.01862305 R,0,37880,,0 M,19,37880,38280,567,440,486,529 M,0,38280,38880,486,529,479,537 F,0,38580,38880,0.69,0
Sprite,Foreground,Centre,"sb\white.png",0,0 F,0,37880,,0.69 S,0,37880,,0.01391282 R,0,37880,,2 M,19,37880,38280,567,440,482,483 M,0,38280,38880,482,483,475,486 F,0,38580,38880,0.69,0
Sprite,Foreground,Centre,"sb\white.png",0,0 F,0,37880,,0.69 S,0,37880,,0.0300411 R,0,37880,,1 M,19,37880,38280,567,440,645,481 M,0,38280,38880,645,481,652,485 F,0,38580,38880,0.69,0
Sprite,Foreground,Centre,"sb\white.png",0,0 F,0,37880,,0.69 S,0,37880,,0.02746267 R,0,37880,,2 M,19,37880,38280,567,440,528,509 M,0,38280,38880,528,509,525,515 F,0,38580,38880,0.69,0
Sprite,Foreground,Centre,"sb\white.png",0,0 F,0,37880,,0.69 S,0,37880,,0.009057319 R,0,37880,,0 M,19,37880,38280,567,440,579,503 M,0,38280,38880,579,503,580,508 F,0,38580,38880,0.69,0
Sprite,Foreground,Centre,"sb\white.png",0,0 F,0,37880,,0.69 S,0,37880,,0.00629326 R,0,37880,,0 M,19,37880,38280,567,440,524,341 M,0,38280,38880,524,341,521,332 F,0,38580,38880,0.69,0
Sprite,Foreground,Centre,"sb\white.png",0,0 F,0,37880,,0.69 S,0,37880,,0.02538139 R,0,37880,,0 M,19,37880,38280,567,440,497,478 M,0,38280,38880,497,478,490,482 F,0,38580,38880,0.69,0
Sprite,Foreground,Centre,"sb\white.png",0,0 F,0,37880,,0.69 S,0,37880,,0.02280858 R,0,37880,,1 M,19,37880,38280,567,440,626,390 M,0,38280,38880,626,390,631,385 F,0,38580,38880,0.69,0
Sprite,Foreground,Centre,"sb\white.png",0,0 F,0,37880,,0.69 S,0,37880,,0.02786731 R,0,37880,,1 M,19,37880,38280,567,440,556,507 M,0,38280,38880,556,507,555,513 F,0,38580,38880,0.69,0
Sprite,Foreground,Centre,"sb\white.png",0,0 F,0,37880,,0.69 S,0,37880,,0.0167536 R,0,37880,,2 M,19,37880,38280,567,440,628,319 M,0,38280,38880,628,319,633,308 F,0,38580,38880,0.69,0
Sprite,Foreground,Centre,"sb\white.png",0,0 F,0,37880,,0.69 S,0,37880,,0.02549329 R,0,37880,,2 M,19,37880,38280,567,440,691,470 M,0,38280,38880,691,470,701,473 F,0,38580,38880,0.69,0
Sprite,Foreground,Centre,"sb\white.png",0,0 F,0,37880,,0.69 S,0,37880,,0.007214009 R,0,37880,,2 M,19,37880,38280,567,440,544,373 M,0,38280,38880,544,373,542,368 F,0,38580,38880,0.69,0
Sprite,Foreground,Centre,"sb\white.png",0,0 F,0,37880,,0.69 S,0,37880,,0.0102168 R,0,37880,,0 M,19,37880,38280,567,440,641,539 M,0,38280,38880,641,539,648,547 F,0,38580,38880,0.69,0
Sprite,Foreground,Centre,"sb\white.png",0,0 F,0,37880,,0.69 S,0,37880,,0.01373119 R,0,37880,,2 M,19,37880,38280,567,440,621,399 M,0,38280,38880,621,399,626,396 F,0,38580,38880,0.69,0
Sprite,Foreground,Centre,"sb\white.png",0,0 F,0,37880,,0.69 S,0,37880,,0.01101095 R,0,37880,,2 M,19,37880,38280,567,440,642,460 M,0,38280,38880,642,460,649,461 F,0,38580,38880,0.69,0
Sprite,Foreground,Centre,"sb\white.png",0,0 F,0,37880,,0.69 S,0,37880,,0.008923014 R,0,37880,,0 M,19,37880,38280,567,440,649,384 M,0,38280,38880,649,384,656,379 F,0,38580,38880,0.69,0
Sprite,Foreground,Centre,"sb\white.png",0,0 F,0,37880,,0.69 S,0,37880,,0.02292982 R,0,37880,,2 M,19,37880,38280,567,440,495,481 M,0,38280,38880,495,481,489,485 F,0,38580,38880,0.69,0
Sprite,Foreground,Centre,"sb\white.png",0,0 F,0,37880,,0.69 S,0,37880,,0.01316818 R,0,37880,,0 M,19,37880,38280,567,440,611,387 M,0,38280,38880,611,387,615,382 F,0,38580,38880,0.69,0
Sprite,Foreground,Centre,"sb\white.png",0,0 F,0,37880,,0.69 S,0,37880,,0.01736119 R,0,37880,,2 M,19,37880,38280,567,440,533,331 M,0,38280,38880,533,331,530,322 F,0,38580,38880,0.69,0
Sprite,Foreground,Centre,"sb\white.png",0,0 F,0,37880,,0.69 S,0,37880,,0.008224036 R,0,37880,,1 M,19,37880,38280,567,440,577,377 M,0,38280,38880,577,377,578,372 F,0,38580,38880,0.69,0
Sprite,Foreground,Centre,"sb\white.png",0,0 F,0,37880,,0.69 S,0,37880,,0.01109149 R,0,37880,,1 M,19,37880,38280,567,440,539,525 M,0,38280,38880,539,525,536,533 F,0,38580,38880,0.69,0
Sprite,Foreground,Centre,"sb\white.png",0,0 F,0,37880,,0.69 S,0,37880,,0.01217944 R,0,37880,,0 M,19,37880,38280,567,440,569,357 M,0,38280,38880,569,357,569,350 F,0,38580,38880,0.69,0
Sprite,Foreground,Centre,"sb\white.png",0,0 F,0,37880,,0.69 S,0,37880,,0.01863034 R,0,37880,,0 M,19,37880,38280,567,440,645,418 M,0,38280,38880,645,418,651,416 F,0,38580,38880,0.69,0
Sprite,Foreground,Centre,"sb\white.png",0,0 F,0,37880,,0.69 S,0,37880,,0.01911792 R,0,37880,,2 M,19,37880,38280,567,440,504,514 M,0,38280,38880,504,514,499,520 F,0,38580,38880,0.69,0
Sprite,Foreground,Centre,"sb\white.png",0,0 F,0,37880,,0.69 S,0,37880,,0.01856304 R,0,37880,,1 M,19,37880,38280,567,440,613,483 M,0,38280,38880,613,483,617,487 F,0,38580,38880,0.69,0
Sprite,Foreground,Centre,"sb\white.png",0,0 F,0,37880,,0.69 S,0,37880,,0.02768009 R,0,37880,,1 M,19,37880,38280,567,440,479,376 M,0,38280,38880,479,376,472,371 F,0,38580,38880,0.69,0
Sprite,Foreground,Centre,"sb\white.png",0,0 F,0,37880,,0.69 S,0,37880,,0.01434746 R,0,37880,,2 M,19,37880,38280,567,440,619,330 M,0,38280,38880,619,330,624,321 F,0,38580,38880,0.69,0
Sprite,Foreground,Centre,"sb\white.png",0,0 F,0,37880,,0.69 S,0,37880,,0.01539307 R,0,37880,,2 M,19,37880,38280,567,440,506,510 M,0,38280,38880,506,510,500,516 F,0,38580,38880,0.69,0
Sprite,Foreground,Centre,"sb\white.png",0,0 F,0,37880,,0.69 S,0,37880,,0.008992856 R,0,37880,,1 M,19,37880,38280,567,440,618,328 M,0,38280,38880,618,328,623,318 F,0,38580,38880,0.69,0
Sprite,Foreground,Centre,"sb\white.png",0,0 F,0,37880,,0.69 S,0,37880,,0.03189978 R,0,37880,,1 M,19,37880,38280,567,440,466,401 M,0,38280,38880,466,401,457,398 F,0,38580,38880,0.69,0
Sprite,Foreground,Centre,"sb\blueC.png",0,0 M,0,40789,,104,94 F,0,40789,41289,1 S,19,40789,41789,0.1,0.52 F,0,41489,41789,1,0
Sprite,Foreground,Centre,"sb\white.png",0,0 F,0,40789,,0.69 S,0,40789,,0.01429786 R,0,40789,,0 M,19,40789,41189,104,94,197,159 M,0,41189,41789,197,159,205,165 F,0,41489,41789,0.69,0
Sprite,Foreground,Centre,"sb\white.png",0,0 F,0,40789,,0.69 S,0,40789,,0.02082825 R,0,40789,,0 M,19,40789,41189,104,94,70,-15 M,0,41189,41789,70,-15,67,-25 F,0,41489,41789,0.69,0
Sprite,Foreground,Centre,"sb\white.png",0,0 F,0,40789,,0.69 S,0,40789,,0.01201174 R,0,40789,,2 M,19,40789,41189,104,94,143,207 M,0,41189,41789,143,207,146,216 F,0,41489,41789,0.69,0
Sprite,Foreground,Centre,"sb\white.png",0,0 F,0,40789,,0.69 S,0,40789,,0.03046124 R,0,40789,,1 M,19,40789,41189,104,94,59,34 M,0,41189,41789,59,34,55,29 F,0,41489,41789,0.69,0
Sprite,Foreground,Centre,"sb\white.png",0,0 F,0,40789,,0.69 S,0,40789,,0.005539875 R,0,40789,,0 M,19,40789,41189,104,94,126,168 M,0,41189,41789,126,168,128,175 F,0,41489,41789,0.69,0
Sprite,Foreground,Centre,"sb\white.png",0,0 F,0,40789,,0.69 S,0,40789,,0.02481073 R,0,40789,,2 M,19,40789,41189,104,94,229,142 M,0,41189,41789,229,142,240,146 F,0,41489,41789,0.69,0
Sprite,Foreground,Centre,"sb\white.png",0,0 F,0,40789,,0.69 S,0,40789,,0.006872455 R,0,40789,,1 M,19,40789,41189,104,94,179,-6 M,0,41189,41789,179,-6,186,-15 F,0,41489,41789,0.69,0
Sprite,Foreground,Centre,"sb\white.png",0,0 F,0,40789,,0.69 S,0,40789,,0.03079152 R,0,40789,,2 M,19,40789,41189,104,94,46,122 M,0,41189,41789,46,122,41,124 F,0,41489,41789,0.69,0
Sprite,Foreground,Centre,"sb\white.png",0,0 F,0,40789,,0.69 S,0,40789,,0.03019442 R,0,40789,,2 M,19,40789,41189,104,94,139,24 M,0,41189,41789,139,24,142,18 F,0,41489,41789,0.69,0
Sprite,Foreground,Centre,"sb\white.png",0,0 F,0,40789,,0.69 S,0,40789,,0.03022168 R,0,40789,,0 M,19,40789,41189,104,94,64,-13 M,0,41189,41789,64,-13,60,-23 F,0,41489,41789,0.69,0
Sprite,Foreground,Centre,"sb\white.png",0,0 F,0,40789,,0.69 S,0,40789,,0.01522073 R,0,40789,,1 M,19,40789,41189,104,94,49,37 M,0,41189,41789,49,37,44,32 F,0,41489,41789,0.69,0
Sprite,Foreground,Centre,"sb\white.png",0,0 F,0,40789,,0.69 S,0,40789,,0.01139395 R,0,40789,,0 M,19,40789,41189,104,94,23,133 M,0,41189,41789,23,133,16,136 F,0,41489,41789,0.69,0
Sprite,Foreground,Centre,"sb\white.png",0,0 F,0,40789,,0.69 S,0,40789,,0.0156273 R,0,40789,,2 M,19,40789,41189,104,94,119,24 M,0,41189,41789,119,24,121,17 F,0,41489,41789,0.69,0
Sprite,Foreground,Centre,"sb\white.png",0,0 F,0,40789,,0.69 S,0,40789,,0.01525576 R,0,40789,,1 M,19,40789,41189,104,94,48,213 M,0,41189,41789,48,213,43,223 F,0,41489,41789,0.69,0
Sprite,Foreground,Centre,"sb\white.png",0,0 F,0,40789,,0.69 S,0,40789,,0.008929806 R,0,40789,,1 M,19,40789,41189,104,94,-11,122 M,0,41189,41789,-11,122,-21,125 F,0,41489,41789,0.69,0
Sprite,Foreground,Centre,"sb\white.png",0,0 F,0,40789,,0.69 S,0,40789,,0.008544077 R,0,40789,,1 M,19,40789,41189,104,94,177,104 M,0,41189,41789,177,104,184,105 F,0,41489,41789,0.69,0
Sprite,Foreground,Centre,"sb\white.png",0,0 F,0,40789,,0.69 S,0,40789,,0.02531442 R,0,40789,,1 M,19,40789,41189,104,94,19,-10 M,0,41189,41789,19,-10,11,-19 F,0,41489,41789,0.69,0
Sprite,Foreground,Centre,"sb\white.png",0,0 F,0,40789,,0.69 S,0,40789,,0.02381023 R,0,40789,,2 M,19,40789,41189,104,94,29,14 M,0,41189,41789,29,14,23,7 F,0,41489,41789,0.69,0
Sprite,Foreground,Centre,"sb\white.png",0,0 F,0,40789,,0.69 S,0,40789,,0.0227615 R,0,40789,,1 M,19,40789,41189,104,94,188,96 M,0,41189,41789,188,96,195,97 F,0,41489,41789,0.69,0
Sprite,Foreground,Centre,"sb\white.png",0,0 F,0,40789,,0.69 S,0,40789,,0.0286176 R,0,40789,,1 M,19,40789,41189,104,94,71,224 M,0,41189,41789,71,224,68,235 F,0,41489,41789,0.69,0
Sprite,Foreground,Centre,"sb\white.png",0,0 F,0,40789,,0.69 S,0,40789,,0.01808838 R,0,40789,,1 M,19,40789,41189,104,94,105,162 M,0,41189,41789,105,162,105,167 F,0,41489,41789,0.69,0
Sprite,Foreground,Centre,"sb\white.png",0,0 F,0,40789,,0.69 S,0,40789,,0.00448368 R,0,40789,,1 M,19,40789,41189,104,94,170,-4 M,0,41189,41789,170,-4,175,-13 F,0,41489,41789,0.69,0
Sprite,Foreground,Centre,"sb\white.png",0,0 F,0,40789,,0.69 S,0,40789,,0.02569299 R,0,40789,,2 M,19,40789,41189,104,94,180,170 M,0,41189,41789,180,170,187,177 F,0,41489,41789,0.69,0
Sprite,Foreground,Centre,"sb\white.png",0,0 F,0,40789,,0.69 S,0,40789,,0.01159414 R,0,40789,,0 M,19,40789,41189,104,94,171,78 M,0,41189,41789,171,78,177,76 F,0,41489,41789,0.69,0
Sprite,Foreground,Centre,"sb\white.png",0,0 F,0,40789,,0.69 S,0,40789,,0.01886789 R,0,40789,,2 M,19,40789,41189,104,94,179,27 M,0,41189,41789,179,27,186,22 F,0,41489,41789,0.69,0
Sprite,Foreground,Centre,"sb\white.png",0,0 F,0,40789,,0.69 S,0,40789,,0.03105073 R,0,40789,,2 M,19,40789,41189,104,94,187,132 M,0,41189,41789,187,132,194,136 F,0,41489,41789,0.69,0
Sprite,Foreground,Centre,"sb\white.png",0,0 F,0,40789,,0.69 S,0,40789,,0.0264496 R,0,40789,,2 M,19,40789,41189,104,94,20,201 M,0,41189,41789,20,201,13,210 F,0,41489,41789,0.69,0
Sprite,Foreground,Centre,"sb\white.png",0,0 F,0,40789,,0.69 S,0,40789,,0.00545185 R,0,40789,,0 M,19,40789,41189,104,94,29,96 M,0,41189,41789,29,96,23,96 F,0,41489,41789,0.69,0
Sprite,Foreground,Centre,"sb\white.png",0,0 F,0,40789,,0.69 S,0,40789,,0.0319243 R,0,40789,,2 M,19,40789,41189,104,94,51,-13 M,0,41189,41789,51,-13,46,-22 F,0,41489,41789,0.69,0
Sprite,Foreground,Centre,"sb\white.png",0,0 F,0,40789,,0.69 S,0,40789,,0.01581879 R,0,40789,,1 M,19,40789,41189,104,94,31,16 M,0,41189,41789,31,16,25,10 F,0,41489,41789,0.69,0
Sprite,Foreground,Centre,"sb\white.png",0,0 F,0,40789,,0.69 S,0,40789,,0.01796751 R,0,40789,,1 M,19,40789,41189,104,94,112,-29 M,0,41189,41789,112,-29,113,-39 F,0,41489,41789,0.69,0
Sprite,Foreground,Centre,"sb\white.png",0,0 F,0,40789,,0.69 S,0,40789,,0.006069228 R,0,40789,,2 M,19,40789,41189,104,94,101,220 M,0,41189,41789,101,220,101,231 F,0,41489,41789,0.69,0
Sprite,Foreground,Centre,"sb\white.png",0,0 F,0,40789,,0.69 S,0,40789,,0.02132119 R,0,40789,,0 M,19,40789,41189,104,94,128,185 M,0,41189,41789,128,185,130,193 F,0,41489,41789,0.69,0
Sprite,Foreground,Centre,"sb\white.png",0,0 F,0,40789,,0.69 S,0,40789,,0.02908952 R,0,40789,,1 M,19,40789,41189,104,94,162,37 M,0,41189,41789,162,37,167,32 F,0,41489,41789,0.69,0
Sprite,Foreground,Centre,"sb\white.png",0,0 F,0,40789,,0.69 S,0,40789,,0.02302004 R,0,40789,,1 M,19,40789,41189,104,94,-22,45 M,0,41189,41789,-22,45,-33,41 F,0,41489,41789,0.69,0
Sprite,Foreground,Centre,"sb\white.png",0,0 F,0,40789,,0.69 S,0,40789,,0.02484963 R,0,40789,,0 M,19,40789,41189,104,94,192,163 M,0,41189,41789,192,163,200,169 F,0,41489,41789,0.69,0
Sprite,Foreground,Centre,"sb\white.png",0,0 F,0,40789,,0.69 S,0,40789,,0.03015896 R,0,40789,,2 M,19,40789,41189,104,94,127,154 M,0,41189,41789,127,154,129,160 F,0,41489,41789,0.69,0
Sprite,Foreground,Centre,"sb\white.png",0,0 F,0,40789,,0.69 S,0,40789,,0.03012583 R,0,40789,,0 M,19,40789,41189,104,94,51,39 M,0,41189,41789,51,39,46,35 F,0,41489,41789,0.69,0
Sprite,Foreground,Centre,"sb\white.png",0,0 F,0,40789,,0.69 S,0,40789,,0.02509605 R,0,40789,,1 M,19,40789,41189,104,94,173,37 M,0,41189,41789,173,37,179,32 F,0,41489,41789,0.69,0
Sprite,Foreground,Centre,"sb\white.png",0,0 F,0,40789,,0.69 S,0,40789,,0.008640472 R,0,40789,,0 M,19,40789,41189,104,94,164,208 M,0,41189,41789,164,208,170,218 F,0,41489,41789,0.69,0
Sprite,Foreground,Centre,"sb\white.png",0,0 F,0,40789,,0.69 S,0,40789,,0.01785885 R,0,40789,,1 M,19,40789,41189,104,94,143,39 M,0,41189,41789,143,39,146,34 F,0,41489,41789,0.69,0
Sprite,Foreground,Centre,"sb\white.png",0,0 F,0,40789,,0.69 S,0,40789,,0.00967811 R,0,40789,,2 M,19,40789,41189,104,94,136,182 M,0,41189,41789,136,182,138,189 F,0,41489,41789,0.69,0
Sprite,Foreground,Centre,"sb\white.png",0,0 F,0,40789,,0.69 S,0,40789,,0.02176938 R,0,40789,,1 M,19,40789,41189,104,94,121,26 M,0,41189,41789,121,26,123,20 F,0,41489,41789,0.69,0
Sprite,Foreground,Centre,"sb\white.png",0,0 F,0,40789,,0.69 S,0,40789,,0.02813447 R,0,40789,,1 M,19,40789,41189,104,94,127,19 M,0,41189,41789,127,19,130,13 F,0,41489,41789,0.69,0
Sprite,Foreground,Centre,"sb\white.png",0,0 F,0,40789,,0.69 S,0,40789,,0.01734465 R,0,40789,,2 M,19,40789,41189,104,94,20,16 M,0,41189,41789,20,16,13,9 F,0,41489,41789,0.69,0
Sprite,Foreground,Centre,"sb\white.png",0,0 F,0,40789,,0.69 S,0,40789,,0.03013795 R,0,40789,,1 M,19,40789,41189,104,94,52,140 M,0,41189,41789,52,140,48,144 F,0,41489,41789,0.69,0
Sprite,Foreground,Centre,"sb\white.png",0,0 F,0,40789,,0.69 S,0,40789,,0.02000577 R,0,40789,,0 M,19,40789,41189,104,94,61,0 M,0,41189,41789,61,0,58,-8 F,0,41489,41789,0.69,0
Sprite,Foreground,Centre,"sb\white.png",0,0 F,0,40789,,0.69 S,0,40789,,0.01629262 R,0,40789,,1 M,19,40789,41189,104,94,33,86 M,0,41189,41789,33,86,27,86 F,0,41489,41789,0.69,0
Sprite,Foreground,Centre,"sb\white.png",0,0 F,0,40789,,0.69 S,0,40789,,0.007669112 R,0,40789,,1 M,19,40789,41189,104,94,201,11 M,0,41189,41789,201,11,210,4 F,0,41489,41789,0.69,0
Sprite,Foreground,Centre,"sb\white.png",0,0 F,0,40789,,0.69 S,0,40789,,0.01411748 R,0,40789,,0 M,19,40789,41189,104,94,-7,123 M,0,41189,41789,-7,123,-16,126 F,0,41489,41789,0.69,0
Sprite,Foreground,Centre,"sb\white.png",0,0 F,0,40789,,0.69 S,0,40789,,0.004995492 R,0,40789,,1 M,19,40789,41189,104,94,4,128 M,0,41189,41789,4,128,-4,131 F,0,41489,41789,0.69,0
Sprite,Foreground,Centre,"sb\white.png",0,0 F,0,40789,,0.69 S,0,40789,,0.004815692 R,0,40789,,1 M,19,40789,41189,104,94,186,188 M,0,41189,41789,186,188,193,196 F,0,41489,41789,0.69,0
Sprite,Foreground,Centre,"sb\white.png",0,0 F,0,40789,,0.69 S,0,40789,,0.01419381 R,0,40789,,1 M,19,40789,41189,104,94,183,110 M,0,41189,41789,183,110,190,112 F,0,41489,41789,0.69,0
Sprite,Foreground,Centre,"sb\white.png",0,0 F,0,40789,,0.69 S,0,40789,,0.01282496 R,0,40789,,0 M,19,40789,41189,104,94,76,-34 M,0,41189,41789,76,-34,73,-45 F,0,41489,41789,0.69,0
Sprite,Foreground,Centre,"sb\white.png",0,0 F,0,40789,,0.69 S,0,40789,,0.0149613 R,0,40789,,0 M,19,40789,41189,104,94,82,-7 M,0,41189,41789,82,-7,80,-16 F,0,41489,41789,0.69,0
Sprite,Foreground,Centre,"sb\white.png",0,0 F,0,40789,,0.69 S,0,40789,,0.004229025 R,0,40789,,1 M,19,40789,41189,104,94,44,170 M,0,41189,41789,44,170,38,177 F,0,41489,41789,0.69,0
Sprite,Foreground,Centre,"sb\white.png",0,0 F,0,40789,,0.69 S,0,40789,,0.01818424 R,0,40789,,2 M,19,40789,41189,104,94,154,184 M,0,41189,41789,154,184,158,191 F,0,41489,41789,0.69,0
Sprite,Foreground,Centre,"sb\white.png",0,0 F,0,40789,,0.69 S,0,40789,,0.01769581 R,0,40789,,1 M,19,40789,41189,104,94,170,129 M,0,41189,41789,170,129,176,132 F,0,41489,41789,0.69,0
Sprite,Foreground,Centre,"sb\white.png",0,0 F,0,40789,,0.69 S,0,40789,,0.01336187 R,0,40789,,0 M,19,40789,41189,104,94,116,-29 M,0,41189,41789,116,-29,117,-40 F,0,41489,41789,0.69,0
Sprite,Foreground,Centre,"sb\white.png",0,0 F,0,40789,,0.69 S,0,40789,,0.01259178 R,0,40789,,0 M,19,40789,41189,104,94,155,34 M,0,41189,41789,155,34,160,28 F,0,41489,41789,0.69,0
Sprite,Foreground,Centre,"sb\white.png",0,0 F,0,40789,,0.69 S,0,40789,,0.01333203 R,0,40789,,0 M,19,40789,41189,104,94,124,164 M,0,41189,41789,124,164,126,170 F,0,41489,41789,0.69,0
Sprite,Foreground,Centre,"sb\white.png",0,0 F,0,40789,,0.69 S,0,40789,,0.01391847 R,0,40789,,2 M,19,40789,41189,104,94,151,148 M,0,41189,41789,151,148,155,153 F,0,41489,41789,0.69,0
Sprite,Foreground,Centre,"sb\white.png",0,0 F,0,40789,,0.69 S,0,40789,,0.01752884 R,0,40789,,1 M,19,40789,41189,104,94,205,14 M,0,41189,41789,205,14,214,7 F,0,41489,41789,0.69,0
Sprite,Foreground,Centre,"sb\white.png",0,0 F,0,40789,,0.69 S,0,40789,,0.01382238 R,0,40789,,1 M,19,40789,41189,104,94,20,92 M,0,41189,41789,20,92,13,92 F,0,41489,41789,0.69,0
Sprite,Foreground,Centre,"sb\white.png",0,0 F,0,40789,,0.69 S,0,40789,,0.03109335 R,0,40789,,0 M,19,40789,41189,104,94,169,42 M,0,41189,41789,169,42,174,38 F,0,41489,41789,0.69,0
Sprite,Foreground,Centre,"sb\white.png",0,0 F,0,40789,,0.69 S,0,40789,,0.02632446 R,0,40789,,0 M,19,40789,41189,104,94,159,162 M,0,41189,41789,159,162,164,168 F,0,41489,41789,0.69,0
Sprite,Foreground,Centre,"sb\white.png",0,0 F,0,40789,,0.69 S,0,40789,,0.01894045 R,0,40789,,0 M,19,40789,41189,104,94,-5,160 M,0,41189,41789,-5,160,-15,165 F,0,41489,41789,0.69,0
Sprite,Foreground,Centre,"sb\white.png",0,0 F,0,40789,,0.69 S,0,40789,,0.01203379 R,0,40789,,2 M,19,40789,41189,104,94,172,149 M,0,41189,41789,172,149,178,154 F,0,41489,41789,0.69,0
Sprite,Foreground,Centre,"sb\white.png",0,0 F,0,40789,,0.69 S,0,40789,,0.01432613 R,0,40789,,1 M,19,40789,41189,104,94,-8,94 M,0,41189,41789,-8,94,-17,94 F,0,41489,41789,0.69,0
Sprite,Foreground,Centre,"sb\white.png",0,0 F,0,40789,,0.69 S,0,40789,,0.01440205 R,0,40789,,2 M,19,40789,41189,104,94,154,30 M,0,41189,41789,154,30,159,25 F,0,41489,41789,0.69,0
Sprite,Foreground,Centre,"sb\white.png",0,0 F,0,40789,,0.69 S,0,40789,,0.0087625 R,0,40789,,0 M,19,40789,41189,104,94,61,157 M,0,41189,41789,61,157,57,162 F,0,41489,41789,0.69,0
Sprite,Foreground,Centre,"sb\white.png",0,0 F,0,40789,,0.69 S,0,40789,,0.01830869 R,0,40789,,2 M,19,40789,41189,104,94,13,157 M,0,41189,41789,13,157,5,162 F,0,41489,41789,0.69,0
Sprite,Foreground,Centre,"sb\white.png",0,0 F,0,40789,,0.69 S,0,40789,,0.0203182 R,0,40789,,0 M,19,40789,41189,104,94,172,-21 M,0,41189,41789,172,-21,178,-31 F,0,41489,41789,0.69,0
Sprite,Foreground,Centre,"sb\white.png",0,0 F,0,40789,,0.69 S,0,40789,,0.01693241 R,0,40789,,1 M,19,40789,41189,104,94,108,214 M,0,41189,41789,108,214,108,224 F,0,41489,41789,0.69,0
Sprite,Foreground,Centre,"sb\white.png",0,0 F,0,40789,,0.69 S,0,40789,,0.0226785 R,0,40789,,0 M,19,40789,41189,104,94,171,97 M,0,41189,41789,171,97,176,97 F,0,41489,41789,0.69,0
Sprite,Foreground,Centre,"sb\white.png",0,0 F,0,40789,,0.69 S,0,40789,,0.009114833 R,0,40789,,1 M,19,40789,41189,104,94,104,198 M,0,41189,41789,104,198,104,207 F,0,41489,41789,0.69,0
Sprite,Foreground,Centre,"sb\glow.png",576,348 C,0,42871,,17,196,255 F,0,42871,42971,0,0.6 F,0,43653,43753,0.6,0
Sprite,Foreground,Centre,"sb\glow.png",576.8391,323.2805 C,0,42896,,17,196,255 F,0,42896,42996,0,0.6 F,0,43653,43753,0.6,0
Sprite,Foreground,Centre,"sb\glow.png",573.4588,298.8171 C,0,42921,,17,196,255 F,0,42921,43021,0,0.6 F,0,43653,43753,0.6,0
Sprite,Foreground,Centre,"sb\glow.png",563.4333,276.2988 C,0,42946,,17,196,255 F,0,42946,43046,0,0.6 F,0,43653,43753,0.6,0
Sprite,Foreground,Centre,"sb\glow.png",549.2023,256.0544 C,0,42971,,17,196,255 F,0,42971,43071,0,0.6 F,0,43653,43753,0.6,0
Sprite,Foreground,Centre,"sb\glow.png",538.3234,233.9155 C,0,42996,,17,196,255 F,0,42996,43096,0,0.6 F,0,43653,43753,0.6,0
Sprite,Foreground,Centre,"sb\glow.png",533.6536,209.6651 C,0,43021,,17,196,255 F,0,43021,43121,0,0.6 F,0,43653,43753,0.6,0
Sprite,Foreground,Centre,"sb\glow.png",533.2587,184.9361 C,0,43046,,17,196,255 F,0,43046,43146,0,0.6 F,0,43653,43753,0.6,0
Sprite,Foreground,Centre,"sb\glow.png",555,56 C,0,43234,,255,36,130 F,0,43234,43334,0,0.6 F,0,44107,44207,0.6,0
Sprite,Foreground,Centre,"sb\glow.png",542.7718,54.25573 C,0,43259,,255,36,130 F,0,43259,43359,0,0.6 F,0,44107,44207,0.6,0
Sprite,Foreground,Centre,"sb\glow.png",530.4387,53.49685 C,0,43284,,255,36,130 F,0,43284,43384,0,0.6 F,0,44107,44207,0.6,0
Sprite,Foreground,Centre,"sb\glow.png",518.1319,54.5308 C,0,43309,,255,36,130 F,0,43309,43409,0,0.6 F,0,44107,44207,0.6,0
Sprite,Foreground,Centre,"sb\glow.png",505.9567,56.60033 C,0,43334,,255,36,130 F,0,43334,43434,0,0.6 F,0,44107,44207,0.6,0
Sprite,Foreground,Centre,"sb\glow.png",494.194,60.35944 C,0,43359,,255,36,130 F,0,43359,43459,0,0.6 F,0,44107,44207,0.6,0
Sprite,Foreground,Centre,"sb\glow.png",482.8156,65.14607 C,0,43384,,255,36,130 F,0,43384,43484,0,0.6 F,0,44107,44207,0.6,0
Sprite,Foreground,Centre,"sb\glow.png",472.1924,71.43948 C,0,43409,,255,36,130 F,0,43409,43509,0,0.6 F,0,44107,44207,0.6,0
Sprite,Foreground,Centre,"sb\glow.png",462.2074,78.68975 C,0,43434,,255,36,130 F,0,43434,43534,0,0.6 F,0,44107,44207,0.6,0
Sprite,Foreground,Centre,"sb\glow.png",453.2611,87.19845 C,0,43459,,255,36,130 F,0,43459,43559,0,0.6 F,0,44107,44207,0.6,0
Sprite,Foreground,Centre,"sb\glow.png",445.193,96.53009 C,0,43484,,255,36,130 F,0,43484,43584,0,0.6 F,0,44107,44207,0.6,0
Sprite,Foreground,Centre,"sb\pinkC.png",0,0 M,0,43698,,426,130 F,0,43698,44198,1 S,19,43698,44698,0.1,0.52 F,0,44398,44698,1,0
Sprite,Foreground,Centre,"sb\white.png",0,0 F,0,43698,,0.69 S,0,43698,,0.02149028 R,0,43698,,1 M,19,43698,44098,426,130,372,219 M,0,44098,44698,372,219,367,227 F,0,44398,44698,0.69,0
Sprite,Foreground,Centre,"sb\white.png",0,0 F,0,43698,,0.69 S,0,43698,,0.01657904 R,0,43698,,2 M,19,43698,44098,426,130,509,134 M,0,44098,44698,509,134,516,134 F,0,44398,44698,0.69,0
Sprite,Foreground,Centre,"sb\white.png",0,0 F,0,43698,,0.69 S,0,43698,,0.006724458 R,0,43698,,0 M,19,43698,44098,426,130,532,93 M,0,44098,44698,532,93,541,89 F,0,44398,44698,0.69,0
Sprite,Foreground,Centre,"sb\white.png",0,0 F,0,43698,,0.69 S,0,43698,,0.0218104 R,0,43698,,2 M,19,43698,44098,426,130,318,192 M,0,44098,44698,318,192,309,197 F,0,44398,44698,0.69,0
Sprite,Foreground,Centre,"sb\white.png",0,0 F,0,43698,,0.69 S,0,43698,,0.005002816 R,0,43698,,0 M,19,43698,44098,426,130,404,254 M,0,44098,44698,404,254,402,264 F,0,44398,44698,0.69,0
Sprite,Foreground,Centre,"sb\white.png",0,0 F,0,43698,,0.69 S,0,43698,,0.008464978 R,0,43698,,0 M,19,43698,44098,426,130,425,3 M,0,44098,44698,425,3,425,-7 F,0,44398,44698,0.69,0
Sprite,Foreground,Centre,"sb\white.png",0,0 F,0,43698,,0.69 S,0,43698,,0.01775696 R,0,43698,,1 M,19,43698,44098,426,130,341,124 M,0,44098,44698,341,124,334,123 F,0,44398,44698,0.69,0
Sprite,Foreground,Centre,"sb\white.png",0,0 F,0,43698,,0.69 S,0,43698,,0.01256607 R,0,43698,,0 M,19,43698,44098,426,130,411,236 M,0,44098,44698,411,236,409,245 F,0,44398,44698,0.69,0
Sprite,Foreground,Centre,"sb\white.png",0,0 F,0,43698,,0.69 S,0,43698,,0.008749824 R,0,43698,,0 M,19,43698,44098,426,130,527,135 M,0,44098,44698,527,135,536,135 F,0,44398,44698,0.69,0
Sprite,Foreground,Centre,"sb\white.png",0,0 F,0,43698,,0.69 S,0,43698,,0.006808266 R,0,43698,,1 M,19,43698,44098,426,130,345,73 M,0,44098,44698,345,73,338,68 F,0,44398,44698,0.69,0
Sprite,Foreground,Centre,"sb\white.png",0,0 F,0,43698,,0.69 S,0,43698,,0.01100112 R,0,43698,,0 M,19,43698,44098,426,130,396,43 M,0,44098,44698,396,43,393,36 F,0,44398,44698,0.69,0
Sprite,Foreground,Centre,"sb\white.png",0,0 F,0,43698,,0.69 S,0,43698,,0.01859212 R,0,43698,,2 M,19,43698,44098,426,130,516,142 M,0,44098,44698,516,142,524,143 F,0,44398,44698,0.69,0
Sprite,Foreground,Centre,"sb\white.png",0,0 F,0,43698,,0.69 S,0,43698,,0.01342953 R,0,43698,,2 M,19,43698,44098,426,130,482,213 M,0,44098,44698,482,213,487,221 F,0,44398,44698,0.69,0
Sprite,Foreground,Centre,"sb\white.png",0,0 F,0,43698,,0.69 S,0,43698,,0.01676402 R,0,43698,,1 M,19,43698,44098,426,130,398,261 M,0,44098,44698,398,261,395,272 F,0,44398,44698,0.69,0
Sprite,Foreground,Centre,"sb\white.png",0,0 F,0,43698,,0.69 S,0,43698,,0.01570969 R,0,43698,,2 M,19,43698,44098,426,130,530,82 M,0,44098,44698,530,82,540,78 F,0,44398,44698,0.69,0
Sprite,Foreground,Centre,"sb\white.png",0,0 F,0,43698,,0.69 S,0,43698,,0.03104623 R,0,43698,,1 M,19,43698,44098,426,130,531,164 M,0,44098,44698,531,164,540,167 F,0,44398,44698,0.69,0
Sprite,Foreground,Centre,"sb\white.png",0,0 F,0,43698,,0.69 S,0,43698,,0.01117709 R,0,43698,,1 M,19,43698,44098,426,130,351,176 M,0,44098,44698,351,176,344,180 F,0,44398,44698,0.69,0
Sprite,Foreground,Centre,"sb\white.png",0,0 F,0,43698,,0.69 S,0,43698,,0.02467184 R,0,43698,,2 M,19,43698,44098,426,130,491,119 M,0,44098,44698,491,119,497,118 F,0,44398,44698,0.69,0
Sprite,Foreground,Centre,"sb\white.png",0,0 F,0,43698,,0.69 S,0,43698,,0.005766009 R,0,43698,,0 M,19,43698,44098,426,130,537,177 M,0,44098,44698,537,177,547,181 F,0,44398,44698,0.69,0
Sprite,Foreground,Centre,"sb\white.png",0,0 F,0,43698,,0.69 S,0,43698,,0.03194642 R,0,43698,,0 M,19,43698,44098,426,130,393,197 M,0,44098,44698,393,197,390,202 F,0,44398,44698,0.69,0
Sprite,Foreground,Centre,"sb\white.png",0,0 F,0,43698,,0.69 S,0,43698,,0.01382901 R,0,43698,,2 M,19,43698,44098,426,130,395,38 M,0,44098,44698,395,38,393,30 F,0,44398,44698,0.69,0
Sprite,Foreground,Centre,"sb\white.png",0,0 F,0,43698,,0.69 S,0,43698,,0.02414728 R,0,43698,,1 M,19,43698,44098,426,130,338,174 M,0,44098,44698,338,174,330,178 F,0,44398,44698,0.69,0
Sprite,Foreground,Centre,"sb\white.png",0,0 F,0,43698,,0.69 S,0,43698,,0.01114207 R,0,43698,,1 M,19,43698,44098,426,130,455,32 M,0,44098,44698,455,32,458,23 F,0,44398,44698,0.69,0
Sprite,Foreground,Centre,"sb\white.png",0,0 F,0,43698,,0.69 S,0,43698,,0.02065873 R,0,43698,,2 M,19,43698,44098,426,130,356,210 M,0,44098,44698,356,210,349,217 F,0,44398,44698,0.69,0
Sprite,Foreground,Centre,"sb\white.png",0,0 F,0,43698,,0.69 S,0,43698,,0.0103914 R,0,43698,,0 M,19,43698,44098,426,130,341,152 M,0,44098,44698,341,152,334,154 F,0,44398,44698,0.69,0
Sprite,Foreground,Centre,"sb\white.png",0,0 F,0,43698,,0.69 S,0,43698,,0.0134932 R,0,43698,,2 M,19,43698,44098,426,130,503,150 M,0,44098,44698,503,150,510,152 F,0,44398,44698,0.69,0
Sprite,Foreground,Centre,"sb\white.png",0,0 F,0,43698,,0.69 S,0,43698,,0.030838 R,0,43698,,0 M,19,43698,44098,426,130,415,235 M,0,44098,44698,415,235,414,244 F,0,44398,44698,0.69,0
Sprite,Foreground,Centre,"sb\white.png",0,0 F,0,43698,,0.69 S,0,43698,,0.009166517 R,0,43698,,2 M,19,43698,44098,426,130,383,76 M,0,44098,44698,383,76,380,71 F,0,44398,44698,0.69,0
Sprite,Foreground,Centre,"sb\white.png",0,0 F,0,43698,,0.69 S,0,43698,,0.0242694 R,0,43698,,1 M,19,43698,44098,426,130,507,197 M,0,44098,44698,507,197,514,203 F,0,44398,44698,0.69,0
Sprite,Foreground,Centre,"sb\white.png",0,0 F,0,43698,,0.69 S,0,43698,,0.03087943 R,0,43698,,1 M,19,43698,44098,426,130,350,132 M,0,44098,44698,350,132,344,132 F,0,44398,44698,0.69,0
Sprite,Foreground,Centre,"sb\white.png",0,0 F,0,43698,,0.69 S,0,43698,,0.02738524 R,0,43698,,1 M,19,43698,44098,426,130,363,160 M,0,44098,44698,363,160,357,163 F,0,44398,44698,0.69,0
Sprite,Foreground,Centre,"sb\white.png",0,0 F,0,43698,,0.69 S,0,43698,,0.02030743 R,0,43698,,0 M,19,43698,44098,426,130,364,154 M,0,44098,44698,364,154,359,157 F,0,44398,44698,0.69,0
Sprite,Foreground,Centre,"sb\white.png",0,0 F,0,43698,,0.69 S,0,43698,,0.01825173 R,0,43698,,2 M,19,43698,44098,426,130,359,168 M,0,44098,44698,359,168,353,172 F,0,44398,44698,0.69,0
Sprite,Foreground,Centre,"sb\white.png",0,0 F,0,43698,,0.69 S,0,43698,,0.01106944 R,0,43698,,2 M,19,43698,44098,426,130,315,87 M,0,44098,44698,315,87,305,83 F,0,44398,44698,0.69,0
Sprite,Foreground,Centre,"sb\white.png",0,0 F,0,43698,,0.69 S,0,43698,,0.005358363 R,0,43698,,1 M,19,43698,44098,426,130,531,63 M,0,44098,44698,531,63,541,57 F,0,44398,44698,0.69,0
Sprite,Foreground,Centre,"sb\white.png",0,0 F,0,43698,,0.69 S,0,43698,,0.01842557 R,0,43698,,1 M,19,43698,44098,426,130,385,40 M,0,44098,44698,385,40,382,32 F,0,44398,44698,0.69,0
Sprite,Foreground,Centre,"sb\white.png",0,0 F,0,43698,,0.69 S,0,43698,,0.004617362 R,0,43698,,2 M,19,43698,44098,426,130,362,35 M,0,44098,44698,362,35,356,27 F,0,44398,44698,0.69,0
Sprite,Foreground,Centre,"sb\white.png",0,0 F,0,43698,,0.69 S,0,43698,,0.005532704 R,0,43698,,0 M,19,43698,44098,426,130,316,181 M,0,44098,44698,316,181,307,185 F,0,44398,44698,0.69,0
Sprite,Foreground,Centre,"sb\white.png",0,0 F,0,43698,,0.69 S,0,43698,,0.005564812 R,0,43698,,0 M,19,43698,44098,426,130,523,179 M,0,44098,44698,523,179,532,183 F,0,44398,44698,0.69,0
Sprite,Foreground,Centre,"sb\white.png",0,0 F,0,43698,,0.69 S,0,43698,,0.01280119 R,0,43698,,2 M,19,43698,44098,426,130,486,216 M,0,44098,44698,486,216,492,224 F,0,44398,44698,0.69,0
Sprite,Foreground,Centre,"sb\white.png",0,0 F,0,43698,,0.69 S,0,43698,,0.01252763 R,0,43698,,0 M,19,43698,44098,426,130,506,46 M,0,44098,44698,506,46,513,39 F,0,44398,44698,0.69,0
Sprite,Foreground,Centre,"sb\white.png",0,0 F,0,43698,,0.69 S,0,43698,,0.03022746 R,0,43698,,2 M,19,43698,44098,426,130,533,168 M,0,44098,44698,533,168,542,172 F,0,44398,44698,0.69,0
Sprite,Foreground,Centre,"sb\white.png",0,0 F,0,43698,,0.69 S,0,43698,,0.004522159 R,0,43698,,1 M,19,43698,44098,426,130,359,137 M,0,44098,44698,359,137,353,137 F,0,44398,44698,0.69,0
Sprite,Foreground,Centre,"sb\white.png",0,0 F,0,43698,,0.69 S,0,43698,,0.0215324 R,0,43698,,2 M,19,43698,44098,426,130,548,72 M,0,44098,44698,548,72,559,67 F,0,44398,44698,0.69,0
Sprite,Foreground,Centre,"sb\white.png",0,0 F,0,43698,,0.69 S,0,43698,,0.02379994 R,0,43698,,2 M,19,43698,44098,426,130,455,202 M,0,44098,44698,455,202,457,208 F,0,44398,44698,0.69,0
Sprite,Foreground,Centre,"sb\white.png",0,0 F,0,43698,,0.69 S,0,43698,,0.02455957 R,0,43698,,0 M,19,43698,44098,426,130,297,136 M,0,44098,44698,297,136,286,137 F,0,44398,44698,0.69,0
Sprite,Foreground,Centre,"sb\white.png",0,0 F,0,43698,,0.69 S,0,43698,,0.01596369 R,0,43698,,0 M,19,43698,44098,426,130,458,199 M,0,44098,44698,458,199,461,205 F,0,44398,44698,0.69,0
Sprite,Foreground,Centre,"sb\white.png",0,0 F,0,43698,,0.69 S,0,43698,,0.02748848 R,0,43698,,2 M,19,43698,44098,426,130,558,130 M,0,44098,44698,558,130,570,130 F,0,44398,44698,0.69,0
Sprite,Foreground,Centre,"sb\white.png",0,0 F,0,43698,,0.69 S,0,43698,,0.03191974 R,0,43698,,2 M,19,43698,44098,426,130,412,8 M,0,44098,44698,412,8,411,-2 F,0,44398,44698,0.69,0
Sprite,Foreground,Centre,"sb\white.png",0,0 F,0,43698,,0.69 S,0,43698,,0.01422864 R,0,43698,,1 M,19,43698,44098,426,130,396,226 M,0,44098,44698,396,226,393,235 F,0,44398,44698,0.69,0
Sprite,Foreground,Centre,"sb\white.png",0,0 F,0,43698,,0.69 S,0,43698,,0.01138302 R,0,43698,,0 M,19,43698,44098,426,130,491,101 M,0,44098,44698,491,101,497,99 F,0,44398,44698,0.69,0
Sprite,Foreground,Centre,"sb\white.png",0,0 F,0,43698,,0.69 S,0,43698,,0.02321852 R,0,43698,,2 M,19,43698,44098,426,130,388,8 M,0,44098,44698,388,8,385,-1 F,0,44398,44698,0.69,0
Sprite,Foreground,Centre,"sb\white.png",0,0 F,0,43698,,0.69 S,0,43698,,0.0279343 R,0,43698,,0 M,19,43698,44098,426,130,360,169 M,0,44098,44698,360,169,354,172 F,0,44398,44698,0.69,0
Sprite,Foreground,Centre,"sb\white.png",0,0 F,0,43698,,0.69 S,0,43698,,0.009625728 R,0,43698,,1 M,19,43698,44098,426,130,509,69 M,0,44098,44698,509,69,516,63 F,0,44398,44698,0.69,0
Sprite,Foreground,Centre,"sb\white.png",0,0 F,0,43698,,0.69 S,0,43698,,0.02430701 R,0,43698,,1 M,19,43698,44098,426,130,502,41 M,0,44098,44698,502,41,509,33 F,0,44398,44698,0.69,0
Sprite,Foreground,Centre,"sb\white.png",0,0 F,0,43698,,0.69 S,0,43698,,0.01077386 R,0,43698,,1 M,19,43698,44098,426,130,508,62 M,0,44098,44698,508,62,515,56 F,0,44398,44698,0.69,0
Sprite,Foreground,Centre,"sb\white.png",0,0 F,0,43698,,0.69 S,0,43698,,0.02032618 R,0,43698,,0 M,19,43698,44098,426,130,377,214 M,0,44098,44698,377,214,373,221 F,0,44398,44698,0.69,0
Sprite,Foreground,Centre,"sb\white.png",0,0 F,0,43698,,0.69 S,0,43698,,0.03117221 R,0,43698,,2 M,19,43698,44098,426,130,488,141 M,0,44098,44698,488,141,493,141 F,0,44398,44698,0.69,0
Sprite,Foreground,Centre,"sb\white.png",0,0 F,0,43698,,0.69 S,0,43698,,0.02843116 R,0,43698,,1 M,19,43698,44098,426,130,445,44 M,0,44098,44698,445,44,447,37 F,0,44398,44698,0.69,0
Sprite,Foreground,Centre,"sb\white.png",0,0 F,0,43698,,0.69 S,0,43698,,0.01303129 R,0,43698,,2 M,19,43698,44098,426,130,376,193 M,0,44098,44698,376,193,371,199 F,0,44398,44698,0.69,0
Sprite,Foreground,Centre,"sb\white.png",0,0 F,0,43698,,0.69 S,0,43698,,0.009177661 R,0,43698,,1 M,19,43698,44098,426,130,500,119 M,0,44098,44698,500,119,507,118 F,0,44398,44698,0.69,0
Sprite,Foreground,Centre,"sb\white.png",0,0 F,0,43698,,0.69 S,0,43698,,0.03178541 R,0,43698,,1 M,19,43698,44098,426,130,488,185 M,0,44098,44698,488,185,493,190 F,0,44398,44698,0.69,0
Sprite,Foreground,Centre,"sb\white.png",0,0 F,0,43698,,0.69 S,0,43698,,0.01760942 R,0,43698,,0 M,19,43698,44098,426,130,334,28 M,0,44098,44698,334,28,326,20 F,0,44398,44698,0.69,0
Sprite,Foreground,Centre,"sb\white.png",0,0 F,0,43698,,0.69 S,0,43698,,0.006157915 R,0,43698,,2 M,19,43698,44098,426,130,428,41 M,0,44098,44698,428,41,429,34 F,0,44398,44698,0.69,0
Sprite,Foreground,Centre,"sb\white.png",0,0 F,0,43698,,0.69 S,0,43698,,0.01186794 R,0,43698,,0 M,19,43698,44098,426,130,545,146 M,0,44098,44698,545,146,555,148 F,0,44398,44698,0.69,0
Sprite,Foreground,Centre,"sb\white.png",0,0 F,0,43698,,0.69 S,0,43698,,0.007852372 R,0,43698,,0 M,19,43698,44098,426,130,399,23 M,0,44098,44698,399,23,396,14 F,0,44398,44698,0.69,0
Sprite,Foreground,Centre,"sb\white.png",0,0 F,0,43698,,0.69 S,0,43698,,0.02752195 R,0,43698,,2 M,19,43698,44098,426,130,294,94 M,0,44098,44698,294,94,282,91 F,0,44398,44698,0.69,0
Sprite,Foreground,Centre,"sb\white.png",0,0 F,0,43698,,0.69 S,0,43698,,0.03103482 R,0,43698,,2 M,19,43698,44098,426,130,339,170 M,0,44098,44698,339,170,331,174 F,0,44398,44698,0.69,0
Sprite,Foreground,Centre,"sb\white.png",0,0 F,0,43698,,0.69 S,0,43698,,0.02941819 R,0,43698,,0 M,19,43698,44098,426,130,455,227 M,0,44098,44698,455,227,458,236 F,0,44398,44698,0.69,0
Sprite,Foreground,Centre,"sb\white.png",0,0 F,0,43698,,0.69 S,0,43698,,0.02965051 R,0,43698,,2 M,19,43698,44098,426,130,398,205 M,0,44098,44698,398,205,396,211 F,0,44398,44698,0.69,0
Sprite,Foreground,Centre,"sb\white.png",0,0 F,0,43698,,0.69 S,0,43698,,0.005640944 R,0,43698,,1 M,19,43698,44098,426,130,305,144 M,0,44098,44698,305,144,295,146 F,0,44398,44698,0.69,0
Sprite,Foreground,Centre,"sb\white.png",0,0 F,0,43698,,0.69 S,0,43698,,0.02982393 R,0,43698,,0 M,19,43698,44098,426,130,456,186 M,0,44098,44698,456,186,458,191 F,0,44398,44698,0.69,0
Sprite,Foreground,Centre,"sb\white.png",0,0 F,0,43698,,0.69 S,0,43698,,0.02485512 R,0,43698,,2 M,19,43698,44098,426,130,487,34 M,0,44098,44698,487,34,492,26 F,0,44398,44698,0.69,0
Sprite,Foreground,Centre,"sb\white.png",0,0 F,0,43698,,0.69 S,0,43698,,0.01124042 R,0,43698,,2 M,19,43698,44098,426,130,513,148 M,0,44098,44698,513,148,520,150 F,0,44398,44698,0.69,0
Sprite,Foreground,Centre,"sb\white.png",0,0 F,0,43698,,0.69 S,0,43698,,0.02011311 R,0,43698,,1 M,19,43698,44098,426,130,365,248 M,0,44098,44698,365,248,360,258 F,0,44398,44698,0.69,0
Sprite,Foreground,Centre,"sb\white.png",0,0 F,0,43698,,0.69 S,0,43698,,0.004177082 R,0,43698,,2 M,19,43698,44098,426,130,322,169 M,0,44098,44698,322,169,314,173 F,0,44398,44698,0.69,0
Sprite,Foreground,Centre,"sb\glow.png",96,334 C,0,45780,,255,36,130 F,0,45780,45880,0,0.6 F,0,46471,46571,0.6,0
Sprite,Foreground,Centre,"sb\glow.png",120.5844,331.1414 C,0,45805,,255,36,130 F,0,45805,45905,0,0.6 F,0,46471,46571,0.6,0
Sprite,Foreground,Centre,"sb\glow.png",144.3253,332.1952 C,0,45830,,255,36,130 F,0,45830,45930,0,0.6 F,0,46471,46571,0.6,0
Sprite,Foreground,Centre,"sb\glow.png",165.5482,344.9289 C,0,45855,,255,36,130 F,0,45855,45955,0,0.6 F,0,46471,46571,0.6,0
Sprite,Foreground,Centre,"sb\glow.png",198,370 C,0,45962,,255,36,130 F,0,45962,46062,0,1 F,0,46562,46662,1,0
Sprite,Foreground,Centre,"sb\glow.png",339,362 C,0,46143,,17,196,255 F,0,46143,46243,0,1 F,0,46743,46843,1,0
Sprite,Foreground,Centre,"sb\glow.png",350,388 C,0,46234,,17,196,255 F,0,46234,46334,0,1 F,0,46834,46934,1,0
Sprite,Foreground,Centre,"sb\glow.png",367,411 C,0,46325,,17,196,255 F,0,46325,46425,0,1 F,0,46925,47025,1,0
Sprite,Foreground,Centre,"sb\glow.png",386,429 C,0,46416,,17,196,255 F,0,46416,46516,0,1 F,0,47016,47116,1,0
Sprite,Foreground,Centre,"sb\blueC.png",0,0 M,0,46607,,411,440 F,0,46607,47107,1 S,19,46607,47607,0.1,0.52 F,0,47307,47607,1,0
Sprite,Foreground,Centre,"sb\white.png",0,0 F,0,46607,,0.69 S,0,46607,,0.00609361 R,0,46607,,2 M,19,46607,47007,411,440,344,338 M,0,47007,47607,344,338,338,329 F,0,47307,47607,0.69,0
Sprite,Foreground,Centre,"sb\white.png",0,0 F,0,46607,,0.69 S,0,46607,,0.02682348 R,0,46607,,1 M,19,46607,47007,411,440,359,510 M,0,47007,47607,359,510,355,516 F,0,47307,47607,0.69,0
Sprite,Foreground,Centre,"sb\white.png",0,0 F,0,46607,,0.69 S,0,46607,,0.01930117 R,0,46607,,0 M,19,46607,47007,411,440,461,553 M,0,47007,47607,461,553,465,563 F,0,47307,47607,0.69,0
Sprite,Foreground,Centre,"sb\white.png",0,0 F,0,46607,,0.69 S,0,46607,,0.02960396 R,0,46607,,0 M,19,46607,47007,411,440,460,386 M,0,47007,47607,460,386,464,382 F,0,47307,47607,0.69,0
Sprite,Foreground,Centre,"sb\white.png",0,0 F,0,46607,,0.69 S,0,46607,,0.01317788 R,0,46607,,1 M,19,46607,47007,411,440,505,482 M,0,47007,47607,505,482,514,485 F,0,47307,47607,0.69,0
Sprite,Foreground,Centre,"sb\white.png",0,0 F,0,46607,,0.69 S,0,46607,,0.01172408 R,0,46607,,0 M,19,46607,47007,411,440,438,537 M,0,47007,47607,438,537,441,545 F,0,47307,47607,0.69,0
Sprite,Foreground,Centre,"sb\white.png",0,0 F,0,46607,,0.69 S,0,46607,,0.02785407 R,0,46607,,1 M,19,46607,47007,411,440,361,510 M,0,47007,47607,361,510,357,517 F,0,47307,47607,0.69,0
Sprite,Foreground,Centre,"sb\white.png",0,0 F,0,46607,,0.69 S,0,46607,,0.02833054 R,0,46607,,1 M,19,46607,47007,411,440,435,529 M,0,47007,47607,435,529,437,537 F,0,47307,47607,0.69,0
Sprite,Foreground,Centre,"sb\white.png",0,0 F,0,46607,,0.69 S,0,46607,,0.01824152 R,0,46607,,1 M,19,46607,47007,411,440,363,483 M,0,47007,47607,363,483,359,487 F,0,47307,47607,0.69,0
Sprite,Foreground,Centre,"sb\white.png",0,0 F,0,46607,,0.69 S,0,46607,,0.006968423 R,0,46607,,1 M,19,46607,47007,411,440,530,437 M,0,47007,47607,530,437,540,437 F,0,47307,47607,0.69,0
Sprite,Foreground,Centre,"sb\white.png",0,0 F,0,46607,,0.69 S,0,46607,,0.02535741 R,0,46607,,2 M,19,46607,47007,411,440,392,559 M,0,47007,47607,392,559,390,569 F,0,47307,47607,0.69,0
Sprite,Foreground,Centre,"sb\white.png",0,0 F,0,46607,,0.69 S,0,46607,,0.02211351 R,0,46607,,2 M,19,46607,47007,411,440,322,373 M,0,47007,47607,322,373,315,367 F,0,47307,47607,0.69,0
Sprite,Foreground,Centre,"sb\white.png",0,0 F,0,46607,,0.69 S,0,46607,,0.007644998 R,0,46607,,0 M,19,46607,47007,411,440,503,489 M,0,47007,47607,503,489,511,493 F,0,47307,47607,0.69,0
Sprite,Foreground,Centre,"sb\white.png",0,0 F,0,46607,,0.69 S,0,46607,,0.03166134 R,0,46607,,1 M,19,46607,47007,411,440,530,476 M,0,47007,47607,530,476,541,479 F,0,47307,47607,0.69,0
Sprite,Foreground,Centre,"sb\white.png",0,0 F,0,46607,,0.69 S,0,46607,,0.03121882 R,0,46607,,2 M,19,46607,47007,411,440,432,364 M,0,47007,47607,432,364,434,358 F,0,47307,47607,0.69,0
Sprite,Foreground,Centre,"sb\white.png",0,0 F,0,46607,,0.69 S,0,46607,,0.03099701 R,0,46607,,2 M,19,46607,47007,411,440,332,335 M,0,47007,47607,332,335,325,326 F,0,47307,47607,0.69,0
Sprite,Foreground,Centre,"sb\white.png",0,0 F,0,46607,,0.69 S,0,46607,,0.007357288 R,0,46607,,0 M,19,46607,47007,411,440,453,534 M,0,47007,47607,453,534,457,543 F,0,47307,47607,0.69,0
Sprite,Foreground,Centre,"sb\white.png",0,0 F,0,46607,,0.69 S,0,46607,,0.006657703 R,0,46607,,0 M,19,46607,47007,411,440,341,446 M,0,47007,47607,341,446,335,446 F,0,47307,47607,0.69,0
Sprite,Foreground,Centre,"sb\white.png",0,0 F,0,46607,,0.69 S,0,46607,,0.01660964 R,0,46607,,0 M,19,46607,47007,411,440,372,510 M,0,47007,47607,372,510,368,516 F,0,47307,47607,0.69,0
Sprite,Foreground,Centre,"sb\white.png",0,0 F,0,46607,,0.69 S,0,46607,,0.0311978 R,0,46607,,0 M,19,46607,47007,411,440,373,497 M,0,47007,47607,373,497,370,502 F,0,47307,47607,0.69,0
Sprite,Foreground,Centre,"sb\white.png",0,0 F,0,46607,,0.69 S,0,46607,,0.00918041 R,0,46607,,1 M,19,46607,47007,411,440,486,384 M,0,47007,47607,486,384,493,379 F,0,47307,47607,0.69,0
Sprite,Foreground,Centre,"sb\white.png",0,0 F,0,46607,,0.69 S,0,46607,,0.02065687 R,0,46607,,0 M,19,46607,47007,411,440,472,323 M,0,47007,47607,472,323,477,313 F,0,47307,47607,0.69,0
Sprite,Foreground,Centre,"sb\white.png",0,0 F,0,46607,,0.69 S,0,46607,,0.01703203 R,0,46607,,2 M,19,46607,47007,411,440,452,529 M,0,47007,47607,452,529,456,536 F,0,47307,47607,0.69,0
Sprite,Foreground,Centre,"sb\white.png",0,0 F,0,46607,,0.69 S,0,46607,,0.007585492 R,0,46607,,0 M,19,46607,47007,411,440,400,365 M,0,47007,47607,400,365,399,358 F,0,47307,47607,0.69,0
Sprite,Foreground,Centre,"sb\white.png",0,0 F,0,46607,,0.69 S,0,46607,,0.01232861 R,0,46607,,2 M,19,46607,47007,411,440,423,350 M,0,47007,47607,423,350,424,342 F,0,47307,47607,0.69,0
Sprite,Foreground,Centre,"sb\white.png",0,0 F,0,46607,,0.69 S,0,46607,,0.01558467 R,0,46607,,2 M,19,46607,47007,411,440,503,428 M,0,47007,47607,503,428,511,427 F,0,47307,47607,0.69,0
Sprite,Foreground,Centre,"sb\white.png",0,0 F,0,46607,,0.69 S,0,46607,,0.02450549 R,0,46607,,1 M,19,46607,47007,411,440,289,391 M,0,47007,47607,289,391,279,387 F,0,47307,47607,0.69,0
Sprite,Foreground,Centre,"sb\white.png",0,0 F,0,46607,,0.69 S,0,46607,,0.0267759 R,0,46607,,2 M,19,46607,47007,411,440,361,371 M,0,47007,47607,361,371,356,365 F,0,47307,47607,0.69,0
Sprite,Foreground,Centre,"sb\white.png",0,0 F,0,46607,,0.69 S,0,46607,,0.0260829 R,0,46607,,2 M,19,46607,47007,411,440,474,479 M,0,47007,47607,474,479,480,483 F,0,47307,47607,0.69,0
Sprite,Foreground,Centre,"sb\white.png",0,0 F,0,46607,,0.69 S,0,46607,,0.01164629 R,0,46607,,0 M,19,46607,47007,411,440,408,361 M,0,47007,47607,408,361,407,355 F,0,47307,47607,0.69,0
Sprite,Foreground,Centre,"sb\white.png",0,0 F,0,46607,,0.69 S,0,46607,,0.02462703 R,0,46607,,0 M,19,46607,47007,411,440,345,367 M,0,47007,47607,345,367,339,361 F,0,47307,47607,0.69,0
Sprite,Foreground,Centre,"sb\white.png",0,0 F,0,46607,,0.69 S,0,46607,,0.008165834 R,0,46607,,2 M,19,46607,47007,411,440,509,398 M,0,47007,47607,509,398,517,394 F,0,47307,47607,0.69,0
Sprite,Foreground,Centre,"sb\white.png",0,0 F,0,46607,,0.69 S,0,46607,,0.0310841 R,0,46607,,1 M,19,46607,47007,411,440,479,409 M,0,47007,47607,479,409,485,406 F,0,47307,47607,0.69,0
Sprite,Foreground,Centre,"sb\white.png",0,0 F,0,46607,,0.69 S,0,46607,,0.01702828 R,0,46607,,1 M,19,46607,47007,411,440,376,368 M,0,47007,47607,376,368,373,362 F,0,47307,47607,0.69,0
Sprite,Foreground,Centre,"sb\white.png",0,0 F,0,46607,,0.69 S,0,46607,,0.01680353 R,0,46607,,2 M,19,46607,47007,411,440,412,523 M,0,47007,47607,412,523,412,530 F,0,47307,47607,0.69,0
Sprite,Foreground,Centre,"sb\white.png",0,0 F,0,46607,,0.69 S,0,46607,,0.02395179 R,0,46607,,2 M,19,46607,47007,411,440,468,522 M,0,47007,47607,468,522,473,529 F,0,47307,47607,0.69,0
Sprite,Foreground,Centre,"sb\white.png",0,0 F,0,46607,,0.69 S,0,46607,,0.01373899 R,0,46607,,0 M,19,46607,47007,411,440,385,542 M,0,47007,47607,385,542,383,551 F,0,47307,47607,0.69,0
Sprite,Foreground,Centre,"sb\white.png",0,0 F,0,46607,,0.69 S,0,46607,,0.02583544 R,0,46607,,0 M,19,46607,47007,411,440,368,551 M,0,47007,47607,368,551,364,561 F,0,47307,47607,0.69,0
Sprite,Foreground,Centre,"sb\white.png",0,0 F,0,46607,,0.69 S,0,46607,,0.01100885 R,0,46607,,1 M,19,46607,47007,411,440,418,328 M,0,47007,47607,418,328,419,319 F,0,47307,47607,0.69,0
Sprite,Foreground,Centre,"sb\white.png",0,0 F,0,46607,,0.69 S,0,46607,,0.02468845 R,0,46607,,2 M,19,46607,47007,411,440,284,478 M,0,47007,47607,284,478,273,482 F,0,47307,47607,0.69,0
Sprite,Foreground,Centre,"sb\white.png",0,0 F,0,46607,,0.69 S,0,46607,,0.01620802 R,0,46607,,0 M,19,46607,47007,411,440,326,448 M,0,47007,47607,326,448,319,449 F,0,47307,47607,0.69,0
Sprite,Foreground,Centre,"sb\white.png",0,0 F,0,46607,,0.69 S,0,46607,,0.006608181 R,0,46607,,1 M,19,46607,47007,411,440,309,450 M,0,47007,47607,309,450,300,451 F,0,47307,47607,0.69,0
Sprite,Foreground,Centre,"sb\white.png",0,0 F,0,46607,,0.69 S,0,46607,,0.02746399 R,0,46607,,0 M,19,46607,47007,411,440,480,433 M,0,47007,47607,480,433,486,433 F,0,47307,47607,0.69,0
Sprite,Foreground,Centre,"sb\white.png",0,0 F,0,46607,,0.69 S,0,46607,,0.005331263 R,0,46607,,1 M,19,46607,47007,411,440,472,464 M,0,47007,47607,472,464,477,466 F,0,47307,47607,0.69,0
Sprite,Foreground,Centre,"sb\white.png",0,0 F,0,46607,,0.69 S,0,46607,,0.02874149 R,0,46607,,0 M,19,46607,47007,411,440,290,425 M,0,47007,47607,290,425,279,424 F,0,47307,47607,0.69,0
Sprite,Foreground,Centre,"sb\white.png",0,0 F,0,46607,,0.69 S,0,46607,,0.01522081 R,0,46607,,1 M,19,46607,47007,411,440,479,459 M,0,47007,47607,479,459,485,461 F,0,47307,47607,0.69,0
Sprite,Foreground,Centre,"sb\white.png",0,0 F,0,46607,,0.69 S,0,46607,,0.03022273 R,0,46607,,0 M,19,46607,47007,411,440,535,433 M,0,47007,47607,535,433,546,432 F,0,47307,47607,0.69,0
Sprite,Foreground,Centre,"sb\white.png",0,0 F,0,46607,,0.69 S,0,46607,,0.01678781 R,0,46607,,2 M,19,46607,47007,411,440,500,343 M,0,47007,47607,500,343,508,335 F,0,47307,47607,0.69,0
Sprite,Foreground,Centre,"sb\white.png",0,0 F,0,46607,,0.69 S,0,46607,,0.01314247 R,0,46607,,2 M,19,46607,47007,411,440,463,520 M,0,47007,47607,463,520,467,527 F,0,47307,47607,0.69,0
Sprite,Foreground,Centre,"sb\white.png",0,0 F,0,46607,,0.69 S,0,46607,,0.008898065 R,0,46607,,2 M,19,46607,47007,411,440,494,393 M,0,47007,47607,494,393,501,389 F,0,47307,47607,0.69,0
Sprite,Foreground,Centre,"sb\white.png",0,0 F,0,46607,,0.69 S,0,46607,,0.01746838 R,0,46607,,0 M,19,46607,47007,411,440,316,484 M,0,47007,47607,316,484,308,487 F,0,47307,47607,0.69,0
Sprite,Foreground,Centre,"sb\white.png",0,0 F,0,46607,,0.69 S,0,46607,,0.009457765 R,0,46607,,0 M,19,46607,47007,411,440,350,412 M,0,47007,47607,350,412,345,409 F,0,47307,47607,0.69,0
Sprite,Foreground,Centre,"sb\white.png",0,0 F,0,46607,,0.69 S,0,46607,,0.02543766 R,0,46607,,1 M,19,46607,47007,411,440,381,522 M,0,47007,47607,381,522,378,529 F,0,47307,47607,0.69,0
Sprite,Foreground,Centre,"sb\white.png",0,0 F,0,46607,,0.69 S,0,46607,,0.008678064 R,0,46607,,2 M,19,46607,47007,411,440,346,393 M,0,47007,47607,346,393,341,389 F,0,47307,47607,0.69,0
Sprite,Foreground,Centre,"sb\white.png",0,0 F,0,46607,,0.69 S,0,46607,,0.01041848 R,0,46607,,0 M,19,46607,47007,411,440,329,332 M,0,47007,47607,329,332,322,323 F,0,47307,47607,0.69,0
Sprite,Foreground,Centre,"sb\white.png",0,0 F,0,46607,,0.69 S,0,46607,,0.02610159 R,0,46607,,2 M,19,46607,47007,411,440,313,379 M,0,47007,47607,313,379,304,373 F,0,47307,47607,0.69,0
Sprite,Foreground,Centre,"sb\white.png",0,0 F,0,46607,,0.69 S,0,46607,,0.02405792 R,0,46607,,2 M,19,46607,47007,411,440,531,416 M,0,47007,47607,531,416,542,414 F,0,47307,47607,0.69,0
Sprite,Foreground,Centre,"sb\white.png",0,0 F,0,46607,,0.69 S,0,46607,,0.01688228 R,0,46607,,2 M,19,46607,47007,411,440,498,447 M,0,47007,47607,498,447,506,448 F,0,47307,47607,0.69,0
Sprite,Foreground,Centre,"sb\white.png",0,0 F,0,46607,,0.69 S,0,46607,,0.02117622 R,0,46607,,2 M,19,46607,47007,411,440,400,368 M,0,47007,47607,400,368,399,362 F,0,47307,47607,0.69,0
Sprite,Foreground,Centre,"sb\white.png",0,0 F,0,46607,,0.69 S,0,46607,,0.01308162 R,0,46607,,2 M,19,46607,47007,411,440,400,543 M,0,47007,47607,400,543,399,552 F,0,47307,47607,0.69,0
Sprite,Foreground,Centre,"sb\white.png",0,0 F,0,46607,,0.69 S,0,46607,,0.005876991 R,0,46607,,1 M,19,46607,47007,411,440,298,490 M,0,47007,47607,298,490,288,494 F,0,47307,47607,0.69,0
Sprite,Foreground,Centre,"sb\white.png",0,0 F,0,46607,,0.69 S,0,46607,,0.02163539 R,0,46607,,1 M,19,46607,47007,411,440,411,503 M,0,47007,47607,411,503,411,508 F,0,47307,47607,0.69,0
Sprite,Foreground,Centre,"sb\white.png",0,0 F,0,46607,,0.69 S,0,46607,,0.0305618 R,0,46607,,2 M,19,46607,47007,411,440,439,573 M,0,47007,47607,439,573,441,584 F,0,47307,47607,0.69,0
Sprite,Foreground,Centre,"sb\white.png",0,0 F,0,46607,,0.69 S,0,46607,,0.02470028 R,0,46607,,1 M,19,46607,47007,411,440,419,541 M,0,47007,47607,419,541,420,550 F,0,47307,47607,0.69,0
Sprite,Foreground,Centre,"sb\white.png",0,0 F,0,46607,,0.69 S,0,46607,,0.015026 R,0,46607,,2 M,19,46607,47007,411,440,493,435 M,0,47007,47607,493,435,500,435 F,0,47307,47607,0.69,0
Sprite,Foreground,Centre,"sb\white.png",0,0 F,0,46607,,0.69 S,0,46607,,0.0102043 R,0,46607,,0 M,19,46607,47007,411,440,437,520 M,0,47007,47607,437,520,439,527 F,0,47307,47607,0.69,0
Sprite,Foreground,Centre,"sb\white.png",0,0 F,0,46607,,0.69 S,0,46607,,0.01995448 R,0,46607,,1 M,19,46607,47007,411,440,362,393 M,0,47007,47607,362,393,358,389 F,0,47307,47607,0.69,0
Sprite,Foreground,Centre,"sb\white.png",0,0 F,0,46607,,0.69 S,0,46607,,0.03053979 R,0,46607,,1 M,19,46607,47007,411,440,532,486 M,0,47007,47607,532,486,543,490 F,0,47307,47607,0.69,0
Sprite,Foreground,Centre,"sb\white.png",0,0 F,0,46607,,0.69 S,0,46607,,0.01564428 R,0,46607,,0 M,19,46607,47007,411,440,530,476 M,0,47007,47607,530,476,541,479 F,0,47307,47607,0.69,0
Sprite,Foreground,Centre,"sb\white.png",0,0 F,0,46607,,0.69 S,0,46607,,0.02754509 R,0,46607,,1 M,19,46607,47007,411,440,324,484 M,0,47007,47607,324,484,316,488 F,0,47307,47607,0.69,0
Sprite,Foreground,Centre,"sb\white.png",0,0 F,0,46607,,0.69 S,0,46607,,0.005100807 R,0,46607,,1 M,19,46607,47007,411,440,515,473 M,0,47007,47607,515,473,524,476 F,0,47307,47607,0.69,0
Sprite,Foreground,Centre,"sb\white.png",0,0 F,0,46607,,0.69 S,0,46607,,0.008646461 R,0,46607,,0 M,19,46607,47007,411,440,331,384 M,0,47007,47607,331,384,324,379 F,0,47307,47607,0.69,0
Sprite,Foreground,Centre,"sb\white.png",0,0 F,0,46607,,0.69 S,0,46607,,0.01516053 R,0,46607,,1 M,19,46607,47007,411,440,444,572 M,0,47007,47607,444,572,446,583 F,0,47307,47607,0.69,0
Sprite,Foreground,Centre,"sb\white.png",0,0 F,0,46607,,0.69 S,0,46607,,0.0144195 R,0,46607,,2 M,19,46607,47007,411,440,397,312 M,0,47007,47607,397,312,396,301 F,0,47307,47607,0.69,0
Sprite,Foreground,Centre,"sb\white.png",0,0 F,0,46607,,0.69 S,0,46607,,0.02455815 R,0,46607,,2 M,19,46607,47007,411,440,448,569 M,0,47007,47607,448,569,451,580 F,0,47307,47607,0.69,0
Sprite,Foreground,Centre,"sb\white.png",0,0 F,0,46607,,0.69 S,0,46607,,0.00465511 R,0,46607,,0 M,19,46607,47007,411,440,426,508 M,0,47007,47607,426,508,428,514 F,0,47307,47607,0.69,0
Sprite,Foreground,Centre,"sb\glow.png",192,193 C,0,48689,,17,196,255 F,0,48689,48789,0,0.6 F,0,49471,49571,0.6,0
Sprite,Foreground,Centre,"sb\glow.png",193.6195,217.697 C,0,48714,,17,196,255 F,0,48714,48814,0,0.6 F,0,49471,49571,0.6,0
Sprite,Foreground,Centre,"sb\glow.png",195.239,242.3939 C,0,48739,,17,196,255 F,0,48739,48839,0,0.6 F,0,49471,49571,0.6,0
Sprite,Foreground,Centre,"sb\glow.png",185.9851,262.4741 C,0,48764,,17,196,255 F,0,48764,48864,0,0.6 F,0,49471,49571,0.6,0
Sprite,Foreground,Centre,"sb\glow.png",167.0913,278.4612 C,0,48789,,17,196,255 F,0,48789,48889,0,0.6 F,0,49471,49571,0.6,0
Sprite,Foreground,Centre,"sb\glow.png",148.1975,294.4482 C,0,48814,,17,196,255 F,0,48814,48914,0,0.6 F,0,49471,49571,0.6,0
Sprite,Foreground,Centre,"sb\glow.png",145.388,317.2014 C,0,48839,,17,196,255 F,0,48839,48939,0,0.6 F,0,49471,49571,0.6,0
Sprite,Foreground,Centre,"sb\glow.png",147.1725,341.8869 C,0,48864,,17,196,255 F,0,48864,48964,0,0.6 F,0,49471,49571,0.6,0
Sprite,Foreground,Centre,"sb\glow.png",115,440 C,0,49052,,255,36,130 F,0,49052,49152,0,0.6 F,0,49925,50025,0.6,0
Sprite,Foreground,Centre,"sb\glow.png",114.1768,427.6524 C,0,49077,,255,36,130 F,0,49077,49177,0,0.6 F,0,49925,50025,0.6,0
Sprite,Foreground,Centre,"sb\glow.png",113.3537,415.3048 C,0,49102,,255,36,130 F,0,49102,49202,0,0.6 F,0,49925,50025,0.6,0
Sprite,Foreground,Centre,"sb\glow.png",112.5305,402.9572 C,0,49127,,255,36,130 F,0,49127,49227,0,0.6 F,0,49925,50025,0.6,0
Sprite,Foreground,Centre,"sb\glow.png",111.7073,390.6096 C,0,49152,,255,36,130 F,0,49152,49252,0,0.6 F,0,49925,50025,0.6,0
Sprite,Foreground,Centre,"sb\glow.png",110.8841,378.2621 C,0,49177,,255,36,130 F,0,49177,49277,0,0.6 F,0,49925,50025,0.6,0
Sprite,Foreground,Centre,"sb\glow.png",110.061,365.9145 C,0,49202,,255,36,130 F,0,49202,49302,0,0.6 F,0,49925,50025,0.6,0
Sprite,Foreground,Centre,"sb\glow.png",109.2378,353.5669 C,0,49227,,255,36,130 F,0,49227,49327,0,0.6 F,0,49925,50025,0.6,0
Sprite,Foreground,Centre,"sb\glow.png",108.4146,341.2193 C,0,49252,,255,36,130 F,0,49252,49352,0,0.6 F,0,49925,50025,0.6,0
Sprite,Foreground,Centre,"sb\glow.png",107.5914,328.8717 C,0,49277,,255,36,130 F,0,49277,49377,0,0.6 F,0,49925,50025,0.6,0
Sprite,Foreground,Centre,"sb\glow.png",106.7683,316.5241 C,0,49302,,255,36,130 F,0,49302,49402,0,0.6 F,0,49925,50025,0.6,0
Sprite,Foreground,Centre,"sb\pinkC.png",0,0 M,0,49516,,95,152 F,0,49516,50016,1 S,19,49516,50516,0.1,0.52 F,0,50216,50516,1,0
Sprite,Foreground,Centre,"sb\white.png",0,0 F,0,49516,,0.69 S,0,49516,,0.01879958 R,0,49516,,1 M,19,49516,49916,95,152,192,170 M,0,49916,50516,192,170,201,172 F,0,50216,50516,0.69,0
Sprite,Foreground,Centre,"sb\white.png",0,0 F,0,49516,,0.69 S,0,49516,,0.02197887 R,0,49516,,2 M,19,49516,49916,95,152,94,60 M,0,49916,50516,94,60,94,53 F,0,50216,50516,0.69,0
Sprite,Foreground,Centre,"sb\white.png",0,0 F,0,49516,,0.69 S,0,49516,,0.01446924 R,0,49516,,0 M,19,49516,49916,95,152,110,264 M,0,49916,50516,110,264,112,274 F,0,50216,50516,0.69,0
Sprite,Foreground,Centre,"sb\white.png",0,0 F,0,49516,,0.69 S,0,49516,,0.00963684 R,0,49516,,0 M,19,49516,49916,95,152,133,276 M,0,49916,50516,133,276,136,287 F,0,50216,50516,0.69,0
Sprite,Foreground,Centre,"sb\white.png",0,0 F,0,49516,,0.69 S,0,49516,,0.02617498 R,0,49516,,0 M,19,49516,49916,95,152,5,126 M,0,49916,50516,5,126,-2,124 F,0,50216,50516,0.69,0
Sprite,Foreground,Centre,"sb\white.png",0,0 F,0,49516,,0.69 S,0,49516,,0.009256896 R,0,49516,,2 M,19,49516,49916,95,152,169,210 M,0,49916,50516,169,210,176,215 F,0,50216,50516,0.69,0
Sprite,Foreground,Centre,"sb\white.png",0,0 F,0,49516,,0.69 S,0,49516,,0.01504739 R,0,49516,,0 M,19,49516,49916,95,152,142,275 M,0,49916,50516,142,275,146,286 F,0,50216,50516,0.69,0
Sprite,Foreground,Centre,"sb\white.png",0,0 F,0,49516,,0.69 S,0,49516,,0.03172142 R,0,49516,,2 M,19,49516,49916,95,152,47,70 M,0,49916,50516,47,70,43,63 F,0,50216,50516,0.69,0
Sprite,Foreground,Centre,"sb\white.png",0,0 F,0,49516,,0.69 S,0,49516,,0.02895472 R,0,49516,,0 M,19,49516,49916,95,152,36,91 M,0,49916,50516,36,91,30,85 F,0,50216,50516,0.69,0
Sprite,Foreground,Centre,"sb\white.png",0,0 F,0,49516,,0.69 S,0,49516,,0.0278874 R,0,49516,,0 M,19,49516,49916,95,152,64,69 M,0,49916,50516,64,69,62,62 F,0,50216,50516,0.69,0
Sprite,Foreground,Centre,"sb\white.png",0,0 F,0,49516,,0.69 S,0,49516,,0.02736405 R,0,49516,,1 M,19,49516,49916,95,152,-36,168 M,0,49916,50516,-36,168,-47,169 F,0,50216,50516,0.69,0
Sprite,Foreground,Centre,"sb\white.png",0,0 F,0,49516,,0.69 S,0,49516,,0.01500889 R,0,49516,,0 M,19,49516,49916,95,152,201,119 M,0,49916,50516,201,119,210,116 F,0,50216,50516,0.69,0
Sprite,Foreground,Centre,"sb\white.png",0,0 F,0,49516,,0.69 S,0,49516,,0.01234919 R,0,49516,,1 M,19,49516,49916,95,152,120,215 M,0,49916,50516,120,215,122,220 F,0,50216,50516,0.69,0
Sprite,Foreground,Centre,"sb\white.png",0,0 F,0,49516,,0.69 S,0,49516,,0.01430482 R,0,49516,,2 M,19,49516,49916,95,152,56,62 M,0,49916,50516,56,62,53,54 F,0,50216,50516,0.69,0
Sprite,Foreground,Centre,"sb\white.png",0,0 F,0,49516,,0.69 S,0,49516,,0.004196102 R,0,49516,,0 M,19,49516,49916,95,152,189,140 M,0,49916,50516,189,140,198,139 F,0,50216,50516,0.69,0
Sprite,Foreground,Centre,"sb\white.png",0,0 F,0,49516,,0.69 S,0,49516,,0.009268074 R,0,49516,,1 M,19,49516,49916,95,152,16,222 M,0,49916,50516,16,222,9,229 F,0,50216,50516,0.69,0
Sprite,Foreground,Centre,"sb\white.png",0,0 F,0,49516,,0.69 S,0,49516,,0.006808051 R,0,49516,,1 M,19,49516,49916,95,152,83,63 M,0,49916,50516,83,63,82,55 F,0,50216,50516,0.69,0
Sprite,Foreground,Centre,"sb\white.png",0,0 F,0,49516,,0.69 S,0,49516,,0.004577796 R,0,49516,,1 M,19,49516,49916,95,152,80,245 M,0,49916,50516,80,245,78,253 F,0,50216,50516,0.69,0
Sprite,Foreground,Centre,"sb\white.png",0,0 F,0,49516,,0.69 S,0,49516,,0.01417745 R,0,49516,,1 M,19,49516,49916,95,152,161,40 M,0,49916,50516,161,40,167,30 F,0,50216,50516,0.69,0
Sprite,Foreground,Centre,"sb\white.png",0,0 F,0,49516,,0.69 S,0,49516,,0.007464616 R,0,49516,,2 M,19,49516,49916,95,152,-24,99 M,0,49916,50516,-24,99,-34,94 F,0,50216,50516,0.69,0
Sprite,Foreground,Centre,"sb\white.png",0,0 F,0,49516,,0.69 S,0,49516,,0.01892373 R,0,49516,,1 M,19,49516,49916,95,152,-3,116 M,0,49916,50516,-3,116,-12,113 F,0,50216,50516,0.69,0
Sprite,Foreground,Centre,"sb\white.png",0,0 F,0,49516,,0.69 S,0,49516,,0.02424327 R,0,49516,,1 M,19,49516,49916,95,152,149,113 M,0,49916,50516,149,113,154,109 F,0,50216,50516,0.69,0
Sprite,Foreground,Centre,"sb\white.png",0,0 F,0,49516,,0.69 S,0,49516,,0.02054694 R,0,49516,,1 M,19,49516,49916,95,152,142,48 M,0,49916,50516,142,48,147,39 F,0,50216,50516,0.69,0
Sprite,Foreground,Centre,"sb\white.png",0,0 F,0,49516,,0.69 S,0,49516,,0.02969257 R,0,49516,,2 M,19,49516,49916,95,152,112,90 M,0,49916,50516,112,90,114,84 F,0,50216,50516,0.69,0
Sprite,Foreground,Centre,"sb\white.png",0,0 F,0,49516,,0.69 S,0,49516,,0.01819819 R,0,49516,,0 M,19,49516,49916,95,152,74,216 M,0,49916,50516,74,216,72,222 F,0,50216,50516,0.69,0
Sprite,Foreground,Centre,"sb\white.png",0,0 F,0,49516,,0.69 S,0,49516,,0.02327972 R,0,49516,,2 M,19,49516,49916,95,152,11,189 M,0,49916,50516,11,189,4,192 F,0,50216,50516,0.69,0
Sprite,Foreground,Centre,"sb\white.png",0,0 F,0,49516,,0.69 S,0,49516,,0.01079427 R,0,49516,,2 M,19,49516,49916,95,152,21,78 M,0,49916,50516,21,78,14,72 F,0,50216,50516,0.69,0
Sprite,Foreground,Centre,"sb\white.png",0,0 F,0,49516,,0.69 S,0,49516,,0.030978 R,0,49516,,2 M,19,49516,49916,95,152,15,80 M,0,49916,50516,15,80,8,74 F,0,50216,50516,0.69,0
Sprite,Foreground,Centre,"sb\white.png",0,0 F,0,49516,,0.69 S,0,49516,,0.00972434 R,0,49516,,2 M,19,49516,49916,95,152,40,58 M,0,49916,50516,40,58,35,49 F,0,50216,50516,0.69,0
Sprite,Foreground,Centre,"sb\white.png",0,0 F,0,49516,,0.69 S,0,49516,,0.007253107 R,0,49516,,0 M,19,49516,49916,95,152,101,61 M,0,49916,50516,101,61,101,53 F,0,50216,50516,0.69,0
Sprite,Foreground,Centre,"sb\white.png",0,0 F,0,49516,,0.69 S,0,49516,,0.02138145 R,0,49516,,0 M,19,49516,49916,95,152,107,64 M,0,49916,50516,107,64,108,56 F,0,50216,50516,0.69,0
Sprite,Foreground,Centre,"sb\white.png",0,0 F,0,49516,,0.69 S,0,49516,,0.007636745 R,0,49516,,2 M,19,49516,49916,95,152,45,88 M,0,49916,50516,45,88,40,82 F,0,50216,50516,0.69,0
Sprite,Foreground,Centre,"sb\white.png",0,0 F,0,49516,,0.69 S,0,49516,,0.006108324 R,0,49516,,0 M,19,49516,49916,95,152,87,216 M,0,49916,50516,87,216,86,222 F,0,50216,50516,0.69,0
Sprite,Foreground,Centre,"sb\white.png",0,0 F,0,49516,,0.69 S,0,49516,,0.01979003 R,0,49516,,1 M,19,49516,49916,95,152,156,36 M,0,49916,50516,156,36,161,26 F,0,50216,50516,0.69,0
Sprite,Foreground,Centre,"sb\white.png",0,0 F,0,49516,,0.69 S,0,49516,,0.03025191 R,0,49516,,0 M,19,49516,49916,95,152,138,246 M,0,49916,50516,138,246,142,254 F,0,50216,50516,0.69,0
Sprite,Foreground,Centre,"sb\white.png",0,0 F,0,49516,,0.69 S,0,49516,,0.03128063 R,0,49516,,1 M,19,49516,49916,95,152,44,78 M,0,49916,50516,44,78,40,71 F,0,50216,50516,0.69,0
Sprite,Foreground,Centre,"sb\white.png",0,0 F,0,49516,,0.69 S,0,49516,,0.0152744 R,0,49516,,2 M,19,49516,49916,95,152,-10,75 M,0,49916,50516,-10,75,-20,68 F,0,50216,50516,0.69,0
Sprite,Foreground,Centre,"sb\white.png",0,0 F,0,49516,,0.69 S,0,49516,,0.03040809 R,0,49516,,2 M,19,49516,49916,95,152,6,121 M,0,49916,50516,6,121,-1,118 F,0,50216,50516,0.69,0
Sprite,Foreground,Centre,"sb\white.png",0,0 F,0,49516,,0.69 S,0,49516,,0.03030171 R,0,49516,,1 M,19,49516,49916,95,152,193,182 M,0,49916,50516,193,182,202,184 F,0,50216,50516,0.69,0
Sprite,Foreground,Centre,"sb\white.png",0,0 F,0,49516,,0.69 S,0,49516,,0.01067516 R,0,49516,,1 M,19,49516,49916,95,152,104,57 M,0,49916,50516,104,57,105,49 F,0,50216,50516,0.69,0
Sprite,Foreground,Centre,"sb\white.png",0,0 F,0,49516,,0.69 S,0,49516,,0.005620496 R,0,49516,,1 M,19,49516,49916,95,152,4,121 M,0,49916,50516,4,121,-3,118 F,0,50216,50516,0.69,0
Sprite,Foreground,Centre,"sb\white.png",0,0 F,0,49516,,0.69 S,0,49516,,0.00460383 R,0,49516,,0 M,19,49516,49916,95,152,5,251 M,0,49916,50516,5,251,-2,260 F,0,50216,50516,0.69,0
Sprite,Foreground,Centre,"sb\white.png",0,0 F,0,49516,,0.69 S,0,49516,,0.02237974 R,0,49516,,1 M,19,49516,49916,95,152,80,90 M,0,49916,50516,80,90,79,84 F,0,50216,50516,0.69,0
Sprite,Foreground,Centre,"sb\white.png",0,0 F,0,49516,,0.69 S,0,49516,,0.008606951 R,0,49516,,1 M,19,49516,49916,95,152,131,242 M,0,49916,50516,131,242,134,250 F,0,50216,50516,0.69,0
Sprite,Foreground,Centre,"sb\white.png",0,0 F,0,49516,,0.69 S,0,49516,,0.02626917 R,0,49516,,2 M,19,49516,49916,95,152,68,75 M,0,49916,50516,68,75,66,68 F,0,50216,50516,0.69,0
Sprite,Foreground,Centre,"sb\white.png",0,0 F,0,49516,,0.69 S,0,49516,,0.01621201 R,0,49516,,0 M,19,49516,49916,95,152,166,208 M,0,49916,50516,166,208,173,212 F,0,50216,50516,0.69,0
Sprite,Foreground,Centre,"sb\white.png",0,0 F,0,49516,,0.69 S,0,49516,,0.004286845 R,0,49516,,0 M,19,49516,49916,95,152,29,121 M,0,49916,50516,29,121,23,118 F,0,50216,50516,0.69,0
Sprite,Foreground,Centre,"sb\white.png",0,0 F,0,49516,,0.69 S,0,49516,,0.008516308 R,0,49516,,2 M,19,49516,49916,95,152,72,221 M,0,49916,50516,72,221,70,227 F,0,50216,50516,0.69,0
Sprite,Foreground,Centre,"sb\white.png",0,0 F,0,49516,,0.69 S,0,49516,,0.01011451 R,0,49516,,2 M,19,49516,49916,95,152,14,258 M,0,49916,50516,14,258,7,267 F,0,50216,50516,0.69,0
Sprite,Foreground,Centre,"sb\white.png",0,0 F,0,49516,,0.69 S,0,49516,,0.0207603 R,0,49516,,0 M,19,49516,49916,95,152,76,222 M,0,49916,50516,76,222,74,228 F,0,50216,50516,0.69,0
Sprite,Foreground,Centre,"sb\white.png",0,0 F,0,49516,,0.69 S,0,49516,,0.01809287 R,0,49516,,2 M,19,49516,49916,95,152,86,249 M,0,49916,50516,86,249,85,257 F,0,50216,50516,0.69,0
Sprite,Foreground,Centre,"sb\white.png",0,0 F,0,49516,,0.69 S,0,49516,,0.01176438 R,0,49516,,1 M,19,49516,49916,95,152,105,24 M,0,49916,50516,105,24,106,13 F,0,50216,50516,0.69,0
Sprite,Foreground,Centre,"sb\white.png",0,0 F,0,49516,,0.69 S,0,49516,,0.02674379 R,0,49516,,2 M,19,49516,49916,95,152,147,202 M,0,49916,50516,147,202,151,206 F,0,50216,50516,0.69,0
Sprite,Foreground,Centre,"sb\white.png",0,0 F,0,49516,,0.69 S,0,49516,,0.03037042 R,0,49516,,0 M,19,49516,49916,95,152,184,71 M,0,49916,50516,184,71,192,64 F,0,50216,50516,0.69,0
Sprite,Foreground,Centre,"sb\white.png",0,0 F,0,49516,,0.69 S,0,49516,,0.01550365 R,0,49516,,0 M,19,49516,49916,95,152,181,251 M,0,49916,50516,181,251,188,259 F,0,50216,50516,0.69,0
Sprite,Foreground,Centre,"sb\white.png",0,0 F,0,49516,,0.69 S,0,49516,,0.02798036 R,0,49516,,0 M,19,49516,49916,95,152,196,192 M,0,49916,50516,196,192,205,196 F,0,50216,50516,0.69,0
Sprite,Foreground,Centre,"sb\white.png",0,0 F,0,49516,,0.69 S,0,49516,,0.03037198 R,0,49516,,1 M,19,49516,49916,95,152,136,278 M,0,49916,50516,136,278,139,289 F,0,50216,50516,0.69,0
Sprite,Foreground,Centre,"sb\white.png",0,0 F,0,49516,,0.69 S,0,49516,,0.009538636 R,0,49516,,0 M,19,49516,49916,95,152,14,130 M,0,49916,50516,14,130,7,128 F,0,50216,50516,0.69,0
Sprite,Foreground,Centre,"sb\white.png",0,0 F,0,49516,,0.69 S,0,49516,,0.01107987 R,0,49516,,2 M,19,49516,49916,95,152,64,283 M,0,49916,50516,64,283,62,295 F,0,50216,50516,0.69,0
Sprite,Foreground,Centre,"sb\white.png",0,0 F,0,49516,,0.69 S,0,49516,,0.004400938 R,0,49516,,2 M,19,49516,49916,95,152,103,19 M,0,49916,50516,103,19,104,8 F,0,50216,50516,0.69,0
Sprite,Foreground,Centre,"sb\white.png",0,0 F,0,49516,,0.69 S,0,49516,,0.0158089 R,0,49516,,0 M,19,49516,49916,95,152,43,105 M,0,49916,50516,43,105,39,101 F,0,50216,50516,0.69,0
Sprite,Foreground,Centre,"sb\white.png",0,0 F,0,49516,,0.69 S,0,49516,,0.02992612 R,0,49516,,1 M,19,49516,49916,95,152,139,257 M,0,49916,50516,139,257,143,267 F,0,50216,50516,0.69,0
Sprite,Foreground,Centre,"sb\white.png",0,0 F,0,49516,,0.69 S,0,49516,,0.03013859 R,0,49516,,1 M,19,49516,49916,95,152,106,77 M,0,49916,50516,106,77,107,70 F,0,50216,50516,0.69,0
Sprite,Foreground,Centre,"sb\white.png",0,0 F,0,49516,,0.69 S,0,49516,,0.03153821 R,0,49516,,1 M,19,49516,49916,95,152,130,217 M,0,49916,50516,130,217,133,223 F,0,50216,50516,0.69,0
Sprite,Foreground,Centre,"sb\white.png",0,0 F,0,49516,,0.69 S,0,49516,,0.0231595 R,0,49516,,0 M,19,49516,49916,95,152,156,201 M,0,49916,50516,156,201,161,206 F,0,50216,50516,0.69,0
Sprite,Foreground,Centre,"sb\white.png",0,0 F,0,49516,,0.69 S,0,49516,,0.0085885 R,0,49516,,2 M,19,49516,49916,95,152,150,117 M,0,49916,50516,150,117,155,114 F,0,50216,50516,0.69,0
Sprite,Foreground,Centre,"sb\white.png",0,0 F,0,49516,,0.69 S,0,49516,,0.01220738 R,0,49516,,1 M,19,49516,49916,95,152,-36,173 M,0,49916,50516,-36,173,-48,174 F,0,50216,50516,0.69,0
Sprite,Foreground,Centre,"sb\white.png",0,0 F,0,49516,,0.69 S,0,49516,,0.006548136 R,0,49516,,1 M,19,49516,49916,95,152,14,137 M,0,49916,50516,14,137,7,136 F,0,50216,50516,0.69,0
Sprite,Foreground,Centre,"sb\white.png",0,0 F,0,49516,,0.69 S,0,49516,,0.02421574 R,0,49516,,0 M,19,49516,49916,95,152,49,45 M,0,49916,50516,49,45,45,36 F,0,50216,50516,0.69,0
Sprite,Foreground,Centre,"sb\white.png",0,0 F,0,49516,,0.69 S,0,49516,,0.01735867 R,0,49516,,0 M,19,49516,49916,95,152,37,105 M,0,49916,50516,37,105,32,101 F,0,50216,50516,0.69,0
Sprite,Foreground,Centre,"sb\white.png",0,0 F,0,49516,,0.69 S,0,49516,,0.01411218 R,0,49516,,2 M,19,49516,49916,95,152,3,78 M,0,49916,50516,3,78,-4,71 F,0,50216,50516,0.69,0
Sprite,Foreground,Centre,"sb\white.png",0,0 F,0,49516,,0.69 S,0,49516,,0.01146661 R,0,49516,,1 M,19,49516,49916,95,152,144,193 M,0,49916,50516,144,193,148,196 F,0,50216,50516,0.69,0
Sprite,Foreground,Centre,"sb\white.png",0,0 F,0,49516,,0.69 S,0,49516,,0.03059174 R,0,49516,,1 M,19,49516,49916,95,152,91,219 M,0,49916,50516,91,219,91,225 F,0,50216,50516,0.69,0
Sprite,Foreground,Centre,"sb\white.png",0,0 F,0,49516,,0.69 S,0,49516,,0.0119881 R,0,49516,,2 M,19,49516,49916,95,152,7,107 M,0,49916,50516,7,107,0,103 F,0,50216,50516,0.69,0
Sprite,Foreground,Centre,"sb\white.png",0,0 F,0,49516,,0.69 S,0,49516,,0.004831389 R,0,49516,,2 M,19,49516,49916,95,152,42,97 M,0,49916,50516,42,97,37,93 F,0,50216,50516,0.69,0
Sprite,Foreground,Centre,"sb\white.png",0,0 F,0,49516,,0.69 S,0,49516,,0.01614161 R,0,49516,,1 M,19,49516,49916,95,152,151,96 M,0,49916,50516,151,96,156,92 F,0,50216,50516,0.69,0
Sprite,Foreground,Centre,"sb\glow.png",0,0 C,0,96243,,17,196,255 M,0,96243,96288,483,203,502.0573,238.4115 F,2,96243,96534,1,0 S,2,96243,96534,1.3,0.26 P,0,96243,96534,A M,0,96288,96334,502.0573,238.4115,507.5172,278.6218
Sprite,Foreground,Centre,"sb\glow.png",403,257 C,0,96425,,255,36,130 F,2,96425,96625,1,0 S,2,96425,96625,1.3,0.26 P,0,96425,96625,A
Sprite,Foreground,Centre,"sb\glow.png",388,219 C,0,96516,,255,36,130 F,2,96516,96716,1,0 S,2,96516,96716,1.3,0.26 P,0,96516,96716,A
Sprite,Foreground,Centre,"sb\glow.png",390,179 C,0,96607,,255,36,130 F,2,96607,96807,1,0 S,2,96607,96807,1.3,0.26 P,0,96607,96807,A
Sprite,Foreground,Centre,"sb\glow.png",408,143 C,0,96698,,255,36,130 F,2,96698,96898,1,0 S,2,96698,96898,1.3,0.26 P,0,96698,96898,A
Sprite,Foreground,Centre,"sb\glow.png",0,0 C,0,96789,,255,36,130 M,0,96789,96834,439,117,477.8264,106.8619 F,2,96789,97262,1,0 S,2,96789,97262,1.3,0.26 P,0,96789,97262,A M,0,96834,96879,477.8264,106.8619,517.3984,113.0769 M,0,96879,96925,517.3984,113.0769,478.042,106.8526 M,0,96925,96970,478.042,106.8526,439.1997,116.9184 M,0,96970,97016,439.1997,116.9184,477.6109,106.8712 M,0,97016,97062,477.6109,106.8712,517.4983,113.1177
Sprite,Foreground,Centre,"sb\glow.png",0,0 C,0,97152,,17,196,255 M,0,97152,97197,403,257,376.4247,226.6539 F,2,97152,97534,1,0 S,2,97152,97534,1.3,0.26 P,0,97152,97534,A M,0,97197,97242,376.4247,226.6539,342.6741,204.6216 M,0,97242,97288,342.6741,204.6216,304.1631,192.7284 M,0,97288,97334,304.1631,192.7284,263.0344,191.7674
Sprite,Foreground,Centre,"sb\glow.png",0,0 C,0,97516,,255,36,130 M,0,97516,97561,65,100,68.487,140.3496 F,2,97516,97807,1,0 S,2,97516,97807,1.3,0.26 P,0,97516,97807,A M,0,97561,97607,68.487,140.3496,72,181
Sprite,Foreground,Centre,"sb\glow.png",0,0 C,0,97698,,255,36,130 M,0,97698,97743,169,222,165.3983,181.6605 F,2,97698,97989,1,0 S,2,97698,97989,1.3,0.26 P,0,97698,97989,A M,0,97743,97789,165.3983,181.6605,161.7605,140.9175
Sprite,Foreground,Centre,"sb\glow.png",84,278 C,0,97880,,17,196,255 F,2,97880,98080,1,0 S,2,97880,98080,1.3,0.26 P,0,97880,98080,A
Sprite,Foreground,Centre,"sb\glow.png",86,316 C,0,97971,,17,196,255 F,2,97971,98171,1,0 S,2,97971,98171,1.3,0.26 P,0,97971,98171,A
Sprite,Foreground,Centre,"sb\glow.png",89,359 C,0,98062,,17,196,255 F,2,98062,98262,1,0 S,2,98062,98262,1.3,0.26 P,0,98062,98262,A
Sprite,Foreground,Centre,"sb\glow.png",93,398 C,0,98152,,17,196,255 F,2,98152,98352,1,0 S,2,98152,98352,1.3,0.26 P,0,98152,98352,A
Sprite,Foreground,Centre,"sb\glow.png",0,0 C,0,98243,,17,196,255 M,0,98243,98288,97,440,137.4211,442.5263 F,2,98243,98716,1,0 S,2,98243,98716,1.3,0.26 P,0,98243,98716,A M,0,98288,98333,137.4211,442.5263,177.8423,445.0526 M,0,98333,98379,177.8423,445.0526,137.6367,442.5398 M,0,98379,98424,137.6367,442.5398,97.21558,440.0135 M,0,98424,98470,97.21558,440.0135,137.2056,442.5128 M,0,98470,98516,137.2056,442.5128,177.95,445.0594
Sprite,Foreground,Centre,"sb\glow.png",0,0 C,0,98607,,255,36,130 M,0,98607,98652,186,336,226.4006,338.8351 F,2,98607,98989,1,0 S,2,98607,98989,1.3,0.26 P,0,98607,98989,A M,0,98652,98697,226.4006,338.8351,261.1157,355.5278 M,0,98697,98743,261.1157,355.5278,296.1954,371.5596 M,0,98743,98789,296.1954,371.5596,337.3545,375.0875
Sprite,Foreground,Centre,"sb\glow.png",0,0 C,0,98971,,17,196,255 M,0,98971,99016,576,388,557.0801,352.6158 F,2,98971,99262,1,0 S,2,98971,99262,1.3,0.26 P,0,98971,99262,A M,0,99016,99062,557.0801,352.6158,525.2729,327.6237
Sprite,Foreground,Centre,"sb\glow.png",0,0 C,0,99152,,17,196,255 M,0,99152,99197,472,423,493.2078,388.9653 F,2,99152,99443,1,0 S,2,99152,99443,1.3,0.26 P,0,99152,99443,A M,0,99197,99243,493.2078,388.9653,498.5083,348.8871
Sprite,Foreground,Centre,"sb\glow.png",461,241 C,0,99334,,255,36,130 F,2,99334,99534,1,0 S,2,99334,99534,1.3,0.26 P,0,99334,99534,A
Sprite,Foreground,Centre,"sb\glow.png",440,205 C,0,99425,,255,36,130 F,2,99425,99625,1,0 S,2,99425,99625,1.3,0.26 P,0,99425,99625,A
Sprite,Foreground,Centre,"sb\glow.png",408,181 C,0,99516,,255,36,130 F,2,99516,99716,1,0 S,2,99516,99716,1.3,0.26 P,0,99516,99716,A
Sprite,Foreground,Centre,"sb\glow.png",368,172 C,0,99607,,255,36,130 F,2,99607,99807,1,0 S,2,99607,99807,1.3,0.26 P,0,99607,99807,A
Sprite,Foreground,Centre,"sb\glow.png",0,0 C,0,99698,,255,36,130 M,0,99698,99743,328,180,294.1432,201.5758 F,2,99698,100171,1,0 S,2,99698,100171,1.3,0.26 P,0,99698,100171,A M,0,99743,99788,294.1432,201.5758,271.335,234.5436 M,0,99788,99834,271.335,234.5436,293.9901,201.7278 M,0,99834,99879,293.9901,201.7278,327.8049,180.092 M,0,99879,99925,327.8049,180.092,294.2962,201.4238 M,0,99925,99971,294.2962,201.4238,271.2968,234.6445
Sprite,Foreground,Centre,"sb\glow.png",0,0 C,0,100062,,17,196,255 M,0,100062,100107,283,371,287.4527,330.9286 F,2,100062,100444,1,0 S,2,100062,100444,1.3,0.26 P,0,100062,100444,A M,0,100107,100152,287.4527,330.9286,272.7,293.8059 M,0,100152,100198,272.7,293.8059,252.1786,259.1027 M,0,100198,100244,252.1786,259.1027,248.0159,218.2864
Sprite,Foreground,Centre,"sb\glow.png",0,0 C,0,100425,,255,36,130 M,0,100425,100470,198,84,157.6301,87.244 F,2,100425,100716,1,0 S,2,100425,100716,1.3,0.26 P,0,100425,100716,A M,0,100470,100516,157.6301,87.244,116.8566,90.52045
Sprite,Foreground,Centre,"sb\glow.png",0,0 C,0,100607,,255,36,130 M,0,100607,100652,76,189,116.3366,185.3661 F,2,100607,100898,1,0 S,2,100607,100898,1.3,0.26 P,0,100607,100898,A M,0,100652,100698,116.3366,185.3661,157.0766,181.6958
Sprite,Foreground,Centre,"sb\glow.png",314,82 C,0,100789,,17,196,255 F,2,100789,100989,1,0 S,2,100789,100989,1.3,0.26 P,0,100789,100989,A
Sprite,Foreground,Centre,"sb\glow.png",351,77 C,0,100880,,17,196,255 F,2,100880,101080,1,0 S,2,100880,101080,1.3,0.26 P,0,100880,101080,A
Sprite,Foreground,Centre,"sb\glow.png",394,74 C,0,100971,,17,196,255 F,2,100971,101171,1,0 S,2,100971,101171,1.3,0.26 P,0,100971,101171,A
Sprite,Foreground,Centre,"sb\glow.png",433,71 C,0,101062,,17,196,255 F,2,101062,101262,1,0 S,2,101062,101262,1.3,0.26 P,0,101062,101262,A
Sprite,Foreground,Centre,"sb\glow.png",0,0 C,0,101152,,255,36,130 M,0,101152,101197,475,69,471.2962,109.3303 F,2,101152,101625,1,0 S,2,101152,101625,1.3,0.26 P,0,101152,101625,A M,0,101197,101242,471.2962,109.3303,467.5924,149.6606 M,0,101242,101288,467.5924,149.6606,471.2765,109.5454 M,0,101288,101333,471.2765,109.5454,474.9803,69.21509 M,0,101333,101379,474.9803,69.21509,471.3159,109.1152 M,0,101379,101425,471.3159,109.1152,467.5825,149.7681
Sprite,Foreground,Centre,"sb\glow.png",576,231 C,0,101516,,17,196,255 F,2,101516,101716,1,0 S,2,101516,101716,1.3,0.26 P,0,101516,101716,A
Sprite,Foreground,Centre,"sb\glow.png",539,236 C,0,101607,,17,196,255 F,2,101607,101807,1,0 S,2,101607,101807,1.3,0.26 P,0,101607,101807,A
Sprite,Foreground,Centre,"sb\glow.png",496,239 C,0,101698,,17,196,255 F,2,101698,101898,1,0 S,2,101698,101898,1.3,0.26 P,0,101698,101898,A
Sprite,Foreground,Centre,"sb\glow.png",457,242 C,0,101789,,17,196,255 F,2,101789,101989,1,0 S,2,101789,101989,1.3,0.26 P,0,101789,101989,A
Sprite,Foreground,Centre,"sb\glow.png",0,0 C,0,101880,,255,36,130 M,0,101880,101925,417,248,420.9806,288.3039 F,2,101880,102171,1,0 S,2,101880,102171,1.3,0.26 P,0,101880,102171,A M,0,101925,101971,420.9806,288.3039,425,329
Sprite,Foreground,Centre,"sb\glow.png",0,0 C,0,102062,,255,36,130 M,0,102062,102107,528,359,531.5303,399.3459 F,2,102062,102353,1,0 S,2,102062,102353,1.3,0.26 P,0,102062,102353,A M,0,102107,102153,531.5303,399.3459,535,439
Sprite,Foreground,Centre,"sb\glow.png",442,436 C,0,102243,,17,196,255 F,2,102243,102443,1,0 S,2,102243,102443,1.3,0.26 P,0,102243,102443,A
Sprite,Foreground,Centre,"sb\glow.png",395,437 C,0,102334,,17,196,255 F,2,102334,102534,1,0 S,2,102334,102534,1.3,0.26 P,0,102334,102534,A
Sprite,Foreground,Centre,"sb\glow.png",0,0 C,0,102425,,17,196,255 M,0,102425,102470,354,418,324.715,390.61 F,2,102425,102716,1,0 S,2,102425,102716,1.3,0.26 P,0,102425,102716,A M,0,102470,102516,324.715,390.61,309.436,353.1972
Sprite,Foreground,Centre,"sb\glow.png",0,0 C,0,102607,,255,36,130 M,0,102607,102652,297,226,257.6347,233.1574 F,2,102607,103080,1,0 S,2,102607,103080,1.3,0.26 P,0,102607,103080,A M,0,102652,102697,257.6347,233.1574,225.6749,257.2174 M,0,102697,102743,225.6749,257.2174,257.4377,233.245 M,0,102743,102788,257.4377,233.245,296.7844,226.0057 M,0,102788,102834,296.7844,226.0057,257.8318,233.0698 M,0,102834,102880,257.8318,233.0698,225.6044,257.2991
Sprite,Foreground,Centre,"sb\glow.png",0,0 C,0,102971,,17,196,255 M,0,102971,103016,298,329,257.7215,326.9319 F,2,102971,103353,1,0 S,2,102971,103353,1.3,0.26 P,0,102971,103353,A M,0,103016,103061,257.7215,326.9319,222.8591,307.2903 M,0,103061,103107,222.8591,307.2903,190.1634,283.8459 M,0,103107,103153,190.1634,283.8459,150.0023,277.6331
Sprite,Foreground,Centre,"sb\glow.png",0,0 C,0,103334,,255,36,130 M,0,103334,103379,123,440,158.3842,421.0801 F,2,103334,103625,1,0 S,2,103334,103625,1.3,0.26 P,0,103334,103625,A M,0,103379,103425,158.3842,421.0801,183.3763,389.2729
Sprite,Foreground,Centre,"sb\glow.png",0,0 C,0,103516,,255,36,130 M,0,103516,103561,88,336,122.0347,357.2078 F,2,103516,103807,1,0 S,2,103516,103807,1.3,0.26 P,0,103516,103807,A M,0,103561,103607,122.0347,357.2078,162.113,362.5083
Sprite,Foreground,Centre,"sb\glow.png",148,262 C,0,103698,,17,196,255 F,2,103698,103898,1,0 S,2,103698,103898,1.3,0.26 P,0,103698,103898,A
Sprite,Foreground,Centre,"sb\glow.png",143,226 C,0,103789,,17,196,255 F,2,103789,103989,1,0 S,2,103789,103989,1.3,0.26 P,0,103789,103989,A
Sprite,Foreground,Centre,"sb\glow.png",142,182 C,0,103880,,17,196,255 F,2,103880,104080,1,0 S,2,103880,104080,1.3,0.26 P,0,103880,104080,A
Sprite,Foreground,Centre,"sb\glow.png",141,143 C,0,103971,,17,196,255 F,2,103971,104171,1,0 S,2,103971,104171,1.3,0.26 P,0,103971,104171,A
Sprite,Foreground,Centre,"sb\glow.png",0,0 C,0,104062,,17,196,255 M,0,104062,104107,134,100,93.6741,96.24875 F,2,104062,104534,1,0 S,2,104062,104534,1.3,0.26 P,0,104062,104534,A M,0,104107,104152,93.6741,96.24875,53.3482,92.49751 M,0,104152,104198,53.3482,92.49751,93.56657,96.23875 M,0,104198,104243,93.56657,96.23875,133.8925,99.99 M,0,104243,104289,133.8925,99.99,93.78163,96.25876 M,0,104289,104334,93.78163,96.25876,53.29443,92.49251
Sprite,Foreground,Centre,"sb\glow.png",0,0 C,0,104425,,255,36,130 M,0,104425,104470,231,165,252.3174,199.4357 F,2,104425,104807,1,0 S,2,104425,104807,1.3,0.26 P,0,104425,104807,A M,0,104470,104515,252.3174,199.4357,288.4945,209.6245 M,0,104515,104561,288.4945,209.6245,328.8546,212.9879 M,0,104561,104607,328.8546,212.9879,370.0219,216.4185
Sprite,Foreground,Centre,"sb\glow.png",460,79 C,0,104789,,17,196,255 F,2,104789,104989,1,0 S,2,104789,104989,1.3,0.26 P,0,104789,104989,A
Sprite,Foreground,Centre,"sb\glow.png",0,0 C,0,104880,,17,196,255 M,0,104880,104925,484,61,522.5421,50.3208 F,2,104880,105262,1,0 S,2,104880,105262,1.3,0.26 P,0,104880,105262,A M,0,104925,104970,522.5421,50.3208,561.5512,58.68079 M,0,104970,105016,561.5512,58.68079,523.3391,49.90604 M,0,105016,105062,523.3391,49.90604,484,61
Sprite,Foreground,Centre,"sb\glow.png",0,0 C,0,105152,,255,36,130 M,0,105152,105197,527,139,499.4959,167.9751 F,2,105152,105443,1,0 S,2,105152,105443,1.3,0.26 P,0,105152,105443,A M,0,105197,105243,499.4959,167.9751,489.0032,206.9283
Sprite,Foreground,Centre,"sb\glow.png",0,0 C,0,105334,,255,36,130 M,0,105334,105379,398,221,409.2661,259.4193 F,2,105334,105625,1,0 S,2,105334,105625,1.3,0.26 P,0,105334,105625,A M,0,105379,105425,409.2661,259.4193,438,287
Sprite,Foreground,Centre,"sb\glow.png",376,358 C,0,105516,,17,196,255 F,2,105516,105716,1,0 S,2,105516,105716,1.3,0.26 P,0,105516,105716,A
Sprite,Foreground,Centre,"sb\glow.png",0,0 C,0,105607,,17,196,255 M,0,105607,105652,404,373,443.0395,381.948 F,2,105607,105989,1,0 S,2,105607,105989,1.3,0.26 P,0,105607,105989,A M,0,105652,105697,443.0395,381.948,481,371 M,0,105697,105743,481,371,443.8416,381.8452 M,0,105743,105789,443.8416,381.8452,404,373
Sprite,Foreground,Centre,"sb\glow.png",0,0 C,0,105880,,255,36,130 M,0,105880,105925,576,341,551.4097,309.1696 F,2,105880,106262,1,0 S,2,105880,106262,1.3,0.26 P,0,105880,106262,A M,0,105925,105970,551.4097,309.1696,517.2953,287.9646 M,0,105970,106016,517.2953,287.9646,477.8643,280.3027 M,0,106016,106062,477.8643,280.3027,437.5341,287.4806
Sprite,Foreground,Centre,"sb\glow.png",0,0 C,0,106243,,17,196,255 M,0,106243,106288,295,426,284.4576,406.234 F,2,106243,106625,1,0 S,2,106243,106625,1.3,0.26 P,0,106243,106625,A M,0,106288,106333,284.4576,406.234,270.0165,389.0925 M,0,106333,106379,270.0165,389.0925,284.1907,405.8725 M,0,106379,106425,284.1907,405.8725,295,426
Sprite,Foreground,Centre,"sb\glow.png",311,315 C,0,106516,,17,196,255 F,2,106516,106716,1,0 S,2,106516,106716,1.3,0.26 P,0,106516,106716,A
Sprite,Foreground,Centre,"sb\glow.png",0,0 C,0,106607,,17,196,255 M,0,106607,106652,285,305,253.7558,305.4162 F,2,106607,106898,1,0 S,2,106607,106898,1.3,0.26 P,0,106607,106898,A M,0,106652,106698,253.7558,305.4162,224.2398,316.5791
Sprite,Foreground,Centre,"sb\glow.png",199,220 C,0,106789,,255,36,130 F,2,106789,106989,1,0 S,2,106789,106989,1.3,0.26 P,0,106789,106989,A
Sprite,Foreground,Centre,"sb\glow.png",167,233 C,0,106880,,255,36,130 F,2,106880,107080,1,0 S,2,106880,107080,1.3,0.26 P,0,106880,107080,A
Sprite,Foreground,Centre,"sb\glow.png",0,0 C,0,106971,,255,36,130 M,0,106971,107016,144,260,125.1801,295.3374 F,2,106971,107262,1,0 S,2,106971,107262,1.3,0.26 P,0,106971,107262,A M,0,107016,107062,125.1801,295.3374,124.1613,335.6618
Sprite,Foreground,Centre,"sb\glow.png",0,0 C,0,107152,,255,36,130 M,0,107152,107197,129,422,143.5744,384.4414 F,2,107152,107443,1,0 S,2,107152,107443,1.3,0.26 P,0,107152,107443,A M,0,107197,107243,143.5744,384.4414,146.075,343.8328
Sprite,Foreground,Centre,"sb\glow.png",64,230 C,0,107334,,17,196,255 F,2,107334,107534,1,0 S,2,107334,107534,1.3,0.26 P,0,107334,107534,A
Sprite,Foreground,Centre,"sb\glow.png",64,230 C,0,107516,,17,196,255 F,2,107516,107716,1,0 S,2,107516,107716,1.3,0.26 P,0,107516,107716,A
Sprite,Foreground,Centre,"sb\glow.png",0,0 C,0,107698,,255,36,130 M,0,107698,107743,134,120,174.2908,115.8887 F,2,107698,108080,1,0 S,2,107698,108080,1.3,0.26 P,0,107698,108080,A M,0,107743,107788,174.2908,115.8887,208.5998,133.7732 M,0,107788,107834,208.5998,133.7732,241.2592,157.7234 M,0,107834,107880,241.2592,157.7234,281.9862,155.4092
Sprite,Foreground,Centre,"sb\glow.png",0,0 C,0,107971,,255,36,130 M,0,107971,108016,312,152,334.4362,150.3067 F,2,107971,108262,1,0 S,2,107971,108262,1.3,0.26 P,0,107971,108262,A M,0,108016,108062,334.4362,150.3067,357.0967,148.5965
Sprite,Foreground,Centre,"sb\glow.png",0,0 C,0,108152,,255,36,130 M,0,108152,108197,403,59,380.5143,59.80306 F,2,108152,108534,1,0 S,2,108152,108534,1.3,0.26 P,0,108152,108534,A M,0,108197,108242,380.5143,59.80306,358.0287,60.60612 M,0,108242,108288,358.0287,60.60612,380.0646,59.81912 M,0,108288,108334,380.0646,59.81912,403,59
Sprite,Foreground,Centre,"sb\glow.png",0,0 C,0,108425,,17,196,255 M,0,108425,108470,546,56,542.4609,96.34508 F,2,108425,108807,1,0 S,2,108425,108807,1.3,0.26 P,0,108425,108807,A M,0,108470,108515,542.4609,96.34508,538.9219,136.6902 M,0,108515,108561,538.9219,136.6902,535.3829,177.0352 M,0,108561,108607,535.3829,177.0352,531.7731,218.1872
Sprite,Foreground,Centre,"sb\glow.png",0,0 C,0,108698,,17,196,255 M,0,108698,108743,525,249,502.5777,250.8685 F,2,108698,108989,1,0 S,2,108698,108989,1.3,0.26 P,0,108698,108989,A M,0,108743,108789,502.5777,250.8685,479.9312,252.7557
Sprite,Foreground,Centre,"sb\glow.png",0,0 C,0,108880,,17,196,255 M,0,108880,108925,513,335,490.5777,336.8685 F,2,108880,109262,1,0 S,2,108880,109262,1.3,0.26 P,0,108880,109262,A M,0,108925,108970,490.5777,336.8685,468.1555,338.7371 M,0,108970,109016,468.1555,338.7371,490.1293,336.9059 M,0,109016,109062,490.1293,336.9059,513,335
Sprite,Foreground,Centre,"sb\glow.png",507,422 C,0,109152,,255,36,130 F,2,109152,109352,1,0 S,2,109152,109352,1.3,0.26 P,0,109152,109352,A
Sprite,Foreground,Centre,"sb\glow.png",379,344 C,0,109334,,255,36,130 F,2,109334,109534,1,0 S,2,109334,109534,1.3,0.26 P,0,109334,109534,A
Sprite,Foreground,Centre,"sb\glow.png",328,440 C,0,109516,,17,196,255 F,2,109516,109716,1,0 S,2,109516,109716,1.3,0.26 P,0,109516,109716,A
Sprite,Foreground,Centre,"sb\glow.png",528,421 C,0,109698,,17,196,255 F,2,109698,109898,1,0 S,2,109698,109898,1.3,0.26 P,0,109698,109898,A
Sprite,Foreground,Centre,"sb\glow.png",355,336 C,0,109880,,255,36,130 F,2,109880,110080,1,0 S,2,109880,110080,1.3,0.26 P,0,109880,110080,A
Sprite,Foreground,Centre,"sb\glow.png",315,339 C,0,109971,,255,36,130 F,2,109971,110171,1,0 S,2,109971,110171,1.3,0.26 P,0,109971,110171,A
Sprite,Foreground,Centre,"sb\glow.png",276,342 C,0,110062,,255,36,130 F,2,110062,110262,1,0 S,2,110062,110262,1.3,0.26 P,0,110062,110262,A
Sprite,Foreground,Centre,"sb\glow.png",237,345 C,0,110152,,255,36,130 F,2,110152,110352,1,0 S,2,110152,110352,1.3,0.26 P,0,110152,110352,A
Sprite,Foreground,Centre,"sb\glow.png",0,0 C,0,110243,,255,36,130 M,0,110243,110288,197,348,170.1127,350.4647 F,2,110243,110716,1,0 S,2,110243,110716,1.3,0.26 P,0,110243,110716,A M,0,110288,110333,170.1127,350.4647,143.2255,352.9293 M,0,110333,110379,143.2255,352.9293,116.3382,355.394 M,0,110379,110424,116.3382,355.394,89.45091,357.8587 M,0,110424,110470,89.45091,357.8587,68.43945,370.6994 M,0,110470,110516,68.43945,370.6994,52.36813,392.6636
Sprite,Foreground,Centre,"sb\glow.png",0,0 C,0,110607,,17,196,255 M,0,110607,110652,154,440,161.2903,400.3982 F,2,110607,110989,1,0 S,2,110607,110989,1.3,0.26 P,0,110607,110989,A M,0,110652,110697,161.2903,400.3982,155.4943,360.597 M,0,110697,110743,155.4943,360.597,136.991,324.8836 M,0,110743,110789,136.991,324.8836,107.1395,296.7493
Sprite,Foreground,Centre,"sb\glow.png",0,0 C,0,110880,,17,196,255 M,0,110880,110925,87,284,73.92091,265.8678 F,2,110880,111171,1,0 S,2,110880,111171,1.3,0.26 P,0,110880,111171,A M,0,110925,110971,73.92091,265.8678,65.86607,244.7842
Sprite,Foreground,Centre,"sb\glow.png",0,0 C,0,111062,,17,196,255 M,0,111062,111107,127,190,147.842,197.9933 F,2,111062,111444,1,0 S,2,111062,111444,1.3,0.26 P,0,111062,111444,A M,0,111107,111152,147.842,197.9933,169,200 M,0,111152,111198,169,200,148.2843,198.0699 M,0,111198,111244,148.2843,198.0699,127,190
Sprite,Foreground,Centre,"sb\glow.png",0,0 C,0,111334,,255,36,130 M,0,111334,111379,64,135,104.3272,135.1746 F,2,111334,111716,1,0 S,2,111334,111716,1.3,0.26 P,0,111334,111716,A M,0,111379,111424,104.3272,135.1746,140.0079,153.3412 M,0,111424,111470,140.0079,153.3412,175.2783,172.378 M,0,111470,111516,175.2783,172.378,216.3789,173.1359
Sprite,Foreground,Centre,"sb\glow.png",0,0 C,0,111607,,255,36,130 M,0,111607,111652,225,148,230.1177,126.3003 F,2,111607,111898,1,0 S,2,111607,111898,1.3,0.26 P,0,111607,111898,A M,0,111652,111698,230.1177,126.3003,241.9634,107.2296
Sprite,Foreground,Centre,"sb\glow.png",0,0 C,0,111789,,255,36,130 M,0,111789,111834,308,68,330.0317,64.29858 F,2,111789,112171,1,0 S,2,111789,112171,1.3,0.26 P,0,111789,112171,A M,0,111834,111879,330.0317,64.29858,352.137,67.10966 M,0,111879,111925,352.137,67.10966,330.4802,64.31519 M,0,111925,111971,330.4802,64.31519,308,68
Sprite,Foreground,Centre,"sb\glow.png",322,164 C,0,112062,,17,196,255 F,2,112062,112262,1,0 S,2,112062,112262,1.3,0.26 P,0,112062,112262,A
Sprite,Foreground,Centre,"sb\glow.png",431,117 C,0,112243,,17,196,255 F,2,112243,112443,1,0 S,2,112243,112443,1.3,0.26 P,0,112243,112443,A
Sprite,Foreground,Centre,"sb\glow.png",300,163 C,0,112425,,255,36,130 F,2,112425,112625,1,0 S,2,112425,112625,1.3,0.26 P,0,112425,112625,A
Sprite,Foreground,Centre,"sb\glow.png",530,186 C,0,112607,,255,36,130 F,2,112607,112807,1,0 S,2,112607,112807,1.3,0.26 P,0,112607,112807,A
Sprite,Foreground,Centre,"sb\glow.png",0,0 C,0,112789,,17,196,255 M,0,112789,112834,395,241,417.3883,243.2388 F,2,112789,113262,1,0 S,2,112789,113262,1.3,0.26 P,0,112789,113262,A M,0,112834,112879,417.3883,243.2388,439.7767,245.4777 M,0,112879,112925,439.7767,245.4777,417.5078,243.2508 M,0,112925,112970,417.5078,243.2508,395.1194,241.0119 M,0,112970,113016,395.1194,241.0119,417.2689,243.2269 M,0,113016,113062,417.2689,243.2269,439.8364,245.4836
Sprite,Foreground,Centre,"sb\glow.png",322,164 C,0,113152,,255,36,130 F,2,113152,113352,1,0 S,2,113152,113352,1.3,0.26 P,0,113152,113352,A
Sprite,Foreground,Centre,"sb\glow.png",530,186 C,0,113334,,255,36,130 F,2,113334,113534,1,0 S,2,113334,113534,1.3,0.26 P,0,113334,113534,A
Sprite,Foreground,Centre,"sb\glow.png",292,266 C,0,113516,,17,196,255 F,2,113516,113716,1,0 S,2,113516,113716,1.3,0.26 P,0,113516,113716,A
Sprite,Foreground,Centre,"sb\glow.png",0,0 C,0,114243,,255,36,130 M,0,114243,114288,292,266,261.7299,239.0933 F,2,114243,114625,1,0 S,2,114243,114625,1.3,0.26 P,0,114243,114625,A M,0,114288,114333,261.7299,239.0933,231.4598,212.1865 M,0,114333,114379,231.4598,212.1865,191.9687,213.6305 M,0,114379,114425,191.9687,213.6305,150.8558,217.6612
Sprite,Foreground,Centre,"sb\glow.png",0,0 C,0,114516,,255,36,130 M,0,114516,114561,122,224,123.8381,246.4248 F,2,114516,114807,1,0 S,2,114516,114807,1.3,0.26 P,0,114516,114807,A M,0,114561,114607,123.8381,246.4248,125.6946,269.0739
Sprite,Foreground,Centre,"sb\glow.png",0,0 C,0,114698,,255,36,130 M,0,114698,114743,197,314,198.6621,336.4385 F,2,114698,115080,1,0 S,2,114698,115080,1.3,0.26 P,0,114698,115080,A M,0,114743,114788,198.6621,336.4385,200.3242,358.877 M,0,114788,114834,200.3242,358.877,198.6954,336.8873 M,0,114834,114880,198.6954,336.8873,197,314
Sprite,Foreground,Centre,"sb\glow.png",112,351 C,0,114971,,17,196,255 F,2,114971,115171,1,0 S,2,114971,115171,1.3,0.26 P,0,114971,115171,A
Sprite,Foreground,Centre,"sb\glow.png",240,429 C,0,115152,,17,196,255 F,2,115152,115352,1,0 S,2,115152,115352,1.3,0.26 P,0,115152,115352,A
Sprite,Foreground,Centre,"sb\glow.png",291,333 C,0,115334,,255,36,130 F,2,115334,115534,1,0 S,2,115334,115534,1.3,0.26 P,0,115334,115534,A
Sprite,Foreground,Centre,"sb\glow.png",91,352 C,0,115516,,255,36,130 F,2,115516,115716,1,0 S,2,115516,115716,1.3,0.26 P,0,115516,115716,A
Sprite,Foreground,Centre,"sb\glow.png",260,439 C,0,115698,,17,196,255 F,2,115698,115898,1,0 S,2,115698,115898,1.3,0.26 P,0,115698,115898,A
Sprite,Foreground,Centre,"sb\glow.png",305,443 C,0,115789,,17,196,255 F,2,115789,115989,1,0 S,2,115789,115989,1.3,0.26 P,0,115789,115989,A
Sprite,Foreground,Centre,"sb\glow.png",347,429 C,0,115880,,17,196,255 F,2,115880,116080,1,0 S,2,115880,116080,1.3,0.26 P,0,115880,116080,A
Sprite,Foreground,Centre,"sb\glow.png",380,398 C,0,115971,,17,196,255 F,2,115971,116171,1,0 S,2,115971,116171,1.3,0.26 P,0,115971,116171,A
Sprite,Foreground,Centre,"sb\glow.png",0,0 C,0,116062,,17,196,255 M,0,116062,116107,398,357,412.4882,334.3437 F,2,116062,116535,1,0 S,2,116062,116535,1.3,0.26 P,0,116062,116535,A M,0,116107,116152,412.4882,334.3437,432.3138,316.2183 M,0,116152,116198,432.3138,316.2183,456.0257,303.5357 M,0,116198,116243,456.0257,303.5357,482.3261,297.9232 M,0,116243,116289,482.3261,297.9232,509.1534,299.2921 M,0,116289,116335,509.1534,299.2921,535.0306,307.3508
Sprite,Foreground,Centre,"sb\glow.png",0,0 C,0,116425,,255,36,130 M,0,116425,116470,491,397,489.336,357.0077 F,2,116425,116807,1,0 S,2,116425,116807,1.3,0.26 P,0,116425,116807,A M,0,116470,116515,489.336,357.0077,510.4903,322.8734 M,0,116515,116561,510.4903,322.8734,526.8522,286.5176 M,0,116561,116607,526.8522,286.5176,521.4613,245.8266
Sprite,Foreground,Centre,"sb\glow.png",0,0 C,0,116698,,255,36,130 M,0,116698,116743,509,223,501.0788,202.125 F,2,116698,116989,1,0 S,2,116698,116989,1.3,0.26 P,0,116698,116989,A M,0,116743,116789,501.0788,202.125,499.7408,179.6824
Sprite,Foreground,Centre,"sb\glow.png",0,0 C,0,116880,,255,36,130 M,0,116880,116925,570,96,575.1201,117.8277 F,2,116880,117262,1,0 S,2,116880,117262,1.3,0.26 P,0,116880,117262,A M,0,116925,116970,575.1201,117.8277,575.849,140.217 M,0,116970,117016,575.849,140.217,575.1691,118.2745 M,0,117016,117062,575.1691,118.2745,570,96
Sprite,Foreground,Centre,"sb\glow.png",0,0 C,0,117152,,17,196,255 M,0,117152,117197,423,137,399.4728,169.6649 F,2,117152,117534,1,0 S,2,117152,117534,1.3,0.26 P,0,117152,117534,A M,0,117197,117242,399.4728,169.6649,365.5202,191.2876 M,0,117242,117288,365.5202,191.2876,325.9753,198.7924 M,0,117288,117334,325.9753,198.7924,285.7393,190.7581
Sprite,Foreground,Centre,"sb\glow.png",0,0 C,0,117425,,17,196,255 M,0,117425,117470,263,179,245.6551,164.8565 F,2,117425,117716,1,0 S,2,117425,117716,1.3,0.26 P,0,117425,117716,A M,0,117470,117516,245.6551,164.8565,232.2349,146.7215
Sprite,Foreground,Centre,"sb\glow.png",0,0 C,0,117607,,17,196,255 M,0,117607,117652,193,81,172.7716,71.47639 F,2,117607,117989,1,0 S,2,117607,117989,1.3,0.26 P,0,117607,117989,A M,0,117652,117697,172.7716,71.47639,150.7655,67.81322 M,0,117697,117743,150.7655,67.81322,172.3368,71.3644 M,0,117743,117789,172.3368,71.3644,193,81
Sprite,Foreground,Centre,"sb\glow.png",147,163 C,0,117880,,255,36,130 F,2,117880,118080,1,0 S,2,117880,118080,1.3,0.26 P,0,117880,118080,A
Sprite,Foreground,Centre,"sb\glow.png",194,272 C,0,118062,,255,36,130 F,2,118062,118262,1,0 S,2,118062,118262,1.3,0.26 P,0,118062,118262,A
Sprite,Foreground,Centre,"sb\glow.png",148,141 C,0,118243,,17,196,255 F,2,118243,118443,1,0 S,2,118243,118443,1.3,0.26 P,0,118243,118443,A
Sprite,Foreground,Centre,"sb\glow.png",125,371 C,0,118425,,17,196,255 F,2,118425,118625,1,0 S,2,118425,118625,1.3,0.26 P,0,118425,118625,A
Sprite,Foreground,Centre,"sb\glow.png",0,0 C,0,118607,,255,36,130 M,0,118607,118652,70,236,67.76117,258.3883 F,2,118607,119080,1,0 S,2,118607,119080,1.3,0.26 P,0,118607,119080,A M,0,118652,118697,67.76117,258.3883,65.52233,280.7767 M,0,118697,118743,65.52233,280.7767,67.74923,258.5078 M,0,118743,118788,67.74923,258.5078,69.98806,236.1194 M,0,118788,118834,69.98806,236.1194,67.77311,258.2689 M,0,118834,118880,67.77311,258.2689,65.51637,280.8364
Sprite,Foreground,Centre,"sb\glow.png",194,272 C,0,118971,,17,196,255 F,2,118971,119171,1,0 S,2,118971,119171,1.3,0.26 P,0,118971,119171,A
Sprite,Foreground,Centre,"sb\glow.png",207,299 C,0,119062,,17,196,255 F,2,119062,119262,1,0 S,2,119062,119262,1.3,0.26 P,0,119062,119262,A
Sprite,Foreground,Centre,"sb\glow.png",220,326 C,0,119152,,17,196,255 F,2,119152,119352,1,0 S,2,119152,119352,1.3,0.26 P,0,119152,119352,A
Sprite,Foreground,Centre,"sb\glow.png",233,353 C,0,119243,,17,196,255 F,2,119243,119443,1,0 S,2,119243,119443,1.3,0.26 P,0,119243,119443,A
Sprite,Foreground,Centre,"sb\glow.png",0,0 C,0,119334,,255,36,130 M,0,119334,119379,247,381,251.211,388.9541 F,2,119334,120807,1,0 S,2,119334,120807,1.3,0.26 P,0,119334,120807,A M,0,119379,119424,251.211,388.9541,255.422,396.9082 M,0,119424,119470,255.422,396.9082,259.633,404.8623 M,0,119470,119515,259.633,404.8623,263.844,412.8164 M,0,119515,119561,263.844,412.8164,271.4754,414.1633 M,0,119561,119606,271.4754,414.1633,280.4012,413.0099 M,0,119606,119652,280.4012,413.0099,289.327,411.8566 M,0,119652,119697,289.327,411.8566,298.2528,410.7033 M,0,119697,119743,298.2528,410.7033,307.1786,409.55 M,0,119743,119788,307.1786,409.55,316.1044,408.3966 M,0,119788,119833,316.1044,408.3966,325.0302,407.2433 M,0,119833,119879,325.0302,407.2433,333.956,406.09 M,0,119879,119924,333.956,406.09,342.8818,404.9366 M,0,119924,119970,342.8818,404.9366,351.8076,403.7833 M,0,119970,120015,351.8076,403.7833,360.7334,402.6299 M,0,120015,120061,360.7334,402.6299,369.6591,401.4766 M,0,120061,120106,369.6591,401.4766,378.585,400.3233 M,0,120106,120152,378.585,400.3233,387.5107,399.17 M,0,120152,120197,387.5107,399.17,396.4365,398.0166 M,0,120197,120243,396.4365,398.0166,405.3623,396.8633 M,0,120243,120288,405.3623,396.8633,414.2881,395.71 M,0,120288,120333,414.2881,395.71,423.2139,394.5566 M,0,120333,120379,423.2139,394.5566,432.1397,393.4033 M,0,120379,120424,432.1397,393.4033,441.0655,392.25 M,0,120424,120470,441.0655,392.25,446.4561,398.1441 M,0,120470,120515,446.4561,398.1441,450.8684,405.9883 M,0,120515,120561,450.8684,405.9883,455.2808,413.8325 M,0,120561,120607,455.2808,413.8325,459.7549,421.7865
//Storyboard Layer 4 (Overlay)
//Storyboard Sound Samples

[TimingPoints]
62,363.636363636364,4,2,1,60,1,0
62,-250,4,2,1,60,0,0
2243,-100,4,2,1,60,0,0
2971,-250,4,2,1,60,0,0
4243,-125,4,2,1,60,0,0
4425,-250,4,2,1,60,0,0
5152,-100,4,2,1,60,0,0
5880,-250,4,2,1,60,0,0
8062,-100,4,2,1,60,0,0
8789,-250,4,2,1,60,0,0
10062,-125,4,2,1,60,0,0
10243,-250,4,2,1,60,0,0
10971,-100,4,2,1,60,0,0
11698,-166.666666666667,4,2,1,60,0,0
17516,-125,4,2,1,60,0,0
20789,-100,4,2,1,60,0,0
23334,-333.333333333333,4,2,1,60,0,0
24606,-333.333333333333,4,2,1,30,0,0
24789,-166.666666666667,4,2,1,30,0,0
25152,-100,4,2,1,50,0,0
25516,-71.4285714285714,4,2,1,70,0,0
25880,-71.4285714285714,4,2,1,80,0,0
26243,-62.5,4,2,1,80,0,0
26515,-62.5,4,2,1,5,0,0
26607,-62.5,4,2,1,80,0,0
26789,-83.3333333333333,4,2,1,80,0,0
27516,-62.5,4,2,1,80,0,0
28062,-83.3333333333333,4,2,1,80,0,0
28425,-62.5,4,2,1,80,0,0
29424,-62.5,4,2,1,5,0,0
29516,-62.5,4,2,1,80,0,0
29698,-83.3333333333333,4,2,1,80,0,0
30425,-62.5,4,2,1,80,0,0
30607,-83.3333333333333,4,2,1,80,0,0
31334,-62.5,4,2,1,80,0,0
32334,-62.5,4,2,1,5,0,0
32425,-62.5,4,2,1,80,0,0
32789,-83.3333333333333,4,2,1,80,0,0
33334,-62.5,4,2,1,80,0,0
33880,-83.3333333333333,4,2,1,80,0,0
34243,-62.5,4,2,1,80,0,0
35243,-62.5,4,2,1,5,0,0
35334,-62.5,4,2,1,80,0,0
36425,-83.3333333333333,4,2,1,80,0,0
37152,-50,4,2,1,80,0,0
37880,-250,4,2,1,80,0,0
39334,-166.666666666667,4,2,1,30,0,0
39516,-166.666666666667,4,2,1,35,0,0
39698,-100,4,2,1,40,0,0
39880,-100,4,2,1,45,0,0
40062,-71.4285714285714,4,2,1,50,0,0
40244,-71.4285714285714,4,2,1,55,0,0
40425,-71.4285714285714,4,2,1,60,0,0
40971,-125,4,2,1,80,0,0
41698,-62.5,4,2,1,80,0,0
41880,-71.4285714285714,4,2,1,80,0,0
42062,-83.3333333333333,4,2,1,80,0,0
42425,-62.5,4,2,1,80,0,0
42607,-71.4285714285714,4,2,1,80,0,0
42789,-83.3333333333333,4,2,1,80,0,0
42971,-50,4,2,1,80,0,0
43334,-100,4,2,1,80,0,0
43606,-100,4,2,1,5,0,0
43698,-100,4,2,1,80,0,0
43880,-125,4,2,1,80,0,0
44607,-62.5,4,2,1,80,0,0
44789,-71.4285714285714,4,2,1,80,0,0
44971,-83.3333333333333,4,2,1,80,0,0
45334,-62.5,4,2,1,80,0,0
45516,-71.4285714285714,4,2,1,80,0,0
45698,-83.3333333333333,4,2,1,80,0,0
45880,-50,4,2,1,80,0,0
46789,-125,4,2,1,80,0,0
47516,-62.5,4,2,1,80,0,0
47698,-71.4285714285714,4,2,1,80,0,0
47880,-83.3333333333333,4,2,1,80,0,0
48243,-62.5,4,2,1,80,0,0
48425,-71.4285714285714,4,2,1,80,0,0
48607,-83.3333333333333,4,2,1,80,0,0
48789,-50,4,2,1,80,0,0
49152,-100,4,2,1,80,0,0
49424,-100,4,2,1,5,0,0
49516,-100,4,2,1,80,0,0
50607,-71.4285714285714,4,2,1,80,0,0
50971,-166.666666666667,4,2,1,30,0,0
51334,-166.666666666667,4,2,1,40,0,0
51516,-100,4,2,1,40,0,0
51698,-71.4285714285714,4,2,1,50,0,0
51880,-62.5,4,2,1,50,0,0
52062,-62.5,4,2,1,60,0,0
52334,-62.5,4,2,1,5,0,0
52425,-62.5,4,2,1,40,0,0
57516,-133.333333333333,4,2,1,20,0,0
57698,-133.333333333333,4,2,1,25,0,0
57880,-100,4,2,1,30,0,0
58062,-100,4,2,1,35,0,0
58243,-100,4,2,1,50,0,0
59243,-100,4,2,1,5,0,0
59334,-100,4,2,1,50,0,0
60697,-100,4,2,1,5,0,0
60789,-71.4285714285714,4,2,1,50,0,0
61152,-100,4,2,1,50,0,0
62607,-100,4,2,1,60,0,0
62971,-71.4285714285714,4,2,1,60,0,0
63698,-100,4,2,1,40,0,0
69880,-100,4,2,1,60,0,0
75061,-100,4,2,1,30,0,0
75152,-100,4,2,1,60,0,0
75242,-100,4,2,1,30,0,0
75334,-100,4,2,1,60,0,0
81516,-71.4285714285714,4,2,1,60,0,0
85152,-71.4285714285714,4,2,1,70,0,0
85880,-71.4285714285714,4,2,1,80,0,0
87334,-71.4285714285714,4,2,1,60,0,0
89152,-71.4285714285714,4,2,1,65,0,0
89516,-71.4285714285714,4,2,1,70,0,0
89880,-71.4285714285714,4,2,1,75,0,0
90243,-50,4,2,1,50,0,0
90288,-50,4,2,1,51,0,0
90333,-50,4,2,1,52,0,0
90379,-50,4,2,1,53,0,0
90424,-50,4,2,1,54,0,0
90470,-50,4,2,1,55,0,0
90515,-50,4,2,1,56,0,0
90561,-50,4,2,1,57,0,0
90606,-50,4,2,1,58,0,0
90652,-50,4,2,1,59,0,0
90697,-50,4,2,1,60,0,0
90743,-50,4,2,1,61,0,0
90788,-50,4,2,1,62,0,0
90833,-50,4,2,1,63,0,0
90879,-50,4,2,1,64,0,0
90924,-50,4,2,1,65,0,0
90970,-50,4,2,1,66,0,0
91015,-50,4,2,1,67,0,0
91061,-50,4,2,1,68,0,0
91106,-50,4,2,1,69,0,0
91152,-50,4,2,1,70,0,0
91789,-50,4,2,1,72,0,0
91880,-50,4,2,1,74,0,0
91971,-50,4,2,1,76,0,0
92062,-55.5555555555556,4,2,1,78,0,0
92153,-55.5555555555556,4,2,1,80,0,0
92244,-55.5555555555556,4,2,1,82,0,0
92334,-55.5555555555556,4,2,1,84,0,0
92425,-55.5555555555556,4,2,1,86,0,0
92516,-55.5555555555556,4,2,1,88,0,0
92607,-55.5555555555556,4,2,1,90,0,0
92698,-55.5555555555556,4,2,1,92,0,0
92789,-55.5555555555556,4,2,1,94,0,0
92880,-55.5555555555556,4,2,1,96,0,0
92971,-55.5555555555556,4,2,1,98,0,0
93062,-55.5555555555556,4,2,1,100,0,0
93152,-333.333333333333,4,2,1,100,0,0
94424,-333.333333333333,4,2,1,30,0,0
94607,-100,4,2,1,30,0,0
94971,-71.4285714285714,4,2,1,50,0,0
95334,-62.5,4,2,1,70,0,0
95516,-55.5555555555556,4,2,1,70,0,0
95698,-55.5555555555556,4,2,1,80,0,0
96062,-55.5555555555556,4,2,1,100,0,1
106243,-100,4,2,1,100,0,1
106607,-71.4285714285714,4,2,1,100,0,1
106971,-55.5555555555556,4,2,1,100,0,1
107334,-55.5555555555556,4,2,1,100,0,0
107698,-55.5555555555556,4,2,1,100,0,1
107971,-100,4,2,1,100,0,1
108425,-55.5555555555556,4,2,1,100,0,1
108698,-100,4,2,1,100,0,1
110243,-83.3333333333333,4,2,1,100,0,1
110515,-83.3333333333333,4,2,1,5,0,1
110607,-55.5555555555556,4,2,1,100,0,1
110880,-100,4,2,1,100,0,1
111334,-55.5555555555556,4,2,1,100,0,1
111607,-100,4,2,1,100,0,1
114243,-55.5555555555556,4,2,1,100,0,1
114516,-100,4,2,1,100,0,1
116062,-83.3333333333333,4,2,1,100,0,1
116334,-83.3333333333333,4,2,1,5,0,1
116425,-55.5555555555556,4,2,1,100,0,1
116698,-100,4,2,1,100,0,1
117152,-55.5555555555556,4,2,1,100,0,1
117425,-100,4,2,1,100,0,1
118971,-100,4,2,1,80,0,1
119334,-250,4,2,1,60,0,0
120789,-250,4,2,1,30,0,0
120971,-100,4,2,1,30,0,0
121152,-100,4,2,1,40,0,0
121334,-71.4285714285714,4,2,1,40,0,0
121516,-71.4285714285714,4,2,1,50,0,0
121698,-55.5555555555556,4,2,1,50,0,0
121880,-55.5555555555556,4,2,1,60,0,0
124425,-62.5,4,2,1,60,0,0

[Colours]
Combo1 : 17,196,255
Combo2 : 255,36,130

[HitObjects]
512,124,62,6,0,B|356:102|440:200|279:178,1,252.072,2|0,3:2|2:0,2:0:0:0:
257,103,1516,2,0,P|239:152|202:178,1,72.1620000000006,2|0,2:0|2:0,2:0:0:0:
202,179,2062,1,0,2:0:0:0:
105,205,2243,6,0,B|82:167|82:167|87:121,1,90.4500000000006,2|0,3:2|2:0,2:0:0:0:
156,16,2607,2,0,B|180:53|180:53|175:99,1,90.4500000000006,2|0,3:2|2:0,2:0:0:0:
12,236,2971,6,0,P|126:244|144:332,1,216.09,2|0,3:2|2:0,2:0:0:0:
135,351,4152,1,0,2:0:0:0:
112,368,4243,2,0,P|95:378|71:382,1,36.18,2|0,2:0|2:0,2:0:0:0:
65,300,4425,6,0,P|112:273|173:281,1,108.144,2|0,2:0|2:0,2:0:0:0:
239,325,5152,6,0,B|277:302|277:302|323:307,1,90.4500000000006,2|0,3:2|2:0,2:0:0:0:
430,384,5516,2,0,B|476:389|476:389|513:365,1,90.4500000000006,2|0,3:2|2:0,2:0:0:0:
498,212,5880,6,0,B|484:260|429:273|429:273|385:197|288:205,1,252.072,2|0,3:2|2:0,2:0:0:0:
224,188,7334,2,0,P|273:170|299:133,1,72.1620000000006,2|0,2:0|2:0,2:0:0:0:
300,133,7880,1,0,2:0:0:0:
308,30,8062,6,0,B|346:7|346:7|392:12,1,90.4500000000006,2|0,3:2|2:0,2:0:0:0:
497,81,8425,2,0,B|460:105|460:105|414:100,1,90.4500000000006,2|0,3:2|2:0,2:0:0:0:
207,86,8789,6,0,B|70:66|143:152|2:132,1,216.09,2|0,3:2|2:0,2:0:0:0:
12,109,9971,1,0,2:0:0:0:
24,84,10062,2,0,P|28:63|27:44,1,36.18,2|0,2:0|2:0,2:0:0:0:
166,166,10243,6,0,P|142:196|130:269,1,108.144,2|0,2:0|2:0,2:0:0:0:
234,252,10971,6,0,B|271:228|271:228|317:233,1,90.4500000000006,2|0,3:2|2:0,2:0:0:0:
491,140,11334,2,0,B|454:164|454:164|408:159,1,90.4500000000006,2|0,3:2|2:0,2:0:0:0:
391,18,11698,6,0,B|373:51|373:51|299:44,1,108.242996704102,2|0,3:2|2:0,2:0:0:0:
381,3,12425,2,0,B|363:36|363:36|289:29,1,108.242996704102,2|0,3:2|2:0,2:0:0:0:
130,125,13152,6,0,B|201:132|201:132|219:99,1,108.242996704102,2|0,3:2|2:0,2:0:0:0:
122,109,13880,2,0,B|193:116|193:116|211:83,1,108.242996704102,2|0,3:2|2:0,2:0:0:0:
31,160,14607,6,0,L|40:271,1,108.242996704102,2|0,3:2|2:0,2:0:0:0:
13,174,15334,2,0,L|22:285,1,108.242996704102,2|0,3:2|2:0,2:0:0:0:
23,305,15789,1,0,2:0:0:0:
25,331,15880,2,0,L|29:369,1,27.1349991760254,2|0,2:0|2:0,2:0:0:0:
131,326,16062,6,0,L|242:336,1,108.242996704102,2|0,3:2|2:0,2:0:0:0:
145,308,16789,2,0,L|256:318,1,108.242996704102,2|0,3:2|2:0,2:0:0:0:
482,190,17516,6,0,B|497:227|497:227|484:270,1,72.3600000000006,2|0,3:2|2:0,2:0:0:0:
317,373,17880,2,0,B|302:336|302:336|315:293,1,72.3600000000006,2|0,3:2|2:0,2:0:0:0:
464,201,18243,6,0,B|479:238|479:238|466:281,1,72.3600000000006,2|0,3:2|2:0,2:0:0:0:
299,384,18607,2,0,B|284:347|284:347|297:304,1,72.3600000000006,2|0,3:2|2:0,2:0:0:0:
445,213,18971,6,0,L|373:207,1,72.3600000000006,2|0,3:2|3:0,2:0:0:0:
396,320,19334,1,8,3:2:0:0:
258,197,19516,1,0,3:2:0:0:
179,295,19698,6,0,L|107:301,1,72.3600000000006,2|0,3:2|3:2,2:0:0:0:
130,188,20062,1,8,3:2:0:0:
0,309,20243,1,0,3:2:0:0:
7,192,20425,5,10,3:2:0:0:
8,174,20516,1,0,3:2:0:0:
10,156,20607,1,0,3:2:0:0:
11,138,20698,1,0,3:2:0:0:
13,120,20789,2,0,L|78:114,1,45.2250000000002,8|0,3:2|3:2,2:0:0:0:
42,40,20971,2,0,L|107:34,1,45.2250000000002,0|0,3:2|3:2,2:0:0:0:
187,30,21152,5,8,3:2:0:0:
185,48,21243,1,0,3:2:0:0:
183,66,21334,2,0,L|177:131,1,45.2250000000003,0|0,3:2|3:2,2:0:0:0:
287,24,21516,1,8,3:2:0:0:
316,9,21607,2,0,P|348:5|391:19,2,45.2250000000003,2|2|2,3:2|3:2|3:2,2:0:0:0:
342,106,21880,5,10,3:2:0:0:
343,124,21971,1,0,3:2:0:0:
345,142,22062,1,0,3:2:0:0:
346,160,22152,1,0,3:2:0:0:
348,178,22243,2,0,L|354:243,1,45.2250000000002,8|0,3:2|3:2,2:0:0:0:
428,207,22425,2,0,L|434:272,1,45.2250000000002,0|0,3:2|3:2,2:0:0:0:
512,280,22607,6,0,L|507:235,1,45.2250000000002,8|0,3:2|3:2,2:0:0:0:
415,360,22789,1,0,3:2:0:0:
396,342,22880,1,0,3:2:0:0:
374,328,22971,1,8,3:2:0:0:
350,317,23062,1,0,3:2:0:0:
325,310,23152,1,0,3:2:0:0:
299,307,23243,1,0,3:2:0:0:
274,308,23334,6,0,B|168:309|216:370|97:366,1,189.053994232178,2|2,3:2|2:0,2:0:0:0:
56,242,24789,6,0,P|47:231|41:219,3,27.0359991760254,2|0|2|0,2:0|2:0|2:0|2:0,2:0:0:0:
2,137,25152,6,0,P|23:130|46:129,3,45.0600000000002,2|0|2|0,2:0|2:0|2:0|2:0,2:0:0:0:
135,119,25516,6,0,P|133:150|121:179,3,63.0839980773932,2|0|2|0,2:0|2:0|2:0|2:0,2:0:0:0:
88,20,25880,5,8,2:0:0:0:
107,12,25971,1,0,3:2:0:0:
128,9,26062,1,0,3:2:0:0:
149,12,26152,1,0,3:2:0:0:
177,19,26243,6,0,B|211:30|232:62|232:62|288:-2|379:8,1,216.288,6|0,3:2|2:0,2:0:0:0:
441,9,26607,1,8,2:0:0:0:
435,31,26698,1,0,2:0:0:0:
423,51,26789,2,0,P|406:69|376:85,1,54.2699983520514,0|0,2:0|2:0,2:0:0:0:
302,118,26971,6,0,L|298:171,1,54.2699983520514,2|0,3:2|2:0,2:0:0:0:
293,247,27152,2,0,L|297:194,1,54.2699983520514,2|0,2:0|2:0,2:0:0:0:
380,209,27334,5,8,2:0:0:0:
380,209,27516,2,0,B|378:244|378:244|417:275,1,72.3600000000006,2|0,2:0|2:0,2:0:0:0:
467,170,27698,5,0,3:2:0:0:
293,247,27880,1,0,2:0:0:0:
484,310,28062,2,0,P|442:343|379:345,1,108.539996704102,8|0,2:0|2:0,2:0:0:0:
266,325,28425,6,0,B|240:363|240:363|131:372,1,144.72,2|0,3:2|2:0,2:0:0:0:
0,384,28789,2,0,B|25:345|25:345|134:336,1,144.72,10|0,2:0|2:0,2:0:0:0:
7,222,29152,6,0,B|39:255|39:255|166:243|166:243|191:198,1,216.288,6|0,3:2|2:0,2:0:0:0:
158,133,29516,1,8,2:0:0:0:
138,143,29607,1,0,2:0:0:0:
124,161,29698,2,0,P|113:183|110:217,1,54.2699983520514,0|0,2:0|2:0,2:0:0:0:
274,242,29880,6,0,L|326:236,1,54.2699983520514,2|0,3:2|2:0,2:0:0:0:
402,228,30062,2,0,L|349:233,1,54.2699983520514,2|0,2:0|2:0,2:0:0:0:
337,139,30243,5,8,2:0:0:0:
337,139,30425,2,0,B|333:106|333:106|367:71,1,72.3600000000006,2|0,2:0|2:0,2:0:0:0:
241,29,30607,6,0,L|250:158,1,108.539996704102,0|0,3:2|2:0,2:0:0:0:
343,0,30971,1,8,2:0:0:0:
250,164,31152,1,0,2:0:0:0:
125,0,31334,6,0,P|144:51|112:154,1,144.72,2|0,3:2|2:0,2:0:0:0:
0,112,31698,2,0,P|54:115|135:186,1,144.72,10|0,2:0|2:0,2:0:0:0:
0,384,32062,6,0,B|23:313|108:300|108:300|88:333|96:369,1,216.288,6|0,3:2|2:0,2:0:0:0:
179,348,32425,5,8,2:0:0:0:
195,330,32516,1,8,2:0:0:0:
207,308,32607,1,0,3:2:0:0:
212,284,32698,1,0,3:2:0:0:
213,260,32789,6,0,L|265:255,1,54.2699983520514,2|0,3:2|2:0,2:0:0:0:
341,248,32971,2,0,L|288:252,1,54.2699983520514,2|0,2:0|2:0,2:0:0:0:
291,366,33152,5,8,2:0:0:0:
291,366,33334,2,0,B|325:365|325:365|352:339,1,72.3600000000006,2|0,2:0|2:0,2:0:0:0:
439,226,33516,5,0,3:2:0:0:
280,282,33698,1,0,2:0:0:0:
458,336,33880,2,0,P|518:299|537:256,1,108.539996704102,8|0,2:0|2:0,2:0:0:0:
509,70,34243,6,0,B|476:36|476:36|368:46,1,144.72,2|0,3:2|2:0,2:0:0:0:
257,143,34607,2,0,B|289:176|289:176|397:166,1,144.72,10|0,2:0|2:0,2:0:0:0:
311,0,34971,6,0,B|251:4|251:4|198:84|198:84|131:90,1,216.288,6|0,3:2|2:0,2:0:0:0:
59,99,35334,1,8,2:0:0:0:
66,194,35516,5,2,2:0:0:0:
32,193,35607,1,2,2:0:0:0:
3,181,35698,1,0,3:2:0:0:
105,20,35880,1,2,2:0:0:0:
162,195,36062,5,10,2:0:0:0:
162,195,36243,2,0,B|161:230|161:230|135:256,1,72.3600000000006,2|0,2:0|2:0,2:0:0:0:
160,349,36425,6,0,L|53:341,1,108.539996704102,0|0,3:2|2:0,2:0:0:0:
270,290,36789,1,8,2:0:0:0:
43,362,36971,1,0,2:0:0:0:
295,278,37152,6,0,B|332:338|261:433|223:378|261:342,1,180.45,2|0,3:2|2:0,2:0:0:0:
434,304,37516,5,8,2:0:0:0:
455,314,37607,1,8,2:0:0:0:
477,333,37698,1,8,2:0:0:0:
493,358,37789,1,8,2:0:0:0:
503,384,37880,6,0,P|411:271|432:160,1,252.072,6|2,3:2|2:0,2:0:0:0:
407,13,39334,6,0,L|357:20,3,27.0359991760254,10|8|10|8,2:0|2:0|2:0|2:0,2:0:0:0:
290,114,39698,6,0,L|301:34,3,45.0600000000002,10|8|10|8,2:0|2:0|2:0|2:0,2:0:0:0:
148,33,40062,6,0,L|253:24,3,63.0839980773932,10|8|10|8,2:0|2:0|2:0|2:0,2:0:0:0:
30,124,40425,5,10,2:0:0:0:
32,102,40516,1,0,3:2:0:0:
35,81,40607,1,0,3:2:0:0:
37,59,40698,1,0,3:2:0:0:
40,38,40789,1,4,3:2:0:0:
103,194,40971,6,0,L|96:265,2,72.1620000000006,2|0|0,2:0|2:0|2:0,2:0:0:0:
23,323,41516,5,8,2:0:0:0:
33,336,41607,1,0,2:0:0:0:
46,345,41698,2,0,P|101:356|131:346,1,72.3600000000006,0|0,2:0|2:0,2:0:0:0:
145,366,41880,2,0,P|186:332|196:312,1,63.3149980773932,0|0,2:0|2:0,2:0:0:0:
218,319,42062,2,0,P|230:281|227:258,1,54.2699983520514,0|0,2:0|2:0,2:0:0:0:
319,217,42243,5,0,3:0:0:0:
313,233,42334,1,0,2:0:0:0:
311,249,42425,2,0,P|328:302|353:323,1,72.3600000000006,0|0,2:0|2:0,2:0:0:0:
343,345,42607,2,0,P|393:364|415:363,1,63.3149980773932,0|0,2:0|2:0,2:0:0:0:
420,384,42789,2,0,P|458:375|477:362,1,54.2699983520514,0|0,2:0|3:0,2:0:0:0:
512,292,42971,6,0,B|522:182|448:235|475:80,1,180.9,10|0,2:0|2:0,2:0:0:0:
491,0,43334,6,0,P|423:7|367:65,1,135.18,2|0,2:0|2:0,2:0:0:0:
362,74,43698,1,2,3:2:0:0:
217,185,43880,6,0,P|184:168|161:140,2,72.1620000000006,2|0|0,2:0|2:0|2:0,2:0:0:0:
0,73,44425,5,8,2:0:0:0:
17,72,44516,1,0,2:0:0:0:
36,70,44607,2,0,L|118:62,1,72.3600000000006,0|0,3:2|2:0,2:0:0:0:
123,37,44789,2,0,L|205:29,1,63.3149980773932,0|0,2:0|2:0,2:0:0:0:
203,5,44971,2,0,L|285:-3,1,54.2699983520514,0|0,2:0|2:0,2:0:0:0:
285,106,45152,5,0,3:0:0:0:
268,107,45243,1,0,2:0:0:0:
249,109,45334,2,0,L|167:117,1,72.3600000000006,0|0,2:0|2:0,2:0:0:0:
162,142,45516,2,0,L|80:150,1,63.3149980773932,0|0,2:0|2:0,2:0:0:0:
82,174,45698,2,0,L|0:182,1,54.2699983520514,0|0,2:0|2:0,2:0:0:0:
32,278,45880,6,0,B|75:273|75:273|130:306,1,90.4500000000006,10|0,2:0|2:0,2:0:0:0:
134,314,46062,1,0,3:2:0:0:
275,306,46243,5,10,2:0:0:0:
286,332,46334,1,0,3:2:0:0:
303,355,46425,1,0,3:2:0:0:
322,373,46516,1,0,3:2:0:0:
347,384,46607,1,6,3:2:0:0:
382,275,46789,6,0,L|458:265,2,72.1620000000006,2|8|0,2:0|2:0|2:0,2:0:0:0:
398,61,47334,5,0,2:0:0:0:
411,75,47425,1,0,2:0:0:0:
419,90,47516,2,0,P|423:146|409:176,1,72.3600000000006,0|0,3:0|2:0,2:0:0:0:
340,167,47698,2,0,P|292:199|259:202,1,63.3149980773932,8|0,2:0|2:0,2:0:0:0:
236,140,47880,2,0,P|192:119|177:97,1,54.2699983520514,0|0,2:0|2:0,2:0:0:0:
199,20,48062,5,0,3:0:0:0:
218,15,48152,1,0,2:0:0:0:
235,15,48243,2,0,P|286:39|305:66,1,72.3600000000006,0|0,2:0|2:0,2:0:0:0:
262,122,48425,2,0,P|266:178|252:208,1,63.3149980773932,8|0,2:0|2:0,2:0:0:0:
186,199,48607,2,0,P|146:225|118:228,1,54.2699983520514,0|0,2:0|3:0,2:0:0:0:
128,137,48789,6,0,B|132:198|132:198|80:242|80:242|86:325,1,180.9,2|0,2:0|3:2,2:0:0:0:
51,384,49152,6,0,L|41:234,1,135.18,10|0,2:0|2:0,2:0:0:0:
31,96,49516,6,0,L|26:30,3,45.0600000000002,2|0|0|0,3:2|2:0|2:0|2:0,2:0:0:0:
117,5,49880,2,0,L|122:70,1,45.2250000000002,8|0,2:0|2:0,2:0:0:0:
213,98,50062,1,0,2:0:0:0:
213,98,50152,1,0,2:0:0:0:
213,98,50243,2,0,L|208:33,3,45.0600000000002,2|0|0|0,3:2|2:0|2:0|2:0,2:0:0:0:
297,0,50607,6,0,B|304:66|304:66|346:109,1,126.629996154785,8|0,2:0|2:0,2:0:0:0:
417,214,50971,6,0,P|421:226|424:240,3,27.0359991760254,8|8|8|8,2:0|2:0|2:0|2:0,2:0:0:0:
488,297,51334,5,8,2:0:0:0:
463,319,51425,1,8,2:0:0:0:
431,330,51516,2,0,P|407:331|387:329,1,45.2250000000002,8|8,2:0|2:0,2:0:0:0:
322,384,51698,6,0,P|306:364|291:315,1,63.3149980773932,8|8,2:0|2:0,2:0:0:0:
339,256,51880,2,0,P|327:279|283:306,1,72.3600000000006,8|8,2:0|2:0,2:0:0:0:
203,275,52062,6,0,P|301:262|303:163,1,216.72,8|0,2:0|2:0,2:0:0:0:
212,180,52425,5,6,3:2:0:0:
130,337,57516,6,0,L|133:376,3,33.7950012874604,10|8|10|8,2:0|2:0|2:0|2:0,2:0:0:0:
204,291,57880,2,0,L|199:239,3,45.0600000000002,10|8|10|8,2:0|2:0|2:0|2:0,2:0:0:0:
269,354,58243,6,0,P|297:374|358:380,1,90.4500000000006,6|0,3:2|2:0,2:0:0:0:
418,344,58516,1,0,2:0:0:0:
429,325,58607,1,0,3:0:0:0:
337,277,58789,1,0,2:0:0:0:
495,384,58971,6,0,P|457:317|454:248,1,135.09,0|0,3:0|2:0,2:0:0:0:
468,183,59334,6,0,P|497:165|508:145,3,45.1500000000001,2|0|2|0,3:2|2:0|2:0|2:0,2:0:0:0:
440,111,59698,2,0,P|439:76|429:53,3,45.1500000000001,2|0|0|0,3:2|2:0|2:0|2:0,2:0:0:0:
359,97,60062,5,0,3:2:0:0:
324,96,60152,1,0,2:0:0:0:
291,87,60243,1,0,2:0:0:0:
263,69,60334,1,0,2:0:0:0:
240,45,60425,2,0,P|194:8|114:-5,1,135.18,0|0,3:2|2:0,2:0:0:0:
89,1,60789,6,0,L|95:77,1,63.6614980773932,2|0,3:2|2:0,2:0:0:0:
98,88,60971,1,2,2:0:0:0:
191,148,61152,6,0,L|179:254,1,90.4500000000006,2|0,3:2|2:0,2:0:0:0:
173,313,61425,1,0,2:0:0:0:
171,340,61516,2,0,L|115:345,3,45.0300000000001,0|0|0|0,3:0|2:0|2:0|2:0,2:0:0:0:
255,292,61880,5,0,3:2:0:0:
36,307,62062,1,0,3:0:0:0:
171,365,62243,1,2,3:2:0:0:
16,297,62425,1,2,3:2:0:0:
280,297,62607,5,2,3:2:0:0:
312,300,62698,1,0,3:2:0:0:
345,303,62789,1,0,3:2:0:0:
378,307,62880,1,0,3:2:0:0:
410,309,62971,2,0,L|401:398,3,63.0839980773932,0|0|0|0,3:2|3:2|3:2|3:2,2:0:0:0:
508,234,63334,5,0,3:2:0:0:
487,231,63425,1,0,3:2:0:0:
466,229,63516,1,0,3:2:0:0:
445,227,63607,1,0,3:2:0:0:
425,225,63698,2,0,L|430:163,3,45.0600000000002,0|0|0|0,3:0|2:0|2:0|2:0,2:0:0:0:
410,309,64062,5,4,3:2:0:0:
174,263,69334,6,0,B|174:222|141:229|144:172,2,90.2025000000006,2|2|2,2:0|2:0|2:0,2:0:0:0:
176,52,69880,6,0,L|231:46,1,45.2250000000002,10|0,3:2|3:2,2:0:0:0:
276,104,70062,2,0,L|331:98,1,45.2250000000002,0|0,3:2|3:0,2:0:0:0:
366,33,70243,2,0,L|421:27,3,45.0600000000002,8|0|0|0,3:2|3:2|3:2|3:2,2:0:0:0:
500,25,70607,6,0,L|506:80,1,45.2250000000002,8|0,3:2|3:2,2:0:0:0:
453,170,70789,2,0,L|448:126,1,45.2250000000002,0|0,3:2|3:2,2:0:0:0:
512,15,70971,1,2,2:0:0:0:
495,337,71334,6,0,P|456:313|439:311,1,45.2250000000002,10|0,3:2|3:2,2:0:0:0:
414,246,71516,2,0,P|374:267|363:280,1,45.2250000000002,0|0,3:2|3:2,2:0:0:0:
295,270,71698,2,0,P|293:315|300:330,3,45.0600000000002,8|0|0|0,3:2|3:2|3:2|3:2,2:0:0:0:
210,384,72062,6,0,P|212:361|208:339,1,45.2250000000002,8|0,3:2|3:0,2:0:0:0:
128,336,72243,2,0,P|109:322|88:315,1,45.2250000000002,0|0,3:2|3:2,2:0:0:0:
28,363,72425,1,2,2:0:0:0:
28,363,72607,1,2,2:0:0:0:
10,225,72789,6,0,L|65:231,1,45.2250000000002,10|0,3:2|3:2,2:0:0:0:
115,144,72971,2,0,L|60:150,1,45.2250000000002,0|0,3:2|3:2,2:0:0:0:
17,63,73152,2,0,L|72:69,3,45.0600000000002,8|0|0|0,3:2|3:2|3:2|3:2,2:0:0:0:
150,57,73516,6,0,L|155:12,1,45.2250000000002,8|0,3:2|3:2,2:0:0:0:
239,79,73698,2,0,L|241:123,1,45.2250000000002,0|0,3:2|3:2,2:0:0:0:
331,41,73880,1,2,2:0:0:0:
331,41,74062,1,2,2:0:0:0:
426,133,74243,6,0,P|397:168|392:183,1,45.2250000000002,10|0,3:2|3:2,2:0:0:0:
512,205,74425,2,0,P|467:197|451:202,1,45.2250000000002,0|0,3:2|3:2,2:0:0:0:
491,317,74607,2,0,P|474:274|462:263,3,45.0600000000002,8|0|0|0,3:2|3:2|3:2|3:2,2:0:0:0:
382,355,74971,6,0,P|410:319|414:303,1,45.2250000000002,8|8,3:2|2:0,2:0:0:0:
295,280,75152,2,0,P|340:286|355:282,1,45.2250000000002,0|8,2:0|2:0,2:0:0:0:
406,238,75334,6,0,B|411:160,1,45.2250000000002,2|0,3:2|2:0,2:0:0:0:
415,113,75516,1,2,2:0:0:0:
422,71,75607,1,0,2:0:0:0:
428,25,75698,5,10,3:2:0:0:
410,27,75789,1,0,3:2:0:0:
392,29,75880,2,0,L|321:36,1,45.2250000000002,0|0,3:2|3:2,2:0:0:0:
301,96,76062,2,0,L|230:103,3,45.0600000000002,8|0|0|0,3:2|3:2|3:2|3:2,2:0:0:0:
195,45,76425,5,8,3:2:0:0:
177,47,76516,1,0,3:2:0:0:
159,49,76607,2,0,L|88:56,1,45.2250000000002,0|0,3:2|3:2,2:0:0:0:
0,65,76789,6,0,L|90:56,1,90.4500000000006,10|0,2:0|3:2,2:0:0:0:
72,186,77152,5,10,3:2:0:0:
60,202,77243,1,0,3:2:0:0:
52,221,77334,2,0,P|46:257|51:282,1,45.2250000000002,0|0,3:2|3:2,2:0:0:0:
168,278,77516,2,0,P|140:255|116:247,3,45.0600000000002,8|0|0|0,3:2|3:2|3:2|3:2,2:0:0:0:
146,371,77880,5,8,3:2:0:0:
166,374,77971,1,0,3:2:0:0:
187,371,78062,2,0,P|222:359|241:342,1,45.2250000000002,0|0,3:2|3:0,2:0:0:0:
296,289,78243,6,0,P|359:300|393:327,1,90.4500000000006,10|0,2:0|3:2,2:0:0:0:
500,241,78607,5,10,3:2:0:0:
502,259,78698,1,0,3:2:0:0:
504,277,78789,2,0,L|511:348,1,45.2250000000002,0|0,3:2|3:2,2:0:0:0:
411,243,78971,2,0,L|404:171,3,45.0600000000002,8|0|0|0,3:2|3:2|3:2|3:2,2:0:0:0:
491,150,79334,5,8,3:2:0:0:
489,132,79425,1,0,3:2:0:0:
487,114,79516,2,0,L|480:43,1,45.2250000000002,0|0,3:2|3:2,2:0:0:0:
378,129,79698,6,0,L|389:229,1,90.4500000000006,10|0,2:0|3:2,2:0:0:0:
246,189,80062,5,10,3:2:0:0:
258,173,80152,1,0,3:2:0:0:
266,154,80243,2,0,P|272:118|267:93,1,45.2250000000002,0|0,3:2|3:2,2:0:0:0:
335,62,80425,2,0,P|307:39|283:31,3,45.0600000000002,8|0|0|0,3:2|3:2|3:2|3:2,2:0:0:0:
191,77,80789,6,0,P|204:58|220:43,1,45.2250000000002,8|0,3:2|3:0,2:0:0:0:
330,3,80971,2,0,P|318:22|301:37,1,45.2250000000002,0|0,3:0|3:0,2:0:0:0:
160,78,81152,5,8,2:0:0:0:
130,70,81243,1,0,2:0:0:0:
102,56,81334,1,0,2:0:0:0:
79,34,81425,1,0,2:0:0:0:
62,8,81516,6,0,L|-4:2,3,63.0839980773932,2|0|0|0,3:2|3:2|3:2|3:0,2:0:0:0:
8,89,81880,6,0,L|14:155,1,63.3149980773932,0|0,3:0|3:0,2:0:0:0:
115,217,82062,2,0,L|121:151,1,63.3149980773932,0|0,3:0|3:0,2:0:0:0:
27,241,82243,5,0,3:2:0:0:
29,261,82334,1,0,3:0:0:0:
31,281,82425,1,0,3:2:0:0:
33,301,82516,1,0,3:0:0:0:
35,322,82607,2,0,L|41:388,3,63.0839980773932,2|0|0|0,3:2|3:0|3:2|3:0,2:0:0:0:
207,308,82971,6,0,P|168:311|141:307,3,63.0839980773932,2|0|0|0,3:2|3:0|3:0|3:0,2:0:0:0:
309,327,83334,6,0,P|291:352|284:384,1,63.3149980773932,0|0,3:2|3:0,2:0:0:0:
337,231,83516,2,0,P|304:227|274:233,1,63.3149980773932,0|0,3:2|3:0,2:0:0:0:
415,161,83698,5,0,3:0:0:0:
432,182,83789,1,0,3:0:0:0:
441,206,83880,1,0,3:0:0:0:
444,231,83971,1,0,3:2:0:0:
441,256,84062,1,10,3:2:0:0:
309,327,84425,5,2,3:2:0:0:
289,329,84516,1,0,3:2:0:0:
268,331,84607,2,0,L|202:337,1,63.3149980773932,0|0,3:2|3:0,2:0:0:0:
145,283,84789,1,0,3:2:0:0:
125,285,84880,1,0,3:2:0:0:
104,287,84971,2,0,L|38:293,1,63.3149980773932,0|0,3:2|3:0,2:0:0:0:
234,239,85152,5,2,3:2:0:0:
223,221,85243,1,0,3:2:0:0:
207,207,85334,2,0,P|175:188|150:184,1,63.3149980773932,0|0,3:2|3:0,2:0:0:0:
161,105,85516,1,0,3:2:0:0:
139,105,85607,1,0,3:2:0:0:
119,112,85698,2,0,P|87:129|70:149,1,63.3149980773932,0|0,3:2|3:0,2:0:0:0:
234,239,85880,5,2,3:2:0:0:
254,237,85971,1,0,3:2:0:0:
275,235,86062,2,0,L|341:229,1,63.3149980773932,0|0,3:2|3:0,2:0:0:0:
418,220,86243,1,0,3:2:0:0:
420,200,86334,1,0,3:2:0:0:
422,179,86425,2,0,L|428:113,1,63.3149980773932,0|0,3:2|3:0,2:0:0:0:
364,50,86607,5,2,3:2:0:0:
336,52,86698,1,0,3:2:0:0:
309,54,86789,1,0,3:2:0:0:
281,57,86880,1,0,3:2:0:0:
254,60,86971,2,0,L|248:127,1,62.9999980773926,10|0,0:2|0:0,0:0:0:0:
136,120,87152,5,2,3:2:0:0:
108,117,87243,1,2,3:2:0:0:
79,114,87334,2,0,L|71:37,3,63.0839980773932,2|0|0|0,3:2|3:2|3:2|3:2,2:0:0:0:
6,185,87698,2,0,L|-2:108,3,63.0839980773932,2|0|0|0,3:2|3:2|3:2|3:2,2:0:0:0:
142,284,88062,2,0,L|134:207,3,63.0839980773932,2|0|0|0,3:2|3:2|3:2|3:2,2:0:0:0:
69,355,88425,2,0,L|61:278,3,63.0839980773932,2|0|0|0,3:2|3:2|3:2|3:2,2:0:0:0:
228,343,88789,6,0,P|207:367|179:381,3,63.0839980773932,2|0|0|0,3:2|3:2|3:2|3:2,2:0:0:0:
276,258,89152,2,0,P|266:228|268:196,3,63.0839980773932,2|0|0|0,3:2|3:2|3:2|3:2,2:0:0:0:
326,342,89516,2,0,P|356:348|382:366,3,63.0839980773932,2|0|0|0,3:2|3:2|3:2|3:2,2:0:0:0:
228,343,89880,2,0,P|207:367|179:381,3,63.0839980773932,2|0|0|0,3:2|3:2|3:2|3:2,2:0:0:0:
283,171,90243,6,0,B|304:162|304:162|324:171,30,45.0270000000003,2|0|0|0|0|0|0|0|0|0|0|0|0|0|0|0|0|0|0|0|0|0|0|0|0|0|0|0|0|0|0,3:2|3:2|3:2|3:2|3:2|3:2|3:2|3:2|3:2|3:2|3:2|3:2|3:2|3:2|3:2|3:2|3:2|3:2|3:2|3:2|3:2|3:2|3:2|3:2|3:2|3:2|3:2|3:2|3:2|3:2|3:2,2:0:0:0:
427,203,91698,5,2,3:2:0:0:
427,170,91789,1,2,3:2:0:0:
423,139,91880,1,2,3:2:0:0:
408,111,91971,1,2,3:2:0:0:
389,86,92062,2,0,P|369:49|372:-7,3,81.1079975280769,2|2|2|2,3:2|3:2|3:2|3:2,2:0:0:0:
242,57,92425,5,2,3:2:0:0:
218,70,92516,1,2,3:2:0:0:
196,77,92607,1,2,3:2:0:0:
170,82,92698,1,2,3:2:0:0:
144,82,92789,1,2,3:2:0:0:
118,78,92880,1,2,3:2:0:0:
93,70,92971,1,2,3:2:0:0:
70,58,93062,1,2,3:2:0:0:
52,43,93152,6,0,P|142:68|200:143,1,189.053994232178,2|2,3:2|2:0,2:0:0:0:
105,248,94607,6,0,P|116:227|132:213,3,45.0600000000002,2|0|2|0,2:0|2:0|2:0|2:0,2:0:0:0:
265,218,94971,6,0,P|282:243|292:274,3,63.0839980773932,2|0|2|0,2:0|2:0|2:0|2:0,2:0:0:0:
160,362,95334,6,0,P|180:372|261:350,1,72.3600000000006,2|0,2:0|2:0,2:0:0:0:
205,288,95516,2,0,P|206:310|252:360,1,81.4049975280769,2|0,2:0|2:0,2:0:0:0:
338,367,95698,5,8,2:0:0:0:
355,357,95789,1,0,3:2:0:0:
372,343,95880,1,0,3:2:0:0:
382,325,95971,1,0,3:2:0:0:
389,304,96062,6,0,P|421:256|451:241,1,81.4049975280769,6|0,3:2|2:0,2:0:0:0:
419,147,96243,2,0,P|443:203|442:237,1,81.4049975280769,0|0,2:0|2:0,2:0:0:0:
339,201,96425,5,8,2:0:0:0:
324,163,96516,1,0,2:0:0:0:
326,123,96607,1,0,2:0:0:0:
344,87,96698,1,0,2:0:0:0:
375,61,96789,2,0,P|430:51|463:61,3,81.1079975280769,2|0|0|0,3:2|2:0|2:0|2:0,2:0:0:0:
339,201,97152,6,0,P|284:151|191:137,1,162.809995056153,10|0,2:0|2:0,2:0:0:0:
1,44,97516,6,0,L|8:125,1,81.4049975280769,2|0,3:2|2:0,2:0:0:0:
105,166,97698,2,0,L|95:54,1,81.4049975280769,0|0,2:0|2:0,2:0:0:0:
20,222,97880,5,8,2:0:0:0:
22,260,97971,1,0,2:0:0:0:
25,303,98062,1,0,2:0:0:0:
29,342,98152,1,0,2:0:0:0:
33,384,98243,2,0,L|145:391,3,81.1079975280769,2|0|0|0,3:2|2:0|2:0|2:0,2:0:0:0:
122,280,98607,6,0,B|179:284|179:284|214:314|214:314|284:320,1,162.809995056153,10|0,2:0|2:0,2:0:0:0:
512,332,98971,6,0,P|481:284|451:267,1,81.4049975280769,2|0,3:2|2:0,2:0:0:0:
408,367,99152,2,0,P|434:316|433:281,1,81.4049975280769,0|0,2:0|2:0,2:0:0:0:
397,185,99334,5,8,2:0:0:0:
376,149,99425,1,0,2:0:0:0:
344,125,99516,1,0,2:0:0:0:
304,116,99607,1,0,2:0:0:0:
264,124,99698,2,0,P|218:159|203:190,3,81.1079975280769,2|0|0|0,3:2|2:0|2:0|2:0,2:0:0:0:
219,315,100062,6,0,B|243:220|167:247|187:140,1,162.809995056153,10|0,2:0|2:0,2:0:0:0:
134,28,100425,6,0,L|22:37,1,81.4049975280769,2|0,3:2|2:0,2:0:0:0:
12,133,100607,2,0,L|123:123,1,81.4049975280769,0|0,2:0|2:0,2:0:0:0:
250,26,100789,5,8,2:0:0:0:
287,21,100880,1,0,2:0:0:0:
330,18,100971,1,0,2:0:0:0:
369,15,101062,1,0,2:0:0:0:
411,13,101152,6,0,L|402:111,3,81.1079975280769,2|0|0|0,3:2|2:0|2:0|2:0,2:0:0:0:
512,175,101516,5,10,2:0:0:0:
475,180,101607,1,0,2:0:0:0:
432,183,101698,1,0,2:0:0:0:
393,186,101789,1,0,2:0:0:0:
353,192,101880,6,0,L|361:273,1,81.4049975280769,2|0,3:2|2:0,2:0:0:0:
464,303,102062,2,0,L|471:383,1,81.4049975280769,0|0,2:0|2:0,2:0:0:0:
378,380,102243,5,8,2:0:0:0:
331,381,102334,1,8,2:0:0:0:
290,362,102425,2,0,P|252:320|244:288,1,81.4049975280769,0|0,3:2|2:0,2:0:0:0:
233,170,102607,6,0,P|193:177|161:202,3,81.1079975280769,2|0|0|0,3:2|2:0|2:0|2:0,2:0:0:0:
234,273,102971,6,0,B|136:281|174:211|65:223,1,162.404995056153,10|0,2:0|2:0,2:0:0:0:
59,384,103334,6,0,P|107:353|124:323,1,81.4049975280769,2|0,3:2|2:0,2:0:0:0:
24,280,103516,2,0,P|75:306|110:305,1,81.4049975280769,0|0,2:0|2:0,2:0:0:0:
84,206,103698,5,8,2:0:0:0:
79,170,103789,1,0,2:0:0:0:
78,126,103880,1,0,2:0:0:0:
77,87,103971,1,0,2:0:0:0:
70,44,104062,2,0,L|-16:36,3,81.0539975280766,2|0|0|0,3:2|2:0|2:0|2:0,2:0:0:0:
167,109,104425,6,0,B|193:151|193:151|325:162,1,162.809995056153,10|0,2:0|2:0,2:0:0:0:
396,23,104789,5,2,3:2:0:0:
420,5,104880,2,0,P|475:-5|506:7,2,81.4049975280769,0|0|0,2:0|2:0|2:0,2:0:0:0:
463,83,105152,6,0,P|435:112|425:151,1,81.4049975280769,8|0,2:0|2:0,2:0:0:0:
334,165,105334,2,0,P|345:203|374:231,1,81.4049975280769,0|0,2:0|2:0,2:0:0:0:
312,302,105516,5,2,3:2:0:0:
340,317,105607,2,0,P|378:326|417:315,2,81.4049975280769,0|0|0,2:0|2:0|2:0,2:0:0:0:
512,285,105880,6,0,P|461:235|322:271,1,162.809995056153,10|0,2:0|2:0,2:0:0:0:
231,370,106243,6,0,P|225:357|200:328,2,45.2250000000002,2|0|0,3:2|2:0|2:0,2:0:0:0:
247,259,106516,1,0,2:0:0:0:
221,249,106607,2,0,P|197:248|155:264,1,63.3149980773932,8|0,2:0|2:0,2:0:0:0:
135,164,106789,5,0,2:0:0:0:
103,177,106880,1,0,2:0:0:0:
80,204,106971,2,0,P|67:223|62:288,1,81.4049975280769,0|0,3:0|2:0,2:0:0:0:
65,366,107152,2,0,P|75:345|81:280,1,81.4049975280769,0|0,3:0|2:0,2:0:0:0:
0,174,107334,5,2,2:0:0:0:
0,174,107516,1,2,2:0:0:0:
70,64,107698,6,0,B|119:59|119:59|179:103|179:103|255:96,1,162.809995056153,6|0,3:2|2:0,2:0:0:0:
248,96,107971,2,0,L|301:92,1,45.2250000000002,2|0,2:0|3:2,2:0:0:0:
339,3,108152,2,0,L|283:5,2,45.2250000000003,2|0|0,2:0|2:0|2:0,2:0:0:0:
482,0,108425,6,0,L|467:171,1,162.809995056153,2|0,3:2|2:0,2:0:0:0:
461,193,108698,2,0,L|401:198,1,45.2250000000002,2|0,2:0|3:2,2:0:0:0:
449,279,108880,2,0,L|389:284,2,45.2250000000003,2|0|0,2:0|2:0|2:0,2:0:0:0:
443,366,109152,5,2,3:2:0:0:
315,288,109334,1,2,2:0:0:0:
264,384,109516,5,2,3:2:0:0:
464,365,109698,1,2,2:0:0:0:
291,280,109880,5,0,3:2:0:0:
251,283,109971,1,0,2:0:0:0:
212,286,110062,1,0,2:0:0:0:
173,289,110152,1,0,2:0:0:0:
133,292,110243,2,0,B|13:303|13:303|-17:344,1,162.215995056153,0|0,3:2|2:0,2:0:0:0:
90,384,110607,6,0,P|83:284|13:226,1,162.809995056153,2|0,3:2|2:0,2:0:0:0:
23,228,110880,2,0,P|1:185|0:173,1,45.2250000000002,2|0,2:0|3:2,2:0:0:0:
63,134,111062,2,0,P|82:142|105:144,2,45.2250000000003,2|0|0,2:0|2:0|2:0,2:0:0:0:
0,79,111334,6,0,B|100:66|56:142|185:111,1,162.809995056153,2|0,3:2|2:0,2:0:0:0:
161,92,111607,2,0,P|168:65|194:38,1,45.2250000000002,2|0,2:0|3:2,2:0:0:0:
244,12,111789,2,0,P|264:8|298:14,2,45.2250000000003,2|0|0,2:0|2:0|2:0,2:0:0:0:
258,108,112062,5,2,3:2:0:0:
367,61,112243,1,2,2:0:0:0:
236,107,112425,5,2,3:2:0:0:
466,130,112607,1,2,2:0:0:0:
331,185,112789,6,0,L|381:190,3,45.0600000000002,0|0|0|0,3:2|2:0|2:0|2:0,2:0:0:0:
258,108,113152,5,2,3:2:0:0:
466,130,113334,1,2,2:0:0:0:
228,210,113516,5,2,3:2:0:0:
228,210,114243,6,0,B|165:154|165:154|63:164,1,162.809995056153,2|0,3:2|2:0,2:0:0:0:
58,168,114516,2,0,L|63:229,1,45.2250000000002,2|0,2:0|3:2,2:0:0:0:
133,258,114698,2,0,L|137:312,2,45.2250000000003,2|0|0,2:0|2:0|2:0,2:0:0:0:
48,295,114971,5,2,3:2:0:0:
176,373,115152,1,2,2:0:0:0:
227,277,115334,5,2,3:2:0:0:
27,296,115516,1,2,2:0:0:0:
196,383,115698,5,0,3:2:0:0:
241,387,115789,1,0,2:0:0:0:
283,373,115880,1,0,2:0:0:0:
316,342,115971,1,0,2:0:0:0:
334,301,116062,2,0,P|400:245|478:255,1,162.215995056153,0|0,3:2|2:0,2:0:0:0:
427,341,116425,6,0,B|404:255|500:283|447:162,1,162.809995056153,2|0,3:2|2:0,2:0:0:0:
445,167,116698,2,0,P|436:119|440:105,1,45.2250000000002,2|0,2:0|3:2,2:0:0:0:
506,40,116880,2,0,P|512:67|510:98,2,45.2250000000003,2|0|0,2:0|2:0|2:0,2:0:0:0:
359,81,117152,6,0,P|309:132|195:119,1,162.809995056153,2|0,3:2|2:0,2:0:0:0:
199,123,117425,2,0,P|171:96|163:80,1,45.2250000000002,2|0,2:0|3:2,2:0:0:0:
129,25,117607,2,0,P|101:13|68:13,2,45.2250000000003,2|0|0,2:0|2:0|2:0,2:0:0:0:
83,107,117880,5,2,3:2:0:0:
130,216,118062,1,2,2:0:0:0:
84,85,118243,5,2,3:2:0:0:
61,315,118425,1,2,2:0:0:0:
6,180,118607,6,0,L|1:230,3,45.0600000000002,0|0|0|0,3:2|2:0|2:0|2:0,2:0:0:0:
130,216,118971,5,8,2:0:0:0:
143,243,119062,1,8,2:0:0:0:
156,270,119152,1,8,2:0:0:0:
169,297,119243,1,8,2:0:0:0:
183,325,119334,6,0,B|201:359|201:359|379:336|379:336|397:368,1,252.126,6|2,3:2|2:0,2:0:0:0:
512,315,120789,5,10,2:0:0:0:
503,298,120880,1,8,2:0:0:0:
494,282,120971,2,0,L|456:208,1,45.2250000000002,10|8,2:0|2:0,2:0:0:0:
512,170,121152,5,10,2:0:0:0:
488,156,121243,1,8,2:0:0:0:
466,143,121334,2,0,L|387:100,1,63.3149980773932,10|8,2:0|2:0,2:0:0:0:
411,8,121516,5,10,2:0:0:0:
375,11,121607,1,8,2:0:0:0:
343,16,121698,2,0,L|240:26,1,81.4049975280769,10|8,2:0|2:0,2:0:0:0:
205,140,121880,5,10,2:0:0:0:
181,137,121971,1,0,3:2:0:0:
157,135,122062,1,0,3:2:0:0:
133,133,122152,1,0,3:2:0:0:
113,131,122243,1,6,3:2:0:0:
28,2,122425,5,0,3:2:0:0:
21,122,122789,1,0,3:2:0:0:
28,2,123152,1,0,3:2:0:0:
113,131,123516,5,2,3:2:0:0:
106,251,123880,1,0,3:2:0:0:
113,131,124243,1,0,3:2:0:0:
101,330,124425,6,0,B|127:368|127:368|236:377,1,144.72,2|0,3:2|2:0,2:0:0:0:
368,384,124789,2,0,B|343:345|343:345|234:336,1,144.72,2|0,3:2|2:0,2:0:0:0:
101,330,125152,5,6,3:2:0:0:
