osu file format v14

[General]
AudioFilename: audio.mp3
AudioLeadIn: 0
PreviewTime: 38780
Countdown: 0
SampleSet: Normal
StackLeniency: 0.7
Mode: 3
LetterboxInBreaks: 0
SpecialStyle: 0
WidescreenStoryboard: 1

[Editor]
Bookmarks: 102717
DistanceSpacing: 1.2
BeatDivisor: 4
GridSize: 16
TimelineZoom: 1.9

[Metadata]
Title:HiT! HiT! HiT! (Cranky vs. HiTECH NINJA)
TitleUnicode:HiT! HiT! HiT! (Cranky vs. HiTECH NINJA)
Artist:HiTECH NINJA
ArtistUnicode:HiTECH NINJA
Creator:Sandalphon
Version:HARD!
Source:
Tags:NINJA IS ALIVE MEGAREX C92 lapix
BeatmapID:1681776
BeatmapSetID:801161

[Difficulty]
HPDrainRate:8
CircleSize:4
OverallDifficulty:7.8
ApproachRate:5
SliderMultiplier:1.4
SliderTickRate:1

[Events]
//Background and Video events
0,0,"BG.jpg",0,0
//Break Periods
//Storyboard Layer 0 (Background)
//Storyboard Layer 1 (Fail)
//Storyboard Layer 2 (Pass)
//Storyboard Layer 3 (Foreground)
//Storyboard Sound Samples
Sample,76280,0,"bang.wav",70

[TimingPoints]
1280,375,4,1,1,50,1,0
40280,-100,4,1,1,60,0,1
50780,-100,4,1,1,50,0,0
79280,-100,4,1,1,60,0,1
89780,-100,4,1,1,50,0,0
91280,-100,4,1,1,60,0,1
101780,-100,4,1,1,50,0,0

[HitObjects]
192,192,1280,5,0,0:0:0:0:
448,192,1280,128,0,2780:0:0:0:0:
64,192,2780,128,0,3530:0:0:0:0:
320,192,3530,128,0,4280:0:0:0:0:
192,192,4280,128,0,6530:0:0:0:0:
448,192,6530,128,0,7280:0:0:0:0:
192,192,7280,128,0,8780:0:0:0:0:
320,192,8780,128,0,9530:0:0:0:0:
64,192,9530,128,0,10280:0:0:0:0:
320,192,10280,128,0,12905:0:0:0:0:
448,192,10280,128,0,12905:0:0:0:0:
64,192,12905,1,0,0:0:0:0:
64,192,13280,5,4,0:0:0:0:
192,192,13280,1,8,0:0:0:0:
448,192,13280,1,0,0:0:0:0:
320,192,13467,1,0,0:0:0:0:
64,192,13655,1,0,0:0:0:0:
192,192,13655,1,0,0:0:0:0:
448,192,13842,1,0,0:0:0:0:
192,192,14030,1,0,0:0:0:0:
320,192,14030,1,0,0:0:0:0:
64,192,14217,1,0,0:0:0:0:
320,192,14405,1,0,0:0:0:0:
448,192,14405,1,0,0:0:0:0:
192,192,14592,1,0,0:0:0:0:
64,192,14780,1,8,0:0:0:0:
192,192,14780,1,4,0:0:0:0:
448,192,14780,1,0,0:0:0:0:
320,192,14967,1,0,0:0:0:0:
64,192,15155,1,0,0:0:0:0:
448,192,15155,1,0,0:0:0:0:
192,192,15342,1,0,0:0:0:0:
320,192,15530,1,0,0:0:0:0:
448,192,15530,1,0,0:0:0:0:
64,192,15717,1,0,0:0:0:0:
192,192,15905,1,0,0:0:0:0:
320,192,15905,1,0,0:0:0:0:
448,192,16092,1,0,0:0:0:0:
64,192,16280,1,8,0:0:0:0:
192,192,16280,1,4,0:0:0:0:
448,192,16280,1,0,0:0:0:0:
320,192,16467,1,0,0:0:0:0:
64,192,16655,1,0,0:0:0:0:
448,192,16655,1,0,0:0:0:0:
192,192,16842,1,0,0:0:0:0:
192,192,17030,1,8,0:0:0:0:
320,192,17030,1,4,0:0:0:0:
448,192,17030,1,0,0:0:0:0:
64,192,17217,1,0,0:0:0:0:
320,192,17405,1,0,0:0:0:0:
448,192,17405,1,0,0:0:0:0:
192,192,17592,1,0,0:0:0:0:
64,192,17780,1,8,0:0:0:0:
192,192,17780,1,4,0:0:0:0:
448,192,17780,1,0,0:0:0:0:
320,192,17967,1,0,0:0:0:0:
64,192,18155,1,0,0:0:0:0:
192,192,18155,1,0,0:0:0:0:
448,192,18342,1,0,0:0:0:0:
64,192,18530,1,8,0:0:0:0:
320,192,18530,1,4,0:0:0:0:
448,192,18530,1,0,0:0:0:0:
192,192,18717,1,0,0:0:0:0:
320,192,18905,1,0,0:0:0:0:
448,192,18905,1,0,0:0:0:0:
64,192,19092,1,0,0:0:0:0:
192,192,19280,1,8,0:0:0:0:
64,192,19280,1,4,0:0:0:0:
448,192,19280,1,0,0:0:0:0:
192,192,19467,1,2,0:0:0:0:
320,192,19655,1,8,0:0:0:0:
448,192,19655,1,2,0:0:0:0:
320,192,19842,1,2,0:0:0:0:
64,192,20030,1,8,0:0:0:0:
192,192,20030,1,2,0:0:0:0:
64,192,20217,1,2,0:0:0:0:
192,192,20405,1,2,0:0:0:0:
448,192,20405,1,8,0:0:0:0:
448,192,20592,1,2,0:0:0:0:
64,192,20780,1,8,0:0:0:0:
192,192,20780,1,2,0:0:0:0:
320,192,20780,1,4,0:0:0:0:
192,192,20967,1,2,0:0:0:0:
320,192,21155,1,2,0:0:0:0:
448,192,21155,1,8,0:0:0:0:
320,192,21342,1,2,0:0:0:0:
64,192,21530,1,8,0:0:0:0:
448,192,21530,1,2,0:0:0:0:
64,192,21717,1,2,0:0:0:0:
192,192,21905,1,2,0:0:0:0:
320,192,21905,1,8,0:0:0:0:
320,192,22092,1,2,0:0:0:0:
64,192,22280,1,8,0:0:0:0:
192,192,22280,1,2,0:0:0:0:
448,192,22280,1,4,0:0:0:0:
192,192,22467,1,2,0:0:0:0:
320,192,22655,1,8,0:0:0:0:
448,192,22655,1,2,0:0:0:0:
448,192,22842,1,2,0:0:0:0:
64,192,23030,1,8,0:0:0:0:
320,192,23030,1,2,0:0:0:0:
64,192,23217,1,2,0:0:0:0:
192,192,23405,1,2,0:0:0:0:
320,192,23405,1,8,0:0:0:0:
320,192,23592,1,2,0:0:0:0:
64,192,23780,1,8,0:0:0:0:
192,192,23780,1,2,0:0:0:0:
448,192,23780,1,4,0:0:0:0:
192,192,23967,1,2,0:0:0:0:
64,192,24155,1,8,0:0:0:0:
448,192,24155,1,2,0:0:0:0:
448,192,24342,1,2,0:0:0:0:
320,192,24530,1,2,0:0:0:0:
192,192,24530,1,8,0:0:0:0:
192,192,24717,1,0,0:0:0:0:
320,192,24811,1,0,0:0:0:0:
64,192,24905,1,0,0:0:0:0:
192,192,24998,1,0,0:0:0:0:
320,192,25092,1,0,0:0:0:0:
448,192,25186,1,0,0:0:0:0:
64,192,25280,1,0,0:0:0:0:
320,192,25373,1,0,0:0:0:0:
64,192,25561,1,0,0:0:0:0:
320,192,25655,1,0,0:0:0:0:
448,192,25842,1,0,0:0:0:0:
192,192,25936,1,0,0:0:0:0:
448,192,26123,1,0,0:0:0:0:
192,192,26217,1,0,0:0:0:0:
64,192,26405,1,0,0:0:0:0:
448,192,26405,1,0,0:0:0:0:
192,192,26592,1,0,0:0:0:0:
320,192,26592,1,0,0:0:0:0:
64,192,26780,1,4,0:0:0:0:
320,192,26780,1,8,0:0:0:0:
448,192,26780,1,0,0:0:0:0:
64,192,27061,1,4,0:0:0:0:
320,192,27061,1,8,0:0:0:0:
448,192,27061,1,0,0:0:0:0:
64,192,27342,1,4,0:0:0:0:
320,192,27342,1,8,0:0:0:0:
448,192,27342,1,0,0:0:0:0:
192,192,27530,1,0,0:0:0:0:
320,192,27717,1,0,0:0:0:0:
64,192,27905,128,0,28092:0:0:0:70:bang.wav
448,192,27905,1,0,0:0:0:0:
448,192,28092,1,0,0:0:0:0:
64,192,28280,1,4,0:0:0:0:
448,192,28280,1,2,0:0:0:0:
192,192,28280,128,8,28467:0:0:0:0:
64,192,28467,1,0,0:0:0:0:
448,192,28561,128,0,28748:0:0:0:0:
192,192,28655,1,2,0:0:0:0:
320,192,28655,1,8,0:0:0:0:
64,192,28842,128,0,29030:0:0:0:0:
320,192,29030,1,2,0:0:0:0:
448,192,29030,1,0,0:0:0:0:
192,192,29123,128,0,29311:0:0:0:0:
448,192,29217,1,0,0:0:0:0:
64,192,29405,1,2,0:0:0:0:
320,192,29405,128,8,29592:0:0:0:0:
192,192,29592,128,0,29780:0:0:0:0:
448,192,29592,1,0,0:0:0:0:
64,192,29780,1,2,0:0:0:0:
448,192,29780,128,0,29967:0:0:0:0:
192,192,29967,1,0,0:0:0:0:
320,192,30061,128,0,30248:0:0:0:0:
64,192,30155,1,2,0:0:0:0:
192,192,30155,1,8,0:0:0:0:
192,192,30342,128,0,30530:0:0:0:0:
320,192,30530,1,2,0:0:0:0:
448,192,30530,1,0,0:0:0:0:
64,192,30623,128,0,30811:0:0:0:0:
448,192,30717,1,0,0:0:0:0:
192,192,30905,1,2,0:0:0:0:
320,192,30905,128,8,31092:0:0:0:0:
64,192,31092,1,0,0:0:0:0:
192,192,31092,128,0,31280:0:0:0:0:
320,192,31280,1,2,0:0:0:0:
448,192,31280,128,0,31467:0:0:0:0:
64,192,31467,1,0,0:0:0:0:
320,192,31561,128,0,31748:0:0:0:0:
64,192,31655,1,2,0:0:0:0:
192,192,31655,1,8,0:0:0:0:
192,192,31842,128,0,32030:0:0:0:0:
64,192,32030,1,2,0:0:0:0:
320,192,32030,1,0,0:0:0:0:
448,192,32123,128,0,32311:0:0:0:0:
192,192,32217,1,0,0:0:0:0:
64,192,32405,128,2,32592:0:0:0:0:
192,192,32405,1,8,0:0:0:0:
320,192,32592,128,0,32780:0:0:0:0:
448,192,32592,1,0,0:0:0:0:
64,192,32780,1,2,0:0:0:0:
192,192,32780,128,4,32967:0:0:0:0:
448,192,32967,1,0,0:0:0:0:
64,192,33061,128,0,33248:0:0:0:0:
192,192,33155,1,2,0:0:0:0:
320,192,33155,1,8,0:0:0:0:
448,192,33342,128,0,33530:0:0:0:0:
64,192,33530,1,2,0:0:0:0:
320,192,33530,1,4,0:0:0:0:
192,192,33623,128,0,33811:0:0:0:0:
448,192,33717,1,0,0:0:0:0:
64,192,33905,128,2,34092:0:0:0:0:
320,192,33905,1,8,0:0:0:0:
192,192,34092,1,0,0:0:0:0:
448,192,34092,128,0,34280:0:0:0:0:
192,192,34280,128,6,34467:0:0:0:0:
320,192,34280,1,0,0:0:0:70:bang.wav
64,192,34467,1,0,0:0:0:0:
320,192,34561,128,0,34748:0:0:0:0:
64,192,34655,1,2,0:0:0:0:
192,192,34655,1,8,0:0:0:0:
448,192,34842,128,0,35030:0:0:0:0:
192,192,35030,1,2,0:0:0:0:
320,192,35030,1,0,0:0:0:0:
64,192,35123,128,0,35311:0:0:0:0:
448,192,35217,1,0,0:0:0:0:
320,192,35405,128,8,35592:0:0:0:0:
448,192,35405,1,2,0:0:0:0:
64,192,35592,1,0,0:0:0:0:
192,192,35592,128,0,35780:0:0:0:0:
320,192,35780,1,2,0:0:0:0:
448,192,35780,128,0,35967:0:0:0:0:
64,192,35967,1,0,0:0:0:0:
192,192,36061,128,0,36248:0:0:0:0:
320,192,36155,1,2,0:0:0:0:
448,192,36155,1,8,0:0:0:0:
64,192,36342,128,0,36530:0:0:0:0:
192,192,36530,1,2,0:0:0:0:
320,192,36530,1,0,0:0:0:0:
448,192,36623,128,0,36811:0:0:0:0:
64,192,36717,1,0,0:0:0:0:
192,192,36905,1,2,0:0:0:0:
320,192,36905,128,8,37092:0:0:0:0:
64,192,37092,1,0,0:0:0:0:
192,192,37092,128,0,37280:0:0:0:0:
320,192,37280,1,2,0:0:0:0:
448,192,37280,128,0,37467:0:0:0:0:
192,192,37467,1,0,0:0:0:0:
64,192,37561,128,0,37748:0:0:0:0:
320,192,37655,1,2,0:0:0:0:
448,192,37655,1,8,0:0:0:0:
320,192,37842,128,0,38030:0:0:0:0:
64,192,38030,1,2,0:0:0:0:
192,192,38030,1,0,0:0:0:0:
448,192,38123,128,0,38311:0:0:0:0:
64,192,38217,1,0,0:0:0:0:
192,192,38405,1,2,0:0:0:0:
320,192,38405,1,8,0:0:0:0:
448,192,38592,1,0,0:0:0:0:
320,192,38686,1,0,0:0:0:0:
64,192,38780,1,2,0:0:0:0:
192,192,38780,1,4,0:0:0:0:
64,192,39155,1,0,0:0:0:0:
192,192,39436,1,0,0:0:0:0:
320,192,39717,1,2,0:0:0:0:
448,192,39717,1,0,0:0:0:0:
320,192,39998,1,2,0:0:0:0:
448,192,39998,1,0,0:0:0:0:
64,192,40280,1,14,0:0:0:0:
448,192,40280,1,0,0:0:0:70:bang.wav
192,192,40373,128,0,40561:0:0:0:0:
320,192,40373,1,0,0:0:0:0:
448,192,40561,1,0,0:0:0:0:
64,192,40655,128,2,40842:0:0:0:0:
320,192,40655,1,8,0:0:0:0:
320,192,40842,1,0,0:0:0:0:
192,192,40936,1,0,0:0:0:0:
448,192,40936,128,0,41123:0:0:0:0:
192,192,41123,1,0,0:0:0:0:
64,192,41217,1,0,0:0:0:0:
320,192,41217,128,0,41405:0:0:0:0:
64,192,41405,128,8,41592:0:0:0:0:
192,192,41405,1,2,0:0:0:0:
320,192,41592,1,0,0:0:0:0:
448,192,41592,128,0,41780:0:0:0:0:
192,192,41780,1,2,0:0:0:0:
64,192,41873,1,0,0:0:0:0:
320,192,41873,128,0,42061:0:0:0:0:
64,192,42061,1,0,0:0:0:0:
192,192,42155,128,2,42342:0:0:0:0:
448,192,42155,1,8,0:0:0:0:
448,192,42342,1,0,0:0:0:0:
320,192,42436,1,0,0:0:0:0:
192,192,42530,1,2,0:0:0:0:
64,192,42623,1,0,0:0:0:0:
320,192,42717,1,0,0:0:0:0:
448,192,42717,128,0,42905:0:0:0:0:
64,192,42905,1,10,0:0:0:0:
192,192,42998,1,0,0:0:0:0:
448,192,43092,1,0,0:0:0:0:
192,192,43186,1,0,0:0:0:0:
448,192,43280,1,2,0:0:0:0:
64,192,43373,1,0,0:0:0:0:
192,192,43373,128,0,43561:0:0:0:0:
448,192,43561,1,0,0:0:0:0:
64,192,43655,128,8,43842:0:0:0:0:
320,192,43655,1,2,0:0:0:0:
320,192,43842,1,0,0:0:0:0:
192,192,43936,1,0,0:0:0:0:
448,192,43936,128,0,44123:0:0:0:0:
192,192,44123,1,0,0:0:0:0:
64,192,44217,1,0,0:0:0:0:
320,192,44217,128,0,44405:0:0:0:0:
64,192,44405,128,8,44592:0:0:0:0:
448,192,44405,1,2,0:0:0:0:
320,192,44592,1,0,0:0:0:0:
192,192,44686,1,0,0:0:0:0:
320,192,44780,128,2,44967:0:0:0:0:
448,192,44780,1,0,0:0:0:0:
64,192,44967,1,0,0:0:0:0:
320,192,45061,1,0,0:0:0:0:
448,192,45061,128,0,45248:0:0:0:0:
64,192,45248,1,0,0:0:0:0:
192,192,45342,128,0,45530:0:0:0:0:
320,192,45342,1,0,0:0:0:0:
448,192,45530,1,2,0:0:0:0:
320,192,45623,1,0,0:0:0:0:
192,192,45717,1,0,0:0:0:0:
64,192,45811,1,0,0:0:0:0:
320,192,45905,1,10,0:0:0:0:
192,192,45998,1,0,0:0:0:0:
448,192,46092,1,0,0:0:0:0:
320,192,46186,1,0,0:0:0:0:
64,192,46280,1,6,0:0:0:0:
192,192,46280,1,0,0:0:0:70:bang.wav
320,192,46373,128,0,46561:0:0:0:0:
448,192,46373,1,0,0:0:0:0:
64,192,46561,1,0,0:0:0:0:
192,192,46655,128,2,46842:0:0:0:0:
448,192,46655,1,8,0:0:0:0:
320,192,46842,1,0,0:0:0:0:
64,192,46936,128,0,47123:0:0:0:0:
448,192,46936,1,0,0:0:0:0:
192,192,47123,1,0,0:0:0:0:
320,192,47217,1,0,0:0:0:0:
448,192,47217,128,0,47405:0:0:0:0:
64,192,47405,128,2,47592:0:0:0:0:
192,192,47405,1,8,0:0:0:0:
320,192,47592,128,0,47780:0:0:0:0:
448,192,47592,1,0,0:0:0:0:
64,192,47780,1,2,0:0:0:0:
192,192,47873,128,0,48061:0:0:0:0:
448,192,47873,1,0,0:0:0:0:
320,192,48061,1,0,0:0:0:0:
64,192,48155,128,2,48342:0:0:0:0:
448,192,48155,1,8,0:0:0:0:
448,192,48342,1,0,0:0:0:0:
320,192,48436,1,0,0:0:0:0:
64,192,48530,1,2,0:0:0:0:
192,192,48623,1,0,0:0:0:0:
320,192,48717,128,0,48905:0:0:0:0:
448,192,48717,1,0,0:0:0:0:
64,192,48905,1,10,0:0:0:0:
192,192,48998,1,0,0:0:0:0:
320,192,49092,1,0,0:0:0:0:
448,192,49186,1,0,0:0:0:0:
64,192,49280,1,2,0:0:0:0:
192,192,49373,128,0,49561:0:0:0:0:
320,192,49373,1,0,0:0:0:0:
448,192,49561,1,0,0:0:0:0:
64,192,49655,128,2,49842:0:0:0:0:
320,192,49655,1,8,0:0:0:0:
192,192,49842,1,0,0:0:0:0:
320,192,49936,128,0,50123:0:0:0:0:
448,192,49936,1,0,0:0:0:0:
64,192,50123,1,0,0:0:0:0:
192,192,50217,1,0,0:0:0:0:
448,192,50217,128,0,50405:0:0:0:0:
64,192,50405,128,2,50592:0:0:0:0:
192,192,50405,1,8,0:0:0:0:
448,192,50592,1,2,0:0:0:0:
320,192,50655,1,2,0:0:0:0:
192,192,50717,1,2,0:0:0:0:
64,192,50780,1,12,0:0:0:0:
448,192,50780,1,0,0:0:0:0:
64,192,51061,1,8,0:0:0:0:
448,192,51061,1,4,0:0:0:0:
320,192,51342,1,8,0:0:0:0:
192,192,51342,1,4,0:0:0:0:
64,192,51717,1,0,0:0:0:0:
320,192,51905,1,2,0:0:0:0:
192,192,52092,1,0,0:0:0:0:
192,192,52280,1,2,0:0:0:0:
320,192,52280,1,4,0:0:0:0:
448,192,52280,1,0,0:0:0:0:
448,192,52467,128,0,52655:0:0:0:0:
64,192,52655,1,8,0:0:0:0:
192,192,52655,1,2,0:0:0:0:
448,192,52842,128,0,53030:0:0:0:0:
64,192,53030,1,2,0:0:0:0:
192,192,53030,1,0,0:0:0:0:
448,192,53217,128,0,53405:0:0:0:0:
64,192,53405,1,8,0:0:0:0:
192,192,53405,1,2,0:0:0:0:
448,192,53592,128,0,53780:0:0:0:0:
64,192,53780,1,2,0:0:0:0:
192,192,53780,1,0,0:0:0:0:
64,192,53967,128,0,54155:0:0:0:0:
320,192,54155,1,8,0:0:0:0:
448,192,54155,1,2,0:0:0:0:
64,192,54342,128,0,54530:0:0:0:0:
320,192,54530,1,2,0:0:0:0:
448,192,54530,1,0,0:0:0:0:
64,192,54717,128,0,54905:0:0:0:0:
320,192,54905,1,8,0:0:0:0:
448,192,54905,1,2,0:0:0:0:
64,192,55092,128,0,55280:0:0:0:0:
320,192,55280,128,2,55467:0:0:0:0:
448,192,55280,128,0,55467:0:0:0:0:
64,192,55467,1,0,0:0:0:0:
192,192,55561,1,0,0:0:0:0:
320,192,55655,1,10,0:0:0:0:
448,192,55748,1,0,0:0:0:0:
64,192,55842,128,0,56030:0:0:0:0:
192,192,55842,128,0,56030:0:0:0:0:
448,192,56030,1,2,0:0:0:0:
320,192,56123,1,0,0:0:0:0:
192,192,56217,1,0,0:0:0:0:
64,192,56311,1,0,0:0:0:0:
320,192,56405,128,2,56780:0:0:0:0:
448,192,56405,128,8,56780:0:0:0:0:
64,192,56780,1,2,0:0:0:0:
192,192,56780,1,0,0:0:0:0:
64,192,56967,1,0,0:0:0:0:
192,192,57061,1,0,0:0:0:0:
448,192,57155,1,10,0:0:0:0:
320,192,57248,1,0,0:0:0:0:
64,192,57342,1,0,0:0:0:0:
192,192,57436,1,0,0:0:0:0:
320,192,57530,1,2,0:0:0:0:
448,192,57623,1,0,0:0:0:0:
192,192,57717,1,0,0:0:0:0:
320,192,57811,1,0,0:0:0:0:
64,192,57905,128,8,58280:0:0:0:0:
192,192,57905,128,2,58280:0:0:0:0:
320,192,58280,1,4,0:0:0:0:
448,192,58280,1,2,0:0:0:0:
64,192,58467,128,0,58655:0:0:0:0:
320,192,58655,1,2,0:0:0:0:
448,192,58655,1,8,0:0:0:0:
64,192,58842,128,0,59030:0:0:0:0:
320,192,59030,1,2,0:0:0:0:
448,192,59030,1,0,0:0:0:0:
64,192,59217,128,0,59405:0:0:0:0:
320,192,59405,1,2,0:0:0:0:
448,192,59405,1,8,0:0:0:0:
64,192,59592,128,0,59780:0:0:0:0:
320,192,59780,1,2,0:0:0:0:
448,192,59780,1,0,0:0:0:0:
448,192,59967,128,0,60155:0:0:0:0:
64,192,60155,1,2,0:0:0:0:
192,192,60155,1,8,0:0:0:0:
448,192,60342,128,0,60530:0:0:0:0:
64,192,60530,1,2,0:0:0:0:
192,192,60530,1,0,0:0:0:0:
448,192,60717,128,0,60905:0:0:0:0:
64,192,60905,1,8,0:0:0:0:
192,192,60905,1,2,0:0:0:0:
448,192,61092,128,0,61280:0:0:0:0:
64,192,61280,1,2,0:0:0:0:
192,192,61280,1,0,0:0:0:0:
448,192,61467,1,0,0:0:0:0:
320,192,61655,1,2,0:0:0:0:
448,192,61655,1,8,0:0:0:0:
64,192,61748,1,0,0:0:0:0:
320,192,61842,1,0,0:0:0:0:
192,192,61936,1,0,0:0:0:0:
320,192,62030,128,2,62217:0:0:0:0:
448,192,62030,128,0,62217:0:0:0:0:
64,192,62217,1,0,0:0:0:0:
192,192,62311,128,0,62498:0:0:0:0:
320,192,62311,128,0,62498:0:0:0:0:
448,192,62498,1,0,0:0:0:0:
64,192,62592,128,0,62780:0:0:0:0:
192,192,62592,128,0,62780:0:0:0:0:
448,192,62780,1,2,0:0:0:0:
320,192,62873,1,0,0:0:0:0:
192,192,62967,1,0,0:0:0:0:
64,192,63061,1,0,0:0:0:0:
320,192,63155,1,2,0:0:0:0:
448,192,63155,1,8,0:0:0:0:
64,192,63342,1,0,0:0:0:0:
192,192,63436,1,0,0:0:0:0:
320,192,63530,128,2,63717:0:0:0:0:
448,192,63530,128,0,63717:0:0:0:0:
64,192,63717,1,0,0:0:0:0:
192,192,63811,128,0,63998:0:0:0:0:
320,192,63811,128,0,63998:0:0:0:0:
448,192,63998,1,0,0:0:0:0:
64,192,64092,128,0,64280:0:0:0:0:
192,192,64092,128,0,64280:0:0:0:0:
320,192,64280,1,6,0:0:0:0:
448,192,64280,128,0,64467:0:0:0:70:bang.wav
64,192,64467,1,0,0:0:0:0:
320,192,64561,128,0,64748:0:0:0:0:
64,192,64655,1,2,0:0:0:0:
192,192,64655,1,8,0:0:0:0:
192,192,64842,128,0,65030:0:0:0:0:
320,192,65030,1,2,0:0:0:0:
448,192,65030,1,0,0:0:0:0:
64,192,65217,128,0,65405:0:0:0:0:
192,192,65217,1,0,0:0:0:0:
320,192,65405,128,2,65592:0:0:0:0:
448,192,65405,1,8,0:0:0:0:
64,192,65592,1,0,0:0:0:0:
192,192,65592,128,0,65780:0:0:0:0:
320,192,65780,1,2,0:0:0:0:
448,192,65780,128,0,65967:0:0:0:0:
64,192,65967,1,0,0:0:0:0:
192,192,66061,128,0,66248:0:0:0:0:
320,192,66155,1,2,0:0:0:0:
448,192,66155,1,8,0:0:0:0:
64,192,66342,128,0,66530:0:0:0:0:
192,192,66530,1,2,0:0:0:0:
320,192,66530,1,0,0:0:0:0:
448,192,66623,128,0,66811:0:0:0:0:
64,192,66717,1,0,0:0:0:0:
192,192,66905,1,2,0:0:0:0:
320,192,66905,128,8,67092:0:0:0:0:
64,192,67092,128,0,67280:0:0:0:0:
192,192,67092,1,0,0:0:0:0:
320,192,67280,1,2,0:0:0:0:
448,192,67280,128,0,67467:0:0:0:0:
192,192,67467,1,0,0:0:0:0:
64,192,67561,128,0,67748:0:0:0:0:
320,192,67655,1,2,0:0:0:0:
448,192,67655,1,8,0:0:0:0:
320,192,67842,128,0,68030:0:0:0:0:
64,192,68030,1,2,0:0:0:0:
192,192,68030,1,0,0:0:0:0:
448,192,68123,128,0,68311:0:0:0:0:
320,192,68217,1,0,0:0:0:0:
64,192,68405,128,2,68592:0:0:0:0:
192,192,68405,1,8,0:0:0:0:
320,192,68592,128,0,68780:0:0:0:0:
448,192,68592,1,0,0:0:0:0:
64,192,68780,1,2,0:0:0:0:
192,192,68780,128,0,68967:0:0:0:0:
448,192,68967,1,0,0:0:0:0:
320,192,69061,128,0,69248:0:0:0:0:
64,192,69155,1,2,0:0:0:0:
192,192,69155,1,8,0:0:0:0:
64,192,69342,1,0,0:0:0:0:
192,192,69436,1,0,0:0:0:0:
320,192,69530,1,2,0:0:0:0:
448,192,69530,1,0,0:0:0:0:
64,192,69623,1,0,0:0:0:0:
192,192,69717,1,0,0:0:0:0:
320,192,69717,1,0,0:0:0:0:
448,192,69811,1,0,0:0:0:0:
64,192,69905,1,2,0:0:0:0:
192,192,69905,1,8,0:0:0:0:
448,192,69998,1,0,0:0:0:0:
320,192,70092,1,0,0:0:0:0:
192,192,70186,1,0,0:0:0:0:
64,192,70280,1,2,0:0:0:0:
448,192,70280,128,0,70467:0:0:0:0:
64,192,70467,1,0,0:0:0:0:
192,192,70561,128,0,70748:0:0:0:0:
320,192,70655,1,2,0:0:0:0:
448,192,70655,1,8,0:0:0:0:
320,192,70842,128,0,71030:0:0:0:0:
64,192,71030,1,2,0:0:0:0:
192,192,71030,1,0,0:0:0:0:
64,192,71217,128,0,71405:0:0:0:0:
320,192,71217,1,0,0:0:0:0:
192,192,71405,1,2,0:0:0:0:
448,192,71405,128,8,71592:0:0:0:0:
64,192,71592,1,0,0:0:0:0:
320,192,71592,128,0,71780:0:0:0:0:
64,192,71780,1,2,0:0:0:0:
192,192,71780,128,0,71967:0:0:0:0:
448,192,71967,1,0,0:0:0:0:
320,192,72061,128,0,72248:0:0:0:0:
64,192,72155,1,2,0:0:0:0:
192,192,72155,1,8,0:0:0:0:
64,192,72342,128,0,72530:0:0:0:0:
320,192,72530,1,2,0:0:0:0:
448,192,72530,1,0,0:0:0:0:
192,192,72623,128,0,72811:0:0:0:0:
448,192,72717,1,0,0:0:0:0:
448,192,72905,1,2,0:0:0:0:
320,192,72905,128,8,73092:0:0:0:0:
64,192,73092,128,0,73280:0:0:0:0:
192,192,73092,1,0,0:0:0:0:
320,192,73280,1,2,0:0:0:0:
448,192,73280,128,0,73467:0:0:0:0:
192,192,73467,1,0,0:0:0:0:
448,192,73561,128,0,73748:0:0:0:0:
320,192,73655,1,2,0:0:0:0:
192,192,73655,1,8,0:0:0:0:
64,192,73842,128,0,74030:0:0:0:0:
448,192,74030,1,2,0:0:0:0:
192,192,74030,1,0,0:0:0:0:
320,192,74123,128,0,74311:0:0:0:0:
64,192,74217,1,0,0:0:0:0:
192,192,74405,1,2,0:0:0:0:
448,192,74405,128,8,74592:0:0:0:0:
320,192,74592,1,0,0:0:0:0:
64,192,74592,128,0,74780:0:0:0:0:
192,192,74780,1,2,0:0:0:0:
320,192,74780,128,0,74967:0:0:0:0:
64,192,74967,1,0,0:0:0:0:
192,192,75061,128,0,75248:0:0:0:0:
320,192,75155,1,2,0:0:0:0:
448,192,75155,1,8,0:0:0:0:
64,192,75342,128,0,75530:0:0:0:0:
448,192,75530,1,2,0:0:0:0:
320,192,75530,1,0,0:0:0:0:
192,192,75717,1,0,0:0:0:0:
64,192,75811,1,0,0:0:0:0:
320,192,75905,1,2,0:0:0:0:
192,192,75998,1,0,0:0:0:0:
448,192,76092,1,0,0:0:0:0:
320,192,76186,1,0,0:0:0:0:
192,192,76280,1,10,0:0:0:0:
448,192,76373,1,0,0:0:0:0:
448,192,76561,1,0,0:0:0:0:
192,192,76655,1,0,0:0:0:0:
320,192,76842,1,0,0:0:0:0:
64,192,76936,1,0,0:0:0:0:
64,192,77123,1,0,0:0:0:0:
320,192,77217,1,0,0:0:0:0:
192,192,77405,1,0,0:0:0:0:
64,192,77405,1,0,0:0:0:0:
320,192,77592,1,0,0:0:0:0:
192,192,77592,1,0,0:0:0:0:
448,192,77780,1,8,0:0:0:0:
320,192,77780,1,4,0:0:0:0:
64,192,77780,1,0,0:0:0:0:
64,192,78061,1,8,0:0:0:0:
192,192,78061,1,4,0:0:0:0:
448,192,78061,1,0,0:0:0:0:
64,192,78342,1,4,0:0:0:0:
192,192,78342,1,8,0:0:0:0:
448,192,78342,1,0,0:0:0:0:
64,192,78905,1,0,0:0:0:70:bang.wav
448,192,78905,1,0,0:0:0:0:
64,192,79280,1,2,0:0:0:0:
192,192,79280,1,4,0:0:0:0:
448,192,79280,1,0,0:0:0:0:
64,192,79467,1,0,0:0:0:0:
320,192,79655,1,2,0:0:0:0:
448,192,79655,1,8,0:0:0:0:
192,192,79842,1,0,0:0:0:0:
320,192,79936,1,0,0:0:0:0:
64,192,80030,128,2,80217:0:0:0:0:
192,192,80030,1,0,0:0:0:0:
448,192,80217,128,0,80405:0:0:0:0:
64,192,80405,1,2,0:0:0:0:
320,192,80405,128,8,80592:0:0:0:0:
192,192,80592,128,0,80780:0:0:0:0:
64,192,80780,1,2,0:0:0:0:
448,192,80780,128,0,80967:0:0:0:0:
192,192,80967,1,0,0:0:0:0:
320,192,81155,1,2,0:0:0:0:
448,192,81155,1,8,0:0:0:0:
192,192,81248,1,0,0:0:0:0:
64,192,81342,1,0,0:0:0:0:
192,192,81530,1,2,0:0:0:0:
320,192,81530,1,0,0:0:0:0:
448,192,81623,1,0,0:0:0:0:
192,192,81717,1,0,0:0:0:0:
320,192,81811,1,0,0:0:0:0:
64,192,81905,1,10,0:0:0:0:
192,192,81905,1,0,0:0:0:0:
448,192,81998,128,0,82280:0:0:0:0:
64,192,82280,1,2,0:0:0:0:
192,192,82280,1,4,0:0:0:0:
320,192,82467,1,0,0:0:0:0:
192,192,82561,1,0,0:0:0:0:
320,192,82655,1,2,0:0:0:0:
448,192,82655,1,8,0:0:0:0:
64,192,82842,1,0,0:0:0:0:
192,192,83030,1,2,0:0:0:0:
320,192,83030,128,0,83217:0:0:0:0:
448,192,83217,128,0,83405:0:0:0:0:
192,192,83405,128,2,83592:0:0:0:0:
64,192,83405,1,8,0:0:0:0:
320,192,83592,128,0,83780:0:0:0:0:
448,192,83780,1,2,0:0:0:0:
64,192,83780,128,0,83967:0:0:0:0:
320,192,83967,1,0,0:0:0:0:
64,192,84155,1,2,0:0:0:0:
192,192,84155,1,8,0:0:0:0:
64,192,84342,1,0,0:0:0:0:
320,192,84530,1,2,0:0:0:0:
448,192,84530,1,0,0:0:0:0:
192,192,84623,1,0,0:0:0:0:
64,192,84717,1,0,0:0:0:0:
64,192,84905,1,2,0:0:0:0:
192,192,84905,1,8,0:0:0:0:
320,192,84998,1,0,0:0:0:0:
448,192,85092,1,0,0:0:0:0:
64,192,85280,1,4,0:0:0:0:
192,192,85280,1,2,0:0:0:0:
448,192,85280,1,0,0:0:0:70:bang.wav
192,192,85467,1,0,0:0:0:0:
64,192,85655,1,8,0:0:0:0:
448,192,85655,1,2,0:0:0:0:
320,192,85748,1,0,0:0:0:0:
192,192,85842,1,0,0:0:0:0:
192,192,86030,128,2,86217:0:0:0:0:
320,192,86030,1,0,0:0:0:0:
64,192,86217,128,0,86405:0:0:0:0:
320,192,86405,128,8,86592:0:0:0:0:
448,192,86405,1,2,0:0:0:0:
192,192,86592,128,0,86780:0:0:0:0:
320,192,86780,1,2,0:0:0:0:
448,192,86780,128,0,86967:0:0:0:0:
64,192,86967,1,0,0:0:0:0:
192,192,87061,1,0,0:0:0:0:
320,192,87155,1,8,0:0:0:0:
448,192,87155,1,2,0:0:0:0:
64,192,87248,1,0,0:0:0:0:
192,192,87342,1,0,0:0:0:0:
320,192,87436,1,0,0:0:0:0:
64,192,87530,1,2,0:0:0:0:
448,192,87530,1,0,0:0:0:0:
192,192,87717,1,0,0:0:0:0:
64,192,87905,1,8,0:0:0:0:
448,192,87905,1,2,0:0:0:0:
320,192,87998,1,0,0:0:0:0:
192,192,88092,1,0,0:0:0:0:
64,192,88280,1,2,0:0:0:0:
192,192,88280,1,4,0:0:0:0:
448,192,88280,1,0,0:0:0:0:
64,192,88467,1,0,0:0:0:0:
192,192,88561,1,0,0:0:0:0:
320,192,88655,1,2,0:0:0:0:
448,192,88655,1,8,0:0:0:0:
448,192,88842,1,0,0:0:0:0:
192,192,89030,1,2,0:0:0:0:
320,192,89030,1,0,0:0:0:0:
64,192,89217,1,0,0:0:0:0:
320,192,89405,1,2,0:0:0:0:
448,192,89405,1,8,0:0:0:0:
192,192,89498,1,0,0:0:0:0:
64,192,89592,1,2,0:0:0:0:
448,192,89686,1,2,0:0:0:0:
64,192,89780,1,2,0:0:0:0:
192,192,89780,1,4,0:0:0:0:
192,192,90155,1,0,0:0:0:0:
320,192,90436,1,0,0:0:0:0:
448,192,90717,1,2,0:0:0:0:
64,192,90998,1,2,0:0:0:0:
64,192,91280,1,14,0:0:0:0:
448,192,91280,1,0,0:0:0:70:bang.wav
192,192,91373,1,0,0:0:0:0:
320,192,91373,128,0,91561:0:0:0:0:
64,192,91561,1,0,0:0:0:0:
192,192,91655,1,2,0:0:0:0:
448,192,91655,128,8,91842:0:0:0:0:
192,192,91842,1,0,0:0:0:0:
64,192,91936,128,0,92123:0:0:0:0:
320,192,91936,1,0,0:0:0:0:
320,192,92123,1,0,0:0:0:0:
192,192,92217,128,0,92405:0:0:0:0:
448,192,92217,1,0,0:0:0:0:
320,192,92405,1,2,0:0:0:0:
448,192,92405,128,8,92592:0:0:0:0:
64,192,92592,128,0,92780:0:0:0:0:
192,192,92592,1,0,0:0:0:0:
320,192,92780,1,2,0:0:0:0:
192,192,92873,128,0,93061:0:0:0:0:
448,192,92873,1,0,0:0:0:0:
448,192,93061,1,0,0:0:0:0:
64,192,93155,1,2,0:0:0:0:
320,192,93155,128,8,93342:0:0:0:0:
64,192,93342,1,0,0:0:0:0:
192,192,93436,1,0,0:0:0:0:
448,192,93530,1,2,0:0:0:0:
320,192,93623,1,0,0:0:0:0:
64,192,93717,128,0,93905:0:0:0:0:
192,192,93717,1,0,0:0:0:0:
448,192,93905,1,10,0:0:0:0:
320,192,93998,1,0,0:0:0:0:
192,192,94092,1,0,0:0:0:0:
64,192,94186,1,0,0:0:0:0:
448,192,94280,1,2,0:0:0:0:
192,192,94373,1,0,0:0:0:0:
320,192,94373,128,0,94561:0:0:0:0:
64,192,94561,1,0,0:0:0:0:
192,192,94655,1,2,0:0:0:0:
448,192,94655,128,8,94842:0:0:0:0:
192,192,94842,1,0,0:0:0:0:
64,192,94936,128,0,95123:0:0:0:0:
320,192,94936,1,0,0:0:0:0:
320,192,95123,1,0,0:0:0:0:
192,192,95217,128,0,95405:0:0:0:0:
448,192,95217,1,0,0:0:0:0:
64,192,95405,1,2,0:0:0:0:
448,192,95405,128,8,95592:0:0:0:0:
192,192,95592,1,0,0:0:0:0:
320,192,95686,1,0,0:0:0:0:
64,192,95780,1,2,0:0:0:0:
192,192,95780,128,0,95967:0:0:0:0:
448,192,95967,1,0,0:0:0:0:
64,192,96061,128,0,96248:0:0:0:0:
320,192,96061,1,0,0:0:0:0:
448,192,96248,1,0,0:0:0:0:
192,192,96342,1,0,0:0:0:0:
320,192,96342,128,0,96530:0:0:0:0:
64,192,96530,1,2,0:0:0:0:
192,192,96623,1,0,0:0:0:0:
320,192,96717,1,0,0:0:0:0:
64,192,96811,1,0,0:0:0:0:
192,192,96905,1,10,0:0:0:0:
448,192,96998,1,0,0:0:0:0:
320,192,97092,1,0,0:0:0:0:
192,192,97186,1,0,0:0:0:0:
64,192,97280,1,6,0:0:0:0:
448,192,97280,1,0,0:0:0:70:bang.wav
192,192,97373,128,0,97561:0:0:0:0:
320,192,97373,1,0,0:0:0:0:
448,192,97561,1,0,0:0:0:0:
64,192,97655,1,2,0:0:0:0:
320,192,97655,128,8,97842:0:0:0:0:
192,192,97842,1,0,0:0:0:0:
64,192,97936,1,0,0:0:0:0:
448,192,97936,128,0,98123:0:0:0:0:
320,192,98123,1,0,0:0:0:0:
64,192,98217,128,0,98405:0:0:0:0:
192,192,98217,1,0,0:0:0:0:
320,192,98405,1,2,0:0:0:0:
448,192,98405,128,8,98592:0:0:0:0:
64,192,98592,1,0,0:0:0:0:
192,192,98592,128,0,98780:0:0:0:0:
448,192,98780,1,2,0:0:0:0:
64,192,98873,1,0,0:0:0:0:
320,192,98873,128,0,99061:0:0:0:0:
192,192,99061,1,0,0:0:0:0:
64,192,99155,1,2,0:0:0:0:
448,192,99155,128,8,99342:0:0:0:0:
64,192,99342,1,0,0:0:0:0:
192,192,99436,1,0,0:0:0:0:
448,192,99530,1,2,0:0:0:0:
320,192,99623,1,0,0:0:0:0:
64,192,99717,1,0,0:0:0:0:
192,192,99717,128,0,99905:0:0:0:0:
448,192,99905,1,10,0:0:0:0:
320,192,99998,1,0,0:0:0:0:
192,192,100092,1,0,0:0:0:0:
64,192,100186,1,0,0:0:0:0:
448,192,100280,1,2,0:0:0:0:
192,192,100373,1,0,0:0:0:0:
320,192,100373,128,0,100561:0:0:0:0:
64,192,100561,1,0,0:0:0:0:
192,192,100655,1,2,0:0:0:0:
448,192,100655,128,8,100842:0:0:0:0:
320,192,100842,1,0,0:0:0:0:
64,192,100936,1,0,0:0:0:0:
192,192,100936,128,0,101123:0:0:0:0:
448,192,101123,1,0,0:0:0:0:
64,192,101217,128,0,101405:0:0:0:0:
320,192,101217,1,0,0:0:0:0:
320,192,101405,1,2,0:0:0:0:
448,192,101405,128,8,101592:0:0:0:0:
64,192,101592,1,2,0:0:0:0:
192,192,101655,1,2,0:0:0:0:
320,192,101717,1,2,0:0:0:0:
64,192,101780,1,8,0:0:0:0:
448,192,101780,1,4,0:0:0:0:
64,192,102061,1,8,0:0:0:0:
448,192,102061,1,4,0:0:0:0:
192,192,102342,1,4,0:0:0:0:
320,192,102342,1,8,0:0:0:0:
448,192,102717,1,0,0:0:0:0:
320,192,102717,1,2,0:0:0:0:
192,192,102998,1,2,0:0:0:0:
64,192,102998,1,0,0:0:0:0:
320,192,103280,1,14,0:0:0:0:
192,192,103280,128,0,103467:0:0:0:0:
64,192,103467,1,0,0:0:0:0:
320,192,103655,1,2,0:0:0:0:
448,192,103655,128,8,103842:0:0:0:0:
64,192,103842,1,0,0:0:0:0:
192,192,104030,128,2,104217:0:0:0:0:
320,192,104030,1,0,0:0:0:0:
448,192,104217,1,0,0:0:0:0:
64,192,104405,128,2,104592:0:0:0:0:
192,192,104405,1,8,0:0:0:0:
320,192,104592,128,0,104780:0:0:0:0:
192,192,104780,128,2,104967:0:0:0:0:
448,192,104780,1,0,0:0:0:0:
64,192,104967,1,0,0:0:0:0:
320,192,105155,1,8,0:0:0:0:
448,192,105155,128,2,105342:0:0:0:0:
192,192,105342,1,0,0:0:0:0:
64,192,105530,128,2,105717:0:0:0:0:
448,192,105530,1,0,0:0:0:0:
320,192,105717,1,0,0:0:0:0:
192,192,105905,128,8,106092:0:0:0:0:
448,192,105905,1,2,0:0:0:0:
320,192,106092,128,0,106280:0:0:0:0:
64,192,106280,128,2,106467:0:0:0:0:
192,192,106280,1,0,0:0:0:0:
448,192,106467,1,0,0:0:0:0:
192,192,106655,1,8,0:0:0:0:
320,192,106655,128,2,106842:0:0:0:0:
64,192,106842,1,0,0:0:0:0:
320,192,107030,1,2,0:0:0:0:
448,192,107030,128,0,107217:0:0:0:0:
64,192,107217,1,0,0:0:0:0:
192,192,107405,128,8,107592:0:0:0:0:
320,192,107405,1,2,0:0:0:0:
64,192,107592,128,0,107780:0:0:0:0:
320,192,107780,128,2,107967:0:0:0:0:
448,192,107780,1,0,0:0:0:0:
64,192,107967,1,0,0:0:0:0:
192,192,108155,128,2,108342:0:0:0:0:
448,192,108155,1,8,0:0:0:0:
320,192,108342,1,0,0:0:0:0:
64,192,108530,1,2,0:0:0:0:
448,192,108530,128,0,108717:0:0:0:0:
192,192,108717,1,0,0:0:0:0:
64,192,108905,1,2,0:0:0:0:
320,192,108905,128,8,109092:0:0:0:0:
192,192,109092,128,0,109280:0:0:0:0:
64,192,109280,128,2,109467:0:0:0:0:
448,192,109280,1,4,0:0:0:0:
320,192,109467,1,0,0:0:0:0:
320,192,109655,128,2,109842:0:0:0:0:
448,192,109655,1,8,0:0:0:0:
64,192,109842,1,0,0:0:0:0:
192,192,110030,128,2,110217:0:0:0:0:
448,192,110030,1,0,0:0:0:0:
320,192,110217,1,0,0:0:0:0:
64,192,110405,1,2,0:0:0:0:
448,192,110405,128,8,110592:0:0:0:0:
192,192,110592,128,0,110780:0:0:0:0:
64,192,110780,128,2,110967:0:0:0:0:
320,192,110780,1,0,0:0:0:0:
448,192,110967,1,0,0:0:0:0:
320,192,111155,128,8,111342:0:0:0:0:
448,192,111155,1,2,0:0:0:0:
64,192,111342,1,0,0:0:0:0:
192,192,111530,128,2,111717:0:0:0:0:
448,192,111530,1,0,0:0:0:0:
320,192,111717,1,0,0:0:0:0:
64,192,111905,128,8,112092:0:0:0:0:
320,192,111905,1,2,0:0:0:0:
448,192,112092,128,0,112280:0:0:0:0:
192,192,112280,1,2,0:0:0:0:
320,192,112280,128,0,112467:0:0:0:0:
64,192,112467,1,0,0:0:0:0:
192,192,112655,128,8,112842:0:0:0:0:
448,192,112655,1,2,0:0:0:0:
320,192,112842,1,0,0:0:0:0:
320,192,113030,1,2,0:0:0:0:
448,192,113030,128,0,113217:0:0:0:0:
64,192,113217,1,0,0:0:0:0:
192,192,113405,1,8,0:0:0:0:
320,192,113405,128,2,113592:0:0:0:0:
64,192,113592,128,0,113780:0:0:0:0:
192,192,113780,128,2,113967:0:0:0:0:
320,192,113780,1,0,0:0:0:0:
448,192,113967,1,0,0:0:0:0:
64,192,114155,1,2,0:0:0:0:
320,192,114155,128,8,114342:0:0:0:0:
192,192,114342,1,0,0:0:0:0:
64,192,114530,128,2,114717:0:0:0:0:
320,192,114530,1,0,0:0:0:0:
448,192,114717,1,0,0:0:0:0:
320,192,114905,1,2,0:0:0:0:
448,192,114905,128,8,115092:0:0:0:0:
192,192,115092,128,0,115280:0:0:0:0:
320,192,115280,128,2,115467:0:0:0:0:
448,192,115280,1,4,0:0:0:0:
64,192,115467,1,0,0:0:0:0:
64,192,115655,128,8,115842:0:0:0:0:
448,192,115655,1,2,0:0:0:0:
320,192,115842,1,0,0:0:0:0:
192,192,116030,1,2,0:0:0:0:
320,192,116030,128,0,116217:0:0:0:0:
64,192,116217,1,0,0:0:0:0:
192,192,116405,128,8,116592:0:0:0:0:
448,192,116405,1,2,0:0:0:0:
448,192,116592,128,0,116780:0:0:0:0:
64,192,116780,128,2,116967:0:0:0:0:
192,192,116780,1,0,0:0:0:0:
320,192,116967,1,0,0:0:0:0:
192,192,117155,1,2,0:0:0:0:
320,192,117155,128,8,117342:0:0:0:0:
64,192,117342,1,0,0:0:0:0:
192,192,117530,1,2,0:0:0:0:
448,192,117530,128,0,117717:0:0:0:0:
320,192,117717,1,0,0:0:0:0:
64,192,117905,1,2,0:0:0:0:
192,192,117905,128,8,118092:0:0:0:0:
448,192,118092,128,0,118280:0:0:0:0:
64,192,118280,128,2,118467:0:0:0:0:
192,192,118280,1,4,0:0:0:0:
320,192,118467,1,0,0:0:0:0:
192,192,118655,1,8,0:0:0:0:
320,192,118655,128,2,118842:0:0:0:0:
64,192,118842,1,0,0:0:0:0:
320,192,119030,1,2,0:0:0:0:
448,192,119030,128,0,119217:0:0:0:0:
64,192,119217,1,0,0:0:0:0:
192,192,119405,128,8,119592:0:0:0:0:
320,192,119405,1,2,0:0:0:0:
64,192,119592,128,0,119780:0:0:0:0:
320,192,119780,1,2,0:0:0:0:
448,192,119780,128,4,119967:0:0:0:0:
192,192,119967,1,0,0:0:0:0:
320,192,120155,128,14,120342:0:0:0:0:
192,192,120155,1,0,0:0:0:0:
64,192,120342,1,0,0:0:0:0:
192,192,120530,128,2,120717:0:0:0:0:
448,192,120530,1,4,0:0:0:0:
320,192,120717,1,0,0:0:0:0:
64,192,120905,128,14,121092:0:0:0:0:
192,192,120905,1,0,0:0:0:0:
320,192,121092,128,0,121280:0:0:0:0:
192,192,121280,128,2,121467:0:0:0:0:
448,192,121280,1,4,0:0:0:0:
320,192,121467,1,0,0:0:0:0:
64,192,121655,1,8,0:0:0:0:
448,192,121655,128,2,121842:0:0:0:0:
192,192,121842,1,0,0:0:0:0:
64,192,122030,128,2,122217:0:0:0:0:
320,192,122030,1,0,0:0:0:0:
448,192,122217,1,0,0:0:0:0:
192,192,122405,1,8,0:0:0:0:
320,192,122405,128,2,122592:0:0:0:0:
448,192,122592,128,0,122780:0:0:0:0:
64,192,122780,1,2,0:0:0:0:
192,192,122780,128,0,122967:0:0:0:0:
320,192,122967,1,0,0:0:0:0:
64,192,123155,128,2,123342:0:0:0:0:
192,192,123155,1,8,0:0:0:0:
448,192,123342,1,0,0:0:0:0:
192,192,123530,1,2,0:0:0:0:
320,192,123530,128,0,123717:0:0:0:0:
64,192,123717,1,0,0:0:0:0:
192,192,123905,1,2,0:0:0:0:
448,192,123905,128,8,124092:0:0:0:0:
320,192,124092,128,0,124280:0:0:0:0:
64,192,124280,128,2,124467:0:0:0:0:
192,192,124280,1,0,0:0:0:0:
448,192,124467,1,0,0:0:0:0:
192,192,124655,1,8,0:0:0:0:
320,192,124655,128,2,124842:0:0:0:0:
64,192,124842,1,0,0:0:0:0:
192,192,125030,128,2,125217:0:0:0:0:
448,192,125030,1,0,0:0:0:0:
64,192,125217,1,0,0:0:0:0:
320,192,125405,1,8,0:0:0:0:
448,192,125405,128,2,125592:0:0:0:0:
192,192,125592,128,0,125780:0:0:0:0:
64,192,125780,1,8,0:0:0:0:
320,192,125780,1,4,0:0:0:0:
448,192,125780,1,0,0:0:0:0:
64,192,125967,1,0,0:0:0:0:
320,192,126155,1,0,0:0:0:0:
448,192,126155,1,0,0:0:0:0:
64,192,126342,1,0,0:0:0:0:
192,192,126436,1,0,0:0:0:0:
320,192,126530,1,0,0:0:0:0:
448,192,126530,1,0,0:0:0:0:
192,192,126717,1,0,0:0:0:0:
320,192,126811,1,0,0:0:0:0:
64,192,126905,1,0,0:0:0:0:
448,192,126905,1,0,0:0:0:0:
64,192,127092,1,0,0:0:0:0:
64,192,127280,1,8,0:0:0:0:
320,192,127280,1,4,0:0:0:0:
448,192,127280,1,0,0:0:0:0:
