osu file format v14

[General]
AudioFilename: audio.mp3
AudioLeadIn: 0
PreviewTime: 38780
Countdown: 0
SampleSet: Normal
StackLeniency: 0.7
Mode: 3
LetterboxInBreaks: 0
SpecialStyle: 0
WidescreenStoryboard: 0

[Editor]
Bookmarks: 125780
DistanceSpacing: 1.2
BeatDivisor: 4
GridSize: 16
TimelineZoom: 2.299999

[Metadata]
Title:HiT! HiT! HiT! (Cranky vs. HiTECH NINJA)
TitleUnicode:HiT! HiT! HiT! (Cranky vs. HiTECH NINJA)
Artist:HiTECH NINJA
ArtistUnicode:HiTECH NINJA
Creator:Sandalphon
Version:EXTRA!
Source:
Tags:NINJA IS ALIVE MEGAREX C92 lapix
BeatmapID:1682780
BeatmapSetID:801161

[Difficulty]
HPDrainRate:10
CircleSize:4
OverallDifficulty:9
ApproachRate:5
SliderMultiplier:1.4
SliderTickRate:1

[Events]
//Background and Video events
0,0,"BG.jpg",0,0
//Break Periods
//Storyboard Layer 0 (Background)
//Storyboard Layer 1 (Fail)
//Storyboard Layer 2 (Pass)
//Storyboard Layer 3 (Foreground)
//Storyboard Sound Samples

[TimingPoints]
1280,375,4,1,1,50,1,0
26780,-50,4,1,1,50,0,0
26873,-200,4,1,1,50,0,0
27061,-50,4,1,1,50,0,0
27155,-200,4,1,1,50,0,0
27342,-100,4,1,1,50,0,0
38780,-45.4545454545455,4,1,1,50,0,0
38873,-166.666666666667,4,1,1,50,0,0
39155,-45.4545454545455,4,1,1,50,0,0
39248,-250,4,1,1,50,0,0
39436,-45.4545454545455,4,1,1,50,0,0
39530,-250,4,1,1,50,0,0
39717,-45.4545454545455,4,1,1,50,0,0
39811,-250,4,1,1,50,0,0
39998,-45.4545454545455,4,1,1,50,0,0
40092,-250,4,1,1,50,0,0
40280,-100,4,1,1,60,0,1
50780,-100,4,1,1,50,0,0
77780,-50,4,1,1,50,0,0
77873,-200,4,1,1,50,0,0
78061,-50,4,1,1,50,0,0
78155,-200,4,1,1,50,0,0
78342,-100,4,1,1,50,0,0
78905,-45.4545454545455,4,1,1,50,0,0
78998,-166.666666666667,4,1,1,50,0,0
79280,-100,4,1,1,60,0,1
89780,-45.4545454545455,4,1,1,50,0,0
89873,-166.666666666667,4,1,1,50,0,0
90155,-45.4545454545455,4,1,1,50,0,0
90248,-250,4,1,1,50,0,0
90436,-45.4545454545455,4,1,1,50,0,0
90530,-250,4,1,1,50,0,0
90717,-45.4545454545455,4,1,1,50,0,0
90811,-250,4,1,1,50,0,0
90998,-45.4545454545455,4,1,1,50,0,0
91092,-250,4,1,1,50,0,0
91280,-100,4,1,1,60,0,1
101780,-50,4,1,1,50,0,0
101873,-200,4,1,1,50,0,0
102061,-50,4,1,1,50,0,0
102155,-200,4,1,1,50,0,0
102342,-100,4,1,1,50,0,0

[HitObjects]
64,192,1280,128,0,2780:0:0:0:0:
320,192,1280,1,0,0:0:0:0:
448,192,1280,1,0,0:0:0:0:
320,192,2780,128,0,3530:0:0:0:0:
192,192,3530,128,0,4280:0:0:0:0:
448,192,4280,128,0,6155:0:0:0:0:
448,192,6530,128,0,7280:0:0:0:0:
192,192,7280,128,0,8780:0:0:0:0:
320,192,8780,128,0,9530:0:0:0:0:
448,192,9530,128,0,10280:0:0:0:0:
64,192,10280,128,0,13092:0:0:0:0:
192,192,10280,128,0,11780:0:0:0:0:
448,192,11030,128,0,12530:0:0:0:0:
320,192,11780,128,0,12530:0:0:0:0:
192,192,12530,128,0,13092:0:0:0:0:
320,192,12905,1,0,0:0:0:0:
448,192,12905,128,0,13092:0:0:0:0:
64,192,13280,5,4,0:0:0:0:
320,192,13280,1,8,0:0:0:0:
448,192,13280,1,0,0:0:0:0:
320,192,13467,1,0,0:0:0:0:
448,192,13467,1,0,0:0:0:0:
64,192,13655,1,0,0:0:0:0:
448,192,13655,1,0,0:0:0:0:
64,192,13842,1,0,0:0:0:0:
192,192,13842,1,0,0:0:0:0:
320,192,14030,1,0,0:0:0:0:
448,192,14030,1,0,0:0:0:0:
192,192,14123,1,0,0:0:0:0:
64,192,14217,1,0,0:0:0:0:
448,192,14217,1,0,0:0:0:0:
320,192,14311,1,0,0:0:0:0:
64,192,14405,1,0,0:0:0:0:
192,192,14405,1,0,0:0:0:0:
64,192,14592,1,0,0:0:0:0:
448,192,14592,1,0,0:0:0:0:
192,192,14655,1,0,0:0:0:0:
320,192,14717,1,0,0:0:0:0:
64,192,14780,1,8,0:0:0:0:
448,192,14780,1,4,0:0:0:0:
64,192,14967,1,0,0:0:0:0:
192,192,14967,1,0,0:0:0:0:
320,192,15155,1,0,0:0:0:0:
448,192,15155,1,0,0:0:0:0:
192,192,15342,1,0,0:0:0:0:
320,192,15342,1,0,0:0:0:0:
64,192,15530,1,0,0:0:0:0:
192,192,15530,1,0,0:0:0:0:
320,192,15623,1,0,0:0:0:0:
64,192,15717,1,0,0:0:0:0:
448,192,15717,1,0,0:0:0:0:
192,192,15811,1,0,0:0:0:0:
320,192,15905,1,0,0:0:0:0:
448,192,15905,1,0,0:0:0:0:
64,192,16092,1,0,0:0:0:0:
448,192,16092,1,0,0:0:0:0:
320,192,16155,1,0,0:0:0:0:
192,192,16217,1,0,0:0:0:0:
64,192,16280,1,8,0:0:0:0:
448,192,16280,1,4,0:0:0:0:
64,192,16467,1,0,0:0:0:0:
192,192,16467,1,0,0:0:0:0:
192,192,16655,1,0,0:0:0:0:
320,192,16655,1,0,0:0:0:0:
320,192,16842,1,0,0:0:0:0:
448,192,16842,1,0,0:0:0:0:
64,192,17030,1,8,0:0:0:0:
448,192,17030,1,4,0:0:0:0:
320,192,17123,1,0,0:0:0:0:
64,192,17217,1,0,0:0:0:0:
192,192,17217,1,0,0:0:0:0:
448,192,17311,1,0,0:0:0:0:
64,192,17405,1,0,0:0:0:0:
192,192,17405,1,0,0:0:0:0:
64,192,17592,1,0,0:0:0:0:
448,192,17592,1,0,0:0:0:0:
192,192,17655,1,0,0:0:0:0:
320,192,17717,1,0,0:0:0:0:
64,192,17780,1,8,0:0:0:0:
448,192,17780,1,4,0:0:0:0:
320,192,17967,1,0,0:0:0:0:
448,192,17967,1,0,0:0:0:0:
192,192,18155,1,0,0:0:0:0:
320,192,18155,1,0,0:0:0:0:
64,192,18342,1,0,0:0:0:0:
192,192,18342,1,0,0:0:0:0:
64,192,18530,1,8,0:0:0:0:
448,192,18530,1,4,0:0:0:0:
192,192,18623,1,0,0:0:0:0:
320,192,18717,1,0,0:0:0:0:
448,192,18717,1,0,0:0:0:0:
64,192,18811,1,0,0:0:0:0:
320,192,18905,1,0,0:0:0:0:
448,192,18905,1,0,0:0:0:0:
64,192,19092,1,0,0:0:0:0:
448,192,19092,1,0,0:0:0:0:
320,192,19155,1,0,0:0:0:0:
192,192,19217,1,0,0:0:0:0:
64,192,19280,1,8,0:0:0:0:
448,192,19280,1,4,0:0:0:0:
64,192,19467,1,2,0:0:0:0:
192,192,19467,1,0,0:0:0:0:
192,192,19655,1,8,0:0:0:0:
448,192,19655,1,2,0:0:0:0:
64,192,19842,1,2,0:0:0:0:
320,192,19842,1,0,0:0:0:0:
320,192,20030,1,8,0:0:0:0:
448,192,20030,1,2,0:0:0:0:
64,192,20123,1,0,0:0:0:0:
192,192,20217,1,2,0:0:0:0:
320,192,20217,1,0,0:0:0:0:
448,192,20311,1,0,0:0:0:0:
64,192,20405,1,2,0:0:0:0:
192,192,20405,1,8,0:0:0:0:
64,192,20592,1,2,0:0:0:0:
448,192,20592,1,0,0:0:0:0:
192,192,20655,1,0,0:0:0:0:
320,192,20717,1,0,0:0:0:0:
64,192,20780,1,14,0:0:0:0:
448,192,20780,1,0,0:0:0:0:
64,192,20967,1,2,0:0:0:0:
192,192,20967,1,0,0:0:0:0:
320,192,21155,1,2,0:0:0:0:
448,192,21155,1,8,0:0:0:0:
192,192,21342,1,2,0:0:0:0:
320,192,21342,1,0,0:0:0:0:
64,192,21530,1,8,0:0:0:0:
192,192,21530,1,2,0:0:0:0:
448,192,21623,1,0,0:0:0:0:
192,192,21717,1,2,0:0:0:0:
320,192,21717,1,0,0:0:0:0:
64,192,21811,1,0,0:0:0:0:
320,192,21905,1,2,0:0:0:0:
448,192,21905,1,8,0:0:0:0:
64,192,22092,1,2,0:0:0:0:
448,192,22092,1,0,0:0:0:0:
64,192,22280,1,8,0:0:0:0:
192,192,22280,1,2,0:0:0:0:
448,192,22280,1,4,0:0:0:0:
320,192,22373,1,0,0:0:0:0:
64,192,22467,1,2,0:0:0:0:
192,192,22467,1,0,0:0:0:0:
448,192,22561,1,0,0:0:0:0:
192,192,22655,1,8,0:0:0:0:
320,192,22655,1,2,0:0:0:0:
64,192,22748,1,0,0:0:0:0:
320,192,22842,1,2,0:0:0:0:
448,192,22842,1,0,0:0:0:0:
192,192,22936,1,0,0:0:0:0:
64,192,23030,1,8,0:0:0:0:
448,192,23030,1,2,0:0:0:0:
320,192,23123,1,0,0:0:0:0:
192,192,23217,1,2,0:0:0:0:
448,192,23217,1,0,0:0:0:0:
64,192,23311,1,0,0:0:0:0:
192,192,23405,1,2,0:0:0:0:
320,192,23405,1,8,0:0:0:0:
448,192,23498,1,0,0:0:0:0:
64,192,23592,1,2,0:0:0:0:
192,192,23592,1,0,0:0:0:0:
320,192,23686,1,0,0:0:0:0:
64,192,23780,1,8,0:0:0:0:
192,192,23780,1,2,0:0:0:0:
448,192,23780,1,4,0:0:0:0:
320,192,23873,1,0,0:0:0:0:
64,192,23967,1,2,0:0:0:0:
448,192,23967,1,0,0:0:0:0:
192,192,24061,1,0,0:0:0:0:
320,192,24155,1,8,0:0:0:0:
448,192,24155,1,2,0:0:0:0:
64,192,24248,1,0,0:0:0:0:
192,192,24342,1,2,0:0:0:0:
448,192,24342,1,0,0:0:0:0:
320,192,24436,1,0,0:0:0:0:
64,192,24530,1,2,0:0:0:0:
192,192,24530,1,8,0:0:0:0:
448,192,24623,1,0,0:0:0:0:
64,192,24717,1,0,0:0:0:0:
192,192,24717,1,0,0:0:0:0:
64,192,24811,1,0,0:0:0:0:
192,192,24811,1,0,0:0:0:0:
320,192,24905,1,0,0:0:0:0:
448,192,24905,1,0,0:0:0:0:
320,192,24998,1,0,0:0:0:0:
448,192,24998,1,0,0:0:0:0:
64,192,25092,1,0,0:0:0:0:
192,192,25092,1,0,0:0:0:0:
64,192,25186,1,0,0:0:0:0:
192,192,25186,1,0,0:0:0:0:
320,192,25280,1,0,0:0:0:0:
448,192,25280,1,0,0:0:0:0:
320,192,25373,1,0,0:0:0:0:
448,192,25373,1,0,0:0:0:0:
64,192,25467,1,0,0:0:0:0:
192,192,25561,1,0,0:0:0:0:
320,192,25561,1,0,0:0:0:0:
192,192,25655,1,0,0:0:0:0:
320,192,25655,1,0,0:0:0:0:
448,192,25748,1,0,0:0:0:0:
64,192,25842,1,0,0:0:0:0:
192,192,25842,1,0,0:0:0:0:
64,192,25936,1,0,0:0:0:0:
192,192,25936,1,0,0:0:0:0:
320,192,26030,1,0,0:0:0:0:
64,192,26123,1,0,0:0:0:0:
448,192,26123,1,0,0:0:0:0:
64,192,26217,1,0,0:0:0:0:
448,192,26217,1,0,0:0:0:0:
192,192,26311,1,0,0:0:0:0:
320,192,26405,1,0,0:0:0:0:
448,192,26405,1,0,0:0:0:0:
192,192,26498,1,0,0:0:0:0:
64,192,26592,1,0,0:0:0:0:
448,192,26592,1,0,0:0:0:0:
320,192,26686,1,0,0:0:0:0:
64,192,26780,1,4,0:0:0:0:
192,192,26780,1,8,0:0:0:0:
448,192,26780,1,0,0:0:0:0:
64,192,27061,1,4,0:0:0:0:
192,192,27061,1,8,0:0:0:0:
448,192,27061,1,0,0:0:0:0:
64,192,27342,1,4,0:0:0:0:
320,192,27342,1,8,0:0:0:0:
448,192,27342,1,0,0:0:0:0:
192,192,27530,1,0,0:0:0:0:
192,192,27623,1,0,0:0:0:0:
448,192,27717,1,0,0:0:0:0:
448,192,27811,1,0,0:0:0:0:
64,192,27905,1,0,0:0:0:70:bang.wav
192,192,27905,1,0,0:0:0:0:
448,192,27998,1,0,0:0:0:0:
192,192,28092,1,0,0:0:0:0:
320,192,28092,1,0,0:0:0:0:
64,192,28186,1,0,0:0:0:0:
192,192,28280,1,4,0:0:0:0:
320,192,28280,1,8,0:0:0:0:
448,192,28280,1,2,0:0:0:0:
448,192,28467,1,0,0:0:0:0:
64,192,28561,1,0,0:0:0:0:
192,192,28561,1,0,0:0:0:0:
64,192,28655,1,2,0:0:0:0:
320,192,28655,1,8,0:0:0:0:
448,192,28655,1,0,0:0:0:0:
64,192,28842,1,0,0:0:0:0:
192,192,28842,1,0,0:0:0:0:
448,192,28936,1,0,0:0:0:0:
64,192,29030,1,2,0:0:0:0:
192,192,29030,1,0,0:0:0:0:
320,192,29030,1,0,0:0:0:0:
320,192,29123,1,0,0:0:0:0:
448,192,29123,1,0,0:0:0:0:
64,192,29217,1,0,0:0:0:0:
192,192,29311,1,0,0:0:0:0:
64,192,29405,1,2,0:0:0:0:
320,192,29405,128,8,29592:0:0:0:0:
448,192,29405,128,0,29592:0:0:0:0:
64,192,29592,128,0,29780:0:0:0:0:
192,192,29592,128,0,29780:0:0:0:0:
448,192,29780,1,2,0:0:0:0:
320,192,29780,1,0,0:0:0:0:
192,192,29967,1,0,0:0:0:0:
320,192,30061,1,0,0:0:0:0:
448,192,30061,1,0,0:0:0:0:
64,192,30155,1,2,0:0:0:0:
192,192,30155,1,8,0:0:0:0:
320,192,30155,1,0,0:0:0:0:
64,192,30342,1,0,0:0:0:0:
448,192,30342,1,0,0:0:0:0:
192,192,30436,1,0,0:0:0:0:
64,192,30530,1,2,0:0:0:0:
320,192,30530,1,0,0:0:0:0:
448,192,30530,1,0,0:0:0:0:
64,192,30623,1,0,0:0:0:0:
192,192,30623,1,0,0:0:0:0:
448,192,30717,1,0,0:0:0:0:
320,192,30811,1,0,0:0:0:0:
64,192,30905,128,2,31092:0:0:0:0:
192,192,30905,128,8,31092:0:0:0:0:
448,192,30905,1,0,0:0:0:0:
320,192,31092,128,0,31280:0:0:0:0:
448,192,31092,128,0,31280:0:0:0:0:
64,192,31280,1,2,0:0:0:0:
192,192,31280,1,0,0:0:0:0:
64,192,31467,1,0,0:0:0:0:
320,192,31561,1,0,0:0:0:0:
448,192,31561,1,0,0:0:0:0:
64,192,31655,1,2,0:0:0:0:
192,192,31655,1,8,0:0:0:0:
320,192,31655,1,0,0:0:0:0:
192,192,31842,1,0,0:0:0:0:
320,192,31842,1,0,0:0:0:0:
64,192,31936,1,0,0:0:0:0:
192,192,32030,1,2,0:0:0:0:
320,192,32030,1,0,0:0:0:0:
448,192,32030,1,0,0:0:0:0:
64,192,32123,1,0,0:0:0:0:
448,192,32123,1,0,0:0:0:0:
320,192,32217,1,0,0:0:0:0:
192,192,32311,1,0,0:0:0:0:
64,192,32405,128,2,32592:0:0:0:0:
320,192,32405,1,8,0:0:0:0:
448,192,32405,128,0,32592:0:0:0:0:
192,192,32592,128,0,32780:0:0:0:0:
320,192,32592,128,0,32780:0:0:0:0:
64,192,32780,1,2,0:0:0:0:
448,192,32780,1,4,0:0:0:0:
64,192,32967,1,0,0:0:0:0:
192,192,33061,1,0,0:0:0:0:
320,192,33061,1,0,0:0:0:0:
64,192,33155,1,2,0:0:0:0:
192,192,33155,1,8,0:0:0:0:
448,192,33155,1,0,0:0:0:0:
448,192,33342,1,0,0:0:0:0:
320,192,33342,1,0,0:0:0:0:
192,192,33436,1,0,0:0:0:0:
448,192,33530,1,2,0:0:0:0:
320,192,33530,1,4,0:0:0:0:
64,192,33530,1,0,0:0:0:0:
192,192,33623,1,0,0:0:0:0:
64,192,33623,1,0,0:0:0:0:
320,192,33717,1,0,0:0:0:0:
448,192,33811,1,0,0:0:0:0:
192,192,33905,128,2,34092:0:0:0:0:
320,192,33905,128,8,34092:0:0:0:0:
64,192,33905,1,0,0:0:0:0:
64,192,34092,128,0,34280:0:0:0:0:
448,192,34092,128,0,34280:0:0:0:0:
192,192,34280,1,6,0:0:0:0:
320,192,34280,1,0,0:0:0:70:bang.wav
64,192,34467,1,0,0:0:0:0:
192,192,34561,1,0,0:0:0:0:
320,192,34561,1,0,0:0:0:0:
64,192,34655,1,2,0:0:0:0:
320,192,34655,1,8,0:0:0:0:
448,192,34655,1,0,0:0:0:0:
64,192,34842,1,0,0:0:0:0:
448,192,34842,1,0,0:0:0:0:
320,192,34936,1,0,0:0:0:0:
64,192,35030,1,2,0:0:0:0:
192,192,35030,1,0,0:0:0:0:
448,192,35030,1,0,0:0:0:0:
320,192,35123,1,0,0:0:0:0:
448,192,35123,1,0,0:0:0:0:
192,192,35217,1,0,0:0:0:0:
64,192,35311,1,0,0:0:0:0:
192,192,35405,128,8,35592:0:0:0:0:
320,192,35405,1,2,0:0:0:0:
448,192,35405,128,0,35592:0:0:0:0:
64,192,35592,128,0,35780:0:0:0:0:
320,192,35592,128,0,35780:0:0:0:0:
192,192,35780,1,2,0:0:0:0:
448,192,35780,1,0,0:0:0:0:
448,192,35967,1,0,0:0:0:0:
64,192,36061,1,0,0:0:0:0:
192,192,36061,1,0,0:0:0:0:
192,192,36155,1,2,0:0:0:0:
320,192,36155,1,8,0:0:0:0:
448,192,36155,1,0,0:0:0:0:
64,192,36342,1,0,0:0:0:0:
448,192,36342,1,0,0:0:0:0:
192,192,36436,1,0,0:0:0:0:
64,192,36530,1,2,0:0:0:0:
320,192,36530,1,0,0:0:0:0:
448,192,36530,1,0,0:0:0:0:
64,192,36623,1,0,0:0:0:0:
192,192,36623,1,0,0:0:0:0:
320,192,36717,1,0,0:0:0:0:
448,192,36811,1,0,0:0:0:0:
64,192,36905,128,2,37092:0:0:0:0:
192,192,36905,1,8,0:0:0:0:
320,192,36905,128,0,37092:0:0:0:0:
192,192,37092,128,0,37280:0:0:0:0:
448,192,37092,128,0,37280:0:0:0:0:
64,192,37280,1,2,0:0:0:0:
320,192,37280,1,0,0:0:0:0:
192,192,37373,1,0,0:0:0:0:
320,192,37467,1,0,0:0:0:0:
448,192,37467,1,0,0:0:0:0:
64,192,37561,1,0,0:0:0:0:
192,192,37561,1,0,0:0:0:0:
320,192,37655,1,2,0:0:0:0:
448,192,37655,1,8,0:0:0:0:
64,192,37748,1,0,0:0:0:0:
192,192,37842,1,0,0:0:0:0:
320,192,37842,1,0,0:0:0:0:
448,192,37936,1,0,0:0:0:0:
64,192,38030,1,2,0:0:0:0:
192,192,38030,1,0,0:0:0:0:
320,192,38123,1,0,0:0:0:0:
448,192,38123,1,0,0:0:0:0:
64,192,38217,1,0,0:0:0:0:
192,192,38217,1,0,0:0:0:0:
448,192,38311,1,0,0:0:0:0:
192,192,38405,1,2,0:0:0:0:
320,192,38405,1,8,0:0:0:0:
64,192,38498,1,0,0:0:0:0:
320,192,38592,1,0,0:0:0:0:
448,192,38592,1,0,0:0:0:0:
192,192,38686,1,0,0:0:0:0:
64,192,38780,128,2,39436:0:0:0:0:
320,192,38780,1,4,0:0:0:0:
448,192,38780,128,0,39155:0:0:0:0:
192,192,39155,128,0,39436:0:0:0:0:
320,192,39155,128,0,39717:0:0:0:0:
448,192,39436,128,0,39717:0:0:0:0:
64,192,39717,1,2,0:0:0:0:
192,192,39717,1,0,0:0:0:0:
192,192,39998,1,2,0:0:0:0:
320,192,39998,1,0,0:0:0:0:
64,192,40280,1,6,0:0:0:0:
320,192,40280,1,8,0:0:0:0:
448,192,40280,1,0,0:0:0:70:bang.wav
64,192,40373,1,0,0:0:0:0:
192,192,40373,1,0,0:0:0:0:
448,192,40467,1,0,0:0:0:0:
192,192,40561,1,0,0:0:0:0:
320,192,40561,1,0,0:0:0:0:
64,192,40655,1,2,0:0:0:0:
192,192,40655,1,8,0:0:0:0:
448,192,40655,1,0,0:0:0:0:
320,192,40748,1,0,0:0:0:0:
64,192,40842,1,0,0:0:0:0:
192,192,40842,1,0,0:0:0:0:
320,192,40936,1,0,0:0:0:0:
448,192,40936,1,0,0:0:0:0:
64,192,41030,1,2,0:0:0:0:
192,192,41030,1,0,0:0:0:0:
320,192,41123,1,0,0:0:0:0:
448,192,41123,1,0,0:0:0:0:
64,192,41217,1,0,0:0:0:0:
192,192,41217,1,0,0:0:0:0:
320,192,41311,1,0,0:0:0:0:
64,192,41405,1,8,0:0:0:0:
192,192,41405,1,2,0:0:0:0:
448,192,41405,1,0,0:0:0:0:
320,192,41498,1,0,0:0:0:0:
64,192,41592,1,0,0:0:0:0:
448,192,41592,1,0,0:0:0:0:
192,192,41686,1,0,0:0:0:0:
64,192,41780,1,2,0:0:0:0:
320,192,41780,1,0,0:0:0:0:
448,192,41780,1,0,0:0:0:0:
192,192,41873,1,0,0:0:0:0:
320,192,41873,1,0,0:0:0:0:
64,192,41967,1,0,0:0:0:0:
320,192,42061,1,0,0:0:0:0:
448,192,42061,1,0,0:0:0:0:
64,192,42155,1,2,0:0:0:0:
192,192,42155,1,8,0:0:0:0:
448,192,42155,1,0,0:0:0:0:
320,192,42248,1,0,0:0:0:0:
64,192,42342,1,0,0:0:0:0:
192,192,42342,1,0,0:0:0:0:
320,192,42436,1,0,0:0:0:0:
448,192,42436,1,0,0:0:0:0:
64,192,42530,1,2,0:0:0:0:
192,192,42530,1,0,0:0:0:0:
320,192,42623,1,0,0:0:0:0:
448,192,42623,1,0,0:0:0:0:
64,192,42717,1,0,0:0:0:0:
192,192,42717,1,0,0:0:0:0:
448,192,42811,1,0,0:0:0:0:
192,192,42905,1,8,0:0:0:0:
320,192,42905,1,2,0:0:0:0:
64,192,42998,1,0,0:0:0:0:
448,192,42998,1,0,0:0:0:0:
192,192,43092,1,0,0:0:0:0:
320,192,43092,1,0,0:0:0:0:
64,192,43186,1,0,0:0:0:0:
448,192,43186,1,0,0:0:0:0:
192,192,43280,1,2,0:0:0:0:
320,192,43280,1,0,0:0:0:0:
192,192,43373,1,0,0:0:0:0:
320,192,43373,1,0,0:0:0:0:
64,192,43467,1,0,0:0:0:0:
320,192,43561,1,0,0:0:0:0:
448,192,43561,1,0,0:0:0:0:
64,192,43655,1,8,0:0:0:0:
192,192,43655,1,2,0:0:0:0:
448,192,43655,1,0,0:0:0:0:
320,192,43748,1,0,0:0:0:0:
64,192,43842,1,0,0:0:0:0:
192,192,43842,1,0,0:0:0:0:
320,192,43936,1,0,0:0:0:0:
448,192,43936,1,0,0:0:0:0:
64,192,44030,1,2,0:0:0:0:
192,192,44030,1,0,0:0:0:0:
320,192,44123,1,0,0:0:0:0:
448,192,44123,1,0,0:0:0:0:
64,192,44217,1,0,0:0:0:0:
192,192,44217,1,0,0:0:0:0:
448,192,44311,1,0,0:0:0:0:
64,192,44405,1,8,0:0:0:0:
192,192,44405,1,2,0:0:0:0:
320,192,44405,1,0,0:0:0:0:
448,192,44498,1,0,0:0:0:0:
64,192,44592,1,0,0:0:0:0:
192,192,44592,1,0,0:0:0:0:
64,192,44686,1,0,0:0:0:0:
192,192,44686,1,0,0:0:0:0:
64,192,44780,1,2,0:0:0:0:
320,192,44780,1,0,0:0:0:0:
448,192,44780,1,0,0:0:0:0:
192,192,44873,1,0,0:0:0:0:
320,192,44967,1,0,0:0:0:0:
448,192,44967,1,0,0:0:0:0:
64,192,45061,1,0,0:0:0:0:
192,192,45061,1,0,0:0:0:0:
320,192,45155,1,8,0:0:0:0:
448,192,45155,1,2,0:0:0:0:
64,192,45248,1,0,0:0:0:0:
192,192,45248,1,0,0:0:0:0:
320,192,45342,1,0,0:0:0:0:
448,192,45342,1,0,0:0:0:0:
64,192,45436,1,0,0:0:0:0:
192,192,45530,1,2,0:0:0:0:
320,192,45530,1,0,0:0:0:0:
64,192,45623,1,0,0:0:0:0:
448,192,45623,1,0,0:0:0:0:
192,192,45717,1,0,0:0:0:0:
320,192,45717,1,0,0:0:0:0:
64,192,45811,1,0,0:0:0:0:
448,192,45811,1,0,0:0:0:0:
320,192,45905,1,8,0:0:0:0:
448,192,45905,1,2,0:0:0:0:
64,192,45998,1,0,0:0:0:0:
192,192,45998,1,0,0:0:0:0:
320,192,46092,1,0,0:0:0:0:
448,192,46092,1,0,0:0:0:0:
64,192,46186,1,0,0:0:0:0:
192,192,46186,1,0,0:0:0:0:
64,192,46280,1,6,0:0:0:0:
320,192,46280,1,0,0:0:0:0:
448,192,46280,1,0,0:0:0:70:bang.wav
192,192,46373,1,0,0:0:0:0:
320,192,46373,1,0,0:0:0:0:
448,192,46467,1,0,0:0:0:0:
64,192,46561,1,0,0:0:0:0:
192,192,46561,1,0,0:0:0:0:
64,192,46655,1,2,0:0:0:0:
320,192,46655,1,8,0:0:0:0:
448,192,46655,1,0,0:0:0:0:
192,192,46748,1,0,0:0:0:0:
320,192,46842,1,0,0:0:0:0:
448,192,46842,1,0,0:0:0:0:
64,192,46936,1,0,0:0:0:0:
192,192,46936,1,0,0:0:0:0:
320,192,47030,1,2,0:0:0:0:
448,192,47030,1,0,0:0:0:0:
64,192,47123,1,0,0:0:0:0:
192,192,47123,1,0,0:0:0:0:
320,192,47217,1,0,0:0:0:0:
448,192,47217,1,0,0:0:0:0:
64,192,47311,1,0,0:0:0:0:
192,192,47405,1,2,0:0:0:0:
320,192,47405,1,8,0:0:0:0:
448,192,47405,1,0,0:0:0:0:
64,192,47498,1,0,0:0:0:0:
192,192,47592,1,0,0:0:0:0:
320,192,47592,1,0,0:0:0:0:
448,192,47686,1,0,0:0:0:0:
64,192,47780,1,2,0:0:0:0:
192,192,47780,1,0,0:0:0:0:
320,192,47780,1,0,0:0:0:0:
64,192,47873,1,0,0:0:0:0:
448,192,47873,1,0,0:0:0:0:
192,192,47967,1,0,0:0:0:0:
320,192,48061,1,0,0:0:0:0:
448,192,48061,1,0,0:0:0:0:
64,192,48155,1,2,0:0:0:0:
192,192,48155,1,8,0:0:0:0:
320,192,48155,1,0,0:0:0:0:
448,192,48248,1,0,0:0:0:0:
64,192,48342,1,0,0:0:0:0:
192,192,48342,1,0,0:0:0:0:
320,192,48436,1,0,0:0:0:0:
448,192,48436,1,0,0:0:0:0:
64,192,48530,1,2,0:0:0:0:
192,192,48530,1,0,0:0:0:0:
320,192,48623,1,0,0:0:0:0:
448,192,48623,1,0,0:0:0:0:
64,192,48717,1,0,0:0:0:0:
192,192,48717,1,0,0:0:0:0:
448,192,48811,1,0,0:0:0:0:
192,192,48905,1,2,0:0:0:0:
320,192,48905,1,8,0:0:0:0:
64,192,48998,1,0,0:0:0:0:
448,192,48998,1,0,0:0:0:0:
192,192,49092,1,0,0:0:0:0:
320,192,49092,1,0,0:0:0:0:
64,192,49186,1,0,0:0:0:0:
448,192,49186,1,0,0:0:0:0:
192,192,49280,1,2,0:0:0:0:
320,192,49280,1,0,0:0:0:0:
192,192,49373,1,0,0:0:0:0:
320,192,49373,1,0,0:0:0:0:
64,192,49467,1,0,0:0:0:0:
320,192,49561,1,0,0:0:0:0:
448,192,49561,1,0,0:0:0:0:
64,192,49655,1,2,0:0:0:0:
192,192,49655,1,8,0:0:0:0:
448,192,49655,1,0,0:0:0:0:
320,192,49748,1,0,0:0:0:0:
64,192,49842,1,0,0:0:0:0:
192,192,49842,1,0,0:0:0:0:
320,192,49936,1,0,0:0:0:0:
448,192,49936,1,0,0:0:0:0:
64,192,50030,1,2,0:0:0:0:
192,192,50030,1,0,0:0:0:0:
320,192,50123,1,0,0:0:0:0:
448,192,50123,1,0,0:0:0:0:
64,192,50217,1,0,0:0:0:0:
192,192,50217,1,0,0:0:0:0:
448,192,50311,1,0,0:0:0:0:
64,192,50405,1,2,0:0:0:0:
192,192,50405,1,8,0:0:0:0:
320,192,50405,1,0,0:0:0:0:
448,192,50498,1,0,0:0:0:0:
64,192,50592,1,0,0:0:0:0:
192,192,50592,1,2,0:0:0:0:
320,192,50655,1,2,0:0:0:0:
448,192,50655,1,0,0:0:0:0:
64,192,50717,1,0,0:0:0:0:
192,192,50717,1,2,0:0:0:0:
64,192,50780,1,8,0:0:0:0:
320,192,50780,1,4,0:0:0:0:
448,192,50780,1,0,0:0:0:0:
64,192,51061,1,8,0:0:0:0:
320,192,51061,1,4,0:0:0:0:
448,192,51061,1,0,0:0:0:0:
64,192,51342,1,8,0:0:0:0:
192,192,51342,1,4,0:0:0:0:
448,192,51342,1,0,0:0:0:0:
64,192,51530,1,0,0:0:0:0:
320,192,51623,1,0,0:0:0:0:
192,192,51717,1,0,0:0:0:0:
448,192,51811,1,0,0:0:0:0:
320,192,51905,1,2,0:0:0:0:
64,192,51998,1,0,0:0:0:0:
192,192,52092,1,0,0:0:0:0:
320,192,52186,1,0,0:0:0:0:
64,192,52280,1,2,0:0:0:0:
192,192,52280,1,4,0:0:0:0:
448,192,52280,1,0,0:0:0:0:
320,192,52467,1,0,0:0:0:0:
448,192,52467,1,0,0:0:0:0:
64,192,52561,1,0,0:0:0:0:
192,192,52655,1,8,0:0:0:0:
320,192,52655,1,2,0:0:0:0:
320,192,52842,1,0,0:0:0:0:
448,192,52842,1,0,0:0:0:0:
64,192,52936,1,0,0:0:0:0:
192,192,53030,1,2,0:0:0:0:
320,192,53030,1,0,0:0:0:0:
320,192,53217,1,0,0:0:0:0:
448,192,53217,1,0,0:0:0:0:
64,192,53311,1,0,0:0:0:0:
192,192,53405,1,8,0:0:0:0:
320,192,53405,1,2,0:0:0:0:
320,192,53592,1,0,0:0:0:0:
448,192,53592,1,0,0:0:0:0:
64,192,53686,1,0,0:0:0:0:
192,192,53780,1,2,0:0:0:0:
320,192,53780,1,0,0:0:0:0:
64,192,53967,1,0,0:0:0:0:
448,192,53967,1,0,0:0:0:0:
192,192,54061,1,0,0:0:0:0:
320,192,54155,1,8,0:0:0:0:
448,192,54155,1,2,0:0:0:0:
64,192,54342,1,0,0:0:0:0:
448,192,54342,1,0,0:0:0:0:
192,192,54436,1,0,0:0:0:0:
320,192,54530,1,2,0:0:0:0:
448,192,54530,1,0,0:0:0:0:
64,192,54717,1,0,0:0:0:0:
448,192,54717,1,0,0:0:0:0:
192,192,54811,1,0,0:0:0:0:
320,192,54905,1,8,0:0:0:0:
448,192,54905,1,2,0:0:0:0:
64,192,55092,1,0,0:0:0:0:
448,192,55092,1,0,0:0:0:0:
192,192,55186,1,0,0:0:0:0:
320,192,55280,128,2,55467:0:0:0:0:
448,192,55280,128,0,55561:0:0:0:0:
192,192,55467,128,0,55655:0:0:0:0:
64,192,55467,1,0,0:0:0:0:
320,192,55561,128,0,55748:0:0:0:0:
64,192,55655,128,10,55842:0:0:0:0:
448,192,55655,1,0,0:0:0:0:
192,192,55748,128,0,55842:0:0:0:0:
320,192,55842,128,0,56123:0:0:0:0:
448,192,55842,128,0,56030:0:0:0:0:
64,192,56030,128,2,56217:0:0:0:0:
192,192,56030,1,0,0:0:0:0:
448,192,56123,128,0,56311:0:0:0:0:
192,192,56217,128,0,56405:0:0:0:0:
320,192,56217,1,0,0:0:0:0:
64,192,56311,128,0,56405:0:0:0:0:
320,192,56405,128,2,56780:0:0:0:0:
448,192,56405,128,8,56780:0:0:0:0:
64,192,56592,1,0,0:0:0:0:
192,192,56592,1,0,0:0:0:0:
64,192,56780,1,2,0:0:0:0:
192,192,56780,1,0,0:0:0:0:
64,192,56967,128,0,57155:0:0:0:0:
448,192,56967,1,0,0:0:0:0:
192,192,57061,128,0,57248:0:0:0:0:
320,192,57155,128,10,57342:0:0:0:0:
448,192,57155,1,0,0:0:0:0:
64,192,57248,128,0,57436:0:0:0:0:
448,192,57342,128,0,57530:0:0:0:0:
192,192,57342,1,0,0:0:0:0:
320,192,57436,128,0,57623:0:0:0:0:
192,192,57530,128,2,57717:0:0:0:0:
64,192,57530,1,0,0:0:0:0:
448,192,57623,128,0,57811:0:0:0:0:
64,192,57717,128,0,57998:0:0:0:0:
320,192,57717,1,0,0:0:0:0:
192,192,57811,128,0,57998:0:0:0:0:
320,192,57905,128,8,58092:0:0:0:0:
448,192,57905,128,2,58092:0:0:0:0:
64,192,58092,1,0,0:0:0:0:
192,192,58092,1,0,0:0:0:0:
64,192,58280,1,4,0:0:0:0:
192,192,58280,1,2,0:0:0:0:
320,192,58280,1,0,0:0:0:0:
448,192,58280,1,0,0:0:0:0:
64,192,58467,1,0,0:0:0:0:
192,192,58467,1,0,0:0:0:0:
448,192,58561,1,0,0:0:0:0:
192,192,58655,1,2,0:0:0:0:
320,192,58655,1,8,0:0:0:0:
64,192,58842,1,0,0:0:0:0:
192,192,58842,1,0,0:0:0:0:
448,192,58936,1,0,0:0:0:0:
192,192,59030,1,2,0:0:0:0:
320,192,59030,1,0,0:0:0:0:
64,192,59217,1,0,0:0:0:0:
192,192,59217,1,0,0:0:0:0:
448,192,59311,1,0,0:0:0:0:
192,192,59405,1,2,0:0:0:0:
320,192,59405,1,8,0:0:0:0:
64,192,59592,1,0,0:0:0:0:
192,192,59592,1,0,0:0:0:0:
448,192,59686,1,0,0:0:0:0:
192,192,59780,1,2,0:0:0:0:
320,192,59780,1,0,0:0:0:0:
64,192,59967,1,0,0:0:0:0:
448,192,59967,1,0,0:0:0:0:
320,192,60061,1,0,0:0:0:0:
64,192,60155,1,2,0:0:0:0:
192,192,60155,1,8,0:0:0:0:
64,192,60342,1,0,0:0:0:0:
448,192,60342,1,0,0:0:0:0:
320,192,60436,1,0,0:0:0:0:
64,192,60530,1,2,0:0:0:0:
192,192,60530,1,0,0:0:0:0:
64,192,60717,1,0,0:0:0:0:
448,192,60717,1,0,0:0:0:0:
320,192,60811,1,0,0:0:0:0:
64,192,60905,1,8,0:0:0:0:
192,192,60905,1,2,0:0:0:0:
64,192,61092,1,0,0:0:0:0:
448,192,61092,1,0,0:0:0:0:
320,192,61186,1,0,0:0:0:0:
64,192,61280,1,2,0:0:0:0:
192,192,61280,1,0,0:0:0:0:
320,192,61467,1,0,0:0:0:0:
448,192,61467,1,0,0:0:0:0:
64,192,61561,1,0,0:0:0:0:
320,192,61655,1,2,0:0:0:0:
192,192,61655,1,8,0:0:0:0:
448,192,61748,1,0,0:0:0:0:
192,192,61842,1,0,0:0:0:0:
320,192,61842,1,0,0:0:0:0:
64,192,61936,1,0,0:0:0:0:
320,192,62030,1,2,0:0:0:0:
448,192,62030,1,0,0:0:0:0:
64,192,62123,1,0,0:0:0:0:
192,192,62217,1,0,0:0:0:0:
448,192,62217,1,0,0:0:0:0:
320,192,62311,1,0,0:0:0:0:
64,192,62405,1,8,0:0:0:0:
192,192,62405,1,2,0:0:0:0:
448,192,62498,1,0,0:0:0:0:
64,192,62592,1,0,0:0:0:0:
192,192,62592,1,0,0:0:0:0:
320,192,62686,1,0,0:0:0:0:
448,192,62780,1,2,0:0:0:0:
64,192,62780,1,0,0:0:0:0:
192,192,62873,1,0,0:0:0:0:
320,192,62873,1,0,0:0:0:0:
448,192,62967,1,0,0:0:0:0:
64,192,62967,1,0,0:0:0:0:
192,192,63061,1,0,0:0:0:0:
320,192,63061,1,0,0:0:0:0:
448,192,63155,1,2,0:0:0:0:
64,192,63155,1,8,0:0:0:0:
64,192,63342,1,0,0:0:0:0:
448,192,63342,1,0,0:0:0:0:
192,192,63436,1,0,0:0:0:0:
320,192,63530,1,2,0:0:0:0:
448,192,63530,1,0,0:0:0:0:
64,192,63623,1,0,0:0:0:0:
192,192,63623,1,0,0:0:0:0:
320,192,63717,1,0,0:0:0:0:
448,192,63717,1,0,0:0:0:0:
64,192,63811,1,0,0:0:0:0:
192,192,63811,1,0,0:0:0:0:
320,192,63905,1,2,0:0:0:0:
448,192,63905,1,8,0:0:0:0:
64,192,63998,1,0,0:0:0:0:
192,192,64092,1,0,0:0:0:0:
320,192,64092,1,0,0:0:0:0:
448,192,64186,1,0,0:0:0:0:
64,192,64186,1,0,0:0:0:0:
64,192,64280,1,2,0:0:0:0:
192,192,64280,1,4,0:0:0:0:
320,192,64280,1,0,0:0:0:70:bang.wav
64,192,64467,1,0,0:0:0:0:
448,192,64467,1,0,0:0:0:0:
192,192,64561,1,0,0:0:0:0:
320,192,64561,1,0,0:0:0:0:
64,192,64655,1,2,0:0:0:0:
320,192,64655,1,8,0:0:0:0:
448,192,64655,1,0,0:0:0:0:
192,192,64842,1,0,0:0:0:0:
320,192,64842,1,0,0:0:0:0:
64,192,64936,1,0,0:0:0:0:
192,192,65030,1,2,0:0:0:0:
320,192,65030,1,0,0:0:0:0:
448,192,65030,1,0,0:0:0:0:
64,192,65217,1,0,0:0:0:0:
192,192,65217,1,0,0:0:0:0:
448,192,65217,128,0,65405:0:0:0:0:
64,192,65405,1,2,0:0:0:0:
192,192,65405,128,8,65592:0:0:0:0:
320,192,65405,1,0,0:0:0:0:
64,192,65592,1,0,0:0:0:0:
320,192,65592,128,0,65780:0:0:0:0:
448,192,65592,1,0,0:0:0:0:
64,192,65780,1,2,0:0:0:0:
192,192,65780,1,0,0:0:0:0:
448,192,65780,1,0,0:0:0:0:
320,192,65967,1,0,0:0:0:0:
448,192,65967,1,0,0:0:0:0:
64,192,66061,1,0,0:0:0:0:
192,192,66061,1,0,0:0:0:0:
192,192,66155,1,2,0:0:0:0:
320,192,66155,1,8,0:0:0:0:
448,192,66155,1,0,0:0:0:0:
64,192,66342,1,0,0:0:0:0:
448,192,66342,1,0,0:0:0:0:
320,192,66436,1,0,0:0:0:0:
64,192,66530,1,2,0:0:0:0:
192,192,66530,1,0,0:0:0:0:
448,192,66530,1,0,0:0:0:0:
320,192,66623,1,0,0:0:0:0:
448,192,66623,1,0,0:0:0:0:
192,192,66717,1,0,0:0:0:0:
64,192,66811,1,0,0:0:0:0:
192,192,66905,128,2,67092:0:0:0:0:
320,192,66905,1,8,0:0:0:0:
448,192,66905,1,0,0:0:0:0:
64,192,67092,1,0,0:0:0:0:
320,192,67092,128,0,67280:0:0:0:0:
64,192,67280,1,2,0:0:0:0:
192,192,67280,1,0,0:0:0:0:
448,192,67280,1,0,0:0:0:0:
320,192,67373,1,0,0:0:0:0:
192,192,67467,1,0,0:0:0:0:
64,192,67467,1,0,0:0:0:0:
320,192,67561,1,0,0:0:0:0:
448,192,67561,1,0,0:0:0:0:
192,192,67655,1,2,0:0:0:0:
64,192,67655,1,8,0:0:0:0:
320,192,67748,1,0,0:0:0:0:
64,192,67842,1,0,0:0:0:0:
448,192,67842,1,0,0:0:0:0:
192,192,67936,1,0,0:0:0:0:
448,192,68030,1,2,0:0:0:0:
320,192,68030,1,0,0:0:0:0:
64,192,68123,1,0,0:0:0:0:
192,192,68123,1,0,0:0:0:0:
448,192,68217,1,0,0:0:0:0:
320,192,68217,1,0,0:0:0:0:
64,192,68311,1,0,0:0:0:0:
320,192,68405,1,2,0:0:0:0:
448,192,68405,1,8,0:0:0:0:
192,192,68498,1,0,0:0:0:0:
64,192,68592,1,0,0:0:0:0:
448,192,68592,1,0,0:0:0:0:
320,192,68686,1,0,0:0:0:0:
64,192,68780,1,2,0:0:0:0:
192,192,68780,1,0,0:0:0:0:
448,192,68873,1,0,0:0:0:0:
192,192,68967,1,0,0:0:0:0:
64,192,68967,1,0,0:0:0:0:
320,192,69061,1,0,0:0:0:0:
448,192,69061,1,0,0:0:0:0:
64,192,69155,1,2,0:0:0:0:
192,192,69155,1,8,0:0:0:0:
320,192,69248,1,0,0:0:0:0:
192,192,69342,1,0,0:0:0:0:
64,192,69342,128,0,69530:0:0:0:0:
448,192,69436,128,0,69623:0:0:0:0:
320,192,69530,1,2,0:0:0:0:
192,192,69530,128,0,69717:0:0:0:0:
64,192,69623,128,0,69811:0:0:0:0:
320,192,69717,128,0,69905:0:0:0:0:
448,192,69717,1,0,0:0:0:0:
192,192,69811,128,0,69998:0:0:0:0:
448,192,69905,128,10,70092:0:0:0:0:
64,192,69905,1,0,0:0:0:0:
320,192,69998,128,0,70186:0:0:0:0:
64,192,70092,128,0,70280:0:0:0:0:
192,192,70092,1,0,0:0:0:0:
448,192,70186,1,0,0:0:0:0:
320,192,70280,1,2,0:0:0:0:
192,192,70280,1,0,0:0:0:0:
448,192,70280,1,0,0:0:0:0:
320,192,70467,1,0,0:0:0:0:
448,192,70467,1,0,0:0:0:0:
64,192,70561,1,0,0:0:0:0:
192,192,70561,1,0,0:0:0:0:
64,192,70655,1,2,0:0:0:0:
320,192,70655,1,8,0:0:0:0:
448,192,70655,1,0,0:0:0:0:
64,192,70842,1,0,0:0:0:0:
192,192,70842,1,0,0:0:0:0:
448,192,70936,1,0,0:0:0:0:
64,192,71030,1,2,0:0:0:0:
192,192,71030,1,0,0:0:0:0:
320,192,71030,1,0,0:0:0:0:
192,192,71217,1,0,0:0:0:0:
320,192,71217,128,0,71405:0:0:0:0:
448,192,71217,1,0,0:0:0:0:
64,192,71405,1,2,0:0:0:0:
192,192,71405,128,8,71592:0:0:0:0:
448,192,71405,1,0,0:0:0:0:
64,192,71592,1,0,0:0:0:0:
320,192,71592,1,0,0:0:0:0:
448,192,71592,128,0,71780:0:0:0:0:
64,192,71780,1,2,0:0:0:0:
192,192,71780,1,0,0:0:0:0:
320,192,71780,1,0,0:0:0:0:
192,192,71967,1,0,0:0:0:0:
320,192,71967,1,0,0:0:0:0:
64,192,72061,1,0,0:0:0:0:
448,192,72061,1,0,0:0:0:0:
448,192,72155,1,2,0:0:0:0:
320,192,72155,1,8,0:0:0:0:
192,192,72155,1,0,0:0:0:0:
64,192,72342,1,0,0:0:0:0:
192,192,72342,1,0,0:0:0:0:
448,192,72436,1,0,0:0:0:0:
64,192,72530,1,2,0:0:0:0:
192,192,72530,1,0,0:0:0:0:
320,192,72530,1,0,0:0:0:0:
64,192,72623,1,0,0:0:0:0:
448,192,72623,1,0,0:0:0:0:
320,192,72717,1,0,0:0:0:0:
192,192,72811,1,0,0:0:0:0:
64,192,72905,128,2,73092:0:0:0:0:
320,192,72905,1,8,0:0:0:0:
448,192,72905,1,0,0:0:0:0:
192,192,73092,1,0,0:0:0:0:
320,192,73092,128,0,73280:0:0:0:0:
64,192,73280,1,2,0:0:0:0:
192,192,73280,1,0,0:0:0:0:
448,192,73280,1,0,0:0:0:0:
64,192,73467,1,0,0:0:0:0:
448,192,73467,1,0,0:0:0:0:
192,192,73561,1,0,0:0:0:0:
320,192,73561,1,0,0:0:0:0:
64,192,73655,1,2,0:0:0:0:
192,192,73655,1,8,0:0:0:0:
448,192,73655,1,0,0:0:0:0:
64,192,73842,1,0,0:0:0:0:
192,192,73842,1,0,0:0:0:0:
320,192,73936,1,0,0:0:0:0:
64,192,74030,1,2,0:0:0:0:
192,192,74030,1,0,0:0:0:0:
448,192,74030,1,0,0:0:0:0:
320,192,74123,1,0,0:0:0:0:
448,192,74123,1,0,0:0:0:0:
64,192,74217,1,0,0:0:0:0:
192,192,74311,1,0,0:0:0:0:
64,192,74405,1,2,0:0:0:0:
320,192,74405,1,8,0:0:0:0:
448,192,74405,1,0,0:0:0:0:
64,192,74592,1,0,0:0:0:0:
448,192,74592,1,0,0:0:0:0:
320,192,74686,1,0,0:0:0:0:
64,192,74780,1,2,0:0:0:0:
192,192,74780,1,0,0:0:0:0:
448,192,74780,1,0,0:0:0:0:
64,192,74967,1,0,0:0:0:0:
320,192,74967,1,0,0:0:0:0:
192,192,75061,1,0,0:0:0:0:
448,192,75061,1,0,0:0:0:0:
320,192,75155,1,2,0:0:0:0:
64,192,75155,1,8,0:0:0:0:
448,192,75155,1,0,0:0:0:0:
64,192,75342,1,0,0:0:0:0:
448,192,75342,1,0,0:0:0:0:
320,192,75436,1,0,0:0:0:0:
64,192,75530,1,2,0:0:0:0:
192,192,75530,1,0,0:0:0:0:
448,192,75530,1,0,0:0:0:0:
320,192,75623,1,0,0:0:0:0:
64,192,75717,1,0,0:0:0:0:
192,192,75717,1,0,0:0:0:0:
64,192,75811,1,0,0:0:0:0:
192,192,75811,1,0,0:0:0:0:
320,192,75905,1,2,0:0:0:0:
448,192,75905,1,0,0:0:0:0:
320,192,75998,1,0,0:0:0:0:
448,192,75998,1,0,0:0:0:0:
64,192,76092,1,0,0:0:0:0:
192,192,76092,1,0,0:0:0:0:
64,192,76186,1,0,0:0:0:0:
192,192,76186,1,0,0:0:0:0:
320,192,76280,1,10,0:0:0:0:
448,192,76280,1,0,0:0:0:70:bang.wav
320,192,76373,1,0,0:0:0:0:
448,192,76373,1,0,0:0:0:0:
192,192,76467,1,0,0:0:0:0:
64,192,76561,1,0,0:0:0:0:
448,192,76561,1,0,0:0:0:0:
64,192,76655,1,0,0:0:0:0:
448,192,76655,1,0,0:0:0:0:
320,192,76748,1,0,0:0:0:0:
64,192,76842,1,0,0:0:0:0:
192,192,76842,1,0,0:0:0:0:
64,192,76936,1,0,0:0:0:0:
192,192,76936,1,0,0:0:0:0:
448,192,77030,1,0,0:0:0:0:
192,192,77123,1,0,0:0:0:0:
320,192,77123,1,0,0:0:0:0:
192,192,77217,1,0,0:0:0:0:
320,192,77217,1,0,0:0:0:0:
64,192,77311,1,0,0:0:0:0:
320,192,77405,1,0,0:0:0:0:
448,192,77405,1,0,0:0:0:0:
192,192,77498,1,0,0:0:0:0:
64,192,77592,1,0,0:0:0:0:
448,192,77592,1,0,0:0:0:0:
320,192,77686,1,0,0:0:0:0:
64,192,77780,1,8,0:0:0:0:
192,192,77780,1,4,0:0:0:0:
448,192,77780,1,0,0:0:0:0:
64,192,78061,1,8,0:0:0:0:
192,192,78061,1,4,0:0:0:0:
448,192,78061,1,0,0:0:0:0:
64,192,78342,1,4,0:0:0:0:
320,192,78342,128,8,78811:0:0:0:0:
448,192,78342,1,0,0:0:0:0:
64,192,78530,128,0,78811:0:0:0:0:
448,192,78530,128,0,78811:0:0:0:0:
192,192,78530,128,0,78811:0:0:0:0:
64,192,78905,1,0,0:0:0:70:bang.wav
192,192,78905,1,0,0:0:0:0:
448,192,78905,1,0,0:0:0:0:
64,192,79280,1,2,0:0:0:0:
192,192,79280,1,4,0:0:0:0:
320,192,79280,1,0,0:0:0:0:
448,192,79280,1,0,0:0:0:0:
64,192,79467,1,0,0:0:0:0:
448,192,79467,1,0,0:0:0:0:
320,192,79561,1,0,0:0:0:0:
64,192,79655,1,2,0:0:0:0:
192,192,79655,1,8,0:0:0:0:
448,192,79655,1,0,0:0:0:0:
320,192,79748,1,0,0:0:0:0:
64,192,79842,1,0,0:0:0:0:
192,192,79842,1,0,0:0:0:0:
320,192,79936,1,0,0:0:0:0:
448,192,79936,1,0,0:0:0:0:
64,192,80030,128,2,80217:0:0:0:0:
192,192,80030,128,0,80217:0:0:0:0:
448,192,80030,1,0,0:0:0:0:
320,192,80217,1,0,0:0:0:0:
448,192,80217,128,0,80405:0:0:0:0:
64,192,80405,1,2,0:0:0:0:
192,192,80405,128,8,80592:0:0:0:0:
320,192,80405,128,0,80592:0:0:0:0:
64,192,80592,128,0,80780:0:0:0:0:
448,192,80592,1,0,0:0:0:0:
192,192,80780,1,2,0:0:0:0:
320,192,80780,128,0,80967:0:0:0:0:
448,192,80780,128,0,80967:0:0:0:0:
64,192,80967,1,0,0:0:0:0:
192,192,80967,1,0,0:0:0:0:
320,192,81061,1,0,0:0:0:0:
64,192,81155,1,2,0:0:0:0:
192,192,81155,1,8,0:0:0:0:
448,192,81155,1,0,0:0:0:0:
320,192,81248,1,0,0:0:0:0:
64,192,81342,1,0,0:0:0:0:
448,192,81342,1,0,0:0:0:0:
64,192,81436,1,0,0:0:0:0:
192,192,81436,1,0,0:0:0:0:
320,192,81530,1,2,0:0:0:0:
448,192,81530,128,0,81623:0:0:0:0:
192,192,81623,1,0,0:0:0:0:
64,192,81623,128,0,81717:0:0:0:0:
448,192,81717,128,0,81811:0:0:0:0:
320,192,81717,1,0,0:0:0:0:
192,192,81811,1,0,0:0:0:0:
64,192,81811,128,0,81905:0:0:0:0:
320,192,81905,128,2,81998:0:0:0:0:
448,192,81905,128,8,81998:0:0:0:0:
64,192,81998,128,0,82186:0:0:0:0:
192,192,81998,128,0,82186:0:0:0:0:
320,192,82092,1,0,0:0:0:0:
448,192,82092,1,0,0:0:0:0:
64,192,82280,1,2,0:0:0:0:
192,192,82280,1,4,0:0:0:0:
320,192,82280,1,0,0:0:0:0:
448,192,82280,1,0,0:0:0:0:
64,192,82467,1,0,0:0:0:0:
192,192,82467,1,0,0:0:0:0:
448,192,82561,1,0,0:0:0:0:
64,192,82655,1,2,0:0:0:0:
192,192,82655,1,8,0:0:0:0:
320,192,82655,1,0,0:0:0:0:
448,192,82748,1,0,0:0:0:0:
192,192,82842,1,0,0:0:0:0:
320,192,82842,1,0,0:0:0:0:
64,192,82936,1,0,0:0:0:0:
192,192,83030,1,2,0:0:0:0:
320,192,83030,128,0,83217:0:0:0:0:
448,192,83030,128,0,83217:0:0:0:0:
64,192,83217,128,0,83405:0:0:0:0:
192,192,83217,1,0,0:0:0:0:
192,192,83405,128,2,83592:0:0:0:0:
320,192,83405,128,8,83592:0:0:0:0:
448,192,83405,1,0,0:0:0:0:
64,192,83592,1,0,0:0:0:0:
448,192,83592,128,0,83780:0:0:0:0:
64,192,83780,128,2,83967:0:0:0:0:
192,192,83780,128,0,83967:0:0:0:0:
320,192,83780,1,0,0:0:0:0:
320,192,83967,1,0,0:0:0:0:
448,192,83967,1,0,0:0:0:0:
64,192,84061,1,0,0:0:0:0:
192,192,84155,1,2,0:0:0:0:
320,192,84155,1,8,0:0:0:0:
448,192,84155,1,0,0:0:0:0:
64,192,84248,1,0,0:0:0:0:
192,192,84342,1,0,0:0:0:0:
320,192,84342,1,0,0:0:0:0:
448,192,84436,1,0,0:0:0:0:
64,192,84530,1,2,0:0:0:0:
192,192,84530,1,0,0:0:0:0:
320,192,84530,1,0,0:0:0:0:
448,192,84623,1,0,0:0:0:0:
64,192,84717,1,0,0:0:0:0:
192,192,84717,1,0,0:0:0:0:
320,192,84811,1,0,0:0:0:0:
64,192,84905,128,2,84998:0:0:0:0:
448,192,84905,128,8,84998:0:0:0:0:
192,192,84998,128,0,85186:0:0:0:0:
320,192,84998,128,0,85186:0:0:0:0:
64,192,85092,1,0,0:0:0:0:
448,192,85092,1,0,0:0:0:0:
64,192,85280,1,4,0:0:0:0:
192,192,85280,1,2,0:0:0:0:
320,192,85280,1,0,0:0:0:70:bang.wav
448,192,85280,1,0,0:0:0:0:
64,192,85467,1,0,0:0:0:0:
448,192,85467,1,0,0:0:0:0:
320,192,85561,1,0,0:0:0:0:
64,192,85655,1,8,0:0:0:0:
192,192,85655,1,2,0:0:0:0:
448,192,85655,1,0,0:0:0:0:
320,192,85748,1,0,0:0:0:0:
448,192,85748,1,0,0:0:0:0:
64,192,85842,1,0,0:0:0:0:
192,192,85842,1,0,0:0:0:0:
320,192,85936,1,0,0:0:0:0:
64,192,86030,128,2,86217:0:0:0:0:
192,192,86030,128,0,86217:0:0:0:0:
448,192,86030,1,0,0:0:0:0:
320,192,86217,1,0,0:0:0:0:
448,192,86217,128,0,86405:0:0:0:0:
64,192,86405,1,8,0:0:0:0:
192,192,86405,128,2,86592:0:0:0:0:
320,192,86405,128,0,86592:0:0:0:0:
64,192,86592,128,0,86780:0:0:0:0:
448,192,86592,1,0,0:0:0:0:
192,192,86780,1,2,0:0:0:0:
320,192,86780,128,0,86967:0:0:0:0:
448,192,86780,128,0,86967:0:0:0:0:
64,192,86967,1,0,0:0:0:0:
192,192,86967,1,0,0:0:0:0:
448,192,87061,1,0,0:0:0:0:
64,192,87155,1,8,0:0:0:0:
192,192,87155,1,2,0:0:0:0:
320,192,87155,1,0,0:0:0:0:
448,192,87248,1,0,0:0:0:0:
320,192,87342,1,0,0:0:0:0:
192,192,87342,1,0,0:0:0:0:
64,192,87436,1,0,0:0:0:0:
192,192,87530,1,2,0:0:0:0:
320,192,87530,1,0,0:0:0:0:
448,192,87530,1,0,0:0:0:0:
64,192,87623,1,0,0:0:0:0:
320,192,87717,1,0,0:0:0:0:
192,192,87717,1,0,0:0:0:0:
448,192,87811,1,0,0:0:0:0:
64,192,87905,128,2,87998:0:0:0:0:
192,192,87905,128,8,87998:0:0:0:0:
320,192,87998,128,0,88186:0:0:0:0:
448,192,87998,128,0,88186:0:0:0:0:
64,192,88092,1,0,0:0:0:0:
192,192,88092,1,0,0:0:0:0:
64,192,88280,1,2,0:0:0:0:
192,192,88280,1,4,0:0:0:0:
320,192,88280,1,0,0:0:0:0:
448,192,88280,1,0,0:0:0:0:
320,192,88467,1,0,0:0:0:0:
448,192,88467,1,0,0:0:0:0:
192,192,88561,1,0,0:0:0:0:
64,192,88655,1,2,0:0:0:0:
320,192,88655,1,8,0:0:0:0:
448,192,88655,1,0,0:0:0:0:
192,192,88748,1,0,0:0:0:0:
64,192,88842,1,0,0:0:0:0:
448,192,88842,1,0,0:0:0:0:
320,192,88936,1,0,0:0:0:0:
64,192,89030,1,2,0:0:0:0:
192,192,89030,1,0,0:0:0:0:
448,192,89030,1,0,0:0:0:0:
64,192,89217,1,0,0:0:0:0:
192,192,89217,1,0,0:0:0:0:
320,192,89311,1,0,0:0:0:0:
448,192,89311,1,0,0:0:0:0:
64,192,89405,1,2,0:0:0:0:
192,192,89405,1,8,0:0:0:0:
448,192,89405,1,0,0:0:0:0:
320,192,89498,1,0,0:0:0:0:
64,192,89592,1,0,0:0:0:0:
192,192,89592,1,2,0:0:0:0:
320,192,89686,1,2,0:0:0:0:
448,192,89686,1,0,0:0:0:0:
64,192,89780,128,2,90155:0:0:0:0:
192,192,89780,1,4,0:0:0:0:
448,192,89780,128,0,90436:0:0:0:0:
192,192,90155,128,0,90717:0:0:0:0:
320,192,90155,128,0,90436:0:0:0:0:
64,192,90436,128,0,90717:0:0:0:0:
320,192,90717,1,2,0:0:0:0:
448,192,90717,1,0,0:0:0:0:
192,192,90998,1,2,0:0:0:0:
320,192,90998,1,0,0:0:0:0:
64,192,91280,1,12,0:0:0:0:
192,192,91280,1,2,0:0:0:0:
448,192,91280,1,0,0:0:0:70:bang.wav
192,192,91373,1,0,0:0:0:0:
320,192,91373,1,0,0:0:0:0:
64,192,91467,1,0,0:0:0:0:
448,192,91561,1,0,0:0:0:0:
320,192,91561,1,0,0:0:0:0:
64,192,91655,1,2,0:0:0:0:
192,192,91655,1,8,0:0:0:0:
448,192,91655,1,0,0:0:0:0:
320,192,91748,1,0,0:0:0:0:
64,192,91842,1,0,0:0:0:0:
192,192,91842,1,0,0:0:0:0:
448,192,91936,1,0,0:0:0:0:
320,192,91936,1,0,0:0:0:0:
64,192,92030,1,2,0:0:0:0:
192,192,92030,1,0,0:0:0:0:
320,192,92123,1,0,0:0:0:0:
448,192,92123,1,0,0:0:0:0:
192,192,92217,1,0,0:0:0:0:
64,192,92217,1,0,0:0:0:0:
448,192,92311,1,0,0:0:0:0:
64,192,92405,1,2,0:0:0:0:
320,192,92405,1,8,0:0:0:0:
192,192,92405,1,0,0:0:0:0:
448,192,92498,1,0,0:0:0:0:
192,192,92592,1,0,0:0:0:0:
320,192,92592,1,0,0:0:0:0:
64,192,92686,1,0,0:0:0:0:
320,192,92780,1,2,0:0:0:0:
192,192,92780,1,0,0:0:0:0:
448,192,92780,1,0,0:0:0:0:
64,192,92873,1,0,0:0:0:0:
192,192,92873,1,0,0:0:0:0:
448,192,92967,1,0,0:0:0:0:
192,192,93061,1,0,0:0:0:0:
320,192,93061,1,0,0:0:0:0:
64,192,93155,1,2,0:0:0:0:
320,192,93155,1,8,0:0:0:0:
448,192,93155,1,0,0:0:0:0:
192,192,93248,1,0,0:0:0:0:
320,192,93342,1,0,0:0:0:0:
448,192,93342,1,0,0:0:0:0:
64,192,93436,1,0,0:0:0:0:
192,192,93436,1,0,0:0:0:0:
448,192,93530,1,2,0:0:0:0:
320,192,93530,1,0,0:0:0:0:
64,192,93623,1,0,0:0:0:0:
192,192,93623,1,0,0:0:0:0:
320,192,93717,1,0,0:0:0:0:
448,192,93717,1,0,0:0:0:0:
192,192,93811,1,0,0:0:0:0:
448,192,93905,1,2,0:0:0:0:
64,192,93905,1,8,0:0:0:0:
192,192,93998,1,0,0:0:0:0:
320,192,93998,1,0,0:0:0:0:
448,192,94092,1,0,0:0:0:0:
64,192,94092,1,0,0:0:0:0:
192,192,94186,1,0,0:0:0:0:
320,192,94186,1,0,0:0:0:0:
64,192,94280,1,2,0:0:0:0:
448,192,94280,1,0,0:0:0:0:
64,192,94373,1,0,0:0:0:0:
448,192,94373,1,0,0:0:0:0:
320,192,94467,1,0,0:0:0:0:
192,192,94561,1,0,0:0:0:0:
64,192,94561,1,0,0:0:0:0:
192,192,94655,1,2,0:0:0:0:
320,192,94655,1,8,0:0:0:0:
448,192,94655,1,0,0:0:0:0:
64,192,94748,1,0,0:0:0:0:
448,192,94842,1,0,0:0:0:0:
320,192,94842,1,0,0:0:0:0:
64,192,94936,1,0,0:0:0:0:
192,192,94936,1,0,0:0:0:0:
448,192,95030,1,2,0:0:0:0:
320,192,95030,1,0,0:0:0:0:
64,192,95123,1,0,0:0:0:0:
192,192,95123,1,0,0:0:0:0:
320,192,95217,1,0,0:0:0:0:
448,192,95217,1,0,0:0:0:0:
64,192,95311,1,0,0:0:0:0:
192,192,95405,1,2,0:0:0:0:
320,192,95405,1,8,0:0:0:0:
448,192,95405,1,0,0:0:0:0:
64,192,95498,1,0,0:0:0:0:
320,192,95592,1,0,0:0:0:0:
448,192,95592,1,0,0:0:0:0:
320,192,95686,1,0,0:0:0:0:
448,192,95686,1,0,0:0:0:0:
64,192,95780,1,2,0:0:0:0:
192,192,95780,1,0,0:0:0:0:
448,192,95780,1,0,0:0:0:0:
320,192,95873,1,0,0:0:0:0:
64,192,95967,1,0,0:0:0:0:
192,192,95967,1,0,0:0:0:0:
448,192,96061,1,0,0:0:0:0:
320,192,96061,1,0,0:0:0:0:
192,192,96155,1,2,0:0:0:0:
64,192,96155,1,8,0:0:0:0:
448,192,96248,1,0,0:0:0:0:
320,192,96248,1,0,0:0:0:0:
192,192,96342,1,0,0:0:0:0:
64,192,96342,1,0,0:0:0:0:
448,192,96436,1,0,0:0:0:0:
320,192,96530,1,2,0:0:0:0:
192,192,96530,1,0,0:0:0:0:
448,192,96623,1,0,0:0:0:0:
64,192,96623,1,0,0:0:0:0:
192,192,96717,1,0,0:0:0:0:
320,192,96717,1,0,0:0:0:0:
448,192,96811,1,0,0:0:0:0:
64,192,96811,1,0,0:0:0:0:
64,192,96905,1,2,0:0:0:0:
192,192,96905,1,8,0:0:0:0:
320,192,96998,1,0,0:0:0:0:
448,192,96998,1,0,0:0:0:0:
64,192,97092,1,0,0:0:0:0:
192,192,97092,1,0,0:0:0:0:
320,192,97186,1,0,0:0:0:0:
448,192,97186,1,0,0:0:0:0:
64,192,97280,1,2,0:0:0:0:
192,192,97280,1,4,0:0:0:0:
448,192,97280,1,0,0:0:0:70:bang.wav
320,192,97373,1,0,0:0:0:0:
192,192,97373,1,0,0:0:0:0:
64,192,97467,1,0,0:0:0:0:
448,192,97561,1,0,0:0:0:0:
320,192,97561,1,0,0:0:0:0:
64,192,97655,1,2,0:0:0:0:
192,192,97655,1,8,0:0:0:0:
448,192,97655,1,0,0:0:0:0:
320,192,97748,1,0,0:0:0:0:
64,192,97842,1,0,0:0:0:0:
448,192,97842,1,0,0:0:0:0:
320,192,97936,1,0,0:0:0:0:
192,192,97936,1,0,0:0:0:0:
448,192,98030,1,2,0:0:0:0:
64,192,98030,1,0,0:0:0:0:
320,192,98123,1,0,0:0:0:0:
192,192,98123,1,0,0:0:0:0:
448,192,98217,1,0,0:0:0:0:
64,192,98217,1,0,0:0:0:0:
192,192,98311,1,0,0:0:0:0:
448,192,98405,1,2,0:0:0:0:
320,192,98405,1,8,0:0:0:0:
64,192,98405,1,0,0:0:0:0:
192,192,98498,1,0,0:0:0:0:
320,192,98592,1,0,0:0:0:0:
448,192,98592,1,0,0:0:0:0:
64,192,98686,1,0,0:0:0:0:
320,192,98780,1,2,0:0:0:0:
192,192,98780,1,0,0:0:0:0:
448,192,98780,1,0,0:0:0:0:
192,192,98873,1,0,0:0:0:0:
64,192,98873,1,0,0:0:0:0:
448,192,98967,1,0,0:0:0:0:
192,192,99061,1,0,0:0:0:0:
320,192,99061,1,0,0:0:0:0:
64,192,99155,1,2,0:0:0:0:
320,192,99155,1,8,0:0:0:0:
448,192,99155,1,0,0:0:0:0:
192,192,99248,1,0,0:0:0:0:
448,192,99342,1,0,0:0:0:0:
320,192,99342,1,0,0:0:0:0:
192,192,99436,1,0,0:0:0:0:
64,192,99436,1,0,0:0:0:0:
320,192,99530,1,2,0:0:0:0:
448,192,99530,1,0,0:0:0:0:
192,192,99623,1,0,0:0:0:0:
64,192,99623,1,0,0:0:0:0:
448,192,99717,1,0,0:0:0:0:
320,192,99717,1,0,0:0:0:0:
192,192,99811,1,0,0:0:0:0:
448,192,99905,1,2,0:0:0:0:
64,192,99905,1,8,0:0:0:0:
192,192,99998,1,0,0:0:0:0:
320,192,99998,1,0,0:0:0:0:
64,192,100092,1,0,0:0:0:0:
448,192,100092,1,0,0:0:0:0:
192,192,100186,1,0,0:0:0:0:
320,192,100186,1,0,0:0:0:0:
64,192,100280,1,2,0:0:0:0:
448,192,100280,1,0,0:0:0:0:
64,192,100373,1,0,0:0:0:0:
448,192,100373,1,0,0:0:0:0:
192,192,100467,1,0,0:0:0:0:
320,192,100561,1,0,0:0:0:0:
448,192,100561,1,0,0:0:0:0:
64,192,100655,1,2,0:0:0:0:
192,192,100655,1,8,0:0:0:0:
320,192,100655,1,0,0:0:0:0:
448,192,100748,1,0,0:0:0:0:
64,192,100842,1,0,0:0:0:0:
192,192,100842,1,0,0:0:0:0:
320,192,100936,1,0,0:0:0:0:
448,192,100936,1,0,0:0:0:0:
192,192,101030,1,2,0:0:0:0:
64,192,101030,1,0,0:0:0:0:
320,192,101123,1,0,0:0:0:0:
448,192,101123,1,0,0:0:0:0:
64,192,101217,1,0,0:0:0:0:
192,192,101217,1,0,0:0:0:0:
448,192,101311,1,0,0:0:0:0:
320,192,101405,1,2,0:0:0:0:
192,192,101405,1,8,0:0:0:0:
64,192,101405,1,0,0:0:0:0:
448,192,101498,1,0,0:0:0:0:
192,192,101592,1,2,0:0:0:0:
64,192,101592,1,0,0:0:0:0:
448,192,101655,1,0,0:0:0:0:
320,192,101655,1,2,0:0:0:0:
192,192,101717,1,2,0:0:0:0:
64,192,101717,1,0,0:0:0:0:
448,192,101780,1,8,0:0:0:0:
320,192,101780,1,4,0:0:0:0:
64,192,101780,1,0,0:0:0:0:
64,192,102061,1,8,0:0:0:0:
320,192,102061,1,4,0:0:0:0:
448,192,102061,1,0,0:0:0:0:
64,192,102342,1,4,0:0:0:0:
192,192,102342,1,8,0:0:0:0:
448,192,102342,1,0,0:0:0:0:
64,192,102530,128,0,102717:0:0:0:0:
192,192,102530,128,0,102717:0:0:0:0:
448,192,102717,1,2,0:0:0:0:
320,192,102717,1,0,0:0:0:0:
192,192,102811,1,0,0:0:0:0:
64,192,102905,1,0,0:0:0:0:
320,192,102998,128,0,103186:0:0:0:0:
448,192,102998,128,2,103186:0:0:0:0:
64,192,103280,1,2,0:0:0:0:
192,192,103280,1,4,0:0:0:0:
448,192,103280,128,8,103373:0:0:0:0:
320,192,103373,1,0,0:0:0:0:
64,192,103467,1,0,0:0:0:0:
192,192,103467,1,0,0:0:0:0:
448,192,103561,1,0,0:0:0:0:
64,192,103655,128,2,103748:0:0:0:0:
320,192,103655,1,8,0:0:0:0:
192,192,103748,1,0,0:0:0:0:
320,192,103842,1,0,0:0:0:0:
448,192,103842,128,0,103936:0:0:0:0:
64,192,103936,1,0,0:0:0:0:
192,192,103936,128,0,104030:0:0:0:0:
320,192,104030,128,2,104123:0:0:0:0:
448,192,104030,1,0,0:0:0:0:
64,192,104123,1,0,0:0:0:0:
192,192,104217,1,0,0:0:0:0:
320,192,104217,1,0,0:0:0:0:
448,192,104311,1,0,0:0:0:0:
64,192,104405,1,2,0:0:0:0:
192,192,104405,1,8,0:0:0:0:
320,192,104405,128,0,104498:0:0:0:0:
320,192,104592,1,0,0:0:0:0:
192,192,104592,128,0,104686:0:0:0:0:
64,192,104780,128,2,104873:0:0:0:0:
448,192,104780,1,0,0:0:0:0:
320,192,104780,1,0,0:0:0:0:
192,192,104873,1,0,0:0:0:0:
320,192,104967,1,0,0:0:0:0:
448,192,104967,1,0,0:0:0:0:
64,192,105061,1,0,0:0:0:0:
192,192,105155,1,8,0:0:0:0:
448,192,105155,128,2,105248:0:0:0:0:
320,192,105248,1,0,0:0:0:0:
64,192,105342,1,0,0:0:0:0:
192,192,105342,128,0,105436:0:0:0:0:
320,192,105436,1,0,0:0:0:0:
448,192,105436,128,0,105530:0:0:0:0:
64,192,105530,128,2,105623:0:0:0:0:
192,192,105530,1,0,0:0:0:0:
320,192,105623,1,0,0:0:0:0:
192,192,105717,1,0,0:0:0:0:
64,192,105717,1,0,0:0:0:0:
448,192,105811,1,0,0:0:0:0:
64,192,105905,1,8,0:0:0:0:
192,192,105905,1,2,0:0:0:0:
320,192,105905,128,0,105998:0:0:0:0:
448,192,106092,1,0,0:0:0:0:
192,192,106092,128,0,106186:0:0:0:0:
320,192,106280,1,2,0:0:0:0:
192,192,106280,1,0,0:0:0:0:
64,192,106280,128,0,106373:0:0:0:0:
448,192,106373,1,0,0:0:0:0:
320,192,106467,1,0,0:0:0:0:
192,192,106467,1,0,0:0:0:0:
64,192,106561,1,0,0:0:0:0:
320,192,106655,128,8,106748:0:0:0:0:
448,192,106655,1,2,0:0:0:0:
192,192,106748,1,0,0:0:0:0:
320,192,106842,1,0,0:0:0:0:
448,192,106842,128,0,106936:0:0:0:0:
192,192,106936,1,0,0:0:0:0:
64,192,106936,128,0,107030:0:0:0:0:
320,192,107030,128,2,107123:0:0:0:0:
448,192,107030,1,0,0:0:0:0:
64,192,107123,1,0,0:0:0:0:
320,192,107217,1,0,0:0:0:0:
192,192,107217,1,0,0:0:0:0:
448,192,107311,1,0,0:0:0:0:
320,192,107405,1,8,0:0:0:0:
192,192,107405,1,2,0:0:0:0:
64,192,107405,128,0,107498:0:0:0:0:
448,192,107592,1,0,0:0:0:0:
192,192,107592,128,0,107686:0:0:0:0:
64,192,107780,1,2,0:0:0:0:
320,192,107780,128,0,107873:0:0:0:0:
448,192,107780,1,0,0:0:0:0:
192,192,107873,1,0,0:0:0:0:
64,192,107967,1,0,0:0:0:0:
448,192,107967,1,0,0:0:0:0:
320,192,108061,1,0,0:0:0:0:
192,192,108155,1,2,0:0:0:0:
64,192,108155,128,8,108248:0:0:0:0:
448,192,108248,1,0,0:0:0:0:
192,192,108342,1,0,0:0:0:0:
320,192,108342,128,0,108436:0:0:0:0:
448,192,108436,1,0,0:0:0:0:
64,192,108436,128,0,108530:0:0:0:0:
320,192,108530,128,2,108623:0:0:0:0:
192,192,108530,1,0,0:0:0:0:
64,192,108623,1,0,0:0:0:0:
320,192,108717,1,0,0:0:0:0:
448,192,108717,1,0,0:0:0:0:
64,192,108811,1,0,0:0:0:0:
192,192,108811,1,0,0:0:0:0:
64,192,108905,1,2,0:0:0:0:
320,192,108905,1,8,0:0:0:0:
448,192,108905,128,0,108998:0:0:0:0:
192,192,109092,1,0,0:0:0:0:
320,192,109092,128,0,109186:0:0:0:0:
64,192,109280,1,2,0:0:0:0:
448,192,109280,1,4,0:0:0:0:
192,192,109280,128,0,109373:0:0:0:0:
320,192,109373,1,0,0:0:0:0:
192,192,109467,1,0,0:0:0:0:
64,192,109467,1,0,0:0:0:0:
448,192,109561,1,0,0:0:0:0:
64,192,109655,128,2,109748:0:0:0:0:
320,192,109655,1,8,0:0:0:0:
448,192,109748,1,0,0:0:0:0:
64,192,109842,1,0,0:0:0:0:
192,192,109842,128,0,109936:0:0:0:0:
448,192,109936,128,0,110030:0:0:0:0:
320,192,109936,1,0,0:0:0:0:
64,192,110030,128,0,110123:0:0:0:0:
192,192,110030,1,2,0:0:0:0:
320,192,110123,1,0,0:0:0:0:
64,192,110217,1,0,0:0:0:0:
448,192,110217,1,0,0:0:0:0:
192,192,110311,1,0,0:0:0:0:
320,192,110405,1,2,0:0:0:0:
64,192,110405,1,8,0:0:0:0:
448,192,110405,128,0,110498:0:0:0:0:
64,192,110592,1,0,0:0:0:0:
320,192,110592,128,0,110686:0:0:0:0:
192,192,110780,128,2,110873:0:0:0:0:
320,192,110780,1,0,0:0:0:0:
448,192,110780,1,0,0:0:0:0:
64,192,110873,1,0,0:0:0:0:
320,192,110967,1,0,0:0:0:0:
448,192,110967,1,0,0:0:0:0:
64,192,111061,1,0,0:0:0:0:
192,192,111155,1,8,0:0:0:0:
448,192,111155,128,2,111248:0:0:0:0:
320,192,111248,1,0,0:0:0:0:
192,192,111342,1,0,0:0:0:0:
64,192,111342,128,0,111436:0:0:0:0:
448,192,111436,1,0,0:0:0:0:
320,192,111436,128,0,111530:0:0:0:0:
192,192,111530,128,2,111623:0:0:0:0:
64,192,111530,1,0,0:0:0:0:
448,192,111623,1,0,0:0:0:0:
192,192,111717,1,0,0:0:0:0:
320,192,111717,1,0,0:0:0:0:
64,192,111811,1,0,0:0:0:0:
192,192,111905,1,8,0:0:0:0:
320,192,111905,1,2,0:0:0:0:
448,192,111905,128,0,111998:0:0:0:0:
64,192,112092,1,0,0:0:0:0:
320,192,112092,128,0,112186:0:0:0:0:
192,192,112280,128,2,112373:0:0:0:0:
64,192,112280,1,0,0:0:0:0:
320,192,112280,1,0,0:0:0:0:
448,192,112373,1,0,0:0:0:0:
192,192,112467,1,0,0:0:0:0:
64,192,112467,1,0,0:0:0:0:
320,192,112561,1,0,0:0:0:0:
64,192,112655,1,8,0:0:0:0:
448,192,112655,128,2,112748:0:0:0:0:
192,192,112748,1,0,0:0:0:0:
448,192,112842,1,0,0:0:0:0:
64,192,112842,128,0,112936:0:0:0:0:
320,192,112936,1,0,0:0:0:0:
192,192,112936,128,0,113030:0:0:0:0:
64,192,113030,1,2,0:0:0:0:
448,192,113030,128,0,113123:0:0:0:0:
320,192,113123,1,0,0:0:0:0:
64,192,113217,1,0,0:0:0:0:
192,192,113217,1,0,0:0:0:0:
448,192,113311,1,0,0:0:0:0:
320,192,113405,1,8,0:0:0:0:
192,192,113405,1,2,0:0:0:0:
64,192,113405,128,0,113498:0:0:0:0:
320,192,113592,1,0,0:0:0:0:
192,192,113592,128,0,113686:0:0:0:0:
192,192,113780,1,2,0:0:0:0:
448,192,113780,1,0,0:0:0:0:
320,192,113780,128,0,113873:0:0:0:0:
64,192,113873,1,0,0:0:0:0:
192,192,113967,1,0,0:0:0:0:
320,192,113967,1,0,0:0:0:0:
448,192,114061,1,0,0:0:0:0:
64,192,114155,128,2,114248:0:0:0:0:
192,192,114155,1,8,0:0:0:0:
448,192,114248,1,0,0:0:0:0:
320,192,114342,1,0,0:0:0:0:
192,192,114342,128,0,114436:0:0:0:0:
64,192,114436,1,0,0:0:0:0:
448,192,114436,128,0,114530:0:0:0:0:
320,192,114530,128,2,114623:0:0:0:0:
192,192,114530,1,0,0:0:0:0:
64,192,114623,1,0,0:0:0:0:
320,192,114717,1,0,0:0:0:0:
448,192,114717,1,0,0:0:0:0:
192,192,114811,1,0,0:0:0:0:
320,192,114905,1,2,0:0:0:0:
448,192,114905,1,8,0:0:0:0:
64,192,114905,128,0,114998:0:0:0:0:
448,192,115092,1,0,0:0:0:0:
192,192,115092,128,0,115186:0:0:0:0:
64,192,115280,1,2,0:0:0:0:
320,192,115280,128,4,115373:0:0:0:0:
192,192,115280,1,0,0:0:0:0:
448,192,115373,1,0,0:0:0:0:
192,192,115467,1,0,0:0:0:0:
320,192,115467,1,0,0:0:0:0:
64,192,115561,1,0,0:0:0:0:
448,192,115655,1,8,0:0:0:0:
192,192,115655,128,2,115748:0:0:0:0:
320,192,115748,1,0,0:0:0:0:
64,192,115842,1,0,0:0:0:0:
448,192,115842,128,0,115936:0:0:0:0:
192,192,115936,1,0,0:0:0:0:
320,192,115936,128,0,116030:0:0:0:0:
448,192,116030,128,2,116123:0:0:0:0:
64,192,116030,1,0,0:0:0:0:
320,192,116123,1,0,0:0:0:0:
192,192,116217,1,0,0:0:0:0:
64,192,116217,1,0,0:0:0:0:
320,192,116311,1,0,0:0:0:0:
448,192,116405,1,8,0:0:0:0:
192,192,116405,1,2,0:0:0:0:
64,192,116405,128,0,116498:0:0:0:0:
320,192,116592,1,0,0:0:0:0:
192,192,116592,128,0,116686:0:0:0:0:
192,192,116780,1,2,0:0:0:0:
448,192,116780,1,0,0:0:0:0:
320,192,116780,128,0,116873:0:0:0:0:
64,192,116873,1,0,0:0:0:0:
448,192,116967,1,0,0:0:0:0:
320,192,116967,1,0,0:0:0:0:
192,192,117061,1,0,0:0:0:0:
64,192,117155,128,2,117248:0:0:0:0:
448,192,117155,1,8,0:0:0:0:
320,192,117248,1,0,0:0:0:0:
64,192,117342,1,0,0:0:0:0:
192,192,117342,128,0,117436:0:0:0:0:
320,192,117436,1,0,0:0:0:0:
448,192,117436,128,0,117530:0:0:0:0:
192,192,117530,1,2,0:0:0:0:
64,192,117530,128,0,117623:0:0:0:0:
448,192,117623,1,0,0:0:0:0:
320,192,117717,1,0,0:0:0:0:
192,192,117717,1,0,0:0:0:0:
64,192,117811,1,0,0:0:0:0:
192,192,117905,1,2,0:0:0:0:
320,192,117905,1,8,0:0:0:0:
448,192,117905,128,0,117998:0:0:0:0:
64,192,118092,1,0,0:0:0:0:
320,192,118092,128,0,118186:0:0:0:0:
192,192,118280,128,2,118373:0:0:0:0:
64,192,118280,1,4,0:0:0:0:
448,192,118280,1,0,0:0:0:0:
320,192,118373,1,0,0:0:0:0:
64,192,118467,1,0,0:0:0:0:
448,192,118467,1,0,0:0:0:0:
192,192,118561,1,0,0:0:0:0:
448,192,118655,1,8,0:0:0:0:
320,192,118655,128,2,118748:0:0:0:0:
64,192,118748,1,0,0:0:0:0:
192,192,118842,1,0,0:0:0:0:
448,192,118842,128,0,118936:0:0:0:0:
320,192,118936,1,0,0:0:0:0:
64,192,118936,128,0,119030:0:0:0:0:
192,192,119030,128,2,119123:0:0:0:0:
448,192,119030,1,0,0:0:0:0:
320,192,119123,1,0,0:0:0:0:
192,192,119217,1,0,0:0:0:0:
64,192,119217,1,0,0:0:0:0:
448,192,119311,1,0,0:0:0:0:
192,192,119405,1,8,0:0:0:0:
320,192,119405,1,2,0:0:0:0:
64,192,119405,128,0,119498:0:0:0:0:
320,192,119592,1,0,0:0:0:0:
192,192,119592,128,0,119686:0:0:0:0:
64,192,119780,1,2,0:0:0:0:
320,192,119780,128,4,119873:0:0:0:0:
448,192,119780,1,0,0:0:0:0:
192,192,119873,1,0,0:0:0:0:
64,192,119967,1,0,0:0:0:0:
448,192,119967,1,0,0:0:0:0:
320,192,120061,1,0,0:0:0:0:
64,192,120155,128,14,120248:0:0:0:0:
192,192,120155,1,0,0:0:0:0:
448,192,120248,1,0,0:0:0:0:
64,192,120342,1,0,0:0:0:0:
192,192,120342,128,0,120436:0:0:0:0:
448,192,120436,1,0,0:0:0:0:
320,192,120436,128,0,120530:0:0:0:0:
192,192,120530,1,2,0:0:0:0:
64,192,120530,128,4,120623:0:0:0:0:
448,192,120623,1,0,0:0:0:0:
64,192,120717,1,0,0:0:0:0:
192,192,120717,1,0,0:0:0:0:
320,192,120811,1,0,0:0:0:0:
448,192,120811,1,0,0:0:0:0:
448,192,120905,1,2,0:0:0:0:
64,192,120905,1,8,0:0:0:0:
192,192,120905,128,4,120998:0:0:0:0:
192,192,121092,1,0,0:0:0:0:
320,192,121092,128,0,121186:0:0:0:0:
448,192,121280,128,4,121373:0:0:0:0:
192,192,121280,1,2,0:0:0:0:
320,192,121280,1,0,0:0:0:0:
64,192,121373,1,0,0:0:0:0:
320,192,121467,1,0,0:0:0:0:
192,192,121467,1,0,0:0:0:0:
448,192,121561,1,0,0:0:0:0:
192,192,121655,128,8,121748:0:0:0:0:
64,192,121655,1,2,0:0:0:0:
320,192,121748,1,0,0:0:0:0:
192,192,121842,1,0,0:0:0:0:
64,192,121842,128,0,121936:0:0:0:0:
320,192,121936,1,0,0:0:0:0:
448,192,121936,128,0,122030:0:0:0:0:
192,192,122030,128,2,122123:0:0:0:0:
64,192,122030,1,0,0:0:0:0:
320,192,122123,1,0,0:0:0:0:
64,192,122217,1,0,0:0:0:0:
448,192,122217,1,0,0:0:0:0:
192,192,122311,1,0,0:0:0:0:
64,192,122405,1,8,0:0:0:0:
448,192,122405,1,2,0:0:0:0:
320,192,122405,128,0,122498:0:0:0:0:
448,192,122592,1,0,0:0:0:0:
192,192,122592,128,0,122686:0:0:0:0:
192,192,122780,1,2,0:0:0:0:
320,192,122780,1,0,0:0:0:0:
64,192,122780,128,0,122873:0:0:0:0:
448,192,122873,1,0,0:0:0:0:
192,192,122967,1,0,0:0:0:0:
320,192,122967,1,0,0:0:0:0:
64,192,123061,1,0,0:0:0:0:
320,192,123155,1,2,0:0:0:0:
448,192,123155,128,8,123248:0:0:0:0:
64,192,123248,1,0,0:0:0:0:
192,192,123342,1,0,0:0:0:0:
320,192,123342,128,0,123436:0:0:0:0:
64,192,123436,1,0,0:0:0:0:
448,192,123436,128,0,123530:0:0:0:0:
192,192,123530,128,2,123623:0:0:0:0:
320,192,123530,1,0,0:0:0:0:
64,192,123623,1,0,0:0:0:0:
320,192,123717,1,0,0:0:0:0:
448,192,123717,1,0,0:0:0:0:
192,192,123811,1,0,0:0:0:0:
64,192,123905,1,2,0:0:0:0:
320,192,123905,1,8,0:0:0:0:
448,192,123905,128,0,123998:0:0:0:0:
64,192,124092,1,0,0:0:0:0:
320,192,124092,128,0,124186:0:0:0:0:
448,192,124280,1,2,0:0:0:0:
192,192,124280,128,0,124373:0:0:0:0:
320,192,124280,1,0,0:0:0:0:
64,192,124373,1,0,0:0:0:0:
448,192,124467,1,0,0:0:0:0:
320,192,124467,1,0,0:0:0:0:
192,192,124561,1,0,0:0:0:0:
64,192,124655,1,8,0:0:0:0:
320,192,124655,128,2,124748:0:0:0:0:
448,192,124748,1,0,0:0:0:0:
192,192,124842,1,0,0:0:0:0:
64,192,124842,128,0,124936:0:0:0:0:
320,192,124936,1,0,0:0:0:0:
448,192,124936,128,0,125030:0:0:0:0:
192,192,125030,128,2,125123:0:0:0:0:
64,192,125030,1,0,0:0:0:0:
320,192,125123,1,0,0:0:0:0:
64,192,125217,1,0,0:0:0:0:
448,192,125217,1,0,0:0:0:0:
192,192,125311,1,0,0:0:0:0:
64,192,125405,1,8,0:0:0:0:
320,192,125405,1,2,0:0:0:0:
448,192,125405,128,0,125498:0:0:0:0:
320,192,125592,1,0,0:0:0:0:
192,192,125592,128,0,125686:0:0:0:0:
64,192,125780,1,8,0:0:0:0:
192,192,125780,1,4,0:0:0:0:
320,192,125780,1,0,0:0:0:0:
448,192,125780,1,0,0:0:0:0:
448,192,125967,1,0,0:0:0:0:
320,192,126061,1,0,0:0:0:0:
192,192,126155,1,0,0:0:0:0:
64,192,126155,1,0,0:0:0:0:
448,192,126248,1,0,0:0:0:0:
192,192,126342,1,0,0:0:0:0:
320,192,126342,1,0,0:0:0:0:
448,192,126436,1,0,0:0:0:0:
64,192,126436,1,0,0:0:0:0:
192,192,126530,1,0,0:0:0:0:
320,192,126530,1,0,0:0:0:0:
64,192,126623,1,0,0:0:0:0:
320,192,126717,1,0,0:0:0:0:
448,192,126717,1,0,0:0:0:0:
64,192,126811,1,0,0:0:0:0:
192,192,126811,1,0,0:0:0:0:
320,192,126905,1,0,0:0:0:0:
448,192,126905,1,0,0:0:0:0:
64,192,126998,1,0,0:0:0:0:
192,192,127092,1,0,0:0:0:0:
320,192,127092,1,0,0:0:0:0:
448,192,127186,1,0,0:0:0:0:
64,192,127280,1,8,0:0:0:0:
320,192,127280,1,4,0:0:0:0:
192,192,127280,1,0,0:0:0:0:
