osu file format v14

[General]
AudioFilename: audio.mp3
AudioLeadIn: 0
PreviewTime: 2445
Countdown: 0
SampleSet: Soft
StackLeniency: 0.7
Mode: 0
LetterboxInBreaks: 0
WidescreenStoryboard: 0

[Editor]
DistanceSpacing: 1
BeatDivisor: 4
GridSize: 16
TimelineZoom: 1.5

[Metadata]
Title:Yamero
TitleUnicode:やめろ
Artist:Hez-kun
ArtistUnicode:Hez-kun
Creator:-Zeraora
Version:Easy
Source:
Tags:UTAU Takuma Shun 拓海俊 Japanese Novelty Snivy Skye VOCALOID Mokuyoubi-P 木曜日P pixis Stop It GUMI Megpoid グミ メグッポイド original オリジナル furloid furry -Keitaro -Harpuia- Error-
BeatmapID:1996530
BeatmapSetID:955056

[Difficulty]
HPDrainRate:3
CircleSize:3
OverallDifficulty:4
ApproachRate:4
SliderMultiplier:1
SliderTickRate:1

[Events]
//Background and Video events
Video,0,"yamero.mp4"
0,0,"cutie.jpg",0,0
//Break Periods
//Storyboard Layer 0 (Background)
//Storyboard Layer 1 (Fail)
//Storyboard Layer 2 (Pass)
//Storyboard Layer 3 (Foreground)
//Storyboard Layer 4 (Overlay)
//Storyboard Sound Samples

[TimingPoints]
1025,348.837209302325,4,2,10,50,1,0
1722,370.37037037037,4,2,10,50,1,0
2092,352.941176470588,4,2,10,30,1,0
2092,-100,4,2,10,30,0,0
2180,-100,4,2,10,40,0,0
2268,-100,4,2,10,55,0,0
2356,-100,4,2,10,70,0,0
2445,352.941176470588,4,2,10,85,1,0
2445,-100,4,2,10,85,0,0
7739,-100,4,2,10,85,0,0
8092,-100,4,2,10,85,0,0
19033,-100,4,2,10,85,0,0
19386,-100,4,2,10,85,0,0
25033,-100,4,2,11,50,0,0
47268,-100,4,2,11,30,0,0
47356,-100,4,2,11,40,0,0
47444,-100,4,2,11,55,0,0
47533,-100,4,2,11,70,0,0
47630,352.941176470588,4,2,10,85,1,0
47630,-100,4,2,10,85,0,0
52924,-100,4,2,10,85,0,0
53277,-100,4,2,10,85,0,0
58924,-100,4,2,10,85,0,1
69865,-100,4,2,10,85,0,0

[Colours]
Combo1 : 0,255,128
Combo2 : 193,193,193
Combo3 : 255,255,147

[HitObjects]
220,158,1025,2,0,P|178:131|128:129,1,100,2|2,0:0|0:0,0:0:0:0:
47,176,1722,2,0,P|28:221|34:270,1,100,2|2,0:0|0:0,0:0:0:0:
117,328,2445,6,0,L|228:314,1,100,6|10,0:0|0:0,0:0:0:0:
315,302,3150,1,2,1:2:0:0:
393,364,3503,1,10,0:0:0:0:
408,265,3856,2,0,L|421:153,2,100,2|10|2,1:2|0:0|1:2,0:0:0:0:
315,302,4915,1,10,0:0:0:0:
237,241,5268,6,0,L|250:129,1,100,2|10,1:2|0:0,0:0:0:0:
260,42,5974,2,0,L|148:28,1,100,2|10,1:2|0:0,0:0:0:0:
61,16,6680,2,0,B|56:50|52:84|52:84|80:140|80:140|76:174|72:208,1,200,2|2,1:2|1:2,0:0:0:0:
198,363,8092,6,0,L|309:349,1,100,6|10,0:0|0:0,0:0:0:0:
363,275,8797,1,2,1:2:0:0:
351,176,9150,1,10,0:0:0:0:
268,118,9503,2,0,L|168:130,2,100,2|10|2,1:2|0:0|1:2,0:0:0:0:
335,42,10562,1,10,0:0:0:0:
418,100,10915,6,0,L|404:211,1,100,2|10,1:2|0:0,0:0:0:0:
393,298,11621,1,2,1:2:0:0:
313,238,11974,1,10,0:0:0:0:
214,251,12327,2,0,L|114:263,1,100,2|2,1:2|1:2,0:0:0:0:
15,279,13033,1,2,1:2:0:0:
41,81,13739,6,0,L|140:93,1,100,6|10,0:0|0:0,0:0:0:0:
239,105,14444,1,2,1:2:0:0:
200,197,14797,1,10,0:0:0:0:
260,277,15150,2,0,L|359:265,2,100,2|10|2,1:2|0:0|1:2,0:0:0:0:
161,289,16209,1,10,0:0:0:0:
200,197,16562,6,0,L|239:105,1,100,2|10,1:2|0:0,0:0:0:0:
176,27,17268,2,0,L|77:38,1,100,2|10,1:2|0:0,0:0:0:0:
39,133,17974,2,0,B|79:182|79:182|62:317,1,200,2|2,1:2|1:2,0:0:0:0:
239,368,19386,6,0,L|338:356,1,100,6|10,0:0|0:0,0:0:0:0:
437,344,20092,1,2,1:2:0:0:
398,252,20444,1,10,0:0:0:0:
458,172,20797,2,0,L|470:73,2,100,2|10|2,1:2|0:0|1:2,0:0:0:0:
497,264,21856,1,10,0:0:0:0:
437,344,22209,6,0,L|338:332,1,100,2|10,1:2|0:0,0:0:0:0:
280,249,22915,2,0,L|181:236,1,100,2|10,1:2|0:0,0:0:0:0:
132,148,23621,2,0,L|33:135,2,100,2|2|2,1:2|1:2|1:2,0:0:0:0:
238,320,25033,6,0,B|287:280|287:280|422:297,1,200,2|8,1:2|0:0,0:0:0:0:
498,231,26092,1,2,0:0:0:0:
422,164,26444,2,0,L|323:177,1,100,2|2,1:2|0:0,0:0:0:0:
241,117,27150,2,0,L|142:130,1,100,8|0,0:0|0:0,0:0:0:0:
70,60,27856,6,0,P|43:152|106:224,1,200,0|10,1:2|0:0,0:0:0:0:
273,114,29268,2,0,B|322:154|322:154|457:137,1,200,2|10,1:2|0:0,0:0:0:0:
495,229,30327,1,2,0:0:0:0:
407,276,30680,6,0,B|358:236|358:236|223:253,1,200,2|10,1:2|0:0,0:0:0:0:
150,322,31739,1,2,0:0:0:0:
53,296,32092,2,0,P|26:203|89:131,1,200,2|10,1:2|0:0,0:0:0:0:
126,225,33150,1,2,0:0:0:0:
222,253,33503,6,0,B|262:204|262:204|245:69,1,200,2|10,1:2|0:0,0:0:0:0:
452,69,34915,2,0,B|435:204|435:204|475:253,1,200,2|10,1:2|0:0,0:0:0:0:
490,352,35974,1,2,0:0:0:0:
396,315,36327,6,0,L|297:328,1,100,2|2,1:2|0:0,0:0:0:0:
201,297,37033,2,0,L|102:310,1,100,10|0,0:0|0:0,0:0:0:0:
86,210,37739,2,0,B|69:75|69:75|109:26,1,200,2|10,1:2|0:0,0:0:0:0:
209,19,38797,1,2,0:0:0:0:
279,90,39150,6,0,P|371:63|443:126,1,200,2|10,1:2|0:0,0:0:0:0:
429,225,40209,1,2,0:0:0:0:
350,163,40562,2,0,B|301:203|301:203|166:186,1,200,2|10,1:2|0:0,0:0:0:0:
24,327,41974,6,0,B|73:367|73:367|208:350,1,200,2|10,1:2|0:0,0:0:0:0:
275,275,43033,1,2,0:0:0:0:
227,186,43386,2,0,B|362:169|362:169|411:209,1,200,0|10,1:2|0:0,0:0:0:0:
260,342,44797,6,0,B|163:326|163:326|116:237|116:237|15:221,1,300,2|2,1:2|0:0,0:0:0:0:
58,130,46209,2,0,P|71:82|58:34,2,100,2|2|10,1:2|0:0|0:0,0:0:0:0:
251,76,47630,6,0,L|362:62,1,100,6|10,0:0|0:0,0:0:0:0:
423,131,48335,1,2,1:2:0:0:
344,192,48688,1,10,0:0:0:0:
398,275,49041,2,0,L|497:286,2,100,2|10|2,1:2|0:0|1:2,0:0:0:0:
311,324,50100,1,10,0:0:0:0:
223,275,50453,6,0,L|123:287,1,100,2|10,1:2|0:0,0:0:0:0:
24,302,51159,2,0,L|11:202,1,100,2|10,1:2|0:0,0:0:0:0:
0,103,51865,2,0,B|34:98|68:94|68:94|124:122|124:122|158:118|192:114,1,200,2|2,1:2|1:2,0:0:0:0:
375,32,53277,6,0,L|362:131,1,100,6|10,0:0|0:0,0:0:0:0:
276,180,53982,1,2,1:2:0:0:
325,266,54335,1,10,0:0:0:0:
411,217,54688,2,0,L|510:229,2,100,2|10|2,1:2|0:0|1:2,0:0:0:0:
361,131,55747,1,10,0:0:0:0:
314,42,56100,6,0,L|214:54,1,100,2|10,1:2|0:0,0:0:0:0:
115,66,56806,2,0,L|127:165,1,100,2|10,1:2|0:0,0:0:0:0:
143,264,57512,1,2,1:2:0:0:
242,248,57865,1,2,1:2:0:0:
319,311,58218,2,0,B|343:310|343:310|367:302|367:302|392:304|392:304|417:298,1,100,2|8,1:2|0:0,0:0:0:0:
494,234,58924,6,0,P|500:184|481:139,2,100,14|10|2,1:2|0:0|1:2,0:0:0:0:
401,200,59982,1,10,0:0:0:0:
302,212,60335,2,0,L|190:225,2,100,2|10|2,1:2|0:0|1:2,0:0:0:0:
341,120,61394,1,10,0:0:0:0:
380,28,61747,6,0,L|491:41,2,100,2|10|2,1:2|0:0|1:2,0:0:0:0:
280,16,62806,1,10,0:0:0:0:
241,108,63159,2,0,B|192:68|192:68|57:85,1,200,6|2,1:2|1:2,0:0:0:0:
147,263,64571,6,0,L|133:374,2,100,6|10|2,1:2|0:0|1:2,0:0:0:0:
230,207,65629,1,10,0:0:0:0:
313,151,65982,2,0,L|299:39,2,100,2|10|2,1:2|0:0|1:2,0:0:0:0:
325,250,67041,1,10,0:0:0:0:
390,326,67394,6,0,P|439:332|484:313,2,100,2|10|2,1:2|0:0|1:2,0:0:0:0:
291,345,68453,1,10,0:0:0:0:
227,268,68806,2,0,L|115:281,2,100,6|6|2,1:2|1:2|1:2,0:0:0:0:
325,250,69865,1,14,0:0:0:0:
