osu file format v14

[General]
AudioFilename: audio.mp3
AudioLeadIn: 0
PreviewTime: 197757
Countdown: 0
SampleSet: Normal
StackLeniency: 0.7
Mode: 1
LetterboxInBreaks: 0
WidescreenStoryboard: 0

[Editor]
Bookmarks: 2126,84231,137283,197915,230757,261073,281283,341915
DistanceSpacing: 0.5
BeatDivisor: 4
GridSize: 32
TimelineZoom: 3.499999

[Metadata]
Title:Bocchi The Tek!
TitleUnicode:Bocchi The Tek!
Artist:Hexacube
ArtistUnicode:Hexacube
Creator:Paradise_
Version:Guitarhero
Source:ぼっち・ざ・ろっく!
Tags:bocchi the rock kessoku band 結束バンド hamaji aki はまじあき manga time kirara max まんがタイムきらら hitori gotoh 後藤ひとり yoshino aoyama 青山吉能 nijika ijichi 伊地知虹夏 sayumi suzushiro 鈴代紗弓 ryo yamada 山田リョウ saku mizuno 水野朔 ikuyo kita 喜多郁代 ikumi hasegawa 長谷川育美 seisyun seishun complex 青春コンプレックス guitar loneliness and blue planet ギターと孤独と蒼い惑星 to kodoku aoi hoshi that band あのバンド ano distortion!! karakara カラカラ never forget 忘れてやらない wasurete yaranai if i could be a constellation 星座になれたら seiza ni naretara electronic sampling music hardtek happy hardcore j-core jcore construction japanese rock j-rock jrock ぼざろ btr
BeatmapID:4289638
BeatmapSetID:2053575

[Difficulty]
HPDrainRate:5
CircleSize:2
OverallDifficulty:7
ApproachRate:10
SliderMultiplier:1.4
SliderTickRate:1

[Events]
//Background and Video events
0,0,"104120832_p0.jpg",0,40
//Break Periods
2,228352,230307
2,261273,270728
//Storyboard Layer 0 (Background)
//Storyboard Layer 1 (Fail)
//Storyboard Layer 2 (Pass)
//Storyboard Layer 3 (Foreground)
//Storyboard Layer 4 (Overlay)
//Storyboard Sound Samples

[TimingPoints]
863,315.789473684211,4,1,0,70,1,8
2126,315.789473684211,4,1,0,70,1,0
2126,-111.111111111111,4,1,0,70,0,0
6857,-106.382978723404,4,1,0,70,0,0
7015,-103.092783505155,4,1,0,70,0,0
7173,-100,4,1,0,70,0,0
8878,-100,4,1,0,70,0,0
8957,-99.426108434027,4,1,0,71,0,0
9036,-98.858766311937,4,1,0,72,0,0
9115,-98.297862153168,4,1,0,73,0,0
9194,-97.743286992954,4,1,0,75,0,0
9273,-97.194934311753,4,1,0,76,0,0
9352,-96.652699967045,4,1,0,77,0,0
9431,-96.116482127391,4,1,0,78,0,0
9510,-95.586181208679,4,1,0,79,0,0
9589,-95.06169981247,4,1,0,80,0,0
9668,-94.549473829645,4,1,0,82,0,0
9747,-94.036277024551,4,1,0,83,0,0
9826,-93.528621215918,4,1,0,84,0,0
9905,-93.026417146223,4,1,0,85,0,0
9984,-92.529577464789,4,1,0,86,0,0
10062,-92.038016677127,4,1,0,87,0,0
10141,-91.5516510959,4,1,0,88,0,0
10220,-91.070398793417,4,1,0,90,0,0
10299,-90.594179555634,4,1,0,91,0,0
10378,-90.122914837577,4,1,0,92,0,0
10457,-89.656527720156,4,1,0,93,0,0
10536,-89.194942868315,4,1,0,94,0,0
10615,-88.738086490458,4,1,0,95,0,0
10694,-88.285886299131,4,1,0,97,0,0
10773,-87.838271472885,4,1,0,98,0,0
10852,-87.395172619301,4,1,0,99,0,0
10931,-86.95652173913,4,1,0,100,0,0
11121,-90.0900900900901,4,1,0,100,0,0
11199,-91.743119266055,4,1,0,100,0,0
11278,-93.4579439252336,4,1,0,100,0,0
11417,-96.1538461538461,4,1,0,100,0,0
11574,-93.984962406015,4,1,0,100,0,0
11732,-91.074681238616,4,1,0,100,0,0
11811,-89.686098654709,4,1,0,100,0,0
11890,-88.339222614841,4,1,0,100,0,0
12048,-85.763293310463,4,1,0,100,0,0
12206,-83.333333333333,4,1,0,100,0,0
12364,-85.716871832006,4,1,0,100,0,0
12522,-88.240775251584,4,1,0,100,0,0
12680,-90.900364753312,4,1,0,100,0,0
12838,-93.743813106316,4,1,0,100,0,0
12996,-96.770897200082,4,1,0,100,0,0
13153,-100,4,1,0,100,0,0
16963,-83.3333333333333,4,1,0,100,0,0
17278,-83.3333333333333,4,1,0,100,0,0
17441,-85.4700854700855,4,1,0,100,0,0
17520,-86.9565217391304,4,1,0,100,0,0
17599,-88.4955752212389,4,1,0,100,0,0
17757,-90.9090909090909,4,1,0,100,0,0
17915,-93.4579439252336,4,1,0,100,0,0
18073,-97.0873786407767,4,1,0,100,0,0
18152,-98.0392156862745,4,1,0,100,0,0
18231,-99.009900990099,4,1,0,100,0,0
18389,-100,4,1,0,100,0,0
19489,-83.3333333333333,4,1,0,100,0,0
19785,-100,4,1,0,100,0,0
19864,-99.378393264616,4,1,0,100,0,0
19943,-98.76446668752,4,1,0,100,0,0
20101,-97.559091611309,4,1,0,100,0,0
20259,-96.390139662673,4,1,0,100,0,0
20417,-95.241686147349,4,1,0,100,0,0
20496,-94.677661169415,4,1,0,100,0,0
20574,-94.120277218869,4,1,0,100,0,0
20732,-93.024968697061,4,1,0,100,0,0
20890,-91.954859847106,4,1,0,100,0,0
21048,-83.3333333333333,4,1,0,100,0,0
21384,-81.9672131147541,4,1,0,100,0,0
21699,-80.6451612903226,4,1,0,100,0,0
21857,-79.3650793650794,4,1,0,100,0,0
22015,-78.125,4,1,0,100,0,0
22331,-100,4,1,0,100,0,0
26910,-95.2380952380952,4,1,0,100,0,0
26989,-90.9090909090909,4,1,0,100,0,0
27068,-86.9565217391304,4,1,0,100,0,0
27384,-100,4,1,0,100,0,0
31153,-111.111111111111,4,1,0,100,0,0
31232,-110.344225056788,4,1,0,100,0,0
31311,-109.587852494577,4,1,0,100,0,0
31390,-108.841778697001,4,1,0,100,0,0
31469,-108.105794744501,4,1,0,100,0,0
31627,-106.6632885736,4,1,0,100,0,0
31785,-105.258771564297,4,1,0,100,0,0
31943,-103.890762523649,4,1,0,100,0,0
32101,-102.557856272838,4,1,0,100,0,0
32259,-101.266837716485,4,1,0,100,0,0
32417,-100,4,1,0,100,0,0
35520,-66.6666666666667,4,1,0,40,0,0
35836,-100,4,1,0,100,0,0
38436,-95.2380952380952,4,1,0,100,0,0
38752,-100,4,1,0,100,0,0
39699,-95.2380952380952,4,1,0,100,0,0
41436,-102.040816326531,4,1,0,85,0,0
41752,-109.89010989011,4,1,0,70,0,0
42068,-117.647058823529,4,1,0,55,0,0
42384,-121.951219512195,4,1,0,40,0,0
42699,-117.647058823529,4,1,0,55,0,0
43015,-111.111111111111,4,1,0,70,0,0
43331,-105.263157894737,4,1,0,85,0,0
43647,-105.263157894737,4,1,0,100,0,0
43810,-100,4,1,0,100,0,1
56757,-100,4,1,0,40,0,0
57305,-100,4,1,0,100,0,0
57389,-100,4,1,0,100,0,1
57522,-96.38002138384,4,1,0,100,0,1
57601,-94.666566649164,4,1,0,100,0,1
57680,-93.033542204202,4,1,0,100,0,1
57759,-91.436023764672,4,1,0,100,0,1
57838,-89.892442481658,4,1,0,100,0,1
57917,-88.400112076212,4,1,0,100,0,1
57996,-86.95652173913,4,1,0,100,0,1
58331,-100,4,1,0,100,0,1
63364,-100,4,1,0,100,0,1
63443,-98.156646184958,4,1,0,100,0,1
63522,-96.38002138384,4,1,0,100,0,1
63601,-94.666566649164,4,1,0,100,0,1
63680,-93.033542204202,4,1,0,100,0,1
63838,-89.892442481658,4,1,0,100,0,1
63996,-86.95652173913,4,1,0,100,0,1
64020,-86.9565217391304,4,1,0,100,0,0
64173,-100,4,1,0,100,0,0
68594,-95.2380952380952,4,1,0,100,0,0
68752,-100,4,1,0,100,0,0
68910,-95.2380952380952,4,1,0,100,0,0
69226,-100,4,1,0,100,0,0
73489,-83.3333333333333,4,1,0,100,0,0
74436,-86.9565217391304,4,1,0,100,0,0
74752,-90.9090909090909,4,1,0,100,0,0
75068,-95.2380952380952,4,1,0,100,0,0
75384,-100,4,1,0,100,0,0
77910,-90.9090909090909,4,1,0,100,0,0
78759,-90.909090909091,4,1,0,100,0,0
78838,-92.592592592593,4,1,0,100,0,0
78917,-94.339622641509,4,1,0,100,0,0
78996,-96.153846153846,4,1,0,100,0,0
79074,-98.039215686275,4,1,0,100,0,0
79153,-100,4,1,0,100,0,0
84147,-100,4,1,0,100,0,0
84226,-95.2380952380952,4,1,0,100,0,0
84384,-100,4,1,0,100,0,0
84542,-95.2380952380952,4,1,0,100,0,0
84699,-100,4,1,0,100,0,0
89259,-80,4,1,0,100,0,0
89574,-81.356659869057,4,1,0,100,0,0
89890,-82.760126651381,4,1,0,100,0,0
90206,-84.212865237196,4,1,0,100,0,0
90522,-85.71751667986,4,1,0,100,0,0
90838,-87.271889931495,4,1,0,100,0,0
91153,-88.888888888889,4,1,0,100,0,0
91390,-90.141515043406,4,1,0,100,0,0
91469,-90.566939482645,4,1,0,100,0,0
91627,-91.429949942706,4,1,0,100,0,0
91785,-92.309565852767,4,1,0,100,0,0
92101,-94.12056869684,4,1,0,100,0,0
92417,-95.997973657548,4,1,0,100,0,0
92732,-97.95812871543,4,1,0,100,0,0
93048,-100,4,1,0,100,0,0
99389,-90.9090909090909,4,1,0,100,0,0
99547,-100,4,1,0,100,0,0
100652,-90.9090909090909,4,1,0,100,0,0
100810,-100,4,1,0,100,0,0
101915,-90.9090909090909,4,1,0,100,0,0
102073,-100,4,1,0,100,0,0
102547,-90.9090909090909,4,1,0,100,0,0
102704,-100,4,1,0,100,0,0
103178,-90.9090909090909,4,1,0,100,0,0
103336,-100,4,1,0,100,0,0
104042,-66.6666666666667,4,1,0,50,0,0
104357,-100,4,1,0,100,0,0
104441,-100,4,1,0,100,0,1
113283,-100,4,1,0,100,0,0
113594,-105.263157894737,4,1,0,100,0,0
113910,-111.111111111111,4,1,0,100,0,0
114048,-108.108108108108,4,1,0,100,0,0
114127,-106.666666666667,4,1,0,100,0,0
114206,-105.263157894737,4,1,0,100,0,0
114285,-103.896103896104,4,1,0,100,0,0
114364,-102.564102564103,4,1,0,100,0,0
114443,-101.26582278481,4,1,0,100,0,0
114547,-100,4,1,0,100,0,1
125915,-100,4,1,0,100,0,0
126384,-111.111111111111,4,1,0,100,0,0
126542,-100,4,1,0,100,0,0
126857,-111.111111111111,4,1,0,100,0,0
127173,-100,4,1,0,100,0,0
131836,-76.9230769230769,4,1,0,70,0,0
132152,-100,4,1,0,100,0,0
134757,-83.3333333333333,4,1,0,100,0,0
137599,-88.4955752212389,4,1,0,100,0,0
137757,-90.9090909090909,4,1,0,100,0,0
137915,-93.4579439252336,4,1,0,100,0,0
138073,-97.0873786407767,4,1,0,100,0,0
138152,-98.0392156862745,4,1,0,100,0,0
138231,-99.009900990099,4,1,0,100,0,0
138389,-100,4,1,0,100,0,0
146436,-90.9090909090909,4,1,0,100,0,0
146757,-83.3333333333333,4,1,0,100,0,0
147073,-76.9230769230769,4,1,0,100,0,0
147384,-100,4,1,0,100,0,0
152121,-95.2380952380952,4,1,0,100,0,0
152278,-100,4,1,0,100,0,0
156542,-105.263157894737,4,1,0,100,0,0
156857,-111.111111111111,4,1,0,100,0,0
157173,-117.647058823529,4,1,0,100,0,0
157494,-83.3333333333333,4,1,0,100,0,1
166020,-83.3333333333333,4,1,0,100,0,0
166331,-111.111111111111,4,1,0,100,0,0
166943,-111.111111111111,4,1,0,100,0,0
167022,-109.586662035429,4,1,0,100,0,0
167101,-108.103477813946,4,1,0,100,0,0
167180,-106.677937447168,4,1,0,100,0,0
167259,-105.271938605272,4,1,0,100,0,0
167338,-103.902519347933,4,1,0,100,0,0
167417,-102.568270481144,4,1,0,100,0,0
167496,-101.267854277002,4,1,0,100,0,0
167599,-100,4,1,0,100,0,1
176441,-100,4,1,0,100,0,0
177226,-90.9090909090909,4,1,0,100,0,0
177699,-90.9090909090909,4,1,0,100,0,0
186547,-100,4,1,0,100,0,0
186601,-101.267854277002,4,1,0,100,0,0
186680,-102.551600845116,4,1,0,100,0,0
186759,-103.885413236747,4,1,0,100,0,0
186838,-105.254378648874,4,1,0,100,0,0
186917,-106.659905341447,4,1,0,100,0,0
186996,-108.103477813946,4,1,0,100,0,0
187074,-108.695652173913,4,1,0,100,0,0
187153,-108.695652173913,4,1,0,100,0,0
187232,-108.695652173913,4,1,0,100,0,0
187311,-108.108108108108,4,1,0,100,0,0
187390,-106.666666666667,4,1,0,100,0,0
187469,-104.166666666667,4,1,0,100,0,0
187548,-102.040816326531,4,1,0,100,0,0
187627,-100,4,1,0,100,0,0
187706,-98.0392156862745,4,1,0,100,0,0
187805,-95.2380952380952,4,1,0,100,0,0
188121,-100,4,1,0,100,0,0
195285,-100.840932477025,4,1,0,100,0,0
195364,-101.696128247334,4,1,0,100,0,0
195443,-102.565953300372,4,1,0,100,0,0
195522,-103.450786255096,4,1,0,100,0,0
195601,-104.351018909491,4,1,0,100,0,0
195680,-105.255360912559,4,1,0,100,0,0
195759,-106.187415931849,4,1,0,100,0,0
195838,-107.136125457081,4,1,0,100,0,0
195917,-108.101939901103,4,1,0,100,0,0
195996,-109.085326066096,4,1,0,100,0,0
196074,-110.086767895879,4,1,0,100,0,0
196153,-111.106767270026,4,1,0,100,0,0
196232,-112.145844842554,4,1,0,100,0,0
196311,-113.204540928102,4,1,0,100,0,0
196390,-114.283416438797,4,1,0,100,0,0
196469,-115.383053875198,4,1,0,100,0,0
196548,-116.50405837501,4,1,0,100,0,0
196627,-117.647058823529,4,1,0,100,0,0
196706,-115.940254652302,4,1,0,100,0,0
196785,-114.282266336813,4,1,0,100,0,0
196943,-111.104593183551,4,1,0,100,0,0
197101,-108.098852805205,4,1,0,100,0,0
197259,-105.269008448199,4,1,0,100,0,0
197417,-102.566879670746,4,1,0,100,0,0
197496,-101.267176388815,4,1,0,100,0,0
197574,-100,4,1,0,100,0,0
197910,-90.9090909090909,4,1,0,100,0,0
198226,-95.2380952380952,4,1,0,100,0,0
198542,-100,4,1,0,100,0,0
198857,-105.263157894737,4,1,0,100,0,0
199173,-111.111111111111,4,1,0,100,0,0
202474,-111.111111111111,4,1,0,100,0,0
202553,-109.090909090909,4,1,0,100,0,0
202632,-107.142857142857,4,1,0,100,0,0
202711,-105.263157894737,4,1,0,100,0,0
202790,-103.448275862069,4,1,0,100,0,0
202869,-101.694915254237,4,1,0,100,0,0
202948,-100,4,1,0,100,0,0
208331,-90.9090909090909,4,1,0,100,0,0
208647,-100,4,1,0,100,0,0
208963,-90.9090909090909,4,1,0,100,0,0
209278,-100,4,1,0,100,0,0
209594,-90.9090909090909,4,1,0,100,0,0
209910,-100,4,1,0,100,0,0
210226,-90.9090909090909,4,1,0,100,0,0
210542,-100,4,1,0,100,0,0
210857,-90.9090909090909,4,1,0,100,0,0
211173,-100,4,1,0,100,0,0
211489,-90.9090909090909,4,1,0,100,0,0
211805,-100,4,1,0,100,0,0
212121,-90.9090909090909,4,1,0,100,0,0
212436,-100,4,1,0,100,0,0
213073,-90.9090909090909,4,1,0,100,0,0
215579,-90.909090909091,4,1,0,100,0,0
215737,-89.88684079425,4,1,0,100,0,0
215895,-88.8873249349,4,1,0,100,0,0
216053,-87.909793276258,4,1,0,100,0,0
216211,-86.953528399312,4,1,0,100,0,0
216290,-86.483155299918,4,1,0,100,0,0
216369,-86.017843764898,4,1,0,100,0,0
216448,-85.557512532177,4,1,0,100,0,0
216527,-85.102082069941,4,1,0,100,0,0
216606,-84.651474530831,4,1,0,100,0,0
216685,-84.211228163755,4,1,0,100,0,0
216764,-83.769980765404,4,1,0,100,0,0
216843,-83.333333333333,4,1,0,100,0,0
216941,-111.111111111111,4,1,0,44,0,0
217553,-109.58904109589,4,1,0,51,0,0
217632,-108.108108108108,4,1,0,58,0,0
217711,-106.666666666667,4,1,0,65,0,0
217790,-105.263157894737,4,1,0,72,0,0
217869,-103.896103896104,4,1,0,79,0,0
217948,-102.564102564103,4,1,0,86,0,0
218027,-101.26582278481,4,1,0,93,0,0
218106,-100,4,1,0,100,0,0
219226,-90.9090909090909,4,1,0,100,0,0
219389,-100,4,1,0,100,0,0
219547,-90.9090909090909,4,1,0,100,0,0
220331,-100,4,1,0,100,0,0
221752,-90.9090909090909,4,1,0,100,0,0
221915,-100,4,1,0,100,0,0
222073,-90.9090909090909,4,1,0,100,0,0
222226,-100,4,1,0,100,0,0
222857,-90.9090909090909,4,1,0,100,0,0
223015,-100,4,1,0,100,0,0
224278,-90.9090909090909,4,1,0,100,0,0
224441,-100,4,1,0,100,0,0
224599,-90.9090909090909,4,1,0,100,0,0
225542,-100,4,1,0,100,0,0
225680,-100,4,1,0,100,0,0
225917,-101.911598644943,4,1,0,100,0,0
225996,-102.565143274616,4,1,0,100,0,0
226153,-103.897705780775,4,1,0,100,0,0
226232,-104.577056778679,4,1,0,100,0,0
226311,-105.265350329084,4,1,0,100,0,0
226548,-107.385687574367,4,1,0,100,0,0
226627,-108.111576965859,4,1,0,100,0,0
226706,-108.847346657478,4,1,0,100,0,0
226785,-109.593199757134,4,1,0,100,0,0
226943,-111.115996834052,4,1,0,100,0,0
227101,-112.681708730937,4,1,0,100,0,0
227180,-113.47103726987,4,1,0,100,0,0
227259,-114.281837916064,4,1,0,100,0,0
227417,-115.938704349422,4,1,0,100,0,0
227496,-116.785285146502,4,1,0,100,0,0
227574,-117.644320297952,4,1,0,100,0,0
227732,-119.400869400869,4,1,0,100,0,0
227811,-120.298962201276,4,1,0,100,0,0
227890,-121.210667689946,4,1,0,100,0,0
227969,-122.136297728371,4,1,0,100,0,0
228048,-123.076173777518,4,1,0,100,0,0
228127,-124.03062727005,4,1,0,100,0,0
228226,-124.03062727005,4,1,0,40,0,0
230594,-124.03062727005,4,1,0,100,0,0
230757,-100,4,1,0,100,0,1
239599,-105.263157894737,4,1,0,100,0,0
240862,-100,4,1,0,100,0,1
248126,-76.9230769230769,4,1,0,100,0,0
248441,-100,4,1,0,100,0,1
248496,-99.070478879868,4,1,0,100,0,1
248574,-98.158078806249,4,1,0,100,0,1
248653,-97.262331061569,4,1,0,100,0,1
248732,-96.382783882784,4,1,0,100,0,1
248811,-95.519001701645,4,1,0,100,0,1
248890,-94.670564425455,4,1,0,100,0,1
248969,-93.837066755823,4,1,0,100,0,1
249048,-93.018117543084,4,1,0,100,0,1
249127,-92.213339174242,4,1,0,100,0,1
249206,-91.4223669924,4,1,0,100,0,1
249285,-90.644848745828,4,1,0,100,0,1
249364,-89.880444064902,4,1,0,100,0,1
249443,-89.12882396528,4,1,0,100,0,1
249522,-88.389670375814,4,1,0,100,0,1
249601,-87.662675689745,4,1,0,100,0,1
249680,-86.95652173913,4,1,0,100,0,1
249838,-88.888888888889,4,1,0,100,0,1
249996,-90.909090909091,4,1,0,100,0,1
250153,-93.023255813953,4,1,0,100,0,1
250257,-94.3396226415094,4,1,0,100,0,1
250311,-95.238095238095,4,1,0,100,0,1
250390,-96.385542168675,4,1,0,100,0,1
250469,-97.560975609756,4,1,0,100,0,1
250548,-98.765432098765,4,1,0,100,0,1
250647,-83.3333333333333,4,1,0,100,0,1
250968,-100,4,1,0,100,0,0
258542,-90.9090909090909,4,1,0,100,0,0
261224,-111.111111111111,4,1,0,100,0,0
280647,-108.695652173913,4,1,0,100,0,0
280805,-106.382978723404,4,1,0,100,0,0
280884,-105.263157894737,4,1,0,100,0,0
280963,-104.166666666667,4,1,0,100,0,0
281042,-103.092783505155,4,1,0,100,0,0
281121,-102.040816326531,4,1,0,100,0,0
281278,-100,4,1,0,100,0,0
290436,-108.695652173913,4,1,0,100,0,0
290752,-117.647058823529,4,1,0,100,0,0
291068,-111.111111111111,4,1,0,100,0,0
291226,-105.263157894737,4,1,0,100,0,0
291384,-100,4,1,0,100,0,0
296126,-83.3333333333333,4,1,0,100,0,0
296436,-100,4,1,0,100,0,0
298963,-93.4579439252336,4,1,0,100,0,0
299278,-87.719298245614,4,1,0,100,0,0
299594,-83.3333333333333,4,1,0,100,0,0
299910,-100,4,1,0,100,0,0
300068,-102.040816326531,4,1,0,100,0,0
300226,-104.166666666667,4,1,0,100,0,0
300384,-106.382978723404,4,1,0,100,0,0
300542,-108.695652173913,4,1,0,100,0,0
300699,-111.111111111111,4,1,0,100,0,0
300857,-113.636363636364,4,1,0,100,0,0
301173,-83.3333333333333,4,1,0,100,0,0
301494,-100,4,1,0,100,0,1
311599,-100,4,1,0,100,0,0
311673,-100,4,1,0,40,0,0
312778,-100,4,1,0,100,0,0
313178,-100,4,1,0,100,0,1
316311,-95.238095238095,4,1,0,100,0,1
316364,-96.004861005621,4,1,0,100,0,1
316417,-96.769254325524,4,1,0,100,0,1
316469,-98.0392156862745,4,1,0,100,0,1
316548,-98.765432098765,4,1,0,100,0,1
316627,-100,4,1,0,100,0,1
317599,-100,4,1,0,100,0,0
317647,-98.0392156862745,4,1,0,100,0,0
317699,-96.1538461538461,4,1,0,100,0,0
317752,-94.3396226415094,4,1,0,100,0,0
317915,-100,4,1,0,100,0,1
318862,-100,4,1,0,100,0,0
318910,-98.0392156862745,4,1,0,100,0,0
318962,-96.1538461538461,4,1,0,100,0,0
319015,-94.3396226415094,4,1,0,100,0,0
319178,-100,4,1,0,100,0,1
320441,-100,4,1,0,100,0,0
320752,-93.75,4,1,0,100,0,0
320890,-90.909090909091,4,1,0,100,0,0
321048,-88.235294117647,4,1,0,100,0,0
321153,-86.543728318422,4,1,0,100,0,0
321259,-84.915800788248,4,1,0,100,0,0
321364,-83.333333333333,4,1,0,100,0,0
321699,-100,4,1,0,100,0,0
325469,-95.238095238095,4,1,0,100,0,0
325522,-96.784073506891,4,1,0,100,0,0
325574,-98.350451291628,4,1,0,100,0,0
325627,-100,4,1,0,100,0,0
325706,-102.564102564103,4,1,0,100,0,0
325785,-105.263157894737,4,1,0,100,0,0
325943,-108.695652173913,4,1,0,100,0,0
326199,-107.52688172043,4,1,0,100,0,0
326436,-104.166666666667,4,1,0,100,0,0
326594,-102.040816326531,4,1,0,100,0,0
326757,-100,4,1,0,100,0,0
330542,-90.9090909090909,4,1,0,100,0,0
331805,-100,4,1,0,100,0,0
335594,-111.111111111111,4,1,0,100,0,0
336542,-86.9565217391304,4,1,0,100,0,0
336857,-100,4,1,0,100,0,0
340963,-86.9565217391304,4,1,0,100,0,0
341594,-100,4,1,0,100,0,0
341752,-95.2380952380952,4,1,0,100,0,0
341831,-93.4579439252336,4,1,0,100,0,0
341910,-90.9090909090909,4,1,0,100,0,0
342226,-94.3396226415094,4,1,0,100,0,0
342542,-97.0873786407767,4,1,0,100,0,0
342857,-100,4,1,0,100,0,0
346652,-83.3333333333333,4,1,0,100,0,0
346968,-100,4,1,0,100,0,0
349469,-105.263157894737,4,1,0,100,0,0
349548,-104.233721218123,4,1,0,100,0,0
349627,-103.224224592375,4,1,0,100,0,0
349706,-102.234094220495,4,1,0,100,0,0
349785,-101.262778111846,4,1,0,100,0,0
349864,-100.309745055992,4,1,0,100,0,0
349943,-99.37448365396,4,1,0,100,0,0
350022,-98.456501403181,4,1,0,100,0,0
350101,-97.555323832696,4,1,0,100,0,0
350180,-96.681593753588,4,1,0,100,0,0
350259,-95.812471552117,4,1,0,100,0,0
350338,-94.95883613398,4,1,0,100,0,0
350417,-94.120277218869,4,1,0,100,0,0
350496,-93.296398891967,4,1,0,100,0,0
350574,-92.486818980668,4,1,0,100,0,0
350653,-91.691168463465,4,1,0,100,0,0
350732,-90.909090909091,4,1,0,100,0,0
351699,-93.4579439252336,4,1,0,100,0,0
351857,-95.2380952380952,4,1,0,100,0,0
351936,-98.0392156862745,4,1,0,100,0,0
352015,-100,4,1,0,100,0,0
360048,-100,4,1,0,100,0,0
360127,-99.008658551889,4,1,0,100,0,0
360206,-98.036779324056,4,1,0,100,0,0
360285,-97.083794758213,4,1,0,100,0,0
360364,-96.14915915184,4,1,0,100,0,0
360443,-95.232347616174,4,1,0,100,0,0
360522,-94.332855093257,4,1,0,100,0,0
360601,-93.450195428165,4,1,0,100,0,0
360680,-92.59476587255,4,1,0,100,0,0
360857,-86.9565217391304,4,1,0,100,0,0
362101,-100,4,1,0,100,0,0
362180,-101.251604621309,4,1,0,100,0,0
362259,-102.551600845116,4,1,0,100,0,0
362338,-103.885413236747,4,1,0,100,0,0
362417,-105.254378648874,4,1,0,100,0,0
362496,-106.659905341447,4,1,0,100,0,0
362574,-108.103477813946,4,1,0,100,0,0
362653,-108.695652173913,4,1,0,100,0,0
362732,-108.695652173913,4,1,0,100,0,0
362811,-108.695652173913,4,1,0,100,0,0
362890,-108.108108108108,4,1,0,100,0,0
362969,-106.666666666667,4,1,0,100,0,0
363048,-105.263157894737,4,1,0,100,0,0
363127,-103.896103896104,4,1,0,100,0,0
363206,-102.564102564103,4,1,0,100,0,0
363285,-101.26582278481,4,1,0,100,0,0
363364,-100,4,1,0,100,0,0
367173,-95.2380952380952,4,1,0,100,0,0
368126,-83.3333333333333,4,1,0,100,0,0
368417,-111.111111111111,4,1,0,100,0,0
368496,-109.965187119234,4,1,0,100,0,0
368574,-108.842658396864,4,1,0,100,0,0
368653,-107.742815724397,4,1,0,100,0,0
368732,-106.664978261787,4,1,0,100,0,0
368811,-105.608492143096,4,1,0,100,0,0
368890,-104.572729153735,4,1,0,100,0,0
368969,-103.557085484796,4,1,0,100,0,0
369048,-102.560980559276,4,1,0,100,0,0
369127,-101.58385592539,4,1,0,100,0,0
369206,-100.625174212559,4,1,0,100,0,0
369285,-99.684418145957,4,1,0,100,0,0
369364,-98.761089615821,4,1,0,100,0,0
369443,-97.854708798017,4,1,0,100,0,0
369522,-96.964813322589,4,1,0,100,0,0
369601,-96.090957487261,4,1,0,100,0,0
369680,-95.243479571838,4,1,0,100,0,0
369759,-94.400239082521,4,1,0,100,0,0
369838,-93.571798859513,4,1,0,100,0,0
369917,-92.757772638843,4,1,0,100,0,0
369996,-91.957787481805,4,1,0,100,0,0
370074,-91.171483205253,4,1,0,100,0,0
370153,-90.398511840881,4,1,0,100,0,0
370232,-89.638537121776,4,1,0,100,0,0
370311,-88.891233994653,4,1,0,100,0,0
370390,-88.156288156288,4,1,0,100,0,0
370469,-87.43339561276,4,1,0,100,0,0
370548,-86.722262260201,4,1,0,100,0,0
370627,-86.022603485839,4,1,0,100,0,0
370706,-85.334143788201,4,1,0,100,0,0
370785,-84.65661641541,4,1,0,100,0,0
370864,-83.989763020574,4,1,0,100,0,0
370943,-83.333333333333,4,1,0,100,0,0
371180,-85.265225933202,4,1,0,100,0,0
371417,-87.297596298904,4,1,0,100,0,0
371732,-90.163082995741,4,1,0,100,0,0
372048,-93.223069487703,4,1,0,100,0,0
372226,-95.2380952380952,4,1,0,100,0,0
372680,-100,4,1,0,100,0,0
373173,-83.3333333333333,4,1,0,100,0,0
373494,-100,4,1,0,100,0,1
381068,-86.9565217391304,4,1,0,100,0,1
381384,-100,4,1,0,100,0,1
381542,-86.9565217391304,4,1,0,100,0,1
381857,-100,4,1,0,100,0,1
382173,-86.9565217391304,4,1,0,100,0,1
382331,-100,4,1,0,100,0,1
382805,-86.9565217391304,4,1,0,100,0,1
382963,-100,4,1,0,100,0,1
383022,-98.763499765221,4,1,0,100,0,1
383101,-97.557204700062,4,1,0,100,0,1
383180,-96.394744882371,4,1,0,100,0,1
383259,-95.245283018868,4,1,0,100,0,1
383422,-93.026684357954,4,1,0,100,0,1
383599,-90.909090909091,4,1,0,100,0,0
383673,-89.2857142857143,4,1,0,100,0,0
383752,-87.719298245614,4,1,0,100,0,0
383831,-86.2068965517241,4,1,0,100,0,0
383915,-84.7457627118644,4,1,0,100,0,1
384048,-86.958917191603,4,1,0,100,0,1
384127,-88.109415705247,4,1,0,100,0,1
384206,-89.290765430236,4,1,0,100,0,1
384285,-90.504224167591,4,1,0,100,0,1
384364,-91.75111903424,4,1,0,100,0,1
384443,-93.032851304621,4,1,0,100,0,1
384522,-94.350901663844,4,1,0,100,0,1
384601,-95.706835913813,4,1,0,100,0,1
384680,-97.084392684327,4,1,0,100,0,1
384759,-98.520630032667,4,1,0,100,0,1
384838,-100,4,1,0,100,0,1
386101,-100,4,1,0,100,0,1
386259,-101.258718832679,4,1,0,100,0,1
386417,-102.557856272838,4,1,0,100,0,1
386574,-103.890762523649,4,1,0,100,0,1
386653,-104.570293094883,4,1,0,100,0,1
386732,-105.258771564297,4,1,0,100,0,1
386890,-106.6632885736,4,1,0,100,0,1
387048,-108.105794744501,4,1,0,100,0,1
387127,-108.841778697001,4,1,0,100,0,1
387206,-109.89010989011,4,1,0,100,0,1
387285,-110.344225056788,4,1,0,100,0,1
387364,-109.89010989011,4,1,0,100,0,1
387443,-108.695652173913,4,1,0,100,0,1
387522,-108.105794744501,4,1,0,100,0,1
387601,-106.6632885736,4,1,0,100,0,1
387680,-105.27631907977,4,1,0,100,0,1
387759,-103.907856849033,4,1,0,100,0,1
387838,-102.574514740518,4,1,0,100,0,1
387917,-101.274957902333,4,1,0,100,0,1
387996,-100.007918283316,4,1,0,100,0,1
388074,-98.772190505983,4,1,0,100,0,1
388153,-97.566628041715,4,1,0,100,0,1
388232,-96.390139662673,4,1,0,100,0,1
388311,-95.241686147349,4,1,0,100,0,1
388390,-94.120277218869,4,1,0,100,0,1
388469,-93.024968697061,4,1,0,100,0,1
388548,-91.954859847106,4,1,0,100,0,1
388627,-90.909090909091,4,1,0,100,0,1
391173,-85.4700854700855,4,1,0,100,0,1
391489,-90.9090909090909,4,1,0,100,0,1
391647,-85.4700854700855,4,1,0,100,0,1
391810,-90.9090909090909,4,1,0,100,0,1
392126,-85.4700854700855,4,1,0,100,0,0
392436,-90.9090909090909,4,1,0,100,0,0
393384,-83.3333333333333,4,1,0,100,0,0
393704,-100,4,1,0,100,0,1
398441,-100,4,1,0,40,0,0
398989,-100,4,1,0,100,0,0
399073,-100,4,1,0,100,0,1
401496,-98.939929328622,4,1,0,100,0,1
401574,-97.902097902098,4,1,0,100,0,1
401653,-96.885813148789,4,1,0,100,0,1
401732,-95.890410958904,4,1,0,100,0,1
401811,-94.915254237288,4,1,0,100,0,1
401890,-93.959731543624,4,1,0,100,0,1
401969,-93.023255813953,4,1,0,100,0,1
402048,-92.105263157895,4,1,0,100,0,1
402127,-91.205211726384,4,1,0,100,0,1
402206,-90.322580645161,4,1,0,100,0,1
402285,-89.456869009585,4,1,0,100,0,1
402364,-88.607594936709,4,1,0,100,0,1
402448,-87.774294670846,4,1,0,100,0,1
402547,-86.9565217391304,4,1,0,100,0,0
403785,-86.95652173913,4,1,0,100,0,0
403943,-88.398950131234,4,1,0,100,0,0
404101,-89.890039500374,4,1,0,100,0,0
404259,-91.4223669924,4,1,0,100,0,0
404338,-92.213339174242,4,1,0,100,0,0
404417,-93.018117543084,4,1,0,100,0,0
404496,-93.837066755823,4,1,0,100,0,0
404574,-94.670564425455,4,1,0,100,0,0
404732,-96.382783882784,4,1,0,100,0,0
404890,-98.158078806249,4,1,0,100,0,0
405048,-100,4,1,0,100,0,0
408542,-83.3333333333333,4,1,0,100,0,0
408857,-100,4,1,0,100,0,0
412627,-100,4,1,0,100,0,0
412785,-98.76446668752,4,1,0,100,0,0
412943,-97.559091611309,4,1,0,100,0,0
413101,-96.382783882784,4,1,0,100,0,0
413259,-95.241686147349,4,1,0,100,0,0
413417,-94.120277218869,4,1,0,100,0,0
413574,-93.024968697061,4,1,0,100,0,0
413653,-92.486818980668,4,1,0,100,0,0
413732,-91.954859847106,4,1,0,100,0,0
413811,-91.428985087592,4,1,0,100,0,0
413890,-90.909090909091,4,1,0,100,0,0
414206,-93.024968697061,4,1,0,100,0,0
414522,-95.241686147349,4,1,0,100,0,0
414680,-96.382783882784,4,1,0,100,0,0
414838,-97.559091611309,4,1,0,100,0,0
415153,-100,4,1,0,100,0,0
418647,-90.9090909090909,4,1,0,100,0,0
418943,-100,4,1,0,100,0,0
419259,-102.035870092099,4,1,0,96,0,0
419574,-104.163230297232,4,1,0,92,0,0
419890,-106.381186617702,4,1,0,88,0,0
420206,-108.695652173913,4,1,0,84,0,0
420522,-111.113066122392,4,1,0,80,0,0
420838,-113.632274085004,4,1,0,76,0,0
421153,-116.276928742405,4,1,0,72,0,0
421469,-119.047619047619,4,1,0,68,0,0
421785,-121.953574601213,4,1,0,64,0,0
422101,-125.004948731145,4,1,0,60,0,0
422417,-128.202525478095,4,1,0,56,0,0
422732,-131.578947368421,4,1,0,52,0,0
423857,-100,4,1,0,100,0,0
424015,-100,4,1,0,100,0,0

[HitObjects]
326,301,2126,5,0,0:0:0:0:
293,279,2283,1,8,0:0:0:0:
336,301,2441,1,0,0:0:0:0:
340,294,2599,1,8,0:0:0:0:
328,300,2757,1,0,0:0:0:0:
297,288,2915,1,8,0:0:0:0:
328,300,2994,1,8,0:0:0:0:
326,296,3073,1,0,0:0:0:0:
336,311,3152,1,0,0:0:0:0:
341,301,3231,1,8,0:0:0:0:
371,337,3389,1,0,0:0:0:0:
339,313,3468,1,0,0:0:0:0:
339,313,3547,1,0,0:0:0:0:
347,300,3626,1,0,0:0:0:0:
347,300,3704,1,8,0:0:0:0:
361,323,3862,1,0,0:0:0:0:
361,323,4020,1,8,0:0:0:0:
340,315,4178,1,0,0:0:0:0:
364,302,4336,1,8,0:0:0:0:
369,306,4652,1,0,0:0:0:0:
350,323,4810,1,8,0:0:0:0:
340,306,4968,1,0,0:0:0:0:
362,300,5126,1,8,0:0:0:0:
306,315,5283,1,0,0:0:0:0:
313,294,5441,1,8,0:0:0:0:
319,288,5520,1,8,0:0:0:0:
333,283,5599,1,8,0:0:0:0:
348,319,5757,1,0,0:0:0:0:
333,305,5915,1,0,0:0:0:0:
351,294,6073,1,0,0:0:0:0:
361,315,6231,1,8,0:0:0:0:
336,296,6310,1,8,0:0:0:0:
260,255,6389,1,0,0:0:0:0:
395,290,6547,1,8,0:0:0:0:
372,313,6862,1,0,0:0:0:0:
356,285,7020,1,8,0:0:0:0:
409,305,7178,1,0,0:0:0:0:
336,317,7336,1,0,0:0:0:0:
340,299,7494,1,8,0:0:0:0:
351,289,7652,1,8,0:0:0:0:
357,321,7810,1,0,0:0:0:0:
344,309,7968,1,8,0:0:0:0:
357,321,8047,1,0,0:0:0:0:
356,307,8126,1,8,0:0:0:0:
360,299,8204,1,8,0:0:0:0:
371,292,8283,1,0,0:0:0:0:
365,307,8441,1,0,0:0:0:0:
401,275,8520,1,0,0:0:0:0:
365,262,8599,1,0,0:0:0:0:
308,269,8678,1,0,0:0:0:0:
397,307,8757,1,8,0:0:0:0:
353,243,8915,1,0,0:0:0:0:
352,298,8994,1,0,0:0:0:0:
323,305,9073,1,8,0:0:0:0:
239,215,9152,1,8,0:0:0:0:
294,192,9231,1,8,0:0:0:0:
315,270,9310,1,0,0:0:0:0:
355,327,9389,1,8,0:0:0:0:
330,287,9468,1,8,0:0:0:0:
336,283,9547,1,0,0:0:0:0:
231,253,9626,1,0,0:0:0:0:
239,251,9704,1,8,0:0:0:0:
344,311,9783,1,0,0:0:0:0:
241,250,9862,1,0,0:0:0:0:
371,323,9941,1,0,0:0:0:0:
360,306,10020,1,8,0:0:0:0:
361,303,10099,1,8,0:0:0:0:
352,324,10178,1,0,0:0:0:0:
324,305,10257,1,0,0:0:0:0:
395,328,10336,1,8,0:0:0:0:
310,282,10415,1,8,0:0:0:0:
308,299,10494,1,8,0:0:0:0:
310,282,10573,1,0,0:0:0:0:
310,282,10652,1,8,0:0:0:0:
310,282,10731,1,8,0:0:0:0:
317,288,10810,1,8,0:0:0:0:
365,317,10889,1,8,0:0:0:0:
391,308,10968,1,0,0:0:0:0:
330,281,11126,1,0,0:0:0:0:
341,278,11204,1,0,0:0:0:0:
337,296,11283,1,0,0:0:0:0:
348,291,11441,1,0,0:0:0:0:
380,320,11599,1,8,0:0:0:0:
365,289,11757,1,8,0:0:0:0:
368,287,11836,1,8,0:0:0:0:
365,289,11915,1,8,0:0:0:0:
375,279,12073,1,8,0:0:0:0:
390,321,12231,1,4,0:0:0:0:
364,300,12389,1,8,0:0:0:0:
404,327,12547,1,0,0:0:0:0:
346,289,12704,1,0,0:0:0:0:
351,283,12862,1,8,0:0:0:0:
376,321,13020,1,0,0:0:0:0:
378,291,13178,1,8,0:0:0:0:
406,315,13494,1,0,0:0:0:0:
356,315,13652,1,8,0:0:0:0:
344,306,13810,1,8,0:0:0:0:
344,306,13968,1,0,0:0:0:0:
356,295,14126,1,8,0:0:0:0:
350,310,14283,1,0,0:0:0:0:
356,303,14362,1,0,0:0:0:0:
360,301,14441,1,8,0:0:0:0:
404,320,14757,1,0,0:0:0:0:
382,331,14915,1,8,0:0:0:0:
388,323,15073,1,0,0:0:0:0:
374,311,15231,1,0,0:0:0:0:
374,311,15389,1,8,0:0:0:0:
323,261,15547,1,0,0:0:0:0:
374,313,15704,1,8,0:0:0:0:
397,317,15862,1,0,0:0:0:0:
377,306,16020,1,0,0:0:0:0:
333,289,16178,1,8,0:0:0:0:
333,289,16257,1,8,0:0:0:0:
340,279,16336,1,0,0:0:0:0:
387,324,16494,1,8,0:0:0:0:
372,265,16652,1,0,0:0:0:0:
359,262,16704,1,8,0:0:0:0:
361,275,16757,1,8,0:0:0:0:
365,275,16810,1,0,0:0:0:0:
417,288,16968,1,12,0:0:0:0:
433,330,17283,1,4,0:0:0:0:
346,304,17441,1,8,0:0:0:0:
346,304,17520,1,8,0:0:0:0:
341,298,17599,1,8,0:0:0:0:
357,291,17757,1,0,0:0:0:0:
338,297,17915,1,0,0:0:0:0:
338,297,18073,1,8,0:0:0:0:
347,285,18152,1,8,0:0:0:0:
338,297,18231,1,0,0:0:0:0:
360,269,18389,1,8,0:0:0:0:
348,304,18547,1,0,0:0:0:0:
291,222,18704,1,8,0:0:0:0:
328,254,18757,1,8,0:0:0:0:
330,285,18810,1,8,0:0:0:0:
332,270,18862,1,0,0:0:0:0:
352,285,18941,1,0,0:0:0:0:
365,298,19020,1,8,0:0:0:0:
305,304,19178,1,0,0:0:0:0:
332,289,19336,1,0,0:0:0:0:
385,294,19494,1,12,0:0:0:0:
432,331,19810,1,0,0:0:0:0:
347,275,19889,1,0,0:0:0:0:
329,308,19968,1,8,0:0:0:0:
335,291,20126,1,0,0:0:0:0:
354,287,20283,1,8,0:0:0:0:
347,316,20441,1,0,0:0:0:0:
346,309,20520,1,8,0:0:0:0:
347,316,20599,1,0,0:0:0:0:
325,251,20757,1,8,0:0:0:0:
382,283,20915,1,8,0:0:0:0:
355,252,21073,1,4,0:0:0:0:
397,273,21389,1,4,0:0:0:0:
349,296,21704,1,4,0:0:0:0:
305,277,21862,1,4,0:0:0:0:
388,290,22020,1,12,0:0:0:0:
374,270,22336,1,4,0:0:0:0:
355,292,22573,1,8,0:0:0:0:
355,292,22652,1,0,0:0:0:0:
352,277,22810,1,0,0:0:0:0:
375,314,22968,1,8,0:0:0:0:
325,291,23126,1,0,0:0:0:0:
319,283,23204,1,0,0:0:0:0:
319,283,23283,1,8,0:0:0:0:
319,283,23441,1,8,0:0:0:0:
319,283,23599,1,0,0:0:0:0:
319,283,23757,1,8,0:0:0:0:
324,278,23836,1,8,0:0:0:0:
319,283,23915,1,0,0:0:0:0:
324,278,24073,1,8,0:0:0:0:
348,273,24231,1,0,0:0:0:0:
348,273,24389,1,0,0:0:0:0:
359,268,24547,1,8,0:0:0:0:
340,261,24626,1,8,0:0:0:0:
352,286,24704,1,8,0:0:0:0:
398,323,24862,1,0,0:0:0:0:
358,297,25099,1,0,0:0:0:0:
335,288,25178,1,8,0:0:0:0:
331,288,25336,1,8,0:0:0:0:
341,306,25494,1,0,0:0:0:0:
352,293,25652,1,8,0:0:0:0:
352,293,25731,1,8,0:0:0:0:
354,307,25810,1,8,0:0:0:0:
348,303,25968,1,0,0:0:0:0:
336,289,26126,1,0,0:0:0:0:
307,287,26283,1,0,0:0:0:0:
307,286,26362,1,0,0:0:0:0:
314,280,26441,1,8,0:0:0:0:
325,293,26599,1,0,0:0:0:0:
397,338,26757,1,8,0:0:0:0:
357,310,26915,1,0,0:0:0:0:
357,310,26994,1,0,0:0:0:0:
367,305,27073,1,12,0:0:0:0:
409,316,27389,1,4,0:0:0:0:
366,318,27626,1,8,0:0:0:0:
334,303,27704,1,0,0:0:0:0:
353,298,27862,1,0,0:0:0:0:
393,326,28020,1,8,0:0:0:0:
376,311,28178,1,8,0:0:0:0:
354,303,28257,1,8,0:0:0:0:
352,303,28336,1,0,0:0:0:0:
350,295,28494,1,8,0:0:0:0:
357,306,28652,1,0,0:0:0:0:
327,292,28731,1,8,0:0:0:0:
338,291,28810,1,0,0:0:0:0:
338,290,28889,1,0,0:0:0:0:
338,290,28968,1,8,0:0:0:0:
345,292,29126,1,8,0:0:0:0:
367,300,29283,1,0,0:0:0:0:
357,318,29441,1,0,0:0:0:0:
360,306,29599,1,8,0:0:0:0:
375,312,29757,1,8,0:0:0:0:
375,312,29836,1,8,0:0:0:0:
375,312,29915,1,4,0:0:0:0:
371,322,30073,1,8,0:0:0:0:
372,298,30231,1,4,0:0:0:0:
372,314,30389,1,8,0:0:0:0:
371,298,30547,1,4,0:0:0:0:
371,298,30704,1,4,0:0:0:0:
346,216,30862,1,12,0:0:0:0:
311,254,31178,1,8,0:0:0:0:
311,254,31257,1,8,0:0:0:0:
375,294,31336,1,8,0:0:0:0:
375,294,31415,1,8,0:0:0:0:
375,294,31494,1,0,0:0:0:0:
385,313,31652,1,0,0:0:0:0:
386,323,31810,1,8,0:0:0:0:
350,315,31968,1,0,0:0:0:0:
348,299,32126,1,8,0:0:0:0:
348,299,32283,1,8,0:0:0:0:
382,291,32441,1,4,0:0:0:0:
318,302,32599,1,8,0:0:0:0:
301,291,32678,1,8,0:0:0:0:
301,291,32757,1,0,0:0:0:0:
301,291,32915,1,8,0:0:0:0:
295,278,33073,1,0,0:0:0:0:
295,278,33152,1,0,0:0:0:0:
295,278,33231,1,8,0:0:0:0:
295,278,33310,1,0,0:0:0:0:
295,278,33389,1,8,0:0:0:0:
326,258,33547,1,0,0:0:0:0:
361,323,33704,1,0,0:0:0:0:
321,302,33783,1,8,0:0:0:0:
321,302,33862,1,8,0:0:0:0:
321,302,34020,1,0,0:0:0:0:
318,259,34099,1,0,0:0:0:0:
343,282,34178,1,8,0:0:0:0:
331,300,34336,1,0,0:0:0:0:
312,299,34494,1,0,0:0:0:0:
327,288,34652,1,8,0:0:0:0:
356,312,34731,1,8,0:0:0:0:
356,312,34810,1,8,0:0:0:0:
384,310,34968,1,0,0:0:0:0:
364,340,35047,1,0,0:0:0:0:
330,321,35126,1,8,0:0:0:0:
330,321,35204,1,8,0:0:0:0:
330,321,35283,1,0,0:0:0:0:
370,294,35441,1,8,0:0:0:0:
256,192,35599,12,0,35757,0:0:0:0:
377,312,35915,5,12,0:0:0:0:
364,308,36073,1,0,0:0:0:0:
324,298,36231,1,0,0:0:0:0:
324,298,36310,1,0,0:0:0:0:
383,309,36389,1,0,0:0:0:0:
338,296,36547,1,8,0:0:0:0:
338,292,36626,1,8,0:0:0:0:
341,283,36704,1,8,0:0:0:0:
347,304,36862,1,0,0:0:0:0:
359,290,37020,1,0,0:0:0:0:
341,295,37178,1,0,0:0:0:0:
305,293,37257,1,0,0:0:0:0:
308,280,37336,1,8,0:0:0:0:
309,279,37389,1,8,0:0:0:0:
309,274,37441,1,8,0:0:0:0:
313,275,37494,1,0,0:0:0:0:
340,312,37573,1,0,0:0:0:0:
340,312,37652,1,8,0:0:0:0:
371,326,37810,1,0,0:0:0:0:
368,318,37889,1,0,0:0:0:0:
341,307,37968,1,0,0:0:0:0:
327,282,38126,1,8,0:0:0:0:
327,282,38204,1,8,0:0:0:0:
327,282,38283,1,0,0:0:0:0:
389,313,38441,1,12,0:0:0:0:
419,317,38757,1,0,0:0:0:0:
373,295,38836,1,0,0:0:0:0:
370,317,38915,1,8,0:0:0:0:
387,297,39073,1,0,0:0:0:0:
372,295,39152,1,0,0:0:0:0:
372,293,39231,1,0,0:0:0:0:
372,295,39389,1,8,0:0:0:0:
372,293,39468,1,8,0:0:0:0:
322,278,39547,1,0,0:0:0:0:
401,318,39704,1,12,0:0:0:0:
406,292,39862,1,12,0:0:0:0:
373,305,40020,1,4,0:0:0:0:
343,293,40178,1,8,0:0:0:0:
330,287,40336,1,4,0:0:0:0:
330,287,40494,1,8,0:0:0:0:
330,287,40652,1,4,0:0:0:0:
358,272,40810,1,4,0:0:0:0:
329,298,40968,1,0,0:0:0:0:
357,292,41047,1,0,0:0:0:0:
357,292,41126,1,0,0:0:0:0:
358,293,41204,1,0,0:0:0:0:
366,298,41283,1,8,0:0:0:0:
374,311,41599,1,8,0:0:0:0:
355,285,41915,1,8,0:0:0:0:
355,285,42231,1,8,0:0:0:0:
332,162,42547,1,0,0:0:0:0:
331,264,42862,1,0,0:0:0:0:
346,266,43178,1,0,0:0:0:0:
353,265,43494,1,0,0:0:0:0:
442,343,43810,1,4,0:0:0:0:
327,288,43968,1,8,0:0:0:0:
327,288,44047,1,8,0:0:0:0:
327,288,44126,1,0,0:0:0:0:
302,258,44283,1,0,0:0:0:0:
338,286,44441,1,8,0:0:0:0:
338,286,44520,1,8,0:0:0:0:
306,267,44599,1,0,0:0:0:0:
306,267,44678,1,0,0:0:0:0:
306,267,44757,1,8,0:0:0:0:
349,278,44915,1,8,0:0:0:0:
373,333,45073,1,0,0:0:0:0:
332,304,45152,1,0,0:0:0:0:
330,282,45231,1,8,0:0:0:0:
332,304,45310,1,0,0:0:0:0:
327,298,45389,1,8,0:0:0:0:
309,294,45468,1,8,0:0:0:0:
309,294,45547,1,0,0:0:0:0:
338,306,45704,1,8,0:0:0:0:
326,299,45783,1,0,0:0:0:0:
315,309,45862,1,0,0:0:0:0:
315,309,45941,1,0,0:0:0:0:
315,309,46020,1,8,0:0:0:0:
348,293,46099,1,8,0:0:0:0:
348,293,46178,1,8,0:0:0:0:
348,293,46257,1,8,0:0:0:0:
348,293,46336,1,0,0:0:0:0:
391,314,46573,1,8,0:0:0:0:
376,307,46652,1,0,0:0:0:0:
355,297,46810,1,0,0:0:0:0:
356,315,46968,1,8,0:0:0:0:
320,267,47047,1,8,0:0:0:0:
332,304,47126,1,0,0:0:0:0:
332,304,47283,1,8,0:0:0:0:
252,248,47362,1,8,0:0:0:0:
297,231,47441,1,8,0:0:0:0:
326,302,47599,1,0,0:0:0:0:
341,303,47757,1,0,0:0:0:0:
322,284,47836,1,0,0:0:0:0:
320,282,47915,1,8,0:0:0:0:
357,321,47994,1,0,0:0:0:0:
342,307,48073,1,0,0:0:0:0:
342,304,48152,1,0,0:0:0:0:
347,298,48231,1,8,0:0:0:0:
348,303,48310,1,8,0:0:0:0:
356,295,48389,1,0,0:0:0:0:
389,327,48547,1,8,0:0:0:0:
409,267,48704,1,8,0:0:0:0:
376,311,48862,1,0,0:0:0:0:
341,318,49020,1,0,0:0:0:0:
341,318,49099,1,0,0:0:0:0:
331,305,49178,1,8,0:0:0:0:
341,318,49336,1,8,0:0:0:0:
323,305,49494,1,0,0:0:0:0:
323,305,49652,1,8,0:0:0:0:
323,305,49731,1,0,0:0:0:0:
323,305,49810,1,8,0:0:0:0:
356,314,49889,1,8,0:0:0:0:
356,310,49968,1,0,0:0:0:0:
394,308,50047,1,0,0:0:0:0:
390,302,50126,1,8,0:0:0:0:
338,307,50283,1,0,0:0:0:0:
325,298,50362,1,0,0:0:0:0:
325,298,50441,1,8,0:0:0:0:
374,315,50599,1,8,0:0:0:0:
380,289,50757,1,8,0:0:0:0:
302,245,50836,1,0,0:0:0:0:
302,245,50915,1,0,0:0:0:0:
302,245,50994,1,0,0:0:0:0:
302,245,51073,1,8,0:0:0:0:
302,245,51152,1,8,0:0:0:0:
302,245,51231,1,0,0:0:0:0:
378,308,51389,1,0,0:0:0:0:
366,317,51468,1,0,0:0:0:0:
366,316,51547,1,8,0:0:0:0:
338,301,51704,1,0,0:0:0:0:
338,300,51783,1,0,0:0:0:0:
338,301,51862,1,0,0:0:0:0:
352,293,52020,1,8,0:0:0:0:
352,293,52099,1,8,0:0:0:0:
352,293,52178,1,0,0:0:0:0:
330,285,52336,1,8,0:0:0:0:
330,286,52415,1,8,0:0:0:0:
338,283,52494,1,0,0:0:0:0:
381,322,52573,1,8,0:0:0:0:
349,299,52652,1,0,0:0:0:0:
349,296,52731,1,0,0:0:0:0:
393,311,52810,1,8,0:0:0:0:
336,300,52968,1,8,0:0:0:0:
336,300,53047,1,8,0:0:0:0:
353,312,53126,1,8,0:0:0:0:
356,314,53204,1,8,0:0:0:0:
375,304,53283,1,0,0:0:0:0:
396,329,53362,1,0,0:0:0:0:
398,319,53441,1,8,0:0:0:0:
421,311,53599,1,12,0:0:0:0:
352,314,53915,1,0,0:0:0:0:
329,290,54073,1,0,0:0:0:0:
328,288,54152,1,0,0:0:0:0:
329,290,54231,1,0,0:0:0:0:
336,278,54389,1,0,0:0:0:0:
342,273,54547,1,0,0:0:0:0:
356,304,54704,1,8,0:0:0:0:
349,298,54783,1,8,0:0:0:0:
349,298,54862,1,8,0:0:0:0:
403,260,55020,1,0,0:0:0:0:
404,251,55178,1,8,0:0:0:0:
354,240,55257,1,8,0:0:0:0:
354,240,55336,1,0,0:0:0:0:
373,231,55494,1,8,0:0:0:0:
333,279,55573,1,8,0:0:0:0:
337,300,55652,1,8,0:0:0:0:
351,304,55810,1,0,0:0:0:0:
356,296,55889,1,0,0:0:0:0:
356,293,55968,1,0,0:0:0:0:
357,292,56047,1,0,0:0:0:0:
358,288,56126,1,8,0:0:0:0:
359,286,56204,1,0,0:0:0:0:
364,278,56283,1,8,0:0:0:0:
367,274,56362,1,8,0:0:0:0:
373,268,56441,1,0,0:0:0:0:
358,288,56599,1,8,0:0:0:0:
360,284,56678,1,8,0:0:0:0:
416,313,57389,1,4,0:0:0:0:
355,303,57547,1,8,0:0:0:0:
236,272,57626,1,8,0:0:0:0:
257,267,57704,1,0,0:0:0:0:
270,265,57783,1,0,0:0:0:0:
270,265,57862,1,0,0:0:0:0:
270,265,57941,1,0,0:0:0:0:
270,265,58020,1,12,0:0:0:0:
397,310,58336,1,0,0:0:0:0:
350,309,58415,1,0,0:0:0:0:
323,295,58494,1,0,0:0:0:0:
337,281,58652,1,8,0:0:0:0:
316,165,58810,1,8,0:0:0:0:
316,165,58889,1,8,0:0:0:0:
366,202,58968,1,0,0:0:0:0:
361,316,59047,1,0,0:0:0:0:
365,303,59126,1,8,0:0:0:0:
337,312,59283,1,8,0:0:0:0:
372,311,59362,1,0,0:0:0:0:
371,309,59441,1,8,0:0:0:0:
337,312,59520,1,8,0:0:0:0:
332,299,59599,1,0,0:0:0:0:
332,299,59678,1,0,0:0:0:0:
332,299,59757,1,0,0:0:0:0:
332,299,59836,1,0,0:0:0:0:
333,292,59915,1,8,0:0:0:0:
362,309,60073,1,8,0:0:0:0:
310,261,60152,1,8,0:0:0:0:
356,302,60231,1,0,0:0:0:0:
303,268,60310,1,0,0:0:0:0:
356,302,60389,1,8,0:0:0:0:
303,268,60468,1,0,0:0:0:0:
303,268,60547,1,8,0:0:0:0:
303,268,60626,1,8,0:0:0:0:
354,295,60704,1,8,0:0:0:0:
331,270,60783,1,8,0:0:0:0:
328,268,60862,1,0,0:0:0:0:
346,312,60941,1,0,0:0:0:0:
346,312,61020,1,8,0:0:0:0:
359,319,61178,1,8,0:0:0:0:
359,320,61257,1,8,0:0:0:0:
359,319,61336,1,8,0:0:0:0:
369,309,61494,1,0,0:0:0:0:
368,309,61573,1,0,0:0:0:0:
336,306,61652,1,0,0:0:0:0:
357,299,61810,1,8,0:0:0:0:
355,297,61889,1,8,0:0:0:0:
372,309,61968,1,0,0:0:0:0:
396,305,62126,1,8,0:0:0:0:
334,313,62204,1,8,0:0:0:0:
316,293,62283,1,0,0:0:0:0:
334,313,62362,1,0,0:0:0:0:
334,313,62441,1,8,0:0:0:0:
364,328,62520,1,0,0:0:0:0:
364,324,62599,1,8,0:0:0:0:
374,336,62757,1,0,0:0:0:0:
364,324,62836,1,0,0:0:0:0:
374,256,62915,1,8,0:0:0:0:
374,256,62968,1,0,0:0:0:0:
374,256,63020,1,0,0:0:0:0:
389,265,63073,1,8,0:0:0:0:
422,332,63389,1,0,0:0:0:0:
370,323,63468,1,0,0:0:0:0:
370,323,63547,1,0,0:0:0:0:
370,323,63626,1,0,0:0:0:0:
370,323,63704,1,12,0:0:0:0:
383,306,63862,1,12,0:0:0:0:
414,316,64020,1,4,0:0:0:0:
316,280,64336,1,8,0:0:0:0:
314,273,64652,1,0,0:0:0:0:
314,273,64968,1,8,0:0:0:0:
343,250,65126,1,8,0:0:0:0:
376,297,65204,1,8,0:0:0:0:
351,313,65283,1,0,0:0:0:0:
311,290,65441,1,0,0:0:0:0:
311,290,65599,1,8,0:0:0:0:
311,290,65915,1,0,0:0:0:0:
310,290,66231,1,8,0:0:0:0:
370,292,66389,1,0,0:0:0:0:
366,300,66468,1,8,0:0:0:0:
366,300,66547,1,0,0:0:0:0:
352,305,66862,1,8,0:0:0:0:
352,305,67178,1,0,0:0:0:0:
352,305,67494,1,8,0:0:0:0:
352,305,67652,1,8,0:0:0:0:
375,304,67731,1,8,0:0:0:0:
374,304,67810,1,0,0:0:0:0:
359,303,67968,1,0,0:0:0:0:
359,303,68047,1,0,0:0:0:0:
359,303,68126,1,8,0:0:0:0:
411,328,68283,1,8,0:0:0:0:
353,313,68441,1,0,0:0:0:0:
384,298,68599,1,12,0:0:0:0:
350,293,68757,1,0,0:0:0:0:
364,277,68915,1,12,0:0:0:0:
399,302,69073,1,4,0:0:0:0:
366,304,69231,1,0,0:0:0:0:
371,297,69389,1,8,0:0:0:0:
349,298,69547,1,0,0:0:0:0:
366,316,69704,1,8,0:0:0:0:
313,304,69862,1,0,0:0:0:0:
308,288,70020,1,8,0:0:0:0:
312,279,70178,1,8,0:0:0:0:
315,279,70257,1,8,0:0:0:0:
312,279,70336,1,0,0:0:0:0:
358,314,70494,1,0,0:0:0:0:
380,298,70652,1,8,0:0:0:0:
362,296,70810,1,8,0:0:0:0:
403,276,70968,1,0,0:0:0:0:
303,259,71047,1,0,0:0:0:0:
303,259,71126,1,0,0:0:0:0:
377,325,71283,1,8,0:0:0:0:
350,304,71441,1,0,0:0:0:0:
350,304,71520,1,8,0:0:0:0:
352,295,71599,1,0,0:0:0:0:
344,309,71757,1,0,0:0:0:0:
357,282,71915,1,8,0:0:0:0:
318,272,72073,1,0,0:0:0:0:
356,288,72231,1,8,0:0:0:0:
334,298,72389,1,0,0:0:0:0:
331,279,72547,1,8,0:0:0:0:
346,263,72704,1,8,0:0:0:0:
346,263,72783,1,8,0:0:0:0:
346,263,72862,1,0,0:0:0:0:
360,304,73020,1,0,0:0:0:0:
360,304,73099,1,0,0:0:0:0:
360,304,73178,1,8,0:0:0:0:
306,254,73336,1,8,0:0:0:0:
340,286,73494,1,4,0:0:0:0:
341,288,73810,1,4,0:0:0:0:
358,273,74126,1,12,0:0:0:0:
365,318,74441,1,8,0:0:0:0:
360,305,74757,1,0,0:0:0:0:
360,305,75073,1,8,0:0:0:0:
367,299,75389,1,0,0:0:0:0:
368,313,75704,1,8,0:0:0:0:
366,287,76020,1,0,0:0:0:0:
366,287,76336,1,8,0:0:0:0:
360,319,76494,1,0,0:0:0:0:
360,319,76652,1,0,0:0:0:0:
360,319,76968,1,8,0:0:0:0:
394,322,77283,1,0,0:0:0:0:
396,318,77599,1,8,0:0:0:0:
368,294,77915,1,8,0:0:0:0:
368,294,77994,1,8,0:0:0:0:
340,290,78152,1,8,0:0:0:0:
322,282,78231,1,8,0:0:0:0:
330,275,78310,1,8,0:0:0:0:
340,290,78389,1,8,0:0:0:0:
351,299,78547,1,8,0:0:0:0:
361,308,78626,1,8,0:0:0:0:
365,283,78783,1,8,0:0:0:0:
351,290,78862,1,0,0:0:0:0:
354,284,78941,1,8,0:0:0:0:
354,284,79020,1,0,0:0:0:0:
351,290,79099,1,8,0:0:0:0:
354,284,79178,1,0,0:0:0:0:
357,307,79336,1,8,0:0:0:0:
366,290,79494,1,0,0:0:0:0:
332,290,79652,1,8,0:0:0:0:
381,331,79810,1,0,0:0:0:0:
371,319,79889,1,8,0:0:0:0:
373,305,79968,1,8,0:0:0:0:
383,319,80126,1,0,0:0:0:0:
374,273,80283,1,8,0:0:0:0:
334,305,80441,1,0,0:0:0:0:
317,277,80599,1,8,0:0:0:0:
345,274,80757,1,0,0:0:0:0:
345,274,80915,1,8,0:0:0:0:
361,293,81073,1,0,0:0:0:0:
361,293,81152,1,0,0:0:0:0:
327,311,81231,1,8,0:0:0:0:
327,311,81310,1,8,0:0:0:0:
331,303,81389,1,0,0:0:0:0:
346,315,81468,1,8,0:0:0:0:
352,304,81547,1,8,0:0:0:0:
357,304,81626,1,8,0:0:0:0:
366,301,81704,1,0,0:0:0:0:
357,314,81783,1,0,0:0:0:0:
365,308,81862,1,8,0:0:0:0:
308,278,81941,1,0,0:0:0:0:
344,309,82020,1,0,0:0:0:0:
344,309,82099,1,0,0:0:0:0:
344,309,82178,1,8,0:0:0:0:
311,275,82257,1,8,0:0:0:0:
351,298,82336,1,0,0:0:0:0:
351,298,82415,1,0,0:0:0:0:
356,293,82494,1,8,0:0:0:0:
334,308,82573,1,8,0:0:0:0:
356,290,82652,1,8,0:0:0:0:
356,293,82731,1,0,0:0:0:0:
346,296,82810,1,8,0:0:0:0:
346,296,82889,1,8,0:0:0:0:
351,293,82968,1,0,0:0:0:0:
352,300,83283,1,8,0:0:0:0:
352,300,83362,1,8,0:0:0:0:
352,300,83441,1,8,0:0:0:0:
352,300,83520,1,8,0:0:0:0:
352,300,83599,1,0,0:0:0:0:
363,293,83757,1,8,0:0:0:0:
363,288,83836,1,8,0:0:0:0:
268,170,83915,1,0,0:0:0:0:
380,295,84231,5,4,0:0:0:0:
361,301,84389,1,8,0:0:0:0:
382,273,84547,1,4,0:0:0:0:
394,283,84704,1,8,0:0:0:0:
385,309,84862,1,0,0:0:0:0:
220,220,84941,1,0,0:0:0:0:
248,218,85020,1,8,0:0:0:0:
253,218,85178,1,0,0:0:0:0:
248,218,85257,1,0,0:0:0:0:
253,218,85336,1,8,0:0:0:0:
338,287,85494,1,0,0:0:0:0:
339,263,85652,1,8,0:0:0:0:
416,324,85731,1,8,0:0:0:0:
382,306,85810,1,0,0:0:0:0:
416,324,85968,1,8,0:0:0:0:
357,281,86126,1,8,0:0:0:0:
357,281,86204,1,8,0:0:0:0:
357,281,86283,1,8,0:0:0:0:
357,281,86362,1,8,0:0:0:0:
357,281,86441,1,0,0:0:0:0:
357,281,86520,1,0,0:0:0:0:
357,281,86599,1,8,0:0:0:0:
327,293,86757,1,0,0:0:0:0:
339,283,86915,1,8,0:0:0:0:
348,262,86994,1,0,0:0:0:0:
339,283,87073,1,8,0:0:0:0:
369,271,87231,1,0,0:0:0:0:
358,312,87389,1,8,0:0:0:0:
358,312,87468,1,8,0:0:0:0:
272,209,87547,1,8,0:0:0:0:
340,316,87704,1,0,0:0:0:0:
372,260,87862,1,8,0:0:0:0:
339,290,88020,1,0,0:0:0:0:
352,277,88178,1,8,0:0:0:0:
352,277,88257,1,8,0:0:0:0:
352,277,88336,1,0,0:0:0:0:
375,269,88494,1,8,0:0:0:0:
374,304,88652,1,12,0:0:0:0:
389,298,88968,1,12,0:0:0:0:
390,303,89283,1,4,0:0:0:0:
360,313,89599,1,4,0:0:0:0:
353,303,89915,1,4,0:0:0:0:
352,303,90231,1,4,0:0:0:0:
388,312,90547,1,4,0:0:0:0:
353,305,90862,1,4,0:0:0:0:
332,307,91178,1,4,0:0:0:0:
332,307,91415,1,0,0:0:0:0:
332,307,91494,1,0,0:0:0:0:
332,307,91652,1,0,0:0:0:0:
332,307,91810,1,4,0:0:0:0:
374,298,92126,1,4,0:0:0:0:
374,298,92441,1,4,0:0:0:0:
374,298,92757,1,4,0:0:0:0:
256,192,93073,12,0,93704,0:0:0:0:
364,303,93862,5,12,0:0:0:0:
331,207,94210,1,8,0:0:0:0:
416,315,94273,1,8,0:0:0:0:
382,289,94336,1,4,0:0:0:0:
334,299,94573,1,0,0:0:0:0:
334,299,94652,1,8,0:0:0:0:
331,286,94810,1,8,0:0:0:0:
336,278,94968,1,0,0:0:0:0:
308,288,95047,1,0,0:0:0:0:
309,287,95126,1,8,0:0:0:0:
308,286,95204,1,8,0:0:0:0:
308,288,95283,1,0,0:0:0:0:
343,274,95441,1,8,0:0:0:0:
355,315,95599,1,0,0:0:0:0:
379,315,95757,1,8,0:0:0:0:
330,290,95836,1,0,0:0:0:0:
331,291,95915,1,8,0:0:0:0:
349,295,96073,1,8,0:0:0:0:
329,295,96231,1,0,0:0:0:0:
328,293,96310,1,8,0:0:0:0:
329,295,96389,1,0,0:0:0:0:
329,295,96468,1,0,0:0:0:0:
328,293,96547,1,8,0:0:0:0:
343,278,96704,1,0,0:0:0:0:
349,275,96862,1,8,0:0:0:0:
342,298,97020,1,8,0:0:0:0:
341,292,97099,1,8,0:0:0:0:
366,306,97178,1,8,0:0:0:0:
368,305,97336,1,0,0:0:0:0:
375,303,97494,1,0,0:0:0:0:
360,293,97573,1,0,0:0:0:0:
360,293,97652,1,8,0:0:0:0:
360,293,97731,1,0,0:0:0:0:
360,293,97810,1,8,0:0:0:0:
375,283,97968,1,8,0:0:0:0:
387,313,98126,1,0,0:0:0:0:
376,315,98283,1,8,0:0:0:0:
374,311,98362,1,8,0:0:0:0:
376,315,98441,1,8,0:0:0:0:
392,298,98599,1,0,0:0:0:0:
384,323,98757,1,0,0:0:0:0:
359,304,98836,1,8,0:0:0:0:
359,303,98915,1,0,0:0:0:0:
359,303,98994,1,0,0:0:0:0:
359,304,99073,1,8,0:0:0:0:
378,310,99231,1,8,0:0:0:0:
403,319,99389,1,4,0:0:0:0:
346,296,99626,1,8,0:0:0:0:
346,296,99704,1,0,0:0:0:0:
342,283,99862,1,8,0:0:0:0:
326,305,100020,1,0,0:0:0:0:
321,302,100099,1,0,0:0:0:0:
326,305,100178,1,8,0:0:0:0:
387,311,100257,1,0,0:0:0:0:
321,302,100336,1,8,0:0:0:0:
357,289,100494,1,0,0:0:0:0:
386,300,100652,1,12,0:0:0:0:
373,297,100810,1,8,0:0:0:0:
372,297,100889,1,8,0:0:0:0:
373,297,100968,1,0,0:0:0:0:
392,297,101126,1,8,0:0:0:0:
347,305,101283,1,0,0:0:0:0:
347,298,101362,1,8,0:0:0:0:
350,297,101441,1,0,0:0:0:0:
350,297,101520,1,0,0:0:0:0:
347,298,101599,1,8,0:0:0:0:
398,312,101757,1,8,0:0:0:0:
365,293,101915,1,4,0:0:0:0:
291,273,102152,1,8,0:0:0:0:
291,273,102231,1,8,0:0:0:0:
333,262,102389,1,0,0:0:0:0:
389,223,102547,1,12,0:0:0:0:
335,294,102783,1,0,0:0:0:0:
335,294,102862,1,8,0:0:0:0:
350,298,103020,1,0,0:0:0:0:
370,268,103178,1,4,0:0:0:0:
360,289,103336,1,8,0:0:0:0:
381,312,103494,1,0,0:0:0:0:
323,284,103573,1,0,0:0:0:0:
333,284,103652,1,8,0:0:0:0:
374,325,103731,1,8,0:0:0:0:
392,311,103810,1,0,0:0:0:0:
375,307,103968,1,0,0:0:0:0:
256,192,104126,12,0,104283,0:0:0:0:
403,301,104441,5,4,0:0:0:0:
358,306,104599,1,8,0:0:0:0:
358,306,104757,1,8,0:0:0:0:
367,307,104836,1,0,0:0:0:0:
367,306,104915,1,8,0:0:0:0:
341,283,104994,1,8,0:0:0:0:
344,298,105073,1,0,0:0:0:0:
344,297,105152,1,0,0:0:0:0:
341,283,105231,1,8,0:0:0:0:
310,292,105310,1,0,0:0:0:0:
310,292,105389,1,8,0:0:0:0:
336,278,105547,1,8,0:0:0:0:
408,311,105704,1,0,0:0:0:0:
359,303,105783,1,0,0:0:0:0:
358,295,105862,1,0,0:0:0:0:
366,283,106020,1,8,0:0:0:0:
358,286,106178,1,8,0:0:0:0:
358,286,106257,1,8,0:0:0:0:
372,298,106336,1,0,0:0:0:0:
354,310,106415,1,8,0:0:0:0:
368,296,106573,1,0,0:0:0:0:
367,295,106652,1,8,0:0:0:0:
343,294,106731,1,8,0:0:0:0:
343,294,106810,1,0,0:0:0:0:
343,294,106889,1,0,0:0:0:0:
343,294,106968,1,8,0:0:0:0:
343,294,107047,1,0,0:0:0:0:
343,294,107126,1,0,0:0:0:0:
324,298,107283,1,8,0:0:0:0:
320,296,107362,1,8,0:0:0:0:
324,298,107441,1,0,0:0:0:0:
320,296,107599,1,8,0:0:0:0:
324,298,107678,1,8,0:0:0:0:
320,296,107757,1,8,0:0:0:0:
329,281,107915,1,0,0:0:0:0:
328,280,107994,1,0,0:0:0:0:
348,275,108073,1,8,0:0:0:0:
378,318,108231,1,0,0:0:0:0:
370,307,108389,1,0,0:0:0:0:
370,307,108547,1,8,0:0:0:0:
370,307,108704,1,8,0:0:0:0:
335,295,108783,1,8,0:0:0:0:
335,295,108862,1,0,0:0:0:0:
361,317,108941,1,8,0:0:0:0:
359,299,109099,1,0,0:0:0:0:
359,299,109178,1,8,0:0:0:0:
343,308,109336,1,8,0:0:0:0:
343,308,109415,1,8,0:0:0:0:
343,308,109494,1,0,0:0:0:0:
339,299,109652,1,0,0:0:0:0:
339,295,109731,1,0,0:0:0:0:
341,289,109810,1,8,0:0:0:0:
324,293,109968,1,0,0:0:0:0:
338,291,110126,1,8,0:0:0:0:
388,315,110204,1,8,0:0:0:0:
356,309,110283,1,0,0:0:0:0:
284,288,110362,1,8,0:0:0:0:
291,283,110441,1,0,0:0:0:0:
355,308,110599,1,8,0:0:0:0:
355,316,110757,1,0,0:0:0:0:
426,340,110836,1,0,0:0:0:0:
362,305,110915,1,8,0:0:0:0:
371,320,111073,1,0,0:0:0:0:
351,288,111231,1,8,0:0:0:0:
351,288,111310,1,8,0:0:0:0:
356,283,111389,1,0,0:0:0:0:
371,309,111547,1,8,0:0:0:0:
363,319,111704,1,0,0:0:0:0:
365,302,111862,1,8,0:0:0:0:
365,299,111941,1,8,0:0:0:0:
367,294,112020,1,0,0:0:0:0:
321,297,112099,1,0,0:0:0:0:
321,297,112178,1,0,0:0:0:0:
330,279,112336,1,8,0:0:0:0:
337,304,112415,1,8,0:0:0:0:
337,304,112494,1,8,0:0:0:0:
337,304,112652,1,0,0:0:0:0:
337,304,112731,1,0,0:0:0:0:
337,304,112810,1,8,0:0:0:0:
337,304,112968,1,8,0:0:0:0:
337,304,113047,1,8,0:0:0:0:
337,304,113126,1,0,0:0:0:0:
361,304,113283,1,8,0:0:0:0:
401,325,113599,1,8,0:0:0:0:
384,327,113915,1,8,0:0:0:0:
361,310,114073,1,0,0:0:0:0:
359,309,114152,1,0,0:0:0:0:
361,310,114231,1,8,0:0:0:0:
359,301,114310,1,8,0:0:0:0:
370,309,114389,1,8,0:0:0:0:
370,309,114468,1,8,0:0:0:0:
416,323,114547,1,4,0:0:0:0:
366,293,114704,1,0,0:0:0:0:
381,290,114862,1,8,0:0:0:0:
361,305,114941,1,8,0:0:0:0:
361,303,115020,1,0,0:0:0:0:
350,305,115178,1,8,0:0:0:0:
350,305,115257,1,0,0:0:0:0:
353,297,115336,1,0,0:0:0:0:
354,297,115415,1,0,0:0:0:0:
354,297,115494,1,8,0:0:0:0:
384,312,115652,1,8,0:0:0:0:
381,322,115810,1,0,0:0:0:0:
384,312,115889,1,0,0:0:0:0:
333,300,115968,1,0,0:0:0:0:
375,299,116047,1,0,0:0:0:0:
350,291,116126,1,8,0:0:0:0:
356,286,116204,1,8,0:0:0:0:
375,299,116283,1,0,0:0:0:0:
356,284,116336,1,8,0:0:0:0:
325,217,116389,1,8,0:0:0:0:
399,310,116441,1,0,0:0:0:0:
364,316,116520,1,8,0:0:0:0:
388,324,116678,1,0,0:0:0:0:
388,323,116757,1,8,0:0:0:0:
381,319,116915,1,8,0:0:0:0:
306,231,117073,1,4,0:0:0:0:
389,250,117231,1,8,0:0:0:0:
290,239,117389,1,0,0:0:0:0:
290,239,117468,1,0,0:0:0:0:
362,268,117547,1,8,0:0:0:0:
335,236,117704,1,4,0:0:0:0:
371,277,117862,1,8,0:0:0:0:
376,284,118020,1,8,0:0:0:0:
362,280,118099,1,8,0:0:0:0:
400,298,118178,1,8,0:0:0:0:
299,226,118336,1,4,0:0:0:0:
352,295,118494,1,0,0:0:0:0:
352,295,118573,1,0,0:0:0:0:
352,295,118652,1,8,0:0:0:0:
370,314,118731,1,8,0:0:0:0:
369,313,118810,1,8,0:0:0:0:
346,311,118968,1,0,0:0:0:0:
361,289,119126,1,8,0:0:0:0:
355,294,119204,1,0,0:0:0:0:
355,294,119283,1,0,0:0:0:0:
372,309,119362,1,8,0:0:0:0:
386,303,119441,1,0,0:0:0:0:
411,323,119599,1,4,0:0:0:0:
314,285,119836,1,8,0:0:0:0:
314,285,119915,1,0,0:0:0:0:
354,271,120073,1,8,0:0:0:0:
376,298,120152,1,8,0:0:0:0:
339,294,120231,1,0,0:0:0:0:
313,282,120389,1,0,0:0:0:0:
314,283,120468,1,0,0:0:0:0:
313,282,120547,1,8,0:0:0:0:
346,257,120704,1,8,0:0:0:0:
350,308,120862,1,0,0:0:0:0:
350,308,120941,1,0,0:0:0:0:
350,308,121020,1,8,0:0:0:0:
371,328,121099,1,0,0:0:0:0:
371,328,121178,1,8,0:0:0:0:
363,313,121336,1,8,0:0:0:0:
362,303,121415,1,0,0:0:0:0:
360,306,121494,1,0,0:0:0:0:
353,296,121573,1,8,0:0:0:0:
381,280,121731,1,0,0:0:0:0:
372,277,121810,1,8,0:0:0:0:
355,293,121968,1,8,0:0:0:0:
355,293,122126,1,0,0:0:0:0:
369,290,122204,1,0,0:0:0:0:
341,306,122283,1,0,0:0:0:0:
339,303,122362,1,0,0:0:0:0:
341,306,122441,1,8,0:0:0:0:
357,287,122520,1,0,0:0:0:0:
345,295,122599,1,8,0:0:0:0:
321,300,122678,1,8,0:0:0:0:
339,285,122757,1,8,0:0:0:0:
321,298,122836,1,8,0:0:0:0:
327,289,122915,1,0,0:0:0:0:
327,289,122994,1,0,0:0:0:0:
327,287,123073,1,8,0:0:0:0:
380,295,123231,1,0,0:0:0:0:
331,288,123389,1,8,0:0:0:0:
331,288,123468,1,0,0:0:0:0:
331,288,123547,1,0,0:0:0:0:
331,288,123626,1,0,0:0:0:0:
352,302,123704,1,8,0:0:0:0:
343,305,123783,1,0,0:0:0:0:
343,305,123862,1,8,0:0:0:0:
347,298,123941,1,8,0:0:0:0:
347,298,124020,1,0,0:0:0:0:
345,320,124099,1,0,0:0:0:0:
370,308,124178,1,0,0:0:0:0:
343,317,124257,1,0,0:0:0:0:
345,320,124336,1,8,0:0:0:0:
384,318,124494,1,8,0:0:0:0:
416,331,124652,1,0,0:0:0:0:
339,300,124889,1,0,0:0:0:0:
339,300,124968,1,8,0:0:0:0:
361,278,125126,1,8,0:0:0:0:
374,311,125283,1,0,0:0:0:0:
371,305,125362,1,0,0:0:0:0:
374,311,125441,1,8,0:0:0:0:
374,311,125520,1,8,0:0:0:0:
371,305,125599,1,0,0:0:0:0:
417,343,125757,1,8,0:0:0:0:
268,167,125915,1,4,0:0:0:0:
268,167,126073,1,4,0:0:0:0:
337,284,126389,1,0,0:0:0:0:
391,311,126547,1,12,0:0:0:0:
402,318,126862,1,8,0:0:0:0:
407,312,127178,1,4,0:0:0:0:
395,323,127336,1,0,0:0:0:0:
399,314,127494,1,8,0:0:0:0:
374,305,127652,1,8,0:0:0:0:
374,304,127731,1,8,0:0:0:0:
374,305,127810,1,0,0:0:0:0:
373,312,127968,1,8,0:0:0:0:
374,305,128047,1,0,0:0:0:0:
368,322,128126,1,8,0:0:0:0:
374,305,128283,1,8,0:0:0:0:
333,272,128441,1,0,0:0:0:0:
399,300,128520,1,0,0:0:0:0:
342,265,128599,1,0,0:0:0:0:
342,265,128678,1,0,0:0:0:0:
342,264,128757,1,8,0:0:0:0:
380,313,128915,1,8,0:0:0:0:
362,300,128994,1,8,0:0:0:0:
362,300,129073,1,0,0:0:0:0:
365,295,129152,1,8,0:0:0:0:
362,300,129231,1,8,0:0:0:0:
399,321,129389,1,0,0:0:0:0:
392,304,129547,1,8,0:0:0:0:
412,331,129704,1,0,0:0:0:0:
376,308,129862,1,0,0:0:0:0:
376,308,129941,1,0,0:0:0:0:
376,308,130020,1,8,0:0:0:0:
360,304,130178,1,8,0:0:0:0:
360,303,130257,1,8,0:0:0:0:
360,304,130336,1,0,0:0:0:0:
360,304,130415,1,8,0:0:0:0:
350,297,130494,1,0,0:0:0:0:
350,294,130573,1,0,0:0:0:0:
350,294,130652,1,8,0:0:0:0:
367,299,130810,1,0,0:0:0:0:
352,266,130889,1,0,0:0:0:0:
367,299,130968,1,0,0:0:0:0:
393,324,131126,1,0,0:0:0:0:
411,321,131283,1,8,0:0:0:0:
381,326,131362,1,0,0:0:0:0:
380,323,131441,1,0,0:0:0:0:
380,323,131520,1,8,0:0:0:0:
384,313,131599,1,0,0:0:0:0:
384,308,131678,1,8,0:0:0:0:
391,302,131757,1,0,0:0:0:0:
262,194,131915,1,8,0:0:0:0:
359,206,132073,1,8,0:0:0:0:
425,328,132231,1,4,0:0:0:0:
351,308,132389,1,0,0:0:0:0:
361,295,132547,1,8,0:0:0:0:
329,293,132704,1,0,0:0:0:0:
331,289,132783,1,8,0:0:0:0:
329,293,132862,1,0,0:0:0:0:
333,285,132941,1,8,0:0:0:0:
380,331,133020,1,0,0:0:0:0:
379,316,133099,1,0,0:0:0:0:
381,304,133178,1,8,0:0:0:0:
381,323,133336,1,8,0:0:0:0:
388,309,133494,1,0,0:0:0:0:
388,309,133652,1,8,0:0:0:0:
388,309,133810,1,8,0:0:0:0:
370,320,133968,1,0,0:0:0:0:
366,311,134047,1,8,0:0:0:0:
319,293,134126,1,0,0:0:0:0:
319,293,134204,1,8,0:0:0:0:
370,319,134362,1,8,0:0:0:0:
402,312,134441,1,0,0:0:0:0:
356,308,134520,1,8,0:0:0:0:
356,308,134599,1,8,0:0:0:0:
433,254,134757,1,4,0:0:0:0:
375,313,134915,1,0,0:0:0:0:
370,306,134994,1,0,0:0:0:0:
368,304,135073,1,0,0:0:0:0:
375,278,135231,1,4,0:0:0:0:
388,261,135389,1,12,0:0:0:0:
368,268,135547,1,4,0:0:0:0:
368,268,135704,1,4,0:0:0:0:
396,242,135862,1,12,0:0:0:0:
413,320,136020,1,0,0:0:0:0:
370,307,136099,1,8,0:0:0:0:
370,307,136178,1,8,0:0:0:0:
361,312,136336,1,8,0:0:0:0:
361,312,136494,1,8,0:0:0:0:
342,297,136652,1,0,0:0:0:0:
344,274,136810,1,8,0:0:0:0:
392,334,136968,1,8,0:0:0:0:
366,295,137047,1,0,0:0:0:0:
367,299,137126,1,8,0:0:0:0:
361,312,137204,1,8,0:0:0:0:
418,329,137283,1,4,0:0:0:0:
370,313,137599,1,8,0:0:0:0:
414,341,137757,1,0,0:0:0:0:
383,318,137915,1,0,0:0:0:0:
356,308,138073,1,8,0:0:0:0:
356,308,138152,1,8,0:0:0:0:
356,308,138231,1,8,0:0:0:0:
368,297,138389,1,0,0:0:0:0:
386,313,138547,1,8,0:0:0:0:
364,310,138704,1,0,0:0:0:0:
357,284,138783,1,0,0:0:0:0:
378,298,138862,1,8,0:0:0:0:
339,293,139020,1,8,0:0:0:0:
355,283,139178,1,0,0:0:0:0:
377,313,139336,1,8,0:0:0:0:
377,313,139415,1,8,0:0:0:0:
377,313,139494,1,0,0:0:0:0:
391,312,139573,1,0,0:0:0:0:
365,308,139652,1,8,0:0:0:0:
364,308,139731,1,8,0:0:0:0:
365,308,139810,1,0,0:0:0:0:
371,303,139968,1,0,0:0:0:0:
376,295,140126,1,8,0:0:0:0:
403,329,140283,1,0,0:0:0:0:
373,300,140441,1,8,0:0:0:0:
337,308,140599,1,0,0:0:0:0:
337,308,140678,1,0,0:0:0:0:
337,308,140757,1,8,0:0:0:0:
366,291,140915,1,8,0:0:0:0:
415,310,141073,1,0,0:0:0:0:
359,318,141152,1,0,0:0:0:0:
359,318,141231,1,0,0:0:0:0:
359,318,141310,1,0,0:0:0:0:
415,326,141389,1,8,0:0:0:0:
415,326,141547,1,0,0:0:0:0:
399,307,141704,1,8,0:0:0:0:
398,307,141783,1,8,0:0:0:0:
399,307,141862,1,8,0:0:0:0:
399,307,141941,1,8,0:0:0:0:
376,265,142020,1,0,0:0:0:0:
381,287,142231,1,8,0:0:0:0:
409,309,142336,1,0,0:0:0:0:
392,330,142494,1,0,0:0:0:0:
412,316,142652,1,8,0:0:0:0:
352,305,142810,1,0,0:0:0:0:
362,293,142968,1,8,0:0:0:0:
360,328,143126,1,8,0:0:0:0:
352,315,143204,1,8,0:0:0:0:
351,318,143283,1,0,0:0:0:0:
363,311,143441,1,8,0:0:0:0:
416,340,143599,1,0,0:0:0:0:
398,331,143757,1,8,0:0:0:0:
397,328,143836,1,8,0:0:0:0:
398,331,143915,1,8,0:0:0:0:
350,177,144073,1,8,0:0:0:0:
416,290,144231,1,0,0:0:0:0:
387,330,144310,1,0,0:0:0:0:
384,323,144389,1,8,0:0:0:0:
384,319,144547,1,0,0:0:0:0:
416,302,144704,1,8,0:0:0:0:
401,319,144783,1,8,0:0:0:0:
401,319,144862,1,0,0:0:0:0:
281,199,145020,1,0,0:0:0:0:
281,199,145178,1,8,0:0:0:0:
350,303,145336,1,0,0:0:0:0:
350,303,145494,1,8,0:0:0:0:
369,311,145652,1,0,0:0:0:0:
369,310,145731,1,0,0:0:0:0:
369,311,145810,1,8,0:0:0:0:
359,299,145968,1,8,0:0:0:0:
332,195,146126,1,4,0:0:0:0:
389,258,146441,1,12,0:0:0:0:
404,240,146757,1,12,0:0:0:0:
389,303,147073,1,12,0:0:0:0:
398,303,147389,1,4,0:0:0:0:
297,248,147547,1,8,0:0:0:0:
376,318,147704,1,0,0:0:0:0:
366,309,147862,1,0,0:0:0:0:
363,308,147941,1,0,0:0:0:0:
366,309,148020,1,8,0:0:0:0:
379,285,148178,1,8,0:0:0:0:
350,294,148257,1,8,0:0:0:0:
350,294,148336,1,0,0:0:0:0:
347,260,148494,1,8,0:0:0:0:
378,321,148652,1,0,0:0:0:0:
354,303,148810,1,0,0:0:0:0:
343,313,148889,1,0,0:0:0:0:
383,315,148968,1,8,0:0:0:0:
323,273,149126,1,8,0:0:0:0:
341,308,149283,1,0,0:0:0:0:
341,306,149362,1,8,0:0:0:0:
341,308,149441,1,0,0:0:0:0:
341,308,149520,1,8,0:0:0:0:
341,306,149599,1,0,0:0:0:0:
287,246,149757,1,0,0:0:0:0:
287,246,149836,1,0,0:0:0:0:
305,226,149915,1,8,0:0:0:0:
381,307,150073,1,8,0:0:0:0:
381,307,150231,1,0,0:0:0:0:
355,303,150389,1,8,0:0:0:0:
380,318,150468,1,8,0:0:0:0:
386,311,150547,1,0,0:0:0:0:
362,318,150704,1,0,0:0:0:0:
359,305,150862,1,8,0:0:0:0:
380,302,151020,1,8,0:0:0:0:
414,323,151178,1,0,0:0:0:0:
378,327,151257,1,0,0:0:0:0:
378,327,151336,1,0,0:0:0:0:
378,326,151415,1,0,0:0:0:0:
378,327,151494,1,8,0:0:0:0:
343,288,151810,1,8,0:0:0:0:
343,288,151968,1,8,0:0:0:0:
411,289,152126,1,4,0:0:0:0:
386,308,152283,1,8,0:0:0:0:
421,338,152441,1,0,0:0:0:0:
382,320,152599,1,0,0:0:0:0:
395,318,152678,1,0,0:0:0:0:
418,274,152757,1,8,0:0:0:0:
361,257,152915,1,0,0:0:0:0:
381,294,153073,1,0,0:0:0:0:
363,293,153231,1,8,0:0:0:0:
345,278,153310,1,8,0:0:0:0:
345,278,153389,1,0,0:0:0:0:
348,273,153468,1,8,0:0:0:0:
350,270,153547,1,8,0:0:0:0:
377,303,153704,1,0,0:0:0:0:
377,303,153783,1,0,0:0:0:0:
404,246,153862,1,0,0:0:0:0:
371,315,154020,1,8,0:0:0:0:
379,306,154099,1,0,0:0:0:0:
356,285,154178,1,0,0:0:0:0:
358,315,154257,1,8,0:0:0:0:
376,291,154336,1,0,0:0:0:0:
375,322,154415,1,0,0:0:0:0:
376,291,154494,1,0,0:0:0:0:
389,319,154652,1,8,0:0:0:0:
389,319,154810,1,8,0:0:0:0:
410,315,154968,1,0,0:0:0:0:
343,299,155126,1,8,0:0:0:0:
343,299,155283,1,0,0:0:0:0:
338,287,155441,1,0,0:0:0:0:
338,287,155599,1,8,0:0:0:0:
338,287,155757,1,8,0:0:0:0:
338,287,155915,1,8,0:0:0:0:
338,287,156073,1,8,0:0:0:0:
414,323,156231,1,4,0:0:0:0:
374,301,156547,1,4,0:0:0:0:
374,295,156862,1,4,0:0:0:0:
409,278,157178,1,12,0:0:0:0:
348,284,157494,1,4,0:0:0:0:
323,268,157652,1,0,0:0:0:0:
323,268,157731,1,0,0:0:0:0:
323,268,157810,1,0,0:0:0:0:
347,253,157968,1,4,0:0:0:0:
382,300,158126,1,8,0:0:0:0:
385,278,158178,1,0,0:0:0:0:
385,278,158231,1,0,0:0:0:0:
385,278,158283,1,8,0:0:0:0:
390,293,158441,1,12,0:0:0:0:
373,294,158599,1,4,0:0:0:0:
353,293,158757,1,4,0:0:0:0:
387,268,158994,1,0,0:0:0:0:
377,293,159073,1,8,0:0:0:0:
399,242,159231,1,4,0:0:0:0:
396,314,159468,1,8,0:0:0:0:
359,294,159547,1,8,0:0:0:0:
417,333,159704,1,4,0:0:0:0:
424,289,160020,1,4,0:0:0:0:
397,318,160336,1,4,0:0:0:0:
392,308,160494,1,4,0:0:0:0:
398,310,160810,1,4,0:0:0:0:
388,309,160968,1,12,0:0:0:0:
372,306,161126,1,12,0:0:0:0:
372,306,161283,1,4,0:0:0:0:
343,293,161441,1,4,0:0:0:0:
343,293,161599,1,0,0:0:0:0:
343,293,161678,1,0,0:0:0:0:
345,274,161757,1,8,0:0:0:0:
343,293,161836,1,0,0:0:0:0:
353,303,162073,1,4,0:0:0:0:
391,316,162231,1,12,0:0:0:0:
407,325,162547,1,4,0:0:0:0:
377,307,162862,1,0,0:0:0:0:
374,291,162941,1,0,0:0:0:0:
374,291,163020,1,0,0:0:0:0:
362,293,163257,1,4,0:0:0:0:
336,240,163494,1,4,0:0:0:0:
376,295,163652,1,12,0:0:0:0:
388,285,163810,1,4,0:0:0:0:
386,322,164126,1,4,0:0:0:0:
391,307,164283,1,4,0:0:0:0:
382,315,164520,1,4,0:0:0:0:
343,300,164757,1,12,0:0:0:0:
346,279,164915,1,8,0:0:0:0:
346,278,164994,1,8,0:0:0:0:
354,303,165073,1,0,0:0:0:0:
352,293,165389,1,4,0:0:0:0:
364,278,165547,1,4,0:0:0:0:
388,317,165862,1,4,0:0:0:0:
256,192,166020,12,0,166810,0:0:0:0:
368,308,166968,5,0,0:0:0:0:
356,292,167047,1,0,0:0:0:0:
356,292,167126,1,0,0:0:0:0:
356,292,167204,1,0,0:0:0:0:
356,292,167283,1,8,0:0:0:0:
356,292,167362,1,8,0:0:0:0:
356,292,167441,1,8,0:0:0:0:
356,292,167520,1,8,0:0:0:0:
376,278,167599,1,4,0:0:0:0:
373,314,167757,1,0,0:0:0:0:
373,311,167836,1,0,0:0:0:0:
373,314,167915,1,8,0:0:0:0:
396,294,168073,1,0,0:0:0:0:
376,311,168231,1,8,0:0:0:0:
343,301,168310,1,8,0:0:0:0:
343,301,168389,1,0,0:0:0:0:
346,304,168468,1,0,0:0:0:0:
346,304,168547,1,8,0:0:0:0:
386,298,168704,1,8,0:0:0:0:
403,315,168862,1,0,0:0:0:0:
347,314,168941,1,8,0:0:0:0:
347,314,169020,1,8,0:0:0:0:
347,314,169099,1,8,0:0:0:0:
347,314,169178,1,0,0:0:0:0:
353,308,169336,1,0,0:0:0:0:
410,319,169494,1,8,0:0:0:0:
360,316,169573,1,0,0:0:0:0:
370,298,169652,1,0,0:0:0:0:
370,298,169731,1,0,0:0:0:0:
370,298,169810,1,8,0:0:0:0:
366,305,169889,1,0,0:0:0:0:
375,296,169968,1,8,0:0:0:0:
374,298,170047,1,8,0:0:0:0:
408,301,170126,1,0,0:0:0:0:
327,285,170362,1,0,0:0:0:0:
327,285,170441,1,8,0:0:0:0:
334,280,170599,1,8,0:0:0:0:
406,331,170757,1,0,0:0:0:0:
381,313,170836,1,0,0:0:0:0:
381,313,170915,1,8,0:0:0:0:
381,313,170994,1,8,0:0:0:0:
381,313,171073,1,0,0:0:0:0:
393,302,171231,1,8,0:0:0:0:
381,313,171310,1,8,0:0:0:0:
379,317,171389,1,0,0:0:0:0:
376,323,171547,1,8,0:0:0:0:
379,317,171626,1,0,0:0:0:0:
377,316,171704,1,8,0:0:0:0:
372,301,171862,1,8,0:0:0:0:
383,307,171941,1,8,0:0:0:0:
400,316,172020,1,0,0:0:0:0:
361,322,172099,1,0,0:0:0:0:
365,311,172178,1,8,0:0:0:0:
391,333,172257,1,0,0:0:0:0:
389,323,172336,1,8,0:0:0:0:
388,320,172415,1,8,0:0:0:0:
338,266,172494,1,8,0:0:0:0:
389,323,172573,1,8,0:0:0:0:
388,320,172652,1,0,0:0:0:0:
366,329,172810,1,0,0:0:0:0:
354,315,172889,1,0,0:0:0:0:
354,315,172968,1,8,0:0:0:0:
397,294,173126,1,0,0:0:0:0:
373,326,173283,1,0,0:0:0:0:
366,318,173362,1,8,0:0:0:0:
366,318,173441,1,0,0:0:0:0:
373,326,173520,1,0,0:0:0:0:
377,318,173599,1,8,0:0:0:0:
396,325,173757,1,8,0:0:0:0:
395,320,173836,1,8,0:0:0:0:
396,325,173915,1,0,0:0:0:0:
387,323,174152,1,8,0:0:0:0:
387,323,174231,1,0,0:0:0:0:
393,308,174389,1,0,0:0:0:0:
404,324,174547,1,8,0:0:0:0:
373,297,174626,1,8,0:0:0:0:
373,297,174704,1,8,0:0:0:0:
382,318,174783,1,0,0:0:0:0:
382,318,174862,1,8,0:0:0:0:
373,316,174941,1,0,0:0:0:0:
361,291,175020,1,8,0:0:0:0:
361,291,175099,1,8,0:0:0:0:
361,289,175178,1,0,0:0:0:0:
367,317,175336,1,0,0:0:0:0:
370,295,175494,1,8,0:0:0:0:
370,295,175652,1,0,0:0:0:0:
370,295,175810,1,0,0:0:0:0:
370,295,175968,1,0,0:0:0:0:
370,295,176126,1,8,0:0:0:0:
371,319,176283,1,0,0:0:0:0:
389,311,176441,1,8,0:0:0:0:
356,315,176599,1,8,0:0:0:0:
356,315,176757,1,8,0:0:0:0:
356,315,176836,1,8,0:0:0:0:
356,315,176915,1,8,0:0:0:0:
356,315,176994,1,8,0:0:0:0:
393,322,177231,1,12,0:0:0:0:
395,303,177547,1,12,0:0:0:0:
385,302,177704,1,4,0:0:0:0:
387,312,178020,1,4,0:0:0:0:
375,307,178336,1,4,0:0:0:0:
388,313,178652,1,4,0:0:0:0:
414,328,178968,1,4,0:0:0:0:
412,326,179283,1,4,0:0:0:0:
332,291,179599,1,4,0:0:0:0:
330,283,179915,1,4,0:0:0:0:
330,283,180073,1,4,0:0:0:0:
336,274,180231,1,4,0:0:0:0:
336,274,180547,1,4,0:0:0:0:
336,274,180862,1,4,0:0:0:0:
336,274,181178,1,4,0:0:0:0:
376,296,181494,1,4,0:0:0:0:
375,295,181810,1,4,0:0:0:0:
374,294,182126,1,4,0:0:0:0:
331,290,182283,1,0,0:0:0:0:
331,290,182362,1,0,0:0:0:0:
331,290,182441,1,8,0:0:0:0:
341,280,182599,1,0,0:0:0:0:
358,273,182757,1,12,0:0:0:0:
358,273,183073,1,12,0:0:0:0:
358,273,183389,1,12,0:0:0:0:
367,309,183704,1,12,0:0:0:0:
367,309,184020,1,12,0:0:0:0:
367,309,184336,1,12,0:0:0:0:
433,298,184652,1,12,0:0:0:0:
432,298,184968,1,12,0:0:0:0:
367,309,185126,1,0,0:0:0:0:
367,309,185204,1,0,0:0:0:0:
370,302,185283,1,12,0:0:0:0:
376,296,185599,1,12,0:0:0:0:
376,296,185915,1,12,0:0:0:0:
376,295,186231,1,12,0:0:0:0:
373,321,186547,1,8,0:0:0:0:
374,282,186626,1,0,0:0:0:0:
376,314,186704,1,8,0:0:0:0:
381,303,186783,1,0,0:0:0:0:
367,322,186862,1,8,0:0:0:0:
367,322,186941,1,8,0:0:0:0:
364,308,187020,1,0,0:0:0:0:
363,308,187099,1,0,0:0:0:0:
392,318,187178,1,8,0:0:0:0:
334,284,187257,1,8,0:0:0:0:
334,284,187336,1,0,0:0:0:0:
334,284,187415,1,0,0:0:0:0:
326,200,187494,1,8,0:0:0:0:
334,284,187573,1,0,0:0:0:0:
370,322,187652,1,0,0:0:0:0:
370,322,187731,1,0,0:0:0:0:
381,314,187810,1,12,0:0:0:0:
347,295,187968,1,12,0:0:0:0:
340,251,188126,1,0,0:0:0:0:
328,308,188204,1,0,0:0:0:0:
322,302,188283,1,8,0:0:0:0:
356,294,188441,1,0,0:0:0:0:
347,229,188520,1,8,0:0:0:0:
339,243,188599,1,8,0:0:0:0:
353,293,188757,1,0,0:0:0:0:
348,290,188836,1,8,0:0:0:0:
353,293,188915,1,8,0:0:0:0:
337,281,189073,1,0,0:0:0:0:
337,280,189152,1,0,0:0:0:0:
337,281,189231,1,8,0:0:0:0:
370,275,189389,1,0,0:0:0:0:
370,275,189468,1,0,0:0:0:0:
370,275,189547,1,8,0:0:0:0:
318,283,189704,1,0,0:0:0:0:
318,283,189783,1,8,0:0:0:0:
318,283,189862,1,8,0:0:0:0:
277,212,190020,1,8,0:0:0:0:
303,211,190178,1,0,0:0:0:0:
303,211,190336,1,8,0:0:0:0:
303,211,190415,1,8,0:0:0:0:
303,211,190494,1,0,0:0:0:0:
365,299,190652,1,0,0:0:0:0:
361,298,190731,1,0,0:0:0:0:
365,299,190810,1,8,0:0:0:0:
377,323,190968,1,0,0:0:0:0:
374,308,191047,1,8,0:0:0:0:
374,308,191126,1,8,0:0:0:0:
382,299,191283,1,0,0:0:0:0:
382,299,191362,1,8,0:0:0:0:
382,299,191441,1,8,0:0:0:0:
356,310,191599,1,0,0:0:0:0:
356,308,191678,1,8,0:0:0:0:
356,310,191757,1,8,0:0:0:0:
356,310,191836,1,8,0:0:0:0:
356,308,191915,1,0,0:0:0:0:
369,308,192073,1,8,0:0:0:0:
369,308,192231,1,0,0:0:0:0:
343,248,192389,1,0,0:0:0:0:
343,248,192468,1,0,0:0:0:0:
343,248,192547,1,0,0:0:0:0:
343,248,192704,1,0,0:0:0:0:
377,303,192862,1,0,0:0:0:0:
376,326,192941,1,0,0:0:0:0:
376,324,193020,1,8,0:0:0:0:
385,311,193178,1,0,0:0:0:0:
362,315,193257,1,0,0:0:0:0:
367,307,193336,1,8,0:0:0:0:
378,320,193494,1,0,0:0:0:0:
380,314,193573,1,8,0:0:0:0:
378,320,193652,1,8,0:0:0:0:
380,314,193810,1,0,0:0:0:0:
378,320,193889,1,8,0:0:0:0:
380,314,193968,1,8,0:0:0:0:
424,326,194126,1,0,0:0:0:0:
364,304,194204,1,0,0:0:0:0:
378,321,194283,1,8,0:0:0:0:
368,310,194362,1,8,0:0:0:0:
368,309,194441,1,0,0:0:0:0:
387,313,194599,1,8,0:0:0:0:
324,234,194757,1,0,0:0:0:0:
387,313,194836,1,0,0:0:0:0:
387,313,194915,1,8,0:0:0:0:
319,289,195073,1,0,0:0:0:0:
349,272,195231,1,8,0:0:0:0:
346,249,195310,1,8,0:0:0:0:
332,319,195389,1,0,0:0:0:0:
332,319,195468,1,8,0:0:0:0:
332,319,195547,1,8,0:0:0:0:
332,319,195626,1,0,0:0:0:0:
332,319,195704,1,8,0:0:0:0:
332,319,195783,1,8,0:0:0:0:
332,319,195862,1,0,0:0:0:0:
332,319,195941,1,8,0:0:0:0:
356,310,196020,1,0,0:0:0:0:
332,319,196099,1,0,0:0:0:0:
332,319,196178,1,8,0:0:0:0:
366,321,196257,1,0,0:0:0:0:
366,321,196336,1,8,0:0:0:0:
376,323,196415,1,8,0:0:0:0:
376,323,196494,1,8,0:0:0:0:
376,323,196573,1,8,0:0:0:0:
388,328,196652,1,0,0:0:0:0:
385,326,196731,1,0,0:0:0:0:
387,328,196810,1,8,0:0:0:0:
216,222,196968,1,8,0:0:0:0:
295,207,197126,1,0,0:0:0:0:
346,297,197283,1,8,0:0:0:0:
346,297,197441,1,0,0:0:0:0:
346,297,197520,1,0,0:0:0:0:
351,288,197599,1,12,0:0:0:0:
388,308,197915,1,4,0:0:0:0:
396,310,198231,1,0,0:0:0:0:
388,319,198547,1,8,0:0:0:0:
388,319,198862,1,8,0:0:0:0:
388,318,199178,1,8,0:0:0:0:
388,318,199494,1,8,0:0:0:0:
388,318,199810,1,8,0:0:0:0:
388,318,200126,1,8,0:0:0:0:
377,311,200283,1,8,0:0:0:0:
377,311,200441,1,0,0:0:0:0:
377,311,200757,1,0,0:0:0:0:
367,316,201073,1,8,0:0:0:0:
367,316,201389,1,8,0:0:0:0:
367,316,201704,1,8,0:0:0:0:
367,316,202020,1,8,0:0:0:0:
367,316,202336,1,8,0:0:0:0:
391,166,202494,1,8,0:0:0:0:
338,247,202573,1,8,0:0:0:0:
350,298,202652,1,8,0:0:0:0:
350,298,202731,1,8,0:0:0:0:
381,313,202810,1,8,0:0:0:0:
381,313,202889,1,8,0:0:0:0:
357,240,202968,1,0,0:0:0:0:
407,291,203283,1,0,0:0:0:0:
409,323,203599,1,0,0:0:0:0:
376,318,203678,1,8,0:0:0:0:
376,318,203757,1,8,0:0:0:0:
383,312,203915,1,0,0:0:0:0:
389,303,204073,1,8,0:0:0:0:
354,304,204231,1,0,0:0:0:0:
354,304,204389,1,8,0:0:0:0:
386,303,204468,1,8,0:0:0:0:
354,304,204547,1,0,0:0:0:0:
359,290,204704,1,8,0:0:0:0:
384,314,204862,1,0,0:0:0:0:
363,303,205020,1,8,0:0:0:0:
363,303,205178,1,0,0:0:0:0:
374,288,205336,1,8,0:0:0:0:
367,282,205415,1,0,0:0:0:0:
374,288,205494,1,0,0:0:0:0:
388,338,205652,1,8,0:0:0:0:
375,319,205810,1,0,0:0:0:0:
381,313,205968,1,8,0:0:0:0:
351,314,206126,1,0,0:0:0:0:
351,314,206204,1,0,0:0:0:0:
351,314,206283,1,8,0:0:0:0:
353,307,206441,1,0,0:0:0:0:
359,298,206599,1,8,0:0:0:0:
417,323,206757,1,0,0:0:0:0:
365,324,206915,1,8,0:0:0:0:
373,317,207073,1,0,0:0:0:0:
373,315,207152,1,8,0:0:0:0:
373,317,207231,1,8,0:0:0:0:
373,317,207310,1,8,0:0:0:0:
373,315,207389,1,0,0:0:0:0:
384,291,207547,1,0,0:0:0:0:
384,291,207626,1,0,0:0:0:0:
384,291,207704,1,8,0:0:0:0:
381,324,207783,1,8,0:0:0:0:
372,291,207862,1,0,0:0:0:0:
372,323,207941,1,8,0:0:0:0:
380,289,208020,1,0,0:0:0:0:
383,290,208336,1,12,0:0:0:0:
359,313,208652,1,0,0:0:0:0:
358,302,208810,1,0,0:0:0:0:
358,302,208968,1,12,0:0:0:0:
355,239,209283,1,0,0:0:0:0:
354,239,209599,1,12,0:0:0:0:
354,239,209915,1,0,0:0:0:0:
354,239,210073,1,0,0:0:0:0:
354,239,210231,1,12,0:0:0:0:
370,311,210547,1,0,0:0:0:0:
370,311,210704,1,8,0:0:0:0:
385,299,210862,1,12,0:0:0:0:
413,299,211178,1,0,0:0:0:0:
385,318,211336,1,0,0:0:0:0:
400,302,211494,1,12,0:0:0:0:
368,306,211810,1,0,0:0:0:0:
379,302,212126,1,12,0:0:0:0:
340,243,212441,1,0,0:0:0:0:
340,243,212599,1,0,0:0:0:0:
340,243,212757,1,8,0:0:0:0:
340,243,212915,1,8,0:0:0:0:
357,289,213073,1,4,0:0:0:0:
357,289,213389,1,4,0:0:0:0:
366,275,213704,1,12,0:0:0:0:
357,290,213862,1,0,0:0:0:0:
368,286,214020,1,12,0:0:0:0:
375,274,214178,1,8,0:0:0:0:
388,266,214336,1,4,0:0:0:0:
366,295,214494,1,8,0:0:0:0:
376,286,214652,1,4,0:0:0:0:
355,276,214810,1,0,0:0:0:0:
344,289,214968,1,12,0:0:0:0:
370,303,215126,1,8,0:0:0:0:
359,317,215283,1,0,0:0:0:0:
358,313,215362,1,0,0:0:0:0:
359,317,215441,1,8,0:0:0:0:
359,317,215520,1,8,0:0:0:0:
364,305,215599,1,0,0:0:0:0:
387,281,215757,1,8,0:0:0:0:
387,281,215915,1,0,0:0:0:0:
387,281,216073,1,8,0:0:0:0:
354,278,216231,1,0,0:0:0:0:
354,278,216310,1,8,0:0:0:0:
354,278,216389,1,8,0:0:0:0:
354,278,216468,1,8,0:0:0:0:
354,278,216547,1,0,0:0:0:0:
350,285,216626,1,0,0:0:0:0:
354,278,216704,1,8,0:0:0:0:
366,297,216783,1,8,0:0:0:0:
367,295,216862,1,0,0:0:0:0:
371,315,217494,1,0,0:0:0:0:
371,315,217573,1,0,0:0:0:0:
371,315,217652,1,8,0:0:0:0:
371,315,217731,1,0,0:0:0:0:
371,298,217810,1,8,0:0:0:0:
371,298,217889,1,8,0:0:0:0:
371,298,217968,1,8,0:0:0:0:
371,298,218047,1,8,0:0:0:0:
371,298,218126,1,0,0:0:0:0:
346,288,218204,1,0,0:0:0:0:
346,288,218283,1,8,0:0:0:0:
346,288,218362,1,8,0:0:0:0:
346,288,218441,1,0,0:0:0:0:
419,322,218599,1,8,0:0:0:0:
372,320,218757,1,0,0:0:0:0:
363,294,218836,1,8,0:0:0:0:
368,311,218915,1,8,0:0:0:0:
342,288,218994,1,8,0:0:0:0:
368,311,219073,1,0,0:0:0:0:
342,288,219152,1,8,0:0:0:0:
329,270,219231,1,4,0:0:0:0:
380,323,219547,1,12,0:0:0:0:
378,296,219862,1,12,0:0:0:0:
381,295,220178,1,12,0:0:0:0:
356,289,220336,1,0,0:0:0:0:
353,287,220415,1,0,0:0:0:0:
356,289,220494,1,8,0:0:0:0:
356,289,220573,1,8,0:0:0:0:
358,281,220652,1,0,0:0:0:0:
348,306,220731,1,8,0:0:0:0:
354,299,220810,1,8,0:0:0:0:
354,299,220889,1,8,0:0:0:0:
355,295,220968,1,0,0:0:0:0:
378,317,221047,1,0,0:0:0:0:
378,315,221126,1,8,0:0:0:0:
390,319,221283,1,0,0:0:0:0:
346,286,221362,1,0,0:0:0:0:
346,286,221441,1,8,0:0:0:0:
396,313,221520,1,0,0:0:0:0:
370,308,221599,1,0,0:0:0:0:
353,303,221678,1,0,0:0:0:0:
369,306,221757,1,12,0:0:0:0:
424,329,222073,1,12,0:0:0:0:
382,318,222231,1,0,0:0:0:0:
373,310,222389,1,0,0:0:0:0:
373,310,222468,1,0,0:0:0:0:
367,326,222547,1,0,0:0:0:0:
366,324,222626,1,0,0:0:0:0:
373,310,222704,1,8,0:0:0:0:
421,273,222862,1,12,0:0:0:0:
345,307,223020,1,8,0:0:0:0:
416,309,223178,1,0,0:0:0:0:
327,311,223257,1,8,0:0:0:0:
327,311,223336,1,8,0:0:0:0:
327,311,223415,1,8,0:0:0:0:
333,303,223494,1,0,0:0:0:0:
333,303,223573,1,0,0:0:0:0:
333,303,223652,1,8,0:0:0:0:
333,303,223731,1,8,0:0:0:0:
387,330,223810,1,0,0:0:0:0:
381,319,223889,1,0,0:0:0:0:
381,317,223968,1,8,0:0:0:0:
399,278,224126,1,8,0:0:0:0:
364,271,224283,1,4,0:0:0:0:
358,293,224599,1,12,0:0:0:0:
387,294,224915,1,12,0:0:0:0:
388,315,225231,1,12,0:0:0:0:
392,301,225389,1,4,0:0:0:0:
391,316,225547,1,8,0:0:0:0:
392,309,225626,1,8,0:0:0:0:
391,316,225704,1,0,0:0:0:0:
357,316,225941,1,0,0:0:0:0:
357,316,226020,1,8,0:0:0:0:
383,328,226178,1,0,0:0:0:0:
383,328,226257,1,0,0:0:0:0:
383,328,226336,1,0,0:0:0:0:
365,323,226573,1,0,0:0:0:0:
365,323,226652,1,8,0:0:0:0:
365,323,226731,1,0,0:0:0:0:
410,306,226810,1,8,0:0:0:0:
365,323,226968,1,0,0:0:0:0:
375,300,227126,1,8,0:0:0:0:
346,308,227204,1,0,0:0:0:0:
346,308,227283,1,8,0:0:0:0:
374,324,227441,1,0,0:0:0:0:
374,324,227520,1,0,0:0:0:0:
374,324,227599,1,0,0:0:0:0:
383,327,227757,1,8,0:0:0:0:
374,324,227836,1,0,0:0:0:0:
374,324,227915,1,8,0:0:0:0:
384,312,227994,1,8,0:0:0:0:
384,312,228073,1,8,0:0:0:0:
384,312,228152,1,8,0:0:0:0:
384,325,230757,5,4,0:0:0:0:
361,323,230915,1,8,0:0:0:0:
351,313,230994,1,8,0:0:0:0:
351,312,231073,1,0,0:0:0:0:
350,310,231152,1,0,0:0:0:0:
351,313,231231,1,8,0:0:0:0:
351,312,231310,1,0,0:0:0:0:
353,301,231389,1,8,0:0:0:0:
353,301,231468,1,8,0:0:0:0:
353,301,231547,1,8,0:0:0:0:
353,301,231626,1,8,0:0:0:0:
353,301,231704,1,0,0:0:0:0:
386,303,231862,1,8,0:0:0:0:
381,277,231941,1,0,0:0:0:0:
356,304,232020,1,0,0:0:0:0:
356,304,232099,1,0,0:0:0:0:
315,285,232178,1,8,0:0:0:0:
304,249,232257,1,8,0:0:0:0:
304,249,232336,1,0,0:0:0:0:
301,270,232415,1,8,0:0:0:0:
304,249,232494,1,8,0:0:0:0:
304,249,232573,1,8,0:0:0:0:
306,245,232652,1,0,0:0:0:0:
389,316,232810,1,0,0:0:0:0:
387,304,232889,1,0,0:0:0:0:
387,302,232968,1,8,0:0:0:0:
342,298,233126,1,0,0:0:0:0:
342,298,233283,1,8,0:0:0:0:
352,272,233362,1,0,0:0:0:0:
359,288,233441,1,0,0:0:0:0:
358,296,233520,1,0,0:0:0:0:
354,278,233599,1,8,0:0:0:0:
318,299,233678,1,8,0:0:0:0:
318,299,233757,1,8,0:0:0:0:
317,276,233836,1,0,0:0:0:0:
317,276,233915,1,8,0:0:0:0:
359,281,233994,1,8,0:0:0:0:
359,281,234073,1,0,0:0:0:0:
342,273,234231,1,8,0:0:0:0:
366,275,234310,1,8,0:0:0:0:
331,257,234389,1,8,0:0:0:0:
344,301,234468,1,8,0:0:0:0:
356,292,234547,1,0,0:0:0:0:
355,291,234626,1,0,0:0:0:0:
344,301,234704,1,0,0:0:0:0:
341,296,234783,1,0,0:0:0:0:
343,293,234862,1,8,0:0:0:0:
370,303,235020,1,0,0:0:0:0:
370,303,235099,1,8,0:0:0:0:
381,311,235336,1,0,0:0:0:0:
381,311,235415,1,0,0:0:0:0:
380,303,235494,1,8,0:0:0:0:
358,301,235652,1,0,0:0:0:0:
376,309,235810,1,8,0:0:0:0:
399,307,235889,1,8,0:0:0:0:
330,290,235968,1,8,0:0:0:0:
367,292,236047,1,8,0:0:0:0:
366,291,236126,1,0,0:0:0:0:
362,288,236204,1,0,0:0:0:0:
367,292,236283,1,8,0:0:0:0:
366,291,236362,1,0,0:0:0:0:
362,288,236441,1,0,0:0:0:0:
255,236,236520,1,0,0:0:0:0:
345,293,236599,1,8,0:0:0:0:
372,304,236678,1,0,0:0:0:0:
383,313,236757,1,8,0:0:0:0:
374,296,236915,1,0,0:0:0:0:
351,301,237073,1,8,0:0:0:0:
244,247,237152,1,8,0:0:0:0:
356,287,237231,1,8,0:0:0:0:
350,292,237310,1,0,0:0:0:0:
351,296,237389,1,8,0:0:0:0:
342,299,237468,1,8,0:0:0:0:
355,286,237547,1,0,0:0:0:0:
178,233,237626,1,8,0:0:0:0:
232,232,237704,1,0,0:0:0:0:
355,286,237783,1,0,0:0:0:0:
351,290,237862,1,8,0:0:0:0:
351,293,237941,1,8,0:0:0:0:
345,290,238020,1,0,0:0:0:0:
366,284,238178,1,8,0:0:0:0:
433,353,238336,1,0,0:0:0:0:
352,293,238494,1,8,0:0:0:0:
359,306,238573,1,8,0:0:0:0:
366,298,238652,1,0,0:0:0:0:
366,298,238731,1,0,0:0:0:0:
370,293,238810,1,0,0:0:0:0:
364,304,238889,1,0,0:0:0:0:
366,298,238968,1,8,0:0:0:0:
382,305,239126,1,8,0:0:0:0:
384,302,239204,1,8,0:0:0:0:
353,297,239283,1,0,0:0:0:0:
375,284,239441,1,8,0:0:0:0:
369,316,239599,1,0,0:0:0:0:
368,311,239678,1,0,0:0:0:0:
369,316,239757,1,8,0:0:0:0:
371,307,239836,1,0,0:0:0:0:
376,301,239915,1,8,0:0:0:0:
362,313,239994,1,8,0:0:0:0:
293,278,240073,1,0,0:0:0:0:
361,311,240152,1,8,0:0:0:0:
371,318,240231,1,0,0:0:0:0:
367,325,240389,1,0,0:0:0:0:
374,283,240468,1,0,0:0:0:0:
374,283,240547,1,0,0:0:0:0:
387,315,240704,1,8,0:0:0:0:
394,284,240862,1,4,0:0:0:0:
364,307,241020,1,8,0:0:0:0:
314,281,241099,1,0,0:0:0:0:
314,281,241178,1,8,0:0:0:0:
364,307,241257,1,8,0:0:0:0:
378,309,241336,1,8,0:0:0:0:
376,303,241415,1,8,0:0:0:0:
376,303,241494,1,0,0:0:0:0:
353,308,241573,1,0,0:0:0:0:
332,257,241652,1,8,0:0:0:0:
353,306,241731,1,8,0:0:0:0:
355,299,241810,1,0,0:0:0:0:
367,290,241968,1,8,0:0:0:0:
344,311,242047,1,0,0:0:0:0:
343,290,242126,1,0,0:0:0:0:
344,311,242204,1,0,0:0:0:0:
344,311,242283,1,8,0:0:0:0:
274,283,242362,1,8,0:0:0:0:
291,248,242441,1,0,0:0:0:0:
291,248,242520,1,8,0:0:0:0:
378,319,242599,1,8,0:0:0:0:
364,299,242678,1,8,0:0:0:0:
349,284,242757,1,0,0:0:0:0:
349,284,242836,1,0,0:0:0:0:
366,313,242915,1,0,0:0:0:0:
366,313,242994,1,0,0:0:0:0:
366,313,243073,1,8,0:0:0:0:
398,309,243231,1,8,0:0:0:0:
398,317,243389,1,0,0:0:0:0:
365,300,243468,1,0,0:0:0:0:
351,304,243547,1,8,0:0:0:0:
328,301,243626,1,0,0:0:0:0:
315,279,243704,1,8,0:0:0:0:
317,270,243783,1,8,0:0:0:0:
317,270,243862,1,8,0:0:0:0:
321,285,243941,1,8,0:0:0:0:
321,285,244020,1,0,0:0:0:0:
321,285,244099,1,0,0:0:0:0:
321,285,244178,1,8,0:0:0:0:
331,254,244336,1,0,0:0:0:0:
336,260,244415,1,8,0:0:0:0:
376,318,244494,1,8,0:0:0:0:
389,296,244573,1,8,0:0:0:0:
348,325,244652,1,0,0:0:0:0:
262,234,244810,1,0,0:0:0:0:
262,234,244968,1,8,0:0:0:0:
351,290,245047,1,0,0:0:0:0:
361,302,245126,1,0,0:0:0:0:
361,302,245204,1,0,0:0:0:0:
380,298,245283,1,8,0:0:0:0:
358,280,245362,1,8,0:0:0:0:
258,242,245441,1,0,0:0:0:0:
371,313,245520,1,0,0:0:0:0:
373,308,245599,1,8,0:0:0:0:
367,247,245757,1,8,0:0:0:0:
412,317,245915,1,0,0:0:0:0:
340,294,245994,1,8,0:0:0:0:
267,289,246073,1,8,0:0:0:0:
267,289,246152,1,8,0:0:0:0:
279,282,246231,1,0,0:0:0:0:
354,278,246310,1,0,0:0:0:0:
353,277,246389,1,8,0:0:0:0:
362,295,246468,1,0,0:0:0:0:
362,295,246547,1,0,0:0:0:0:
362,295,246626,1,0,0:0:0:0:
362,295,246704,1,8,0:0:0:0:
367,291,246783,1,0,0:0:0:0:
379,306,246862,1,8,0:0:0:0:
387,311,247020,1,8,0:0:0:0:
374,295,247178,1,0,0:0:0:0:
363,308,247257,1,0,0:0:0:0:
367,307,247336,1,8,0:0:0:0:
272,242,247415,1,8,0:0:0:0:
341,278,247494,1,0,0:0:0:0:
385,296,247573,1,8,0:0:0:0:
334,246,247652,1,8,0:0:0:0:
282,232,247731,1,8,0:0:0:0:
282,232,247810,1,0,0:0:0:0:
282,232,247889,1,0,0:0:0:0:
335,246,247968,1,0,0:0:0:0:
335,246,248047,1,0,0:0:0:0:
224,207,248126,2,0,L|310:165,1,90.9999958343508
372,290,248441,1,8,0:0:0:0:
347,303,248520,1,0,0:0:0:0:
347,303,248599,1,0,0:0:0:0:
347,303,248678,1,0,0:0:0:0:
347,303,248757,1,8,0:0:0:0:
346,292,248836,1,8,0:0:0:0:
309,271,248915,1,0,0:0:0:0:
327,291,248994,1,0,0:0:0:0:
326,290,249073,1,8,0:0:0:0:
336,297,249152,1,0,0:0:0:0:
236,237,249231,1,8,0:0:0:0:
236,237,249310,1,8,0:0:0:0:
250,221,249389,1,0,0:0:0:0:
320,273,249468,1,8,0:0:0:0:
342,289,249547,1,8,0:0:0:0:
343,291,249626,1,8,0:0:0:0:
344,289,249704,1,0,0:0:0:0:
340,299,249862,1,0,0:0:0:0:
340,299,250020,1,0,0:0:0:0:
369,288,250178,1,8,0:0:0:0:
330,217,250257,1,8,0:0:0:0:
326,291,250336,1,0,0:0:0:0:
326,291,250415,1,0,0:0:0:0:
326,291,250573,1,0,0:0:0:0:
332,282,250652,1,12,0:0:0:0:
401,314,250968,1,4,0:0:0:0:
360,324,251204,1,0,0:0:0:0:
360,324,251283,1,8,0:0:0:0:
379,315,251441,1,8,0:0:0:0:
391,330,251599,1,0,0:0:0:0:
351,303,251678,1,8,0:0:0:0:
351,303,251757,1,0,0:0:0:0:
323,291,251836,1,0,0:0:0:0:
323,291,251915,1,8,0:0:0:0:
364,301,252073,1,8,0:0:0:0:
401,316,252231,1,0,0:0:0:0:
377,303,252389,1,0,0:0:0:0:
379,314,252547,1,8,0:0:0:0:
358,312,252626,1,8,0:0:0:0:
360,309,252704,1,0,0:0:0:0:
404,293,252862,1,0,0:0:0:0:
359,296,253020,1,8,0:0:0:0:
381,321,253178,1,0,0:0:0:0:
378,307,253336,1,8,0:0:0:0:
378,307,253415,1,8,0:0:0:0:
334,309,253494,1,0,0:0:0:0:
334,309,253573,1,0,0:0:0:0:
334,309,253652,1,0,0:0:0:0:
334,309,253731,1,0,0:0:0:0:
334,309,253810,1,8,0:0:0:0:
384,319,253968,1,8,0:0:0:0:
372,318,254126,1,0,0:0:0:0:
362,308,254204,1,8,0:0:0:0:
362,308,254283,1,8,0:0:0:0:
362,307,254362,1,8,0:0:0:0:
351,297,254441,1,0,0:0:0:0:
351,297,254520,1,0,0:0:0:0:
372,294,254599,1,8,0:0:0:0:
370,285,254678,1,8,0:0:0:0:
375,312,254757,1,0,0:0:0:0:
345,282,254915,1,0,0:0:0:0:
360,312,255073,1,0,0:0:0:0:
366,307,255152,1,0,0:0:0:0:
366,307,255231,1,8,0:0:0:0:
366,307,255310,1,0,0:0:0:0:
366,307,255389,1,8,0:0:0:0:
350,303,255547,1,0,0:0:0:0:
386,249,255704,1,8,0:0:0:0:
398,212,255862,1,0,0:0:0:0:
411,278,256020,1,4,0:0:0:0:
352,286,256257,1,8,0:0:0:0:
352,286,256336,1,0,0:0:0:0:
352,286,256494,1,8,0:0:0:0:
350,305,256652,1,0,0:0:0:0:
345,302,256731,1,0,0:0:0:0:
350,305,256810,1,8,0:0:0:0:
350,305,256889,1,8,0:0:0:0:
345,302,256968,1,8,0:0:0:0:
358,292,257126,1,0,0:0:0:0:
391,327,257283,1,8,0:0:0:0:
355,303,257362,1,0,0:0:0:0:
355,303,257441,1,0,0:0:0:0:
355,303,257520,1,0,0:0:0:0:
358,289,257599,1,8,0:0:0:0:
341,271,257678,1,0,0:0:0:0:
316,277,257757,1,8,0:0:0:0:
316,277,257836,1,8,0:0:0:0:
315,269,257915,1,0,0:0:0:0:
316,265,257994,1,0,0:0:0:0:
316,265,258073,1,0,0:0:0:0:
315,269,258152,1,0,0:0:0:0:
403,302,258231,1,8,0:0:0:0:
368,280,258547,1,12,0:0:0:0:
365,273,258704,1,12,0:0:0:0:
361,258,258862,1,4,0:0:0:0:
361,258,259020,1,12,0:0:0:0:
361,258,259178,1,12,0:0:0:0:
361,258,259336,1,4,0:0:0:0:
361,258,259494,1,12,0:0:0:0:
361,258,259652,1,12,0:0:0:0:
365,282,259810,1,8,0:0:0:0:
343,277,259889,1,0,0:0:0:0:
342,277,259968,1,8,0:0:0:0:
350,267,260047,1,0,0:0:0:0:
349,266,260126,1,8,0:0:0:0:
349,266,260204,1,0,0:0:0:0:
256,192,260283,12,8,260915,0:0:0:0:
380,274,261073,5,12,0:0:0:0:
412,318,271178,5,0,0:0:0:0:
368,313,271336,1,0,0:0:0:0:
368,313,271415,1,0,0:0:0:0:
368,313,271494,1,8,0:0:0:0:
378,301,271652,1,0,0:0:0:0:
363,315,271810,1,0,0:0:0:0:
371,303,271968,1,8,0:0:0:0:
371,303,272126,1,8,0:0:0:0:
382,305,272283,1,0,0:0:0:0:
401,323,272441,1,0,0:0:0:0:
388,319,272757,1,8,0:0:0:0:
386,299,273073,1,0,0:0:0:0:
386,299,273231,1,0,0:0:0:0:
386,299,273389,1,8,0:0:0:0:
395,332,273704,1,0,0:0:0:0:
395,332,273862,1,0,0:0:0:0:
395,332,273941,1,0,0:0:0:0:
395,332,274020,1,8,0:0:0:0:
395,332,274178,1,0,0:0:0:0:
395,332,274336,1,0,0:0:0:0:
396,273,274494,1,8,0:0:0:0:
396,273,274652,1,8,0:0:0:0:
434,326,274810,1,0,0:0:0:0:
434,326,274968,1,0,0:0:0:0:
359,292,275126,1,8,0:0:0:0:
372,278,275283,1,8,0:0:0:0:
357,291,275520,1,8,0:0:0:0:
357,291,275599,1,0,0:0:0:0:
370,231,275757,1,0,0:0:0:0:
350,294,275915,1,8,0:0:0:0:
350,294,275994,1,8,0:0:0:0:
350,294,276073,1,8,0:0:0:0:
350,294,276152,1,8,0:0:0:0:
350,294,276231,1,0,0:0:0:0:
335,308,276389,1,0,0:0:0:0:
335,308,276468,1,0,0:0:0:0:
335,308,276547,1,8,0:0:0:0:
356,289,276704,1,0,0:0:0:0:
356,289,276862,1,0,0:0:0:0:
356,289,277020,1,8,0:0:0:0:
356,289,277178,1,8,0:0:0:0:
356,289,277336,1,0,0:0:0:0:
356,289,277494,1,0,0:0:0:0:
397,322,277810,1,8,0:0:0:0:
384,307,278126,1,0,0:0:0:0:
363,209,278283,1,0,0:0:0:0:
363,209,278441,1,8,0:0:0:0:
396,323,278757,1,0,0:0:0:0:
368,328,278915,1,0,0:0:0:0:
368,328,278994,1,0,0:0:0:0:
368,328,279073,1,8,0:0:0:0:
366,282,279231,1,0,0:0:0:0:
366,282,279389,1,0,0:0:0:0:
366,282,279547,1,8,0:0:0:0:
366,282,279704,1,8,0:0:0:0:
366,282,279862,1,0,0:0:0:0:
316,270,280020,1,8,0:0:0:0:
316,270,280336,1,8,0:0:0:0:
403,265,280652,1,8,0:0:0:0:
365,317,280810,1,0,0:0:0:0:
365,317,280889,1,0,0:0:0:0:
365,317,280968,1,8,0:0:0:0:
365,317,281047,1,8,0:0:0:0:
365,317,281126,1,0,0:0:0:0:
383,298,281283,1,4,0:0:0:0:
388,304,281441,1,8,0:0:0:0:
390,293,281599,1,0,0:0:0:0:
371,318,281757,1,8,0:0:0:0:
371,317,281836,1,8,0:0:0:0:
371,318,281915,1,0,0:0:0:0:
309,281,282073,1,0,0:0:0:0:
309,281,282152,1,0,0:0:0:0:
309,281,282231,1,8,0:0:0:0:
326,266,282389,1,0,0:0:0:0:
403,301,282547,1,0,0:0:0:0:
367,313,282704,1,0,0:0:0:0:
367,313,282783,1,0,0:0:0:0:
367,313,282862,1,8,0:0:0:0:
361,303,282941,1,8,0:0:0:0:
361,303,283020,1,0,0:0:0:0:
361,303,283099,1,8,0:0:0:0:
361,303,283178,1,0,0:0:0:0:
380,306,283336,1,0,0:0:0:0:
380,306,283494,1,8,0:0:0:0:
366,310,283652,1,8,0:0:0:0:
367,300,283810,1,0,0:0:0:0:
362,307,283968,1,8,0:0:0:0:
375,296,284126,1,0,0:0:0:0:
378,317,284283,1,8,0:0:0:0:
374,317,284362,1,8,0:0:0:0:
378,317,284441,1,0,0:0:0:0:
374,317,284599,1,8,0:0:0:0:
378,317,284678,1,0,0:0:0:0:
374,308,284757,1,8,0:0:0:0:
378,317,284915,1,8,0:0:0:0:
374,308,285073,1,0,0:0:0:0:
389,310,285231,1,8,0:0:0:0:
360,312,285389,1,0,0:0:0:0:
355,307,285468,1,8,0:0:0:0:
351,279,285626,1,0,0:0:0:0:
366,298,285862,1,0,0:0:0:0:
364,272,285941,1,0,0:0:0:0:
385,321,286020,1,8,0:0:0:0:
396,297,286178,1,8,0:0:0:0:
407,299,286336,1,4,0:0:0:0:
391,308,286494,1,8,0:0:0:0:
391,308,286652,1,0,0:0:0:0:
365,285,286810,1,8,0:0:0:0:
365,285,286889,1,8,0:0:0:0:
365,285,286968,1,0,0:0:0:0:
382,299,287126,1,0,0:0:0:0:
382,297,287204,1,0,0:0:0:0:
382,299,287283,1,8,0:0:0:0:
382,297,287441,1,8,0:0:0:0:
381,308,287599,1,0,0:0:0:0:
376,314,287757,1,0,0:0:0:0:
376,300,287915,1,8,0:0:0:0:
398,311,288231,1,0,0:0:0:0:
398,311,288310,1,0,0:0:0:0:
398,311,288389,1,0,0:0:0:0:
398,311,288468,1,0,0:0:0:0:
398,311,288547,1,8,0:0:0:0:
381,315,288704,1,8,0:0:0:0:
410,313,288862,1,0,0:0:0:0:
425,331,289020,1,0,0:0:0:0:
403,305,289178,1,8,0:0:0:0:
403,305,289336,1,0,0:0:0:0:
380,311,289494,1,8,0:0:0:0:
383,309,289573,1,0,0:0:0:0:
350,310,289652,1,8,0:0:0:0:
361,298,289810,1,8,0:0:0:0:
361,296,289889,1,8,0:0:0:0:
361,298,289968,1,0,0:0:0:0:
357,245,290126,1,8,0:0:0:0:
283,249,290441,1,8,0:0:0:0:
396,319,290757,1,0,0:0:0:0:
382,314,291073,1,8,0:0:0:0:
382,314,291231,1,8,0:0:0:0:
400,282,291389,1,4,0:0:0:0:
358,294,291547,1,8,0:0:0:0:
358,294,291704,1,0,0:0:0:0:
366,317,291862,1,0,0:0:0:0:
366,317,291941,1,0,0:0:0:0:
366,317,292020,1,8,0:0:0:0:
366,303,292178,1,8,0:0:0:0:
366,303,292257,1,8,0:0:0:0:
366,303,292336,1,0,0:0:0:0:
381,293,292494,1,8,0:0:0:0:
437,322,292652,1,0,0:0:0:0:
384,319,292810,1,8,0:0:0:0:
360,321,292889,1,8,0:0:0:0:
357,315,292968,1,0,0:0:0:0:
358,307,293047,1,8,0:0:0:0:
366,299,293204,1,8,0:0:0:0:
366,296,293283,1,0,0:0:0:0:
402,329,293441,1,0,0:0:0:0:
406,308,293599,1,12,0:0:0:0:
403,311,293915,1,0,0:0:0:0:
407,322,294073,1,8,0:0:0:0:
391,297,294231,1,0,0:0:0:0:
388,323,294389,1,0,0:0:0:0:
386,322,294468,1,0,0:0:0:0:
388,323,294547,1,8,0:0:0:0:
379,293,294704,1,0,0:0:0:0:
379,293,294783,1,8,0:0:0:0:
379,293,294862,1,0,0:0:0:0:
379,293,295020,1,8,0:0:0:0:
383,321,295178,1,0,0:0:0:0:
375,309,295336,1,0,0:0:0:0:
375,309,295494,1,8,0:0:0:0:
375,309,295652,1,8,0:0:0:0:
375,309,295731,1,8,0:0:0:0:
386,324,295810,1,0,0:0:0:0:
382,294,295968,1,0,0:0:0:0:
409,250,296126,1,12,0:0:0:0:
380,319,296441,1,0,0:0:0:0:
369,325,296599,1,8,0:0:0:0:
393,315,296757,1,0,0:0:0:0:
359,305,296915,1,0,0:0:0:0:
359,305,296994,1,0,0:0:0:0:
359,305,297073,1,8,0:0:0:0:
376,284,297231,1,8,0:0:0:0:
376,285,297310,1,8,0:0:0:0:
376,284,297389,1,0,0:0:0:0:
376,285,297547,1,8,0:0:0:0:
390,316,297704,1,0,0:0:0:0:
371,294,297862,1,8,0:0:0:0:
407,322,298020,1,8,0:0:0:0:
385,300,298178,1,0,0:0:0:0:
365,268,298231,1,8,0:0:0:0:
365,268,298283,1,8,0:0:0:0:
365,268,298336,1,0,0:0:0:0:
385,293,298494,1,0,0:0:0:0:
373,318,298652,1,8,0:0:0:0:
392,318,298731,1,8,0:0:0:0:
357,217,298810,1,8,0:0:0:0:
392,318,298968,1,4,0:0:0:0:
390,314,299283,1,4,0:0:0:0:
401,292,299599,1,12,0:0:0:0:
387,308,299915,1,0,0:0:0:0:
387,308,300073,1,0,0:0:0:0:
393,330,300231,1,0,0:0:0:0:
395,305,300389,1,8,0:0:0:0:
308,234,300547,1,8,0:0:0:0:
308,234,300704,1,8,0:0:0:0:
417,316,300862,1,0,0:0:0:0:
370,271,301178,1,12,0:0:0:0:
316,322,301494,1,4,0:0:0:0:
381,318,301652,1,0,0:0:0:0:
363,300,301731,1,0,0:0:0:0:
363,300,301810,1,8,0:0:0:0:
291,240,301889,1,8,0:0:0:0:
359,305,301968,1,0,0:0:0:0:
343,286,302126,1,8,0:0:0:0:
324,291,302204,1,0,0:0:0:0:
326,274,302283,1,0,0:0:0:0:
324,291,302362,1,0,0:0:0:0:
324,291,302441,1,8,0:0:0:0:
324,291,302520,1,8,0:0:0:0:
329,291,302599,1,0,0:0:0:0:
350,290,302757,1,8,0:0:0:0:
350,290,302836,1,8,0:0:0:0:
350,290,302915,1,8,0:0:0:0:
344,296,302994,1,0,0:0:0:0:
370,315,303073,1,8,0:0:0:0:
350,290,303152,1,8,0:0:0:0:
350,290,303231,1,0,0:0:0:0:
341,293,303310,1,0,0:0:0:0:
341,287,303389,1,8,0:0:0:0:
365,296,303468,1,0,0:0:0:0:
331,291,303547,1,0,0:0:0:0:
331,284,303626,1,0,0:0:0:0:
334,280,303704,1,8,0:0:0:0:
367,264,303862,1,0,0:0:0:0:
378,315,304020,1,8,0:0:0:0:
359,294,304099,1,0,0:0:0:0:
351,288,304178,1,0,0:0:0:0:
342,277,304257,1,0,0:0:0:0:
391,291,304336,1,8,0:0:0:0:
390,302,304415,1,8,0:0:0:0:
364,283,304494,1,8,0:0:0:0:
365,285,304573,1,8,0:0:0:0:
364,285,304652,1,0,0:0:0:0:
364,294,304731,1,0,0:0:0:0:
302,285,304810,1,0,0:0:0:0:
302,285,304889,1,8,0:0:0:0:
302,285,304968,1,0,0:0:0:0:
302,285,305126,1,8,0:0:0:0:
302,285,305204,1,8,0:0:0:0:
302,285,305283,1,0,0:0:0:0:
350,197,305520,1,8,0:0:0:0:
350,197,305599,1,8,0:0:0:0:
350,197,305757,1,8,0:0:0:0:
393,295,305915,1,0,0:0:0:0:
393,295,306073,1,0,0:0:0:0:
418,303,306231,1,12,0:0:0:0:
363,294,306547,1,0,0:0:0:0:
389,318,306704,1,0,0:0:0:0:
309,257,306783,1,8,0:0:0:0:
309,257,306862,1,0,0:0:0:0:
389,318,306941,1,0,0:0:0:0:
361,298,307020,1,8,0:0:0:0:
359,261,307178,1,8,0:0:0:0:
376,295,307257,1,8,0:0:0:0:
362,269,307336,1,0,0:0:0:0:
311,261,307415,1,0,0:0:0:0:
311,261,307494,1,8,0:0:0:0:
311,261,307573,1,8,0:0:0:0:
311,261,307652,1,0,0:0:0:0:
408,312,307810,1,8,0:0:0:0:
400,305,307889,1,0,0:0:0:0:
368,301,307968,1,0,0:0:0:0:
367,301,308047,1,0,0:0:0:0:
306,238,308126,1,8,0:0:0:0:
324,250,308204,1,8,0:0:0:0:
353,282,308283,1,8,0:0:0:0:
350,270,308362,1,0,0:0:0:0:
349,270,308441,1,8,0:0:0:0:
349,270,308520,1,8,0:0:0:0:
350,270,308599,1,0,0:0:0:0:
349,270,308678,1,0,0:0:0:0:
324,250,308757,1,8,0:0:0:0:
352,294,308836,1,0,0:0:0:0:
322,215,308915,1,8,0:0:0:0:
416,314,309073,1,0,0:0:0:0:
371,310,309231,1,0,0:0:0:0:
322,220,309389,1,0,0:0:0:0:
322,220,309468,1,0,0:0:0:0:
255,261,309547,1,8,0:0:0:0:
357,273,309626,1,0,0:0:0:0:
357,271,309704,1,8,0:0:0:0:
378,258,309783,1,8,0:0:0:0:
341,280,309862,1,0,0:0:0:0:
323,267,309941,1,0,0:0:0:0:
330,257,310020,1,8,0:0:0:0:
322,298,310099,1,8,0:0:0:0:
255,261,310178,1,8,0:0:0:0:
320,276,310257,1,8,0:0:0:0:
336,295,310336,1,4,0:0:0:0:
374,293,310494,1,8,0:0:0:0:
384,288,310652,1,4,0:0:0:0:
384,288,310810,1,8,0:0:0:0:
368,296,310968,1,4,0:0:0:0:
376,309,311204,1,12,0:0:0:0:
376,309,311441,1,12,0:0:0:0:
421,322,311599,1,0,0:0:0:0:
394,315,312862,1,4,0:0:0:0:
377,295,313020,1,4,0:0:0:0:
391,286,313178,1,12,0:0:0:0:
375,306,313336,1,0,0:0:0:0:
336,286,313415,1,8,0:0:0:0:
350,294,313494,1,8,0:0:0:0:
336,286,313573,1,8,0:0:0:0:
341,282,313652,1,0,0:0:0:0:
342,279,313731,1,0,0:0:0:0:
332,253,313810,1,8,0:0:0:0:
366,286,313889,1,8,0:0:0:0:
353,267,313968,1,0,0:0:0:0:
370,314,314126,1,8,0:0:0:0:
308,266,314204,1,0,0:0:0:0:
308,266,314283,1,0,0:0:0:0:
321,293,314362,1,0,0:0:0:0:
342,283,314441,1,8,0:0:0:0:
333,294,314520,1,0,0:0:0:0:
333,294,314599,1,8,0:0:0:0:
342,283,314678,1,8,0:0:0:0:
271,253,314757,1,0,0:0:0:0:
351,279,314836,1,0,0:0:0:0:
375,290,314915,1,8,0:0:0:0:
295,262,314994,1,0,0:0:0:0:
295,262,315073,1,8,0:0:0:0:
370,299,315231,1,8,0:0:0:0:
392,311,315389,1,0,0:0:0:0:
393,306,315468,1,8,0:0:0:0:
356,234,315704,1,8,0:0:0:0:
397,289,315783,1,8,0:0:0:0:
383,313,316020,1,0,0:0:0:0:
378,284,316178,1,0,0:0:0:0:
385,305,316336,1,8,0:0:0:0:
399,290,316389,1,8,0:0:0:0:
402,287,316441,1,8,0:0:0:0:
372,287,316494,1,0,0:0:0:0:
374,285,316573,1,8,0:0:0:0:
376,283,316652,1,0,0:0:0:0:
377,303,316810,1,0,0:0:0:0:
376,319,316889,1,0,0:0:0:0:
377,303,316968,1,8,0:0:0:0:
347,294,317047,1,0,0:0:0:0:
347,294,317126,1,0,0:0:0:0:
355,306,317204,1,0,0:0:0:0:
355,301,317283,1,8,0:0:0:0:
355,301,317362,1,8,0:0:0:0:
344,278,317441,1,0,0:0:0:0:
344,278,317520,1,0,0:0:0:0:
344,278,317599,1,8,0:0:0:0:
328,283,317652,1,0,0:0:0:0:
328,283,317704,1,0,0:0:0:0:
328,283,317757,1,8,0:0:0:0:
405,306,317915,1,0,0:0:0:0:
354,296,317994,1,0,0:0:0:0:
342,283,318073,1,8,0:0:0:0:
337,286,318152,1,0,0:0:0:0:
337,286,318231,1,8,0:0:0:0:
284,275,318310,1,0,0:0:0:0:
284,275,318389,1,0,0:0:0:0:
337,286,318468,1,0,0:0:0:0:
342,283,318547,1,8,0:0:0:0:
337,286,318626,1,8,0:0:0:0:
284,275,318704,1,8,0:0:0:0:
350,284,318783,1,8,0:0:0:0:
350,284,318862,1,0,0:0:0:0:
371,259,318915,1,8,0:0:0:0:
371,259,318968,1,8,0:0:0:0:
374,252,319020,1,0,0:0:0:0:
429,320,319178,1,0,0:0:0:0:
376,312,319336,1,0,0:0:0:0:
384,306,319494,1,8,0:0:0:0:
399,291,319573,1,8,0:0:0:0:
370,319,319652,1,8,0:0:0:0:
370,319,319731,1,8,0:0:0:0:
370,319,319810,1,0,0:0:0:0:
392,304,319968,1,0,0:0:0:0:
392,304,320126,1,8,0:0:0:0:
392,304,320204,1,8,0:0:0:0:
392,304,320283,1,8,0:0:0:0:
392,304,320362,1,8,0:0:0:0:
392,304,320441,1,0,0:0:0:0:
393,310,320757,1,8,0:0:0:0:
393,310,320915,1,8,0:0:0:0:
377,304,321073,1,8,0:0:0:0:
377,304,321178,1,8,0:0:0:0:
377,304,321283,1,8,0:0:0:0:
384,300,321389,1,4,0:0:0:0:
407,295,321704,1,4,0:0:0:0:
378,313,321941,1,8,0:0:0:0:
378,313,322020,1,0,0:0:0:0:
391,313,322178,1,8,0:0:0:0:
391,313,322336,1,0,0:0:0:0:
391,313,322573,1,8,0:0:0:0:
391,313,322652,1,0,0:0:0:0:
391,313,322810,1,8,0:0:0:0:
368,316,322968,1,0,0:0:0:0:
368,316,323047,1,8,0:0:0:0:
383,306,323204,1,8,0:0:0:0:
398,328,323283,1,0,0:0:0:0:
367,293,323441,1,8,0:0:0:0:
367,293,323520,1,8,0:0:0:0:
405,327,323599,1,0,0:0:0:0:
362,315,323678,1,8,0:0:0:0:
362,315,323757,1,8,0:0:0:0:
390,287,323915,1,8,0:0:0:0:
408,311,323994,1,0,0:0:0:0:
415,329,324073,1,8,0:0:0:0:
358,283,324231,1,0,0:0:0:0:
363,302,324468,1,8,0:0:0:0:
357,292,324547,1,0,0:0:0:0:
358,286,324704,1,8,0:0:0:0:
358,286,324862,1,0,0:0:0:0:
377,311,325099,1,8,0:0:0:0:
377,311,325178,1,0,0:0:0:0:
381,303,325336,1,8,0:0:0:0:
354,230,325494,1,8,0:0:0:0:
386,283,325547,1,0,0:0:0:0:
386,283,325599,1,0,0:0:0:0:
387,282,325652,1,8,0:0:0:0:
403,274,325731,1,8,0:0:0:0:
367,315,325810,1,0,0:0:0:0:
385,289,325968,1,8,0:0:0:0:
372,305,326204,1,8,0:0:0:0:
387,321,326441,1,8,0:0:0:0:
386,311,326599,1,8,0:0:0:0:
392,303,326757,1,0,0:0:0:0:
354,220,326994,1,8,0:0:0:0:
354,220,327073,1,0,0:0:0:0:
354,220,327231,1,8,0:0:0:0:
354,220,327389,1,0,0:0:0:0:
354,220,327626,1,8,0:0:0:0:
354,220,327704,1,0,0:0:0:0:
354,220,327862,1,8,0:0:0:0:
376,310,328020,1,0,0:0:0:0:
395,302,328099,1,8,0:0:0:0:
376,310,328257,1,8,0:0:0:0:
376,310,328336,1,0,0:0:0:0:
376,310,328494,1,8,0:0:0:0:
385,302,328573,1,8,0:0:0:0:
376,310,328652,1,0,0:0:0:0:
376,310,328731,1,8,0:0:0:0:
385,302,328810,1,8,0:0:0:0:
353,264,328968,1,8,0:0:0:0:
386,317,329047,1,0,0:0:0:0:
385,302,329126,1,8,0:0:0:0:
380,171,329283,1,0,0:0:0:0:
386,319,329362,1,8,0:0:0:0:
386,319,329520,1,8,0:0:0:0:
386,319,329599,1,0,0:0:0:0:
386,319,329757,1,8,0:0:0:0:
376,324,329915,1,0,0:0:0:0:
376,324,329994,1,0,0:0:0:0:
376,324,330073,1,8,0:0:0:0:
376,324,330152,1,8,0:0:0:0:
376,324,330231,1,0,0:0:0:0:
398,238,330389,1,8,0:0:0:0:
394,304,330547,1,4,0:0:0:0:
394,304,330704,1,4,0:0:0:0:
376,303,330862,1,12,0:0:0:0:
376,303,331020,1,12,0:0:0:0:
376,303,331178,1,0,0:0:0:0:
383,326,331257,1,8,0:0:0:0:
384,328,331415,1,8,0:0:0:0:
390,316,331494,1,4,0:0:0:0:
410,325,331810,1,0,0:0:0:0:
386,303,331889,1,0,0:0:0:0:
386,300,331968,1,8,0:0:0:0:
396,276,332126,1,0,0:0:0:0:
396,276,332204,1,0,0:0:0:0:
396,276,332283,1,0,0:0:0:0:
374,296,332441,1,8,0:0:0:0:
374,296,332520,1,8,0:0:0:0:
374,296,332599,1,0,0:0:0:0:
315,252,332757,1,8,0:0:0:0:
319,244,332836,1,8,0:0:0:0:
319,244,332915,1,8,0:0:0:0:
391,305,333073,1,0,0:0:0:0:
391,305,333152,1,0,0:0:0:0:
391,305,333231,1,8,0:0:0:0:
358,288,333389,1,0,0:0:0:0:
358,288,333468,1,0,0:0:0:0:
358,288,333547,1,0,0:0:0:0:
386,302,333704,1,8,0:0:0:0:
386,302,333783,1,8,0:0:0:0:
386,302,333862,1,0,0:0:0:0:
375,300,333941,1,8,0:0:0:0:
375,300,334020,1,0,0:0:0:0:
375,300,334099,1,0,0:0:0:0:
386,302,334178,1,8,0:0:0:0:
341,293,334257,1,0,0:0:0:0:
352,283,334336,1,0,0:0:0:0:
400,309,334415,1,0,0:0:0:0:
397,282,334494,1,8,0:0:0:0:
397,277,334652,1,0,0:0:0:0:
409,294,334731,1,0,0:0:0:0:
410,297,334810,1,0,0:0:0:0:
406,275,334968,1,8,0:0:0:0:
406,275,335047,1,8,0:0:0:0:
402,316,335126,1,0,0:0:0:0:
408,296,335283,1,8,0:0:0:0:
408,295,335362,1,8,0:0:0:0:
408,296,335441,1,8,0:0:0:0:
412,324,335599,1,0,0:0:0:0:
397,311,335678,1,8,0:0:0:0:
397,302,335836,1,8,0:0:0:0:
412,305,335915,1,0,0:0:0:0:
403,260,336073,1,0,0:0:0:0:
420,305,336547,1,12,0:0:0:0:
362,249,336862,1,0,0:0:0:0:
362,249,336941,1,0,0:0:0:0:
362,249,337020,1,8,0:0:0:0:
380,230,337178,1,0,0:0:0:0:
379,230,337257,1,0,0:0:0:0:
380,230,337336,1,0,0:0:0:0:
350,257,337494,1,8,0:0:0:0:
350,257,337573,1,8,0:0:0:0:
350,257,337652,1,0,0:0:0:0:
375,244,337810,1,8,0:0:0:0:
375,243,337889,1,8,0:0:0:0:
375,244,337968,1,8,0:0:0:0:
420,328,338126,1,0,0:0:0:0:
410,321,338204,1,0,0:0:0:0:
410,321,338283,1,8,0:0:0:0:
407,293,338441,1,0,0:0:0:0:
407,293,338520,1,0,0:0:0:0:
407,293,338599,1,0,0:0:0:0:
343,288,338757,1,0,0:0:0:0:
343,288,338836,1,8,0:0:0:0:
343,288,338915,1,0,0:0:0:0:
353,306,338994,1,0,0:0:0:0:
322,283,339073,1,8,0:0:0:0:
335,291,339152,1,8,0:0:0:0:
369,293,339231,1,8,0:0:0:0:
364,283,339310,1,8,0:0:0:0:
370,293,339389,1,0,0:0:0:0:
370,293,339468,1,0,0:0:0:0:
370,293,339547,1,8,0:0:0:0:
386,273,339704,1,0,0:0:0:0:
386,273,339783,1,0,0:0:0:0:
386,273,339862,1,0,0:0:0:0:
414,334,340020,1,8,0:0:0:0:
414,334,340099,1,8,0:0:0:0:
414,334,340178,1,0,0:0:0:0:
402,288,340336,1,8,0:0:0:0:
402,288,340415,1,8,0:0:0:0:
396,293,340494,1,0,0:0:0:0:
399,308,340652,1,8,0:0:0:0:
399,308,340731,1,8,0:0:0:0:
399,308,340810,1,8,0:0:0:0:
399,308,340889,1,8,0:0:0:0:
391,259,340968,1,4,0:0:0:0:
391,259,341283,1,4,0:0:0:0:
412,327,341599,1,8,0:0:0:0:
373,307,341757,1,0,0:0:0:0:
373,307,341836,1,0,0:0:0:0:
373,307,341915,1,12,0:0:0:0:
384,293,342231,1,8,0:0:0:0:
282,243,342547,1,0,0:0:0:0:
282,243,342862,1,8,0:0:0:0:
282,243,343178,1,0,0:0:0:0:
396,309,343494,1,8,0:0:0:0:
386,316,343810,1,0,0:0:0:0:
386,312,344126,1,8,0:0:0:0:
421,327,344441,1,0,0:0:0:0:
417,325,344757,1,8,0:0:0:0:
395,300,345073,1,0,0:0:0:0:
395,300,345389,1,8,0:0:0:0:
395,300,345704,1,0,0:0:0:0:
374,297,346020,1,8,0:0:0:0:
374,297,346336,1,0,0:0:0:0:
409,231,346652,1,12,0:0:0:0:
429,317,346968,1,0,0:0:0:0:
405,306,347283,1,8,0:0:0:0:
405,306,347599,1,0,0:0:0:0:
405,306,347915,1,8,0:0:0:0:
401,286,348231,1,0,0:0:0:0:
400,285,348547,1,8,0:0:0:0:
407,236,348862,1,0,0:0:0:0:
407,236,349178,1,8,0:0:0:0:
384,311,349494,1,0,0:0:0:0:
396,308,349573,1,0,0:0:0:0:
338,278,349652,1,8,0:0:0:0:
321,283,349731,1,0,0:0:0:0:
380,321,349810,1,8,0:0:0:0:
384,322,349889,1,0,0:0:0:0:
380,321,349968,1,0,0:0:0:0:
396,308,350047,1,0,0:0:0:0:
394,300,350126,1,8,0:0:0:0:
353,304,350204,1,8,0:0:0:0:
353,304,350283,1,8,0:0:0:0:
353,304,350362,1,0,0:0:0:0:
353,304,350441,1,8,0:0:0:0:
386,322,350520,1,8,0:0:0:0:
364,308,350599,1,0,0:0:0:0:
364,308,350678,1,0,0:0:0:0:
363,308,350757,1,8,0:0:0:0:
364,308,350836,1,8,0:0:0:0:
364,308,350915,1,8,0:0:0:0:
363,308,350994,1,8,0:0:0:0:
401,326,351073,1,0,0:0:0:0:
403,336,351310,1,0,0:0:0:0:
403,336,351547,1,0,0:0:0:0:
432,284,351704,1,0,0:0:0:0:
380,301,351862,1,8,0:0:0:0:
380,301,351941,1,8,0:0:0:0:
391,296,352020,1,4,0:0:0:0:
405,317,352178,1,0,0:0:0:0:
403,304,352336,1,8,0:0:0:0:
356,298,352494,1,0,0:0:0:0:
390,328,352573,1,0,0:0:0:0:
390,328,352652,1,8,0:0:0:0:
390,328,352731,1,8,0:0:0:0:
397,325,352889,1,8,0:0:0:0:
390,328,352968,1,0,0:0:0:0:
393,330,353126,1,8,0:0:0:0:
390,322,353283,1,0,0:0:0:0:
385,292,353441,1,0,0:0:0:0:
385,292,353520,1,0,0:0:0:0:
398,299,353599,1,8,0:0:0:0:
382,326,353757,1,0,0:0:0:0:
387,315,353836,1,0,0:0:0:0:
426,236,353915,1,0,0:0:0:0:
387,313,353994,1,8,0:0:0:0:
404,322,354073,1,0,0:0:0:0:
405,308,354231,1,8,0:0:0:0:
405,308,354389,1,8,0:0:0:0:
364,270,354468,1,8,0:0:0:0:
413,317,354547,1,0,0:0:0:0:
400,332,354704,1,0,0:0:0:0:
400,332,354862,1,8,0:0:0:0:
382,300,355020,1,0,0:0:0:0:
382,300,355099,1,0,0:0:0:0:
382,300,355178,1,8,0:0:0:0:
382,300,355257,1,0,0:0:0:0:
343,284,355415,1,8,0:0:0:0:
382,300,355494,1,8,0:0:0:0:
365,289,355652,1,0,0:0:0:0:
383,329,355810,1,0,0:0:0:0:
380,319,355889,1,8,0:0:0:0:
380,319,355968,1,0,0:0:0:0:
381,309,356047,1,0,0:0:0:0:
381,308,356126,1,8,0:0:0:0:
379,319,356283,1,8,0:0:0:0:
380,319,356362,1,8,0:0:0:0:
334,298,356441,1,0,0:0:0:0:
396,320,356520,1,8,0:0:0:0:
396,320,356599,1,0,0:0:0:0:
396,320,356678,1,0,0:0:0:0:
396,320,356757,1,8,0:0:0:0:
424,332,356915,1,8,0:0:0:0:
378,321,356994,1,8,0:0:0:0:
378,321,357073,1,0,0:0:0:0:
428,326,357231,1,0,0:0:0:0:
428,326,357389,1,8,0:0:0:0:
346,294,357547,1,0,0:0:0:0:
418,321,357626,1,0,0:0:0:0:
351,262,357704,1,0,0:0:0:0:
346,294,357862,1,0,0:0:0:0:
435,328,358020,1,8,0:0:0:0:
388,316,358099,1,0,0:0:0:0:
388,316,358178,1,8,0:0:0:0:
388,316,358257,1,8,0:0:0:0:
388,316,358336,1,0,0:0:0:0:
396,331,358494,1,0,0:0:0:0:
403,319,358652,1,8,0:0:0:0:
409,328,358810,1,0,0:0:0:0:
403,319,358889,1,8,0:0:0:0:
408,330,358968,1,0,0:0:0:0:
409,328,359047,1,0,0:0:0:0:
408,326,359126,1,0,0:0:0:0:
408,330,359204,1,0,0:0:0:0:
409,328,359283,1,8,0:0:0:0:
392,307,359520,1,8,0:0:0:0:
392,307,359599,1,0,0:0:0:0:
386,327,359757,1,8,0:0:0:0:
386,327,359836,1,8,0:0:0:0:
386,327,359915,1,0,0:0:0:0:
405,326,360073,1,0,0:0:0:0:
367,307,360152,1,8,0:0:0:0:
367,307,360231,1,0,0:0:0:0:
367,307,360310,1,0,0:0:0:0:
367,307,360389,1,8,0:0:0:0:
370,290,360468,1,8,0:0:0:0:
393,333,360547,1,8,0:0:0:0:
339,294,360626,1,0,0:0:0:0:
339,293,360704,1,8,0:0:0:0:
396,316,360862,1,12,0:0:0:0:
406,187,361494,1,12,0:0:0:0:
347,295,362126,1,8,0:0:0:0:
339,256,362204,1,8,0:0:0:0:
347,283,362283,1,0,0:0:0:0:
347,283,362362,1,0,0:0:0:0:
347,282,362441,1,8,0:0:0:0:
336,290,362520,1,8,0:0:0:0:
326,271,362599,1,0,0:0:0:0:
342,264,362678,1,8,0:0:0:0:
336,290,362757,1,8,0:0:0:0:
342,264,362836,1,0,0:0:0:0:
342,264,362915,1,8,0:0:0:0:
336,290,362994,1,8,0:0:0:0:
326,271,363073,1,0,0:0:0:0:
326,271,363152,1,8,0:0:0:0:
345,253,363231,1,8,0:0:0:0:
346,253,363310,1,8,0:0:0:0:
427,338,363389,1,4,0:0:0:0:
368,313,363547,1,0,0:0:0:0:
368,313,363704,1,8,0:0:0:0:
377,325,363862,1,0,0:0:0:0:
377,325,363941,1,0,0:0:0:0:
377,325,364020,1,8,0:0:0:0:
377,325,364099,1,8,0:0:0:0:
377,325,364178,1,0,0:0:0:0:
394,311,364336,1,8,0:0:0:0:
368,318,364494,1,8,0:0:0:0:
378,304,364652,1,0,0:0:0:0:
378,304,364810,1,0,0:0:0:0:
346,176,364968,1,8,0:0:0:0:
377,270,365126,1,0,0:0:0:0:
362,280,365204,1,0,0:0:0:0:
362,280,365283,1,0,0:0:0:0:
377,270,365362,1,8,0:0:0:0:
377,270,365441,1,0,0:0:0:0:
367,276,365599,1,8,0:0:0:0:
367,253,365757,1,0,0:0:0:0:
388,295,365915,1,0,0:0:0:0:
393,288,366073,1,0,0:0:0:0:
401,283,366231,1,8,0:0:0:0:
388,325,366389,1,0,0:0:0:0:
385,307,366468,1,0,0:0:0:0:
385,303,366547,1,8,0:0:0:0:
385,303,366626,1,8,0:0:0:0:
385,307,366704,1,0,0:0:0:0:
407,303,366862,1,8,0:0:0:0:
391,317,367020,1,8,0:0:0:0:
398,322,367178,1,4,0:0:0:0:
398,322,367336,1,4,0:0:0:0:
398,322,367494,1,4,0:0:0:0:
440,323,368126,1,12,0:0:0:0:
345,299,368441,1,8,0:0:0:0:
345,299,368520,1,8,0:0:0:0:
274,262,368599,1,8,0:0:0:0:
358,304,368678,1,0,0:0:0:0:
350,271,368757,1,8,0:0:0:0:
345,299,368836,1,8,0:0:0:0:
358,304,368915,1,0,0:0:0:0:
358,304,368994,1,0,0:0:0:0:
261,278,369073,1,8,0:0:0:0:
294,274,369152,1,0,0:0:0:0:
294,274,369231,1,0,0:0:0:0:
294,274,369310,1,0,0:0:0:0:
294,274,369389,1,8,0:0:0:0:
294,274,369468,1,0,0:0:0:0:
294,274,369547,1,8,0:0:0:0:
294,274,369626,1,8,0:0:0:0:
316,272,369704,1,8,0:0:0:0:
322,285,369783,1,8,0:0:0:0:
322,284,369862,1,0,0:0:0:0:
321,284,369941,1,0,0:0:0:0:
322,285,370020,1,8,0:0:0:0:
315,287,370099,1,0,0:0:0:0:
341,295,370178,1,0,0:0:0:0:
341,295,370257,1,0,0:0:0:0:
365,305,370336,1,8,0:0:0:0:
322,283,370415,1,8,0:0:0:0:
376,288,370494,1,0,0:0:0:0:
322,283,370573,1,0,0:0:0:0:
339,281,370652,1,8,0:0:0:0:
311,268,370731,1,8,0:0:0:0:
331,270,370810,1,8,0:0:0:0:
331,270,370889,1,8,0:0:0:0:
381,294,370968,1,4,0:0:0:0:
420,328,371204,1,8,0:0:0:0:
403,310,371441,1,4,0:0:0:0:
399,308,371757,1,8,0:0:0:0:
415,300,372073,1,4,0:0:0:0:
380,285,372704,1,4,0:0:0:0:
388,305,373178,1,12,0:0:0:0:
373,260,373494,1,4,0:0:0:0:
354,294,373652,1,8,0:0:0:0:
329,271,373731,1,8,0:0:0:0:
308,285,373810,1,8,0:0:0:0:
329,271,373889,1,0,0:0:0:0:
329,271,373968,1,8,0:0:0:0:
353,300,374047,1,8,0:0:0:0:
353,300,374126,1,0,0:0:0:0:
345,289,374204,1,0,0:0:0:0:
369,273,374283,1,8,0:0:0:0:
369,273,374362,1,0,0:0:0:0:
351,302,374441,1,0,0:0:0:0:
351,302,374520,1,0,0:0:0:0:
351,302,374599,1,8,0:0:0:0:
367,312,374678,1,8,0:0:0:0:
367,312,374757,1,0,0:0:0:0:
323,266,374836,1,8,0:0:0:0:
379,318,374915,1,0,0:0:0:0:
323,266,374994,1,0,0:0:0:0:
379,318,375073,1,8,0:0:0:0:
378,309,375152,1,0,0:0:0:0:
378,309,375231,1,8,0:0:0:0:
365,302,375389,1,0,0:0:0:0:
378,309,375547,1,0,0:0:0:0:
382,313,375626,1,0,0:0:0:0:
378,309,375704,1,8,0:0:0:0:
362,304,375862,1,8,0:0:0:0:
387,324,376020,1,0,0:0:0:0:
329,219,376099,1,0,0:0:0:0:
254,268,376178,1,8,0:0:0:0:
301,261,376257,1,8,0:0:0:0:
254,268,376336,1,8,0:0:0:0:
385,311,376415,1,0,0:0:0:0:
341,300,376494,1,8,0:0:0:0:
254,268,376573,1,8,0:0:0:0:
254,268,376652,1,0,0:0:0:0:
263,261,376731,1,0,0:0:0:0:
264,261,376810,1,0,0:0:0:0:
264,261,376889,1,0,0:0:0:0:
275,252,376968,1,8,0:0:0:0:
303,255,377126,1,8,0:0:0:0:
303,255,377204,1,0,0:0:0:0:
360,282,377283,1,8,0:0:0:0:
394,293,377362,1,8,0:0:0:0:
363,271,377441,1,0,0:0:0:0:
363,271,377520,1,0,0:0:0:0:
363,271,377599,1,8,0:0:0:0:
396,260,377678,1,0,0:0:0:0:
396,330,377757,1,0,0:0:0:0:
406,345,377836,1,0,0:0:0:0:
396,330,377915,1,8,0:0:0:0:
337,283,377994,1,8,0:0:0:0:
372,288,378073,1,0,0:0:0:0:
368,296,378152,1,0,0:0:0:0:
368,296,378231,1,8,0:0:0:0:
365,285,378310,1,8,0:0:0:0:
395,318,378389,1,8,0:0:0:0:
395,318,378468,1,8,0:0:0:0:
395,318,378547,1,0,0:0:0:0:
385,329,378704,1,0,0:0:0:0:
361,291,378783,1,0,0:0:0:0:
361,291,378862,1,8,0:0:0:0:
337,234,379020,1,0,0:0:0:0:
370,316,379099,1,0,0:0:0:0:
362,303,379178,1,0,0:0:0:0:
378,321,379257,1,0,0:0:0:0:
370,316,379336,1,8,0:0:0:0:
349,289,379415,1,8,0:0:0:0:
351,301,379494,1,8,0:0:0:0:
372,286,379573,1,0,0:0:0:0:
400,327,379652,1,8,0:0:0:0:
411,321,379731,1,8,0:0:0:0:
369,304,379810,1,0,0:0:0:0:
369,304,379968,1,8,0:0:0:0:
374,309,380047,1,0,0:0:0:0:
374,309,380126,1,8,0:0:0:0:
361,278,380283,1,8,0:0:0:0:
351,298,380362,1,8,0:0:0:0:
353,302,380441,1,0,0:0:0:0:
353,291,380520,1,0,0:0:0:0:
294,229,380599,1,8,0:0:0:0:
309,237,380652,1,0,0:0:0:0:
313,233,380704,1,0,0:0:0:0:
313,233,380757,1,8,0:0:0:0:
374,274,380836,1,8,0:0:0:0:
374,274,380915,1,0,0:0:0:0:
405,318,381073,1,4,0:0:0:0:
425,331,381389,1,8,0:0:0:0:
426,321,381547,1,4,0:0:0:0:
372,308,381862,1,8,0:0:0:0:
373,304,382178,1,4,0:0:0:0:
295,225,382494,1,8,0:0:0:0:
385,261,382652,1,8,0:0:0:0:
376,295,382810,1,4,0:0:0:0:
375,322,382968,1,8,0:0:0:0:
376,314,383047,1,8,0:0:0:0:
381,308,383126,1,0,0:0:0:0:
381,308,383204,1,0,0:0:0:0:
389,301,383283,1,12,0:0:0:0:
381,308,383441,1,8,0:0:0:0:
408,328,383599,1,0,0:0:0:0:
375,321,383678,1,0,0:0:0:0:
375,321,383757,1,0,0:0:0:0:
375,321,383836,1,0,0:0:0:0:
413,316,383915,1,12,0:0:0:0:
343,290,384073,1,8,0:0:0:0:
374,307,384152,1,0,0:0:0:0:
336,287,384231,1,8,0:0:0:0:
343,290,384310,1,8,0:0:0:0:
327,287,384389,1,0,0:0:0:0:
372,308,384468,1,8,0:0:0:0:
327,286,384547,1,0,0:0:0:0:
327,287,384626,1,0,0:0:0:0:
374,300,384704,1,8,0:0:0:0:
374,300,384783,1,8,0:0:0:0:
374,300,384862,1,0,0:0:0:0:
390,309,385020,1,0,0:0:0:0:
400,328,385178,1,8,0:0:0:0:
367,302,385257,1,0,0:0:0:0:
380,327,385336,1,8,0:0:0:0:
306,251,385415,1,8,0:0:0:0:
384,318,385494,1,0,0:0:0:0:
376,322,385652,1,0,0:0:0:0:
380,327,385731,1,0,0:0:0:0:
421,337,385810,1,8,0:0:0:0:
402,326,385968,1,8,0:0:0:0:
422,324,386126,1,4,0:0:0:0:
393,314,386283,1,8,0:0:0:0:
393,314,386441,1,8,0:0:0:0:
393,314,386599,1,8,0:0:0:0:
393,314,386678,1,8,0:0:0:0:
393,314,386757,1,4,0:0:0:0:
351,302,386915,1,8,0:0:0:0:
351,302,387073,1,8,0:0:0:0:
351,302,387152,1,8,0:0:0:0:
351,302,387231,1,8,0:0:0:0:
351,302,387310,1,8,0:0:0:0:
351,302,387389,1,0,0:0:0:0:
351,302,387468,1,0,0:0:0:0:
360,272,387547,1,8,0:0:0:0:
370,288,387626,1,8,0:0:0:0:
251,274,387704,1,0,0:0:0:0:
370,288,387783,1,8,0:0:0:0:
251,274,387862,1,8,0:0:0:0:
251,274,387941,1,8,0:0:0:0:
251,274,388020,1,0,0:0:0:0:
347,276,388099,1,0,0:0:0:0:
347,276,388178,1,0,0:0:0:0:
331,287,388257,1,0,0:0:0:0:
315,274,388336,1,8,0:0:0:0:
370,304,388415,1,0,0:0:0:0:
370,304,388494,1,8,0:0:0:0:
324,212,388573,1,8,0:0:0:0:
324,212,388652,1,0,0:0:0:0:
377,320,388810,1,0,0:0:0:0:
377,320,388968,1,8,0:0:0:0:
377,320,389126,1,0,0:0:0:0:
396,313,389204,1,0,0:0:0:0:
396,313,389283,1,8,0:0:0:0:
358,258,389441,1,0,0:0:0:0:
358,258,389520,1,8,0:0:0:0:
358,258,389599,1,0,0:0:0:0:
358,258,389757,1,8,0:0:0:0:
358,258,389915,1,0,0:0:0:0:
358,258,390073,1,0,0:0:0:0:
358,258,390231,1,8,0:0:0:0:
367,308,390389,1,0,0:0:0:0:
354,303,390468,1,0,0:0:0:0:
354,303,390547,1,8,0:0:0:0:
354,303,390626,1,8,0:0:0:0:
354,303,390704,1,0,0:0:0:0:
382,237,390862,1,8,0:0:0:0:
404,318,391020,1,0,0:0:0:0:
389,246,391178,1,12,0:0:0:0:
291,256,391494,1,0,0:0:0:0:
347,263,391652,1,12,0:0:0:0:
362,292,391968,1,0,0:0:0:0:
396,314,392126,1,12,0:0:0:0:
397,307,392283,1,4,0:0:0:0:
256,192,392441,12,0,393231,0:0:0:0:
418,330,393389,5,12,0:0:0:0:
400,303,393704,1,4,0:0:0:0:
336,315,393862,1,0,0:0:0:0:
349,285,393941,1,0,0:0:0:0:
332,273,394020,1,8,0:0:0:0:
330,267,394099,1,0,0:0:0:0:
330,297,394178,1,8,0:0:0:0:
342,263,394257,1,0,0:0:0:0:
386,312,394336,1,8,0:0:0:0:
330,297,394415,1,8,0:0:0:0:
330,293,394494,1,0,0:0:0:0:
336,296,394573,1,8,0:0:0:0:
336,296,394652,1,0,0:0:0:0:
342,308,394810,1,8,0:0:0:0:
345,301,394889,1,0,0:0:0:0:
344,298,394968,1,0,0:0:0:0:
345,288,395047,1,0,0:0:0:0:
348,283,395126,1,8,0:0:0:0:
351,301,395204,1,0,0:0:0:0:
351,301,395283,1,8,0:0:0:0:
323,260,395362,1,8,0:0:0:0:
354,307,395441,1,0,0:0:0:0:
270,255,395520,1,0,0:0:0:0:
280,247,395599,1,0,0:0:0:0:
354,307,395678,1,8,0:0:0:0:
354,307,395757,1,0,0:0:0:0:
374,299,395915,1,8,0:0:0:0:
261,267,395994,1,8,0:0:0:0:
361,290,396073,1,0,0:0:0:0:
361,290,396152,1,0,0:0:0:0:
361,289,396231,1,8,0:0:0:0:
371,319,396389,1,0,0:0:0:0:
364,308,396468,1,0,0:0:0:0:
364,307,396547,1,8,0:0:0:0:
275,250,396626,1,8,0:0:0:0:
357,282,396704,1,8,0:0:0:0:
311,283,396783,1,0,0:0:0:0:
311,283,396862,1,8,0:0:0:0:
308,266,396941,1,8,0:0:0:0:
357,279,397020,1,0,0:0:0:0:
311,283,397099,1,8,0:0:0:0:
311,283,397178,1,0,0:0:0:0:
384,327,397336,1,8,0:0:0:0:
311,283,397415,1,0,0:0:0:0:
386,320,397494,1,0,0:0:0:0:
337,303,397573,1,0,0:0:0:0:
348,289,397652,1,8,0:0:0:0:
386,320,397731,1,0,0:0:0:0:
337,303,397810,1,8,0:0:0:0:
348,289,397889,1,8,0:0:0:0:
332,284,397968,1,8,0:0:0:0:
380,310,398047,1,8,0:0:0:0:
380,310,398126,1,0,0:0:0:0:
366,303,398204,1,8,0:0:0:0:
366,301,398283,1,8,0:0:0:0:
371,304,398362,1,8,0:0:0:0:
402,307,399073,1,0,0:0:0:0:
391,288,399231,1,0,0:0:0:0:
397,303,399389,1,8,0:0:0:0:
387,323,399468,1,0,0:0:0:0:
387,323,399547,1,8,0:0:0:0:
371,299,399626,1,8,0:0:0:0:
371,298,399704,1,0,0:0:0:0:
345,297,399862,1,0,0:0:0:0:
345,297,399941,1,0,0:0:0:0:
345,297,400020,1,0,0:0:0:0:
286,243,400099,1,0,0:0:0:0:
285,239,400178,1,8,0:0:0:0:
317,280,400257,1,0,0:0:0:0:
317,280,400336,1,8,0:0:0:0:
323,273,400415,1,8,0:0:0:0:
356,303,400494,1,0,0:0:0:0:
366,288,400573,1,0,0:0:0:0:
325,282,400652,1,0,0:0:0:0:
325,282,400731,1,8,0:0:0:0:
335,261,400810,1,0,0:0:0:0:
376,288,400889,1,0,0:0:0:0:
336,254,400968,1,8,0:0:0:0:
357,312,401047,1,8,0:0:0:0:
374,305,401126,1,8,0:0:0:0:
360,300,401204,1,8,0:0:0:0:
361,293,401283,1,0,0:0:0:0:
382,307,401441,1,8,0:0:0:0:
382,307,401520,1,8,0:0:0:0:
263,255,401599,1,0,0:0:0:0:
263,255,401678,1,8,0:0:0:0:
356,278,401757,1,8,0:0:0:0:
231,258,401836,1,8,0:0:0:0:
232,257,401915,1,0,0:0:0:0:
406,322,401994,1,0,0:0:0:0:
344,277,402073,1,0,0:0:0:0:
406,322,402152,1,0,0:0:0:0:
356,277,402231,1,8,0:0:0:0:
381,278,402310,1,0,0:0:0:0:
372,299,402389,1,8,0:0:0:0:
372,299,402468,1,8,0:0:0:0:
385,296,402547,1,4,0:0:0:0:
383,296,402862,1,4,0:0:0:0:
383,296,403178,1,4,0:0:0:0:
383,296,403494,1,12,0:0:0:0:
379,317,403810,1,4,0:0:0:0:
367,318,403968,1,0,0:0:0:0:
378,308,404126,1,8,0:0:0:0:
367,273,404283,1,8,0:0:0:0:
351,303,404362,1,8,0:0:0:0:
338,318,404441,1,0,0:0:0:0:
343,313,404520,1,8,0:0:0:0:
351,303,404599,1,0,0:0:0:0:
387,325,404757,1,8,0:0:0:0:
374,283,404915,1,0,0:0:0:0:
367,298,405073,1,0,0:0:0:0:
346,295,405231,1,0,0:0:0:0:
346,295,405310,1,0,0:0:0:0:
346,295,405389,1,8,0:0:0:0:
407,313,405547,1,8,0:0:0:0:
369,278,405626,1,8,0:0:0:0:
369,278,405704,1,0,0:0:0:0:
369,278,405783,1,8,0:0:0:0:
378,317,405862,1,0,0:0:0:0:
378,317,405941,1,0,0:0:0:0:
378,317,406020,1,8,0:0:0:0:
397,282,406178,1,8,0:0:0:0:
381,311,406336,1,0,0:0:0:0:
370,278,406415,1,0,0:0:0:0:
363,267,406494,1,0,0:0:0:0:
363,267,406547,1,0,0:0:0:0:
367,261,406599,1,0,0:0:0:0:
396,278,406652,1,8,0:0:0:0:
374,306,406810,1,8,0:0:0:0:
376,310,406889,1,8,0:0:0:0:
379,315,406968,1,0,0:0:0:0:
379,312,407047,1,8,0:0:0:0:
376,310,407126,1,0,0:0:0:0:
350,317,407283,1,8,0:0:0:0:
384,278,407441,1,0,0:0:0:0:
353,290,407599,1,0,0:0:0:0:
361,276,407678,1,8,0:0:0:0:
358,280,407757,1,0,0:0:0:0:
361,276,407836,1,0,0:0:0:0:
361,276,407915,1,8,0:0:0:0:
382,320,408073,1,8,0:0:0:0:
382,320,408152,1,8,0:0:0:0:
382,320,408231,1,0,0:0:0:0:
398,302,408389,1,0,0:0:0:0:
412,254,408547,1,12,0:0:0:0:
396,288,408862,1,4,0:0:0:0:
363,311,409020,1,0,0:0:0:0:
348,282,409178,1,8,0:0:0:0:
365,264,409336,1,0,0:0:0:0:
325,274,409415,1,8,0:0:0:0:
325,274,409494,1,0,0:0:0:0:
325,274,409573,1,8,0:0:0:0:
366,308,409652,1,0,0:0:0:0:
406,305,409810,1,8,0:0:0:0:
367,297,409968,1,8,0:0:0:0:
409,298,410126,1,0,0:0:0:0:
344,269,410204,1,0,0:0:0:0:
339,288,410283,1,0,0:0:0:0:
339,288,410362,1,0,0:0:0:0:
339,288,410441,1,8,0:0:0:0:
361,305,410599,1,0,0:0:0:0:
360,302,410678,1,8,0:0:0:0:
361,305,410757,1,0,0:0:0:0:
361,305,410836,1,8,0:0:0:0:
360,302,410915,1,0,0:0:0:0:
358,266,410994,1,0,0:0:0:0:
398,285,411073,1,8,0:0:0:0:
452,241,411231,1,8,0:0:0:0:
366,293,411310,1,8,0:0:0:0:
366,293,411389,1,0,0:0:0:0:
366,293,411547,1,0,0:0:0:0:
366,293,411704,1,8,0:0:0:0:
394,308,411862,1,0,0:0:0:0:
394,308,411941,1,8,0:0:0:0:
394,308,412020,1,0,0:0:0:0:
394,308,412099,1,8,0:0:0:0:
394,308,412178,1,0,0:0:0:0:
381,289,412336,1,8,0:0:0:0:
381,289,412494,1,8,0:0:0:0:
381,289,412573,1,8,0:0:0:0:
377,304,412652,1,8,0:0:0:0:
377,304,412810,1,0,0:0:0:0:
377,304,412968,1,8,0:0:0:0:
377,304,413126,1,0,0:0:0:0:
387,307,413283,1,8,0:0:0:0:
387,307,413441,1,0,0:0:0:0:
326,284,413599,1,8,0:0:0:0:
326,284,413678,1,8,0:0:0:0:
357,258,413757,1,8,0:0:0:0:
357,258,413836,1,8,0:0:0:0:
461,287,413915,1,4,0:0:0:0:
358,289,414231,1,8,0:0:0:0:
357,252,414547,1,0,0:0:0:0:
357,252,414704,1,0,0:0:0:0:
357,252,414862,1,8,0:0:0:0:
396,268,415178,1,0,0:0:0:0:
392,304,415494,1,8,0:0:0:0:
376,298,415731,1,8,0:0:0:0:
376,298,415810,1,0,0:0:0:0:
365,256,415968,1,0,0:0:0:0:
373,249,416126,1,8,0:0:0:0:
363,284,416441,1,0,0:0:0:0:
364,263,416757,1,8,0:0:0:0:
372,242,417073,1,0,0:0:0:0:
372,242,417231,1,0,0:0:0:0:
372,242,417389,1,8,0:0:0:0:
413,311,417704,1,0,0:0:0:0:
383,298,418020,1,8,0:0:0:0:
379,279,418257,1,8,0:0:0:0:
379,279,418336,1,0,0:0:0:0:
395,273,418494,1,0,0:0:0:0:
351,278,418652,1,8,0:0:0:0:
351,278,418704,1,8,0:0:0:0:
351,278,418757,1,8,0:0:0:0:
351,278,418810,1,8,0:0:0:0:
396,263,418968,1,0,0:0:0:0:
429,238,419283,1,8,0:0:0:0:
401,294,419599,1,0,0:0:0:0:
401,294,419915,1,8,0:0:0:0:
401,294,420231,1,0,0:0:0:0:
401,294,420547,1,8,0:0:0:0:
406,205,420862,1,0,0:0:0:0:
406,205,421178,1,8,0:0:0:0:
397,315,421494,1,0,0:0:0:0:
397,315,421810,1,8,0:0:0:0:
397,315,422126,1,0,0:0:0:0:
397,315,422441,1,8,0:0:0:0:
256,192,422757,12,8,423862,0:0:0:0:
391,275,424020,5,12,0:0:0:0:
