osu file format v14

[General]
AudioFilename: Hewkii - Next Time.mp3
AudioLeadIn: 0
PreviewTime: 67092
Countdown: 0
SampleSet: None
StackLeniency: 0.2
Mode: 0
LetterboxInBreaks: 1
WidescreenStoryboard: 1

[Editor]
Bookmarks: 98253,127326,141871,156416,185507
DistanceSpacing: 1
BeatDivisor: 6
GridSize: 4
TimelineZoom: 2.4

[Metadata]
Title:Next time
TitleUnicode:Next time
Artist:Hewkii
ArtistUnicode:Hewkii
Creator:Monarch
Version:Something to display
Source:
Tags:
BeatmapID:1866044
BeatmapSetID:892741

[Difficulty]
HPDrainRate:7
CircleSize:5
OverallDifficulty:8
ApproachRate:9
SliderMultiplier:2.5
SliderTickRate:1

[Events]
//Background and Video events
0,0,"wallhaven-690528.png",0,0
//Break Periods
//Storyboard Layer 0 (Background)
//Storyboard Layer 1 (Fail)
//Storyboard Layer 2 (Pass)
//Storyboard Layer 3 (Foreground)
//Storyboard Sound Samples

[TimingPoints]
7326,454.545454545455,4,1,0,50,1,0
7326,-400,4,1,0,50,0,0
58235,-285.714285714286,4,1,0,50,0,0
61871,-222.222222222222,4,1,0,50,0,0
67326,-133.333333333333,4,1,0,50,0,0
69144,-100,4,1,0,50,0,0
98235,-133.333333333333,4,1,0,50,0,0
156416,-100,4,1,0,50,0,0

[Colours]
Combo1 : 4,74,39
Combo2 : 46,209,128
Combo3 : 7,120,58

[HitObjects]
82,106,7326,6,0,B|129:101|129:101|157:109|157:109|210:104,1,125
304,28,8689,1,0,0:0:0:0:
409,158,9144,6,0,P|428:218|409:280,1,125
303,338,10507,2,0,L|306:296,1,31.25
310,233,10962,6,0,P|256:206|192:223,1,125
121,321,12326,1,0,0:0:0:0:
40,164,12780,6,0,L|44:121,1,31.25
117,79,13235,2,0,L|120:121,1,31.25
195,220,13689,2,0,L|198:177,1,31.25
271,134,14144,2,0,L|274:176,1,31.25
327,278,14598,6,0,P|384:296|445:271,1,125
508,167,15962,1,0,0:0:0:0:
332,63,16416,6,0,L|202:75,1,125
135,176,17780,2,0,L|175:172,1,31.25
260,187,18235,6,0,L|130:175,1,125
27,238,19598,1,0,0:0:0:0:
129,100,20053,6,0,P|137:75|140:58,1,31.25
224,22,20507,2,0,P|232:47|235:64,1,31.25
264,173,20962,2,0,P|272:148|275:131,1,31.25
359,95,21416,2,0,P|367:120|370:137,1,31.25
352,266,21871,6,0,L|215:254,1,125,0|0,0:3|0:3,0:3:0:0:
126,328,23235,1,0,0:0:0:0:
30,201,23689,6,0,P|14:140|33:69,1,125
125,3,25053,2,0,L|128:39,1,31.25
138,117,25507,6,0,B|159:128|159:128|260:119,1,125
384,106,26871,1,0,0:0:0:0:
335,238,27326,6,0,L|339:283,1,31.25
267,319,27780,2,0,L|270:274,1,31.25
214,175,28235,2,0,L|217:219,1,31.25
145,255,28689,2,0,L|148:210,1,31.25
114,108,29144,6,0,P|63:90|-3:117,1,125
124,117,30507,1,0,0:0:0:0:
260,22,30962,6,0,P|311:4|377:31,1,125
444,132,32326,2,0,L|440:170,1,31.25
473,244,32780,6,0,L|461:375,1,125
360,294,34144,1,0,0:0:0:0:
489,146,34598,6,0,L|486:114,1,31.25
422,46,35053,2,0,L|419:77,1,31.25
328,184,35507,2,0,L|325:152,1,31.25
261,84,35962,2,0,L|258:115,1,31.25
212,232,36416,6,0,P|155:253|87:226,1,125
37,123,37780,1,0,0:0:0:0:
229,144,38235,6,0,B|280:148|280:148|302:160|302:160|360:165,1,125
378,42,39598,2,0,P|351:39|339:42,1,31.25
419,90,40053,6,0,P|374:55|308:70,1,125
262,182,41416,1,0,0:0:0:0:
145,72,41871,6,0,L|148:35,1,31.25
63,7,42326,2,0,L|66:43,1,31.25
98,159,42780,2,0,L|101:122,1,31.25
16,94,43235,2,0,L|19:130,1,31.25
36,258,43689,6,0,P|93:283|159:256,1,125
203,188,45053,1,0,0:0:0:0:
290,268,45507,6,0,L|417:256,1,125
377,184,46871,2,0,L|336:187,1,31.25
261,132,47326,6,0,P|240:69|272:17,1,125
314,79,48689,1,0,0:0:0:0:
204,158,49144,6,0,L|167:154,1,31.25
125,198,49598,2,0,L|88:194,1,31.25
90,273,50053,2,0,L|126:269,1,31.25
169,313,50507,2,0,L|205:309,1,31.25
284,351,50962,6,0,B|345:365|345:365|404:343,1,125
512,303,52326,1,0,0:0:0:0:
436,233,52780,6,0,P|418:168|438:105,1,125
353,219,54144,2,0,L|309:215,1,31.25
238,260,54598,6,0,L|108:248,1,125
30,302,55962,1,0,0:0:0:0:
49,168,56416,6,0,L|52:127,1,31.25
112,71,56871,2,0,L|115:111,1,31.25
168,209,57326,2,0,L|171:168,1,31.25
231,112,57781,2,0,L|234:152,1,31.25
244,254,58235,6,0,P|324:288|398:239,1,174.999994659424
465,141,59598,1,0,0:0:0:0:
300,21,60053,6,0,L|316:196,1,174.999994659424
259,243,61416,2,0,P|234:248|211:243,1,43.749998664856
137,204,61871,6,0,P|48:257|105:362,1,224.999993133545
299,309,63235,1,0,0:0:0:0:
234,140,63689,6,0,L|228:204,1,56.2499982833863
337,165,64144,2,0,L|331:100,1,56.2499982833863
160,51,64598,6,0,L|154:115,1,56.2499982833863
278,71,65053,2,0,L|272:6,1,56.2499982833863
273,14,67326,6,0,P|225:0|171:18,1,93.7500035762788
113,71,67666,1,0,0:0:0:0:
105,83,67780,2,0,L|114:191,1,93.7500035762788
123,339,68235,1,0,0:0:0:0:
15,152,68462,1,0,0:0:0:0:
216,186,68689,1,0,0:0:0:0:
214,210,68802,1,0,0:0:0:0:
212,233,68916,2,0,L|206:297,1,46.8750017881394
242,353,69144,6,0,P|300:375|365:349,1,125
503,148,69598,1,0,0:0:0:0:
482,289,69826,1,0,0:0:0:0:
420,78,70053,1,0,0:0:0:0:
301,282,70280,1,0,0:0:0:0:
178,121,70507,6,0,P|164:77|187:35,1,83.3333333333333
262,50,70735,6,0,P|276:94|253:136,1,83.3333333333333
162,208,70962,6,0,L|25:196,1,125,0|0,0:0|0:3,0:3:0:0:
270,286,71416,1,0,0:0:0:0:
205,120,71644,1,0,0:0:0:0:
159,329,71871,1,0,0:0:0:0:
314,203,72098,6,0,L|306:112,1,83.3333333333333
354,52,72326,5,0,0:0:0:0:
374,296,72553,1,0,0:0:0:0:
148,203,72780,6,0,P|127:143|156:76,1,125
395,117,73235,1,0,0:0:0:0:
219,143,73462,1,0,0:0:0:0:
336,324,73689,6,0,L|343:239,1,83.3333333333333
297,170,73916,6,0,L|304:85,1,83.3333333333333
368,0,74144,5,0,0:0:0:0:
222,159,74371,6,0,P|175:175|137:165,1,83.3333333333333
111,0,74598,6,0,P|161:34|175:94,1,125
73,323,75053,1,0,0:0:0:0:
95,74,75280,1,0,0:0:0:0:
192,268,75507,6,0,P|232:278|283:265,1,83.3333333333333
343,223,75735,6,0,P|383:213|434:226,1,83.3333333333333
486,319,75962,6,0,P|453:253|486:181,1,125
401,95,76341,5,0,0:0:0:0:
411,84,76416,6,0,L|272:96,1,125
38,55,76871,1,0,0:0:0:0:
120,251,77098,1,0,0:0:0:0:
171,29,77326,1,0,0:0:0:0:
8,194,77553,1,0,0:0:0:0:
229,321,77780,6,0,P|270:330|318:317,1,83.3333333333333
369,262,78007,6,0,P|378:221|365:173,1,83.3333333333333
276,100,78235,6,0,L|144:112,1,125
382,17,78689,1,0,0:0:0:0:
285,185,78916,1,0,0:0:0:0:
202,0,79144,1,0,0:0:0:0:
375,137,79371,6,0,P|388:188|380:227,1,83.3333333333333
310,292,79598,5,0,0:0:0:0:
283,52,79826,1,0,0:0:0:0:
490,190,80053,6,0,L|477:330,1,125
252,209,80507,1,0,0:0:0:0:
428,135,80735,1,0,0:0:0:0:
350,339,80962,6,0,P|303:351|264:339,1,83.3333333333333
203,292,81189,6,0,P|156:280|117:292,1,83.3333333333333
35,367,81416,5,0,0:0:0:0:
62,165,81644,6,0,L|69:80,1,83.3333333333333
0,0,81871,6,0,B|25:12|25:12|128:3,1,125
362,73,82326,1,0,0:0:0:0:
191,49,82553,1,0,0:0:0:0:
425,24,82780,6,0,P|443:72|434:108,1,83.3333333333333
384,167,83007,6,0,P|366:215|375:251,1,83.3333333333333
443,351,83235,6,0,L|300:338,1,125
188,368,83613,5,0,0:0:0:0:
176,359,83689,6,0,P|153:326|171:235,1,125
327,56,84144,1,0,0:0:0:0:
308,219,84371,1,0,0:0:0:0:
217,14,84598,1,0,0:0:0:0:
402,137,84826,1,0,0:0:0:0:
203,327,85053,6,0,P|151:342|115:330,1,83.3333333333333
116,251,85280,6,0,P|168:236|204:248,1,83.3333333333333
299,330,85507,6,0,P|358:350|421:323,1,125
333,91,85962,1,0,0:0:0:0:
356,257,86189,1,0,0:0:0:0:
453,46,86416,1,0,0:0:0:0:
302,179,86644,6,0,L|211:171,1,83.3333333333333
101,162,86871,5,0,0:0:0:0:
314,255,87098,1,0,0:0:0:0:
247,63,87326,6,0,L|102:75,1,125
355,163,87780,1,0,0:0:0:0:
289,10,88007,1,0,0:0:0:0:
216,208,88235,6,0,P|169:225|122:214,1,83.3333333333333
124,137,88462,6,0,P|171:120|218:131,1,83.3333333333333
296,234,88689,6,0,L|283:371,1,125
421,270,89068,5,0,0:0:0:0:
419,256,89144,6,0,L|406:118,1,125
193,3,89598,1,0,0:0:0:0:
376,47,89826,1,0,0:0:0:0:
172,152,90053,6,0,P|111:164|83:152,1,83.3333333333333
88,74,90280,6,0,P|149:62|177:74,1,83.3333333333333
256,158,90507,5,0,0:0:0:0:
154,335,90735,6,0,L|146:251,1,83.3333333333333
49,234,90962,6,0,L|61:378,1,125
291,264,91416,1,0,0:0:0:0:
146,243,91644,1,0,0:0:0:0:
362,326,91871,1,0,0:0:0:0:
223,157,92098,1,0,0:0:0:0:
441,33,92326,6,0,L|432:131,1,83.3333333333333
462,194,92553,6,0,L|453:292,1,83.3333333333333
407,345,92780,6,0,P|344:365|285:340,1,125
180,120,93235,1,0,0:0:0:0:
150,272,93462,1,0,0:0:0:0:
81,62,93689,1,0,0:0:0:0:
239,179,93916,6,0,L|332:170,1,83.3333333333333
449,158,94144,5,0,0:0:0:0:
256,92,94371,1,0,0:0:0:0:
386,340,94598,6,0,P|407:283|387:213,1,125
142,241,95053,1,0,0:0:0:0:
304,278,95280,1,0,0:0:0:0:
178,156,95507,6,0,P|132:149|96:159,1,83.3333333333333
96,73,95735,6,0,P|142:80|178:70,1,83.3333333333333
286,106,95962,6,0,P|349:84|422:111,1,125
431,262,96341,5,0,0:0:0:0:
420,273,96416,6,0,P|357:295|284:268,1,125
154,78,96871,1,0,0:0:0:0:
304,168,97098,1,0,0:0:0:0:
147,310,97326,6,0,L|138:217,1,83.3333333333333
221,188,97553,6,0,L|212:280,1,83.3333333333333
88,374,97780,6,0,L|75:231,1,125
59,108,98159,1,0,0:0:0:0:
68,97,98235,6,0,P|115:74|174:83,1,93.7500035762788
238,118,98689,1,0,0:0:0:0:
228,24,98916,1,0,0:0:0:0:
327,169,99144,6,0,L|316:283,1,93.7500035762788
403,120,99598,2,0,L|413:234,1,93.7500035762788
279,44,100053,6,0,B|272:112|272:112|256:147|256:147|248:236,1,187.500007152558
324,169,100735,1,0,0:0:0:0:
205,80,100962,2,0,P|159:67|100:89,1,93.7500035762788
43,238,101416,1,0,0:0:0:0:
39,144,101644,1,0,0:0:0:0:
109,302,101871,6,0,P|155:315|214:293,1,93.7500035762788
263,235,102326,2,0,L|253:130,1,93.7500035762788
341,30,102780,2,0,L|350:134,1,93.7500035762788
193,86,103235,1,0,0:0:0:0:
193,86,103689,5,0,0:0:0:0:
283,108,103916,1,0,0:0:0:0:
122,30,104144,2,0,P|75:19|29:46,1,93.7500035762788
64,207,104598,1,0,0:0:0:0:
84,89,104826,1,0,0:0:0:0:
149,175,105053,2,0,L|139:279,1,93.7500035762788
274,384,105507,6,0,L|262:250,1,93.7500035762788
338,220,105962,2,0,L|346:313,1,93.7500035762788
491,122,106416,1,0,0:0:0:0:
470,213,106644,1,0,0:0:0:0:
376,126,106871,2,0,P|328:115|279:134,1,93.7500035762788
117,244,107326,6,0,P|61:251|12:223,1,93.7500035762788
42,144,107780,2,0,P|98:137|147:165,1,93.7500035762788
195,291,108235,2,0,L|186:393,1,93.7500035762788
296,237,108689,1,0,0:0:0:0:
242,140,108916,1,0,0:0:0:0:
283,318,109144,6,0,P|329:327|385:309,1,93.7500035762788
372,221,109598,2,0,P|326:212|269:229,1,93.7500035762788
176,364,110053,2,0,L|167:260,1,93.7500035762788
221,158,110507,2,0,L|211:53,1,93.7500035762788
351,140,110962,5,0,0:0:0:0:
332,256,111189,1,0,0:0:0:0:
464,173,111416,2,0,L|454:60,1,93.7500035762788
235,7,111871,1,0,0:0:0:0:
259,163,112098,1,0,0:0:0:0:
135,93,112326,2,0,P|71:83|38:102,1,93.7500035762788
83,249,112780,6,0,L|91:155,1,93.7500035762788
191,171,113235,2,0,L|182:264,1,93.7500035762788
313,147,113689,6,0,L|304:53,1,93.7500035762788
396,149,114144,2,0,L|404:242,1,93.7500035762788
336,364,114598,6,0,P|277:378|223:362,1,93.7500035762788
238,278,115053,2,0,P|297:264|351:280,1,93.7500035762788
155,340,115507,2,0,L|163:238,1,93.7500035762788
107,118,115962,1,0,0:0:0:0:
163,246,116189,1,0,0:0:0:0:
302,159,116416,6,0,P|378:148|421:162,1,93.7500035762788
402,244,116871,2,0,P|326:255|283:241,1,93.7500035762788
204,81,117326,2,0,L|195:182,1,93.7500035762788
101,19,117780,2,0,L|109:120,1,93.7500035762788
67,291,118235,5,0,0:0:0:0:
55,170,118462,1,0,0:0:0:0:
144,323,118689,2,0,P|208:330|240:319,1,93.7500035762788
421,184,119144,1,0,0:0:0:0:
372,293,119371,1,0,0:0:0:0:
305,161,119598,2,0,L|313:58,1,93.7500035762788
154,12,120053,6,0,L|162:114,1,93.7500035762788
116,187,120507,2,0,L|124:289,1,93.7500035762788
296,347,120962,2,0,P|308:294|288:248,1,93.7500035762788
201,257,121416,2,0,P|189:310|209:356,1,93.7500035762788
373,263,121871,6,0,L|382:151,1,93.7500035762788
474,177,122326,2,0,L|464:65,1,93.7500035762788
278,25,122780,5,0,0:0:0:0:
278,25,123235,1,0,0:0:0:0:
171,124,123462,1,0,0:0:0:0:
357,169,123689,6,0,L|365:68,2,93.7500035762788
402,251,124371,1,0,0:0:0:0:
292,338,124598,2,0,P|248:352|193:335,1,93.7500035762788
199,192,125053,2,0,P|243:178|298:195,1,93.7500035762788
104,271,125507,5,0,0:0:0:0:
77,180,125735,1,0,0:0:0:0:
168,40,125962,2,0,L|158:148,1,93.7500035762788
342,221,126416,1,0,0:0:0:0:
322,65,126644,1,0,0:0:0:0:
229,163,126871,2,0,L|238:271,1,93.7500035762788
95,331,127326,6,0,P|76:268|92:221,1,93.7500035762788
150,179,127780,2,0,L|159:283,1,93.7500035762788
294,139,128235,2,0,L|284:243,1,93.7500035762788
207,69,128689,2,0,L|216:173,1,93.7500035762788
339,292,129144,6,0,P|388:302|438:277,1,93.7500035762788
484,212,129598,2,0,L|475:115,1,93.7500035762788
291,169,130053,1,0,0:0:0:0:
291,169,130507,1,0,0:0:0:0:
407,61,130735,1,0,0:0:0:0:
233,80,130962,6,0,L|129:89,1,93.7500035762788
89,167,131416,2,0,L|192:157,1,93.7500035762788
332,259,131871,6,0,L|228:249,1,93.7500035762788
109,332,132325,2,0,L|212:341,1,93.7500035762788
320,379,132780,5,0,0:0:0:0:
411,275,133007,2,0,P|423:223|411:181,2,93.7500035762788
171,265,133689,1,0,0:0:0:0:
331,228,133916,1,0,0:0:0:0:
211,178,134144,2,0,P|190:118|198:83,1,93.7500035762788
368,60,134598,6,0,P|389:120|381:155,1,93.7500035762788
307,237,135053,1,0,0:0:0:0:
297,120,135280,1,0,0:0:0:0:
195,225,135507,2,0,L|204:330,1,93.7500035762788
42,374,135962,2,0,L|51:268,1,93.7500035762788
116,129,136341,1,0,0:0:0:0:
117,143,136416,6,0,L|126:248,1,93.7500035762788
215,336,136871,2,0,P|243:341|284:332,1,62.5000023841859
303,320,137098,2,0,P|333:314|364:319,1,62.5000023841859
415,369,137326,6,0,P|392:327|411:261,1,93.7500035762788
483,222,137704,1,0,0:0:0:0:
485,212,137780,2,0,L|491:132,1,62.5000023841859
479,120,138007,2,0,L|485:40,1,62.5000023841859
511,0,138235,6,0,P|417:58|342:27,1,187.500007152558
258,96,138841,1,0,0:0:0:0:
245,89,138916,2,0,P|202:81|172:89,1,62.5000023841859
128,130,139144,6,0,B|134:206|134:206|145:238|145:238|152:315,1,187.500007152558
209,364,139750,1,0,0:0:0:0:
217,370,139826,2,0,P|248:375|281:368,1,62.5000023841859
332,324,140053,6,0,P|373:306|440:318,1,93.7500035762788
487,370,140432,1,0,0:0:0:0:
491,376,140507,2,0,L|497:306,1,62.5000023841859
479,286,140735,2,0,L|485:216,1,62.5000023841859
453,151,140962,6,0,P|408:132|350:148,1,93.7500035762788
270,211,141416,2,0,P|222:225|171:207,1,93.7500035762788
104,133,141795,1,0,0:0:0:0:
117,132,141871,6,0,L|310:115,1,187.500007152558
378,50,142477,1,0,0:0:0:0:
372,60,142553,2,0,P|368:97|381:132,1,62.5000023841859
414,182,142780,6,0,P|427:227|406:283,1,93.7500035762788
329,336,143235,2,0,L|258:330,1,62.5000023841859
239,345,143462,2,0,L|168:338,1,62.5000023841859
108,302,143689,6,0,P|88:253|105:202,1,93.7500035762788
170,133,144144,2,0,L|235:138,1,62.5000023841859
256,158,144371,2,0,L|321:163,1,62.5000023841859
346,149,144598,2,0,P|362:104|349:47,1,93.7500035762788
260,3,144977,1,0,0:0:0:0:
261,17,145053,2,0,L|268:99,1,62.5000023841859
253,107,145280,2,0,L|260:189,1,62.5000023841859
232,235,145507,6,0,P|158:278|75:231,1,187.500007152558
25,99,146189,2,0,L|96:105,1,62.5000023841859
136,58,146416,2,0,L|244:67,1,93.7500035762788
364,162,146871,2,0,L|255:171,1,93.7500035762788
71,275,147326,6,0,L|180:284,1,93.7500035762788
243,328,147704,1,0,0:0:0:0:
256,320,147780,2,0,P|299:309|355:321,1,93.7500035762788
484,384,148235,2,0,P|452:352|435:297,1,93.7500035762788
456,171,148613,1,0,0:0:0:0:
442,170,148689,2,0,L|373:163,1,62.5000023841859
348,163,148916,1,0,0:0:0:0:
284,253,149144,6,0,L|215:259,1,62.5000023841859
201,282,149371,2,0,L|101:290,1,93.7500035762788
19,189,149826,2,0,P|7:154|20:112,1,62.5000023841859
26,102,150053,1,0,0:0:0:0:
197,100,150280,2,0,P|209:135|196:177,1,62.5000023841859
164,208,150507,2,0,L|271:198,1,93.7500035762788
317,145,150886,1,0,0:0:0:0:
305,155,150962,6,0,P|262:236|311:324,1,187.500007152558
420,377,151568,1,0,0:0:0:0:
418,365,151644,2,0,L|411:293,1,62.5000023841859
445,246,151871,6,0,B|421:234|421:234|345:241,1,93.7500035762788
221,252,152250,1,0,0:0:0:0:
210,242,152326,2,0,P|188:199|200:145,1,93.7500035762788
328,47,152704,1,0,0:0:0:0:
311,46,152780,6,0,L|118:29,1,187.500007152558
58,102,153386,1,0,0:0:0:0:
73,100,153462,2,0,L|139:93,1,62.5000023841859
196,123,153689,6,0,P|215:162|205:218,1,93.7500035762788
147,281,154144,2,0,P|142:325|152:349,1,62.5000023841859
167,365,154371,2,0,L|233:359,1,62.5000023841859
290,384,154598,6,0,L|389:375,1,93.7500035762788
487,382,154977,1,0,0:0:0:0:
475,366,155053,2,0,P|464:322|469:294,1,62.5000023841859
421,254,155280,2,0,P|432:210|427:182,1,62.5000023841859
380,135,155507,2,0,L|297:127,1,62.5000023841859
270,80,155735,2,0,L|187:88,1,62.5000023841859
113,98,155962,5,0,0:0:0:0:
218,189,156113,5,0,0:0:0:0:
219,204,156189,2,0,L|225:281,1,62.5000023841859
266,336,156416,6,0,B|241:349|241:349|129:339,1,125
15,154,156871,1,0,0:0:0:0:
155,210,157098,1,0,0:0:0:0:
49,46,157326,1,0,0:0:0:0:
20,233,157553,1,0,0:0:0:0:
256,13,157780,2,0,P|309:0|348:15,1,83.3333333333333
392,68,158007,2,0,P|405:121|390:160,1,83.3333333333333
324,251,158235,6,0,P|305:320|332:379,1,125
486,179,158689,1,0,0:0:0:0:
408,312,158916,1,0,0:0:0:0:
372,94,159144,1,0,0:0:0:0:
306,200,159371,2,0,P|261:218|221:211,1,83.3333333333333
255,134,159598,1,0,0:0:0:0:
281,336,159826,1,0,0:0:0:0:
129,241,160053,6,0,L|140:111,1,125
380,183,160507,1,0,0:0:0:0:
228,212,160735,1,0,0:0:0:0:
436,123,160962,2,0,P|459:171|455:216,1,83.3333333333333
413,270,161189,2,0,P|365:293|320:289,1,83.3333333333333
236,384,161416,2,0,P|163:360|105:393,1,125
4,247,161795,1,0,0:0:0:0:
26,245,161871,6,0,L|168:232,1,125
400,218,162326,1,0,0:0:0:0:
219,123,162553,1,0,0:0:0:0:
287,326,162780,2,0,L|295:239,1,83.3333333333333,0|0,0:3|0:3,0:3:0:0:
330,167,163007,2,0,L|337:80,1,83.3333333333333,0|0,0:3|0:3,0:3:0:0:
244,0,163235,1,0,0:0:0:0:
184,186,163462,2,0,P|140:196|99:183,1,83.3333333333333
143,115,163689,6,0,L|293:128,1,125
498,29,164144,1,0,0:0:0:0:
453,227,164371,1,0,0:0:0:0:
344,27,164598,1,0,0:0:0:0:
512,141,164826,1,0,0:0:0:0:
331,313,165053,2,0,P|286:326|239:308,1,83.3333333333333
175,283,165280,2,0,P|134:273|95:286,1,83.3333333333333
53,384,165507,6,0,L|65:242,1,125,0|0,0:3|0:3,0:0:0:0:
232,45,165962,1,0,0:0:0:0:
280,216,166189,1,0,0:0:0:0:
106,74,166416,1,0,0:0:0:0:
306,126,166644,2,0,P|367:128|396:116,1,83.3333333333333
454,71,166871,1,0,0:0:0:0:
384,310,167098,1,0,0:0:0:0:
247,93,167326,6,0,P|180:73|128:94,1,125
203,331,167780,1,0,0:0:0:0:
189,165,168007,1,0,0:0:0:0:
0,292,168235,2,0,P|52:300|88:290,1,83.3333333333333
155,252,168462,2,0,P|207:244|243:254,1,83.3333333333333
343,347,168689,2,0,P|404:368|465:328,1,125
383,157,169068,1,0,0:0:0:0:
384,168,169144,6,0,L|395:298,1,125
509,70,169598,1,0,0:0:0:0:
270,136,169826,1,0,0:0:0:0:
466,212,170053,2,0,P|489:272|474:315,1,83.3333333333333
436,356,170280,2,0,P|376:379|333:364,1,83.3333333333333
288,331,170507,1,0,0:0:0:0:
66,376,170735,2,0,L|58:281,1,83.3333333333333
98,183,170962,6,0,L|85:36,1,125
49,305,171416,1,0,0:0:0:0:
192,198,171644,1,0,0:0:0:0:
15,31,171871,1,0,0:0:0:0:
204,70,172098,1,0,0:0:0:0:
49,305,172326,2,0,P|41:359|65:401,1,83.3333333333333
134,382,172553,2,0,P|142:328|118:286,1,83.3333333333333
39,210,172780,6,0,P|16:145|43:83,1,125
280,135,173235,1,0,0:0:0:0:
108,149,173462,1,0,0:0:0:0:
300,40,173689,1,0,0:0:0:0:
201,205,173916,2,0,P|192:274|210:301,1,83.3333333333333
273,378,174144,1,0,0:0:0:0:
329,187,174371,1,0,0:0:0:0:
109,235,174598,6,0,L|120:365,1,125
35,124,175053,1,0,0:0:0:0:
192,249,175280,1,0,0:0:0:0:
149,67,175507,2,0,L|140:166,1,83.3333333333333
225,160,175735,2,0,L|233:60,1,83.3333333333333
318,0,175962,1,0,0:0:0:0:
419,185,176189,2,0,L|410:276,1,83.3333333333333
467,345,176416,6,0,P|384:295|328:318,1,125
122,373,176871,1,0,0:0:0:0:
286,352,177098,1,0,0:0:0:0:
76,311,177326,2,0,P|55:265|61:226,1,83.3333333333333
100,161,177553,2,0,P|146:140|185:146,1,83.3333333333333
275,229,177780,1,0,0:0:0:0:
430,87,178007,2,0,L|422:0,1,83.3333333333333
335,56,178235,6,0,B|315:73|315:73|325:184,1,125
156,357,178689,1,0,0:0:0:0:
355,301,178916,1,0,0:0:0:0:
95,278,179144,1,0,0:0:0:0:
289,379,179371,1,0,0:0:0:0:
261,130,179598,2,0,L|252:29,1,83.3333333333333
187,100,179826,2,0,L|195:200,1,83.3333333333333
82,124,180053,6,0,L|94:-18,1,125
13,236,180507,1,0,0:0:0:0:
12,45,180735,1,0,0:0:0:0:
108,218,180962,1,0,0:0:0:0:
258,74,181189,2,0,P|313:60|347:69,1,83.3333333333333
428,144,181416,2,0,L|415:286,1,125
180,352,181871,5,0,0:0:0:0:
180,352,182326,1,0,0:0:0:0:
30,253,182553,1,0,0:0:0:0:
273,205,182780,2,0,P|283:168|268:111,1,83.3333333333333
209,72,183007,2,0,P|172:62|115:77,1,83.3333333333333
43,157,183235,1,0,0:0:0:0:
239,319,183462,2,0,L|328:311,1,83.3333333333333
442,363,183689,6,0,B|453:338|453:338|443:226,1,125
512,0,184144,1,0,0:0:0:0:
491,186,184371,1,0,0:0:0:0:
381,51,184598,2,0,P|317:38|280:53,1,83.3333333333333
236,97,184826,2,0,P|194:101|155:88,1,83.3333333333333
65,0,185053,1,0,0:0:0:0:
333,123,185280,2,0,L|325:210,1,83.3333333333333
314,313,185507,5,0,0:0:0:0:
