osu file format v14

[General]
AudioFilename: Gulong.mp3
AudioLeadIn: 0
PreviewTime: 60123
Countdown: 0
SampleSet: None
StackLeniency: 0.7
Mode: 0
LetterboxInBreaks: 0
WidescreenStoryboard: 1

[Editor]
DistanceSpacing: 1.6
BeatDivisor: 2
GridSize: 4
TimelineZoom: 1.6

[Metadata]
Title:Gu Long Qun Xia Zhuan
TitleUnicode:古龙群侠传
Artist:Hetu
ArtistUnicode:河图
Creator:cmn_891127
Version:Normal
Source:
Tags:tutuhaha Megurine Luka Tsuruno 墨明棋妙 Mo Ming Qi Miao 丢子 Diu zi
BeatmapID:1124695
BeatmapSetID:530582

[Difficulty]
HPDrainRate:3
CircleSize:3.5
OverallDifficulty:4
ApproachRate:5
SliderMultiplier:1.1
SliderTickRate:1

[Events]
//Background and Video events
0,0,"BG.jpg",0,0
//Break Periods
//Storyboard Layer 0 (Background)
//Storyboard Layer 1 (Fail)
//Storyboard Layer 2 (Pass)
//Storyboard Layer 3 (Foreground)
//Storyboard Sound Samples

[TimingPoints]
123,461.538461538462,4,2,1,30,1,0
16738,-100,4,2,1,20,0,0
46276,-100,4,3,1,30,0,0
61046,-100,4,3,1,30,0,1
90584,-100,4,3,1,30,0,0

[Colours]
Combo1 : 255,255,255
Combo2 : 255,255,255
SliderBorder : 50,50,50

[HitObjects]
100,254,16738,6,0,P|159:276|219:257,1,110
282,227,17430,2,0,P|318:217|346:218,2,55
326,303,18123,2,0,B|367:300|402:320|449:300,1,110
492,238,18815,2,0,P|508:200|505:182,1,55
419,170,19276,2,0,P|397:118|415:56,1,110
480,112,19969,5,0,0:0:0:0:
480,112,20199,2,0,B|427:105|378:146|316:120,1,165
236,84,21123,2,0,P|195:69|180:69,1,55
187,244,21815,2,0,P|160:240|136:229,1,55
185,156,22276,2,0,P|134:144|75:165,1,110
136,229,22969,2,0,P|148:274|121:334,1,110
63,272,23661,5,0,0:0:0:0:
63,272,23892,2,0,B|117:268|153:304|226:284,1,165
306,249,24815,1,0,0:0:0:0:
383,206,25046,2,0,P|391:270|355:322,1,110
306,249,25738,1,0,0:0:0:0:
246,182,25969,2,0,P|219:230|225:284,1,110
175,356,26661,2,0,P|147:356|121:348,1,55
54,181,27353,6,0,P|81:175|108:177,2,55
90,264,28046,1,0,0:0:0:0:
90,264,28276,2,0,P|151:258|194:172,1,165
176,86,29199,6,0,P|169:57|176:27,1,55
342,79,29892,2,0,P|346:52|340:25,1,55
258,59,30353,1,0,0:0:0:0:
258,59,30584,2,0,B|255:106|299:155|271:221,1,165
192,179,31507,6,0,P|189:258|253:305,1,165
333,268,32430,2,0,P|335:188|271:141,1,165
187,167,33353,2,0,P|148:183|114:179,1,55
141,271,33815,2,0,P|107:261|82:261,1,55
228,305,34507,5,0,0:0:0:0:
228,305,34738,2,0,P|289:319|344:291,1,110
378,227,35430,2,0,P|416:214|451:221,1,55
420,302,35892,2,0,P|510:250|472:140,1,220
402,131,37046,6,0,B|370:128|346:152|293:139,1,110
230,77,37738,2,0,P|272:124|239:230,1,165
190,157,38661,2,0,P|160:148|128:149,1,55
215,295,39353,2,0,P|245:304|277:303,1,55
254,217,39815,2,0,B|289:217|315:240|364:225,2,110
202,145,40969,2,0,P|164:124|134:124,2,55
84,275,41892,2,0,P|106:291|133:298,2,55
141,209,42584,6,0,P|160:162|97:70,1,165
18,95,43507,2,0,P|-1:142|62:234,1,165
141,209,44430,2,0,B|189:201|241:242|306:218,1,165
387,184,45353,2,0,P|394:209|390:238,2,55
317,130,46046,2,0,P|290:130|263:139,1,55
369,303,46738,6,0,L|314:303,1,55
197,239,47430,2,0,L|252:239,2,55
330,196,48353,2,0,L|385:196,1,55
253,153,49046,2,0,L|198:153,1,55
138,288,49738,6,0,L|110:240,1,55
82,105,50430,2,0,L|109:152,1,55
253,153,51123,2,0,L|198:153,1,55
127,278,51815,2,0,L|154:230,2,55
270,278,52738,2,0,L|215:278,1,55
341,330,53430,6,0,L|396:330,1,55
500,195,54123,1,0,0:0:0:0:
442,256,54353,2,0,P|416:209|426:156,1,110
271,225,55276,1,0,0:0:0:0:
334,164,55507,2,0,P|293:139|231:146,1,110
155,186,56199,2,0,P|108:208|45:196,1,110
92,121,56892,2,0,P|54:117|35:107,2,55
256,192,57584,12,0,59892,0:0:0:0:
124,178,61046,6,0,B|175:190|207:165|232:166,1,110
314,195,61738,2,0,P|369:204|418:180,2,110
354,117,62892,2,0,P|367:76|364:55,1,55
278,72,63353,2,0,P|265:39|235:20,1,55
191,92,63815,2,0,P|137:111|71:85,1,110
161,257,64738,6,0,P|204:251|228:258,1,55
299,233,65199,2,0,P|349:256|402:247,1,110
410,159,65892,2,0,P|360:136|307:145,1,110
227,181,66584,2,0,P|217:155|216:128,2,55
165,243,67276,2,0,P|179:267|181:294,2,55
227,181,67969,6,0,P|268:158|342:172,1,110
288,242,68661,2,0,P|331:263|401:248,1,110
401,165,69353,2,0,P|358:144|288:159,1,110
152,251,70276,1,0,0:0:0:0:
206,181,70507,2,0,P|220:126|198:73,1,110
113,81,71199,2,0,P|99:136|121:189,1,110
184,241,71892,6,0,P|224:230|246:232,2,55
104,279,72584,2,0,P|64:291|41:289,1,55
62,202,73046,2,0,P|66:161|30:97,1,110
90,32,73738,2,0,P|127:40|163:33,1,55
227,12,74199,2,0,P|295:-8|347:7,1,110
407,44,74892,2,0,P|476:65|527:49,1,110
336,79,75815,6,0,P|327:132|346:183,1,110
266,217,76507,2,0,P|240:206|213:203,1,55
219,290,76969,2,0,P|270:304|321:282,1,110
402,250,77661,2,0,P|433:245|473:254,2,55
346,183,78353,2,0,P|302:186|273:173,1,55
142,93,79046,6,0,P|130:117|130:144,1,55
217,141,79507,1,0,0:0:0:0:
304,131,79738,2,0,P|303:160|289:186,1,55
339,256,80199,6,0,P|327:280|326:307,1,55
413,304,80660,1,0,0:0:0:0:
498,292,80892,2,0,P|497:319|486:344,1,55
413,304,81353,6,0,B|408:265|427:236|423:195,1,110
364,128,82046,2,0,P|338:120|308:119,1,55
171,211,82738,6,0,B|131:206|105:223|61:214,1,110
74,301,83430,2,0,B|117:309|143:292|183:297,1,110
258,343,84123,2,0,P|309:357|360:338,1,110
452,188,85046,5,0,0:0:0:0:
377,235,85276,2,0,P|325:249|274:230,1,110
199,183,85969,2,0,B|169:178|142:206|90:189,1,110
120,106,86661,6,0,P|135:77|131:44,2,55
90,189,87353,2,0,P|80:246|113:297,1,110
193,275,88046,2,0,P|202:217|169:166,1,110
121,106,88738,1,0,0:0:0:0:
186,49,88969,2,0,P|234:25|288:35,1,110
302,123,89662,2,0,P|254:148|202:138,1,110
326,260,90584,6,0,L|334:181,1,55
346,63,91276,2,0,L|338:142,1,55
326,260,91969,1,0,0:0:0:0:
252,105,92430,6,0,L|258:51,1,55
243,193,93122,2,0,L|238:248,1,55
252,105,93815,1,0,0:0:0:0:
156,238,94276,6,0,L|164:159,1,55
176,41,94968,2,0,L|168:120,1,55
161,183,95430,2,0,P|212:208|269:198,1,110
339,167,96123,1,0,0:0:0:0:
