osu file format v14

[General]
AudioFilename: audio.mp3
AudioLeadIn: 0
PreviewTime: 28261
Countdown: 0
SampleSet: Soft
StackLeniency: 0.7
Mode: 0
LetterboxInBreaks: 0
WidescreenStoryboard: 1

[Editor]
DistanceSpacing: 1.4
BeatDivisor: 4
GridSize: 32
TimelineZoom: 3.199999

[Metadata]
Title:Tenohira(TV-Size)
TitleUnicode:「テノヒラ」
Artist:Hero
ArtistUnicode:Hero
Creator:ilhamilham
Version:Broken Lacrima
Source:FAIRY TAIL
Tags:フェアリーテイル opening 12 tv size
BeatmapID:1079990
BeatmapSetID:507781

[Difficulty]
HPDrainRate:7
CircleSize:3.8
OverallDifficulty:8.5
ApproachRate:9.3
SliderMultiplier:1.8
SliderTickRate:1

[Events]
//Background and Video events
0,0,"AAAAAA.jpg",0,0
//Break Periods
//Storyboard Layer 0 (Background)
//Storyboard Layer 1 (Fail)
//Storyboard Layer 2 (Pass)
//Storyboard Layer 3 (Foreground)
//Storyboard Sound Samples

[TimingPoints]
1088,289.855072463768,4,2,99,60,1,0
9928,-100,4,2,99,30,0,0
10073,-100,4,2,99,40,0,0
10218,-100,4,2,99,50,0,0
10363,-100,4,2,99,60,0,0
19638,-133.333333333333,4,2,99,40,0,0
27754,-133.333333333333,4,2,99,60,0,0
28334,-200,4,2,99,60,0,0
28841,-200,4,2,99,5,0,0
28914,-80,4,2,99,70,0,1
45145,-100,4,2,99,40,0,0
47030,-100,4,2,99,30,0,0
47174,-100,4,2,99,40,0,0
47319,-100,4,2,99,50,0,0
47464,-100,4,2,99,60,0,0
56740,-133.333333333333,4,2,99,40,0,0
65435,-200,4,2,99,40,0,0
65943,-200,4,2,99,5,0,0
66015,-80,4,2,99,70,0,1
82247,-80,4,2,99,70,0,0
83406,-100,4,2,99,70,0,0
84566,-100,4,2,99,70,0,0
86885,-100,4,2,99,70,0,0
87464,-100,4,2,99,55,0,0
88044,-100,4,2,99,40,0,0
88624,-100,4,2,99,25,0,0
89203,-100,4,2,99,10,0,0
89783,-100,4,2,99,5,0,0

[Colours]
Combo1 : 119,176,187
Combo2 : 106,145,96
Combo3 : 240,88,74
Combo4 : 195,166,132

[HitObjects]
192,288,1088,6,0,P|256:320|288:320,1,90
352,224,1377,2,0,P|288:192|256:192,1,90
224,96,1667,5,0,0:0:0:0:
128,224,1812,1,0,0:0:0:0:
192,96,1957,1,0,0:0:0:0:
352,160,2102,6,0,P|352:224|320:256,1,90
192,288,2392,5,0,0:0:0:0:
64,96,2537,1,0,0:0:0:0:
128,320,2682,1,0,0:0:0:0:
224,96,2827,6,0,P|256:160|256:192,1,90
192,320,3116,2,0,P|192:256|192:224,1,90
224,96,3406,5,0,0:0:0:0:
224,96,3479,1,0,0:0:0:0:
224,96,3551,1,0,0:0:0:0:
128,288,3696,1,0,0:0:0:0:
384,288,3841,1,0,0:0:0:0:
256,128,3986,1,0,0:0:0:0:
128,128,4131,2,0,P|160:160|160:224,1,90
320,320,4421,2,0,P|320:256|320:224,1,90
224,64,4711,5,0,0:0:0:0:
96,352,4856,1,0,0:0:0:0:
384,352,5001,1,0,0:0:0:0:
352,160,5145,6,0,B|288:160|288:160|256:192,1,90
96,128,5435,5,0,0:0:0:0:
384,320,5580,1,0,0:0:0:0:
96,128,5725,1,0,0:0:0:0:
384,320,5870,1,0,0:0:0:0:
192,128,6015,6,0,P|128:128|96:160,1,90
256,288,6305,6,0,P|288:256|352:256,1,90
128,64,6595,5,0,0:0:0:0:
128,288,6740,1,0,0:0:0:0:
352,96,6885,1,0,0:0:0:0:
64,160,7030,1,0,0:0:0:0:
160,192,7174,2,0,P|224:192|256:224,1,90
384,256,7464,6,0,B|384:192|384:192|352:160,1,90
64,96,7754,2,0,B|64:160|64:160|96:192,1,90
192,320,8044,5,0,0:0:0:0:
192,64,8189,1,0,0:0:0:0:
256,320,8334,1,0,0:0:0:0:
128,64,8479,1,0,0:0:0:0:
288,320,8624,1,0,0:0:0:0:
288,96,8769,2,0,B|224:96|224:96|224:128,1,90
96,288,9059,5,0,0:0:0:0:
288,288,9203,1,0,0:0:0:0:
128,192,9348,2,0,P|192:160|224:160,1,90
64,96,9638,2,0,P|128:64|160:64,1,90
224,96,9928,5,0,0:0:0:0:
192,64,10001,1,0,0:0:0:0:
256,128,10073,1,0,0:0:0:0:
288,160,10145,1,0,0:0:0:0:
320,192,10218,1,0,0:0:0:0:
352,224,10290,1,0,0:0:0:0:
384,256,10363,2,0,B|320:288|320:288|288:288,1,90
96,256,10653,2,0,P|128:160|128:160,1,90
160,96,10943,5,0,0:0:0:0:
160,288,11087,1,0,0:0:0:0:
416,256,11232,1,0,0:0:0:0:
352,64,11377,1,0,0:0:0:0:
160,128,11522,2,0,P|128:192|128:224,1,90
320,288,11812,2,0,P|320:224|288:192,1,90
128,128,12102,5,0,0:0:0:0:
96,320,12247,1,0,0:0:0:0:
384,96,12392,1,0,0:0:0:0:
128,288,12537,1,0,0:0:0:0:
192,96,12682,6,0,B|160:128|160:128|160:160|288:192|288:192,1,180
256,288,13116,2,0,P|320:256|352:256,1,90
256,128,13406,2,0,P|192:160|160:192,1,90
64,320,13696,5,0,0:0:0:0:
288,224,13841,1,0,0:0:0:0:
64,320,13986,1,0,0:0:0:0:
224,128,14131,1,0,0:0:0:0:
224,128,14276,2,0,B|256:192|256:224|256:224,1,90
192,288,14566,2,0,P|160:256|160:192,1,90
256,96,14856,5,0,0:0:0:0:
224,288,15001,2,0,L|160:224,1,90
224,128,15290,6,0,B|256:160|256:192|224:192|128:96,1,180
96,128,15725,5,0,0:0:0:0:
96,320,15870,1,0,0:0:0:0:
320,192,16015,1,0,0:0:0:0:
128,192,16160,1,0,0:0:0:0:
288,64,16305,5,0,0:0:0:0:
224,288,16450,1,0,0:0:0:0:
64,128,16595,1,0,0:0:0:0:
256,64,16740,2,0,P|288:128|288:160,1,90
128,288,17030,2,0,B|128:224|128:224|128:192|128:192,1,90
384,288,17319,2,0,B|352:192|352:192|320:192,1,90
256,128,17609,2,0,L|192:192,1,90
128,320,17899,5,0,0:0:0:0:
416,320,18044,1,0,0:0:0:0:
160,160,18189,1,0,0:0:0:0:
416,32,18334,1,0,0:0:0:0:
256,256,18479,1,0,0:0:0:0:
192,96,18624,5,0,0:0:0:0:
192,96,18696,1,0,0:0:0:0:
192,96,18769,1,0,0:0:0:0:
384,64,18914,5,0,0:0:0:0:
128,256,19059,1,0,0:0:0:0:
384,96,19203,1,0,0:0:0:0:
160,288,19348,1,0,0:0:0:0:
384,128,19493,1,0,0:0:0:0:
192,320,19638,1,0,0:0:0:0:
128,192,19783,6,0,P|160:160|192:160,1,67.5000025749208
352,288,20073,2,0,B|320:256|320:256|288:256,1,67.5000025749208
192,192,20363,2,0,P|224:224|256:224,1,67.5000025749208
96,256,20653,2,0,B|96:192|96:192|128:192,1,67.5000025749208
224,96,20943,1,0,0:0:0:0:
224,96,21087,2,0,P|256:128|256:192,1,101.250003862381
96,256,21450,6,0,B|128:288|128:320|128:320|160:320,1,101.250003862381
320,320,21812,2,0,B|288:288|288:288|288:256,1,67.5000025749208
224,128,22102,6,0,B|192:192|192:160|320:160|320:160|288:128,1,202.500007724762
64,96,22682,1,0,0:0:0:0:
64,288,22827,1,0,0:0:0:0:
128,128,22972,6,0,B|128:192|128:192|128:224|160:224|160:224|160:192|160:192|96:192,1,202.500007724762
288,256,23551,6,0,B|256:288|256:288|224:288,1,67.5000025749208
128,128,23841,6,0,B|96:192|128:192|128:192|192:128|192:128|224:160|192:160,1,202.500007724762
352,352,24421,5,0,0:0:0:0:
320,192,24566,1,0,0:0:0:0:
160,64,24711,6,0,B|160:128|160:128|192:128,1,67.5000025749208
160,288,25001,1,0,0:0:0:0:
288,128,25145,1,0,0:0:0:0:
352,288,25290,1,0,0:0:0:0:
128,192,25435,6,0,L|192:224,1,67.5000025749208
352,224,25725,2,0,L|288:160,1,67.5000025749208
128,96,26015,5,0,0:0:0:0:
64,288,26160,1,0,0:0:0:0:
160,96,26305,1,0,0:0:0:0:
32,256,26450,1,0,0:0:0:0:
256,96,26595,6,0,B|256:160|256:160|256:192|288:192|288:192|320:192,1,135.000005149842
288,288,27030,2,0,B|256:256|256:256|224:256,1,67.5000025749208
128,128,27319,5,0,0:0:0:0:
128,128,27392,1,0,0:0:0:0:
128,128,27464,1,0,0:0:0:0:
256,96,27609,5,0,0:0:0:0:
256,96,27682,1,0,0:0:0:0:
256,96,27754,1,0,0:0:0:0:
256,128,27827,1,0,0:0:0:0:
256,160,27899,1,0,0:0:0:0:
256,192,27972,1,0,0:0:0:0:
288,224,28044,1,0,0:0:0:0:
320,256,28116,1,0,0:0:0:0:
352,288,28189,1,0,0:0:0:0:
384,288,28261,2,0,B|384:224|384:224|384:192|352:160|320:160|320:160|352:128|384:128|384:128|352:96|352:96,1,270.000010299683
128,224,28986,2,0,B|192:192|192:192|160:160|160:160|96:192,1,168.75
288,320,29348,6,0,P|320:224|320:192,1,112.5
160,160,29638,2,0,P|128:224|128:288,1,112.5
256,320,29928,5,0,0:0:0:0:
384,192,30073,1,0,0:0:0:0:
192,128,30218,1,0,0:0:0:0:
128,256,30363,1,0,0:0:0:0:
352,96,30508,1,0,0:0:0:0:
64,128,30653,1,0,0:0:0:0:
160,96,30798,2,0,B|224:128|224:160|224:192,1,112.5
256,320,31087,2,0,P|192:256|160:256,1,112.5
288,32,31377,5,0,0:0:0:0:
96,352,31522,1,0,0:0:0:0:
224,32,31667,1,0,0:0:0:0:
160,352,31812,1,0,0:0:0:0:
160,32,31957,1,0,0:0:0:0:
224,352,32102,1,0,0:0:0:0:
96,32,32247,1,0,0:0:0:0:
288,352,32392,1,0,0:0:0:0:
64,64,32537,1,0,0:0:0:0:
320,288,32682,1,0,0:0:0:0:
352,160,32827,6,0,P|288:128|224:96,1,112.5
96,224,33116,5,0,0:0:0:0:
256,288,33261,1,0,0:0:0:0:
352,128,33406,2,0,P|288:96|224:96,1,112.5
128,128,33696,2,0,P|128:224|128:256,1,112.5
320,320,33986,2,0,L|288:192,1,112.5
256,64,34276,5,0,0:0:0:0:
32,224,34421,1,0,0:0:0:0:
352,256,34566,1,0,0:0:0:0:
160,192,34711,2,0,B|192:128|192:128|224:160,1,112.5
384,288,35001,2,0,B|352:224|352:224|288:256,1,112.5
128,288,35290,2,0,P|160:192|192:192,1,112.5
320,160,35580,2,0,L|384:288,1,112.5
192,352,35870,5,0,0:0:0:0:
64,128,36015,1,0,0:0:0:0:
320,128,36160,1,0,0:0:0:0:
96,288,36305,1,0,0:0:0:0:
96,288,36377,1,0,0:0:0:0:
96,288,36450,1,0,0:0:0:0:
416,64,36595,5,0,0:0:0:0:
64,128,36740,1,0,0:0:0:0:
480,256,36885,1,0,0:0:0:0:
32,320,37030,1,0,0:0:0:0:
480,128,37174,1,0,0:0:0:0:
64,96,37319,1,0,0:0:0:0:
448,352,37464,1,0,0:0:0:0:
64,320,37609,1,0,0:0:0:0:
160,96,37754,6,0,P|224:96|256:128,1,112.5
384,288,38044,2,0,P|320:256|256:256,1,112.5
192,64,38334,5,0,0:0:0:0:
128,320,38479,1,0,0:0:0:0:
224,64,38624,1,0,0:0:0:0:
160,320,38769,1,0,0:0:0:0:
256,64,38914,1,0,0:0:0:0:
192,352,39059,1,0,0:0:0:0:
384,192,39203,2,0,P|288:160|256:160,1,112.5
128,128,39493,2,0,P|128:192|160:256,1,112.5
288,288,39783,2,0,P|288:224|256:192,1,112.5
160,64,40073,2,0,L|256:160,1,112.5
128,96,40363,2,0,L|192:192,1,112.5
96,96,40653,2,0,L|128:224,1,112.5
384,288,40943,6,0,L|384:128,1,112.5
128,288,41232,2,0,L|128:160,1,112.5
352,288,41522,2,0,L|352:160,1,112.5
160,288,41812,2,0,L|160:160,1,112.5
256,64,42102,2,0,P|320:96|320:160,1,112.5
32,256,42392,1,0,0:0:0:0:
32,256,42464,1,0,0:0:0:0:
32,256,42537,1,0,0:0:0:0:
352,224,42682,5,0,0:0:0:0:
128,96,42827,1,0,0:0:0:0:
256,128,42972,2,0,P|224:192|224:256,1,112.5
96,288,43261,2,0,P|96:224|128:192,1,112.5
224,64,43551,5,0,0:0:0:0:
32,288,43696,1,0,0:0:0:0:
416,320,43841,1,0,0:0:0:0:
320,128,43986,6,0,B|256:128|192:160|192:160|224:160,1,112.5
128,288,44276,5,0,0:0:0:0:
128,288,44348,1,0,0:0:0:0:
128,288,44421,1,0,0:0:0:0:
352,32,44566,5,0,0:0:0:0:
128,256,44711,1,0,0:0:0:0:
320,64,44856,1,0,0:0:0:0:
96,288,45001,1,0,0:0:0:0:
320,128,45145,2,0,P|352:160|320:256,1,135
160,288,45508,2,0,P|160:192|192:192,1,135
224,64,45870,5,0,0:0:0:0:
288,224,46015,1,0,0:0:0:0:
384,352,46160,1,0,0:0:0:0:
352,160,46305,2,0,P|320:128|256:128,1,90
160,128,46595,2,0,P|160:192|192:224,1,90
224,256,46885,1,0,0:0:0:0:
256,256,46957,1,0,0:0:0:0:
288,256,47030,1,0,0:0:0:0:
320,224,47102,1,0,0:0:0:0:
320,192,47174,1,0,0:0:0:0:
320,160,47247,1,0,0:0:0:0:
320,128,47319,2,0,P|256:96|224:96,1,90
128,128,47609,2,0,P|160:192|192:224,1,90
192,288,47899,5,0,0:0:0:0:
320,192,48044,1,0,0:0:0:0:
320,192,48189,2,0,P|256:128|224:128,1,90
128,160,48479,2,0,P|96:192|128:224,1,90
192,288,48769,5,0,0:0:0:0:
384,224,48914,1,0,0:0:0:0:
192,128,49059,1,0,0:0:0:0:
64,96,49203,2,0,P|96:160|96:192,1,90
192,288,49493,2,0,B|224:256|224:256|288:256,1,90
320,96,49783,2,0,B|256:96|256:96|320:160|320:160|288:160,1,180
128,288,50218,5,0,0:0:0:0:
96,128,50363,1,0,0:0:0:0:
128,288,50508,1,0,0:0:0:0:
288,96,50653,2,0,B|288:160|288:160|288:192,1,90
64,256,50943,2,0,P|96:224|160:224,1,90
352,320,51232,2,0,B|352:256|352:256|320:224,1,90
192,128,51522,5,0,0:0:0:0:
96,288,51667,1,0,0:0:0:0:
320,224,51812,1,0,0:0:0:0:
192,96,51957,1,0,0:0:0:0:
96,288,52102,1,0,0:0:0:0:
224,320,52247,2,0,P|288:256|288:224,1,90
224,64,52537,2,0,L|160:160,1,90
128,288,52827,5,0,0:0:0:0:
256,192,52972,1,0,0:0:0:0:
256,288,53116,2,0,L|352:256,1,90
96,160,53406,5,0,0:0:0:0:
224,128,53551,1,0,0:0:0:0:
352,224,53696,1,0,0:0:0:0:
128,320,53841,1,0,0:0:0:0:
160,96,53986,2,0,P|192:128|224:192,1,90
288,352,54276,2,0,P|224:288|192:288,1,90
192,96,54566,1,0,0:0:0:0:
96,224,54711,1,0,0:0:0:0:
256,288,54856,6,0,P|256:224|224:192,1,90
160,64,55145,5,0,0:0:0:0:
64,160,55290,1,0,0:0:0:0:
384,64,55435,5,0,0:0:0:0:
32,320,55580,1,0,0:0:0:0:
96,0,55725,1,0,0:0:0:0:
288,288,55870,5,0,0:0:0:0:
96,256,55943,1,0,0:0:0:0:
64,288,56015,1,0,0:0:0:0:
32,256,56160,1,0,0:0:0:0:
96,32,56305,5,0,0:0:0:0:
192,288,56450,1,0,0:0:0:0:
352,64,56595,1,0,0:0:0:0:
256,160,56740,2,0,B|224:224|192:224|192:224,1,101.250003862381
384,128,57102,2,0,P|352:96|352:32,1,101.250003862381
96,128,57464,1,0,0:0:0:0:
96,128,57609,2,0,L|96:224,1,67.5000025749208
224,256,57899,6,0,P|256:224|288:224,1,67.5000025749208
320,224,58189,2,0,B|320:128|320:128|256:128,1,135.000005149842
160,128,58624,5,0,0:0:0:0:
160,288,58769,1,0,0:0:0:0:
352,224,58914,2,0,B|320:192|320:160|288:160,1,67.5000025749208
160,128,59203,2,0,L|128:192,1,67.5000025749208
160,320,59493,5,0,0:0:0:0:
160,320,59566,1,0,0:0:0:0:
160,320,59638,1,0,0:0:0:0:
352,224,59783,5,0,0:0:0:0:
160,128,59928,1,0,0:0:0:0:
288,96,60073,2,0,P|320:128|320:160,1,67.5000025749208
192,256,60363,2,0,P|192:192|192:160,1,67.5000025749208
128,64,60653,5,0,0:0:0:0:
288,160,60798,1,0,0:0:0:0:
128,256,60943,1,0,0:0:0:0:
128,64,61087,2,0,L|192:128,1,67.5000025749208
192,224,61377,2,0,L|192:128,1,67.5000025749208
384,192,61667,6,0,B|352:160|352:160|320:128,1,67.5000025749208
160,128,61957,2,0,B|160:192|160:192|160:224,1,67.5000025749208
320,224,62247,2,0,B|320:288|352:320|416:224,1,135.000005149842
224,96,62682,5,0,0:0:0:0:
64,288,62827,1,0,0:0:0:0:
320,288,62972,1,0,0:0:0:0:
320,64,63116,2,0,P|256:128|224:160,1,135.000005149842
96,160,63551,2,0,L|128:224,1,67.5000025749208
96,352,63841,5,0,0:0:0:0:
416,96,63986,1,0,0:0:0:0:
128,64,64131,1,0,0:0:0:0:
288,320,64276,1,0,0:0:0:0:
32,128,64421,1,0,0:0:0:0:
320,192,64566,1,0,0:0:0:0:
64,256,64711,1,0,0:0:0:0:
224,96,64856,5,0,0:0:0:0:
224,128,64928,1,0,0:0:0:0:
224,160,65001,1,0,0:0:0:0:
224,192,65073,1,0,0:0:0:0:
224,224,65146,1,0,0:0:0:0:
224,256,65218,1,0,0:0:0:0:
224,288,65290,1,0,0:0:0:0:
224,320,65363,1,0,0:0:0:0:
192,352,65435,2,0,B|160:320|160:320|224:320|256:320|192:288|160:256|160:256,1,180
32,128,66160,6,0,B|64:192|64:192|0:160,1,112.5
416,160,66450,2,0,B|416:224|384:224|384:224|416:256,1,112.5
192,64,66740,2,0,P|224:128|256:128,1,112.5
256,320,67030,6,0,P|192:256|160:224,1,112.5
64,64,67319,1,0,0:0:0:0:
192,160,67464,1,0,0:0:0:0:
320,192,67609,2,0,P|320:256|352:288,1,112.5
128,320,67899,5,0,0:0:0:0:
320,96,68044,1,0,0:0:0:0:
128,96,68189,1,0,0:0:0:0:
320,320,68334,1,0,0:0:0:0:
96,320,68479,5,0,0:0:0:0:
352,64,68624,1,0,0:0:0:0:
64,64,68769,1,0,0:0:0:0:
288,320,68914,1,0,0:0:0:0:
64,352,69059,5,0,0:0:0:0:
384,32,69203,1,0,0:0:0:0:
64,32,69348,1,0,0:0:0:0:
416,352,69493,1,0,0:0:0:0:
288,224,69638,2,0,P|224:160|192:160,1,112.5
96,128,69928,1,0,0:0:0:0:
128,288,70073,1,0,0:0:0:0:
160,160,70218,2,0,P|224:224|224:256,1,112.5
416,288,70508,5,0,0:0:0:0:
352,128,70653,1,0,0:0:0:0:
128,192,70798,1,0,0:0:0:0:
224,96,70943,2,0,P|256:160|256:224,1,112.5
192,288,71232,2,0,P|160:224|128:160,1,112.5
160,128,71522,5,0,0:0:0:0:
352,128,71667,1,0,0:0:0:0:
160,128,71812,2,0,P|96:160|96:192,1,112.5
288,320,72102,2,0,B|256:256|256:256|224:224,2,112.5
64,224,72537,2,0,P|128:192|160:160,1,112.5
384,320,72827,5,0,0:0:0:0:
192,64,72972,1,0,0:0:0:0:
0,288,73116,1,0,0:0:0:0:
416,192,73261,1,0,0:0:0:0:
32,64,73406,1,0,0:0:0:0:
256,320,73551,1,0,0:0:0:0:
384,32,73696,1,0,0:0:0:0:
96,320,73841,1,0,0:0:0:0:
96,32,73986,1,0,0:0:0:0:
288,288,74131,1,0,0:0:0:0:
256,32,74276,5,0,0:0:0:0:
160,352,74421,1,0,0:0:0:0:
64,32,74566,1,0,0:0:0:0:
352,96,74711,2,0,B|352:160|320:192|256:160|256:96|384:288,1,225
192,288,75145,2,0,B|160:192|160:192|192:160,1,112.5
288,128,75435,2,0,L|320:256,1,112.5
256,160,75725,6,0,L|192:256,1,112.5
224,128,76015,6,0,P|128:160|96:160,1,112.5
224,96,76305,6,0,P|160:96|128:64,1,112.5
64,160,76595,5,0,0:0:0:0:
320,320,76740,1,0,0:0:0:0:
320,32,76885,1,0,0:0:0:0:
448,192,77030,1,0,0:0:0:0:
224,320,77174,6,0,P|224:256|256:192,1,112.5
256,320,77464,2,0,P|288:256|320:224,1,112.5
288,352,77754,2,0,B|320:288|320:288|384:256,1,112.5
320,96,78044,6,0,P|256:32|224:32,1,112.5
288,128,78334,6,0,P|224:96|192:128,1,112.5
288,160,78624,2,0,P|224:128|160:160,1,112.5
288,192,78914,2,0,P|224:192|128:224,1,112.5
64,288,79203,5,0,0:0:0:0:
64,96,79348,1,0,0:0:0:0:
192,224,79493,1,0,0:0:0:0:
352,96,79638,2,0,P|352:160|320:192,1,112.5
160,256,79928,2,0,P|160:192|224:160,1,112.5
320,96,80218,2,0,P|352:160|320:224,1,112.5
256,288,80508,2,0,P|224:224|192:160,1,112.5
224,64,80798,5,0,0:0:0:0:
64,256,80943,1,0,0:0:0:0:
384,160,81087,1,0,0:0:0:0:
192,320,81232,1,0,0:0:0:0:
256,64,81377,2,0,P|288:128|288:192,1,112.5
64,288,81667,5,0,0:0:0:0:
320,64,81812,1,0,0:0:0:0:
96,320,81957,1,0,0:0:0:0:
288,32,82102,1,0,0:0:0:0:
256,352,82247,6,0,P|256:288|224:224,1,112.5
192,160,82537,6,0,P|160:224|160:288,1,112.5
320,288,82827,2,0,B|352:224|384:224|352:192|352:192|288:224|288:224|256:256,1,225
128,192,83261,1,0,0:0:0:0:
384,96,83406,5,0,0:0:0:0:
416,128,83479,1,0,0:0:0:0:
448,160,83551,1,0,0:0:0:0:
224,96,83696,5,0,0:0:0:0:
192,128,83769,1,0,0:0:0:0:
160,160,83841,1,0,0:0:0:0:
288,160,83986,5,0,0:0:0:0:
320,192,84059,1,0,0:0:0:0:
352,224,84131,1,0,0:0:0:0:
128,128,84276,5,0,0:0:0:0:
96,160,84349,1,0,0:0:0:0:
64,192,84421,1,0,0:0:0:0:
352,192,84566,5,0,0:0:0:0:
384,224,84638,1,0,0:0:0:0:
416,256,84711,1,0,0:0:0:0:
128,192,84856,1,0,0:0:0:0:
163,219,84928,1,0,0:0:0:0:
206,222,85000,1,0,0:0:0:0:
244,198,85073,1,0,0:0:0:0:
285,182,85145,1,0,0:0:0:0:
326,201,85218,1,0,0:0:0:0:
350,183,85290,1,0,0:0:0:0:
352,128,85363,1,0,0:0:0:0:
320,96,85435,1,0,0:0:0:0:
288,96,85508,1,0,0:0:0:0:
256,96,85580,1,0,0:0:0:0:
211,101,85653,1,0,0:0:0:0:
167,112,85725,1,0,0:0:0:0:
123,121,85798,1,0,0:0:0:0:
64,128,85870,2,0,P|64:64|32:32,1,90
256,128,86160,2,0,L|256:256,1,90
384,256,86450,2,0,B|384:192|384:192|352:192|320:224|352:256|416:256|448:160|384:128,1,270
256,192,87030,12,0,89783,0:0:0:0:
